  0
SECTION
  2
HEADER
  9
$ACADVER
  1
AC1015
  9
$ACADMAINTVER
 70
    20
  9
$DWGCODEPAGE
  3
ANSI_1252
  9
$INSBASE
 10
0.0
 20
0.0
 30
0.0
  9
$EXTMIN
 10
0.0000000778132403
 20
0.0000001255472313
 30
0.0
  9
$EXTMAX
 10
90.71368692157799
 20
58.85027889924176
 30
0.0
  9
$LIMMIN
 10
0.0
 20
0.0
  9
$LIMMAX
 10
12.0
 20
9.0
  9
$ORTHOMODE
 70
     1
  9
$REGENMODE
 70
     1
  9
$FILLMODE
 70
     1
  9
$QTEXTMODE
 70
     0
  9
$MIRRTEXT
 70
     1
  9
$LTSCALE
 40
1.0
  9
$ATTMODE
 70
     1
  9
$TEXTSIZE
 40
0.2
  9
$TRACEWID
 40
0.05
  9
$TEXTSTYLE
  7
Standard
  9
$CLAYER
  8
0
  9
$CELTYPE
  6
ByLayer
  9
$CECOLOR
 62
   256
  9
$CELTSCALE
 40
1.0
  9
$DISPSILH
 70
     0
  9
$DIMSCALE
 40
1.0
  9
$DIMASZ
 40
0.18
  9
$DIMEXO
 40
0.0625
  9
$DIMDLI
 40
0.38
  9
$DIMRND
 40
0.0
  9
$DIMDLE
 40
0.0
  9
$DIMEXE
 40
0.18
  9
$DIMTP
 40
0.0
  9
$DIMTM
 40
0.0
  9
$DIMTXT
 40
0.18
  9
$DIMCEN
 40
0.09
  9
$DIMTSZ
 40
0.0
  9
$DIMTOL
 70
     0
  9
$DIMLIM
 70
     0
  9
$DIMTIH
 70
     1
  9
$DIMTOH
 70
     1
  9
$DIMSE1
 70
     0
  9
$DIMSE2
 70
     0
  9
$DIMTAD
 70
     0
  9
$DIMZIN
 70
     0
  9
$DIMBLK
  1

  9
$DIMASO
 70
     1
  9
$DIMSHO
 70
     1
  9
$DIMPOST
  1

  9
$DIMAPOST
  1

  9
$DIMALT
 70
     0
  9
$DIMALTD
 70
     2
  9
$DIMALTF
 40
25.4
  9
$DIMLFAC
 40
1.0
  9
$DIMTOFL
 70
     0
  9
$DIMTVP
 40
0.0
  9
$DIMTIX
 70
     0
  9
$DIMSOXD
 70
     0
  9
$DIMSAH
 70
     0
  9
$DIMBLK1
  1

  9
$DIMBLK2
  1

  9
$DIMSTYLE
  2
Standard
  9
$DIMCLRD
 70
     0
  9
$DIMCLRE
 70
     0
  9
$DIMCLRT
 70
     0
  9
$DIMTFAC
 40
1.0
  9
$DIMGAP
 40
0.09
  9
$DIMJUST
 70
     0
  9
$DIMSD1
 70
     0
  9
$DIMSD2
 70
     0
  9
$DIMTOLJ
 70
     1
  9
$DIMTZIN
 70
     0
  9
$DIMALTZ
 70
     0
  9
$DIMALTTZ
 70
     0
  9
$DIMUPT
 70
     0
  9
$DIMDEC
 70
     4
  9
$DIMTDEC
 70
     4
  9
$DIMALTU
 70
     2
  9
$DIMALTTD
 70
     2
  9
$DIMTXSTY
  7
Standard
  9
$DIMAUNIT
 70
     0
  9
$DIMADEC
 70
     0
  9
$DIMALTRND
 40
0.0
  9
$DIMAZIN
 70
     0
  9
$DIMDSEP
 70
    46
  9
$DIMATFIT
 70
     3
  9
$DIMFRAC
 70
     0
  9
$DIMLDRBLK
  1

  9
$DIMLUNIT
 70
     2
  9
$DIMLWD
 70
    -2
  9
$DIMLWE
 70
    -2
  9
$DIMTMOVE
 70
     0
  9
$LUNITS
 70
     2
  9
$LUPREC
 70
     5
  9
$SKETCHINC
 40
0.1
  9
$FILLETRAD
 40
0.5
  9
$AUNITS
 70
     0
  9
$AUPREC
 70
     0
  9
$MENU
  1
.
  9
$ELEVATION
 40
0.0
  9
$PELEVATION
 40
0.0
  9
$THICKNESS
 40
0.0
  9
$LIMCHECK
 70
     0
  9
$CHAMFERA
 40
0.5
  9
$CHAMFERB
 40
0.5
  9
$CHAMFERC
 40
1.0
  9
$CHAMFERD
 40
0.0
  9
$SKPOLY
 70
     0
  9
$TDCREATE
 40
2453123.446422338
  9
$TDUCREATE
 40
2453123.654755672
  9
$TDUPDATE
 40
2457799.489735914
  9
$TDUUPDATE
 40
2457799.698069248
  9
$TDINDWG
 40
0.1978328125
  9
$TDUSRTIMER
 40
0.1978328125
  9
$USRTIMER
 70
     1
  9
$ANGBASE
 50
0.0
  9
$ANGDIR
 70
     0
  9
$PDMODE
 70
     0
  9
$PDSIZE
 40
0.0
  9
$PLINEWID
 40
0.0
  9
$SPLFRAME
 70
     0
  9
$SPLINETYPE
 70
     6
  9
$SPLINESEGS
 70
     8
  9
$HANDSEED
  5
D17
  9
$SURFTAB1
 70
     6
  9
$SURFTAB2
 70
     6
  9
$SURFTYPE
 70
     6
  9
$SURFU
 70
     6
  9
$SURFV
 70
     6
  9
$UCSBASE
  2

  9
$UCSNAME
  2

  9
$UCSORG
 10
0.0
 20
0.0
 30
0.0
  9
$UCSXDIR
 10
1.0
 20
0.0
 30
0.0
  9
$UCSYDIR
 10
0.0
 20
1.0
 30
0.0
  9
$UCSORTHOREF
  2

  9
$UCSORTHOVIEW
 70
     0
  9
$UCSORGTOP
 10
0.0
 20
0.0
 30
0.0
  9
$UCSORGBOTTOM
 10
0.0
 20
0.0
 30
0.0
  9
$UCSORGLEFT
 10
0.0
 20
0.0
 30
0.0
  9
$UCSORGRIGHT
 10
0.0
 20
0.0
 30
0.0
  9
$UCSORGFRONT
 10
0.0
 20
0.0
 30
0.0
  9
$UCSORGBACK
 10
0.0
 20
0.0
 30
0.0
  9
$PUCSBASE
  2

  9
$PUCSNAME
  2

  9
$PUCSORG
 10
0.0
 20
0.0
 30
0.0
  9
$PUCSXDIR
 10
1.0
 20
0.0
 30
0.0
  9
$PUCSYDIR
 10
0.0
 20
1.0
 30
0.0
  9
$PUCSORTHOREF
  2

  9
$PUCSORTHOVIEW
 70
     0
  9
$PUCSORGTOP
 10
0.0
 20
0.0
 30
0.0
  9
$PUCSORGBOTTOM
 10
0.0
 20
0.0
 30
0.0
  9
$PUCSORGLEFT
 10
0.0
 20
0.0
 30
0.0
  9
$PUCSORGRIGHT
 10
0.0
 20
0.0
 30
0.0
  9
$PUCSORGFRONT
 10
0.0
 20
0.0
 30
0.0
  9
$PUCSORGBACK
 10
0.0
 20
0.0
 30
0.0
  9
$USERI1
 70
     0
  9
$USERI2
 70
     0
  9
$USERI3
 70
     0
  9
$USERI4
 70
     0
  9
$USERI5
 70
     0
  9
$USERR1
 40
0.0
  9
$USERR2
 40
0.0
  9
$USERR3
 40
0.0
  9
$USERR4
 40
0.0
  9
$USERR5
 40
0.0
  9
$WORLDVIEW
 70
     1
  9
$SHADEDGE
 70
     3
  9
$SHADEDIF
 70
    70
  9
$TILEMODE
 70
     1
  9
$MAXACTVP
 70
    48
  9
$PINSBASE
 10
0.0
 20
0.0
 30
0.0
  9
$PLIMCHECK
 70
     0
  9
$PEXTMIN
 10
1.000000000000000E+20
 20
1.000000000000000E+20
 30
1.000000000000000E+20
  9
$PEXTMAX
 10
-1.000000000000000E+20
 20
-1.000000000000000E+20
 30
-1.000000000000000E+20
  9
$PLIMMIN
 10
0.0
 20
0.0
  9
$PLIMMAX
 10
12.0
 20
9.0
  9
$UNITMODE
 70
     0
  9
$VISRETAIN
 70
     1
  9
$PLINEGEN
 70
     0
  9
$PSLTSCALE
 70
     1
  9
$TREEDEPTH
 70
  3020
  9
$CMLSTYLE
  2
Standard
  9
$CMLJUST
 70
     0
  9
$CMLSCALE
 40
1.0
  9
$PROXYGRAPHICS
 70
     1
  9
$MEASUREMENT
 70
     0
  9
$CELWEIGHT
370
    -1
  9
$ENDCAPS
280
     0
  9
$JOINSTYLE
280
     0
  9
$LWDISPLAY
290
     0
  9
$INSUNITS
 70
     1
  9
$HYPERLINKBASE
  1

  9
$STYLESHEET
  1
monochrome2.ctb
  9
$XEDIT
290
     1
  9
$CEPSNTYPE
380
     0
  9
$PSTYLEMODE
290
     1
  9
$FINGERPRINTGUID
  2
{FB5AC9D4-8304-45DB-B205-CCAD9C01B02E}
  9
$VERSIONGUID
  2
{358494FD-662D-4300-992C-ECC9BF724B8B}
  9
$EXTNAMES
290
     1
  9
$PSVPSCALE
 40
0.0
  9
$OLESTARTUP
290
     0
  0
ENDSEC
  0
SECTION
  2
CLASSES
  0
CLASS
  1
ACDBDICTIONARYWDFLT
  2
AcDbDictionaryWithDefault
  3
ObjectDBX Classes
 90
        0
280
     0
281
     0
  0
CLASS
  1
ACDBPLACEHOLDER
  2
AcDbPlaceHolder
  3
ObjectDBX Classes
 90
        0
280
     0
281
     0
  0
CLASS
  1
LAYOUT
  2
AcDbLayout
  3
ObjectDBX Classes
 90
        0
280
     0
281
     0
  0
CLASS
  1
MATERIAL
  2
AcDbMaterial
  3
ObjectDBX Classes
 90
     1153
280
     0
281
     0
  0
CLASS
  1
VISUALSTYLE
  2
AcDbVisualStyle
  3
ObjectDBX Classes
 90
     4095
280
     0
281
     0
  0
CLASS
  1
TABLESTYLE
  2
AcDbTableStyle
  3
ObjectDBX Classes
 90
     4095
280
     0
281
     0
  0
CLASS
  1
SCALE
  2
AcDbScale
  3
ObjectDBX Classes
 90
     1153
280
     0
281
     0
  0
CLASS
  1
MLEADERSTYLE
  2
AcDbMLeaderStyle
  3
ACDB_MLEADERSTYLE_CLASS
 90
     4095
280
     0
281
     0
  0
CLASS
  1
SORTENTSTABLE
  2
AcDbSortentsTable
  3
ObjectDBX Classes
 90
        0
280
     0
281
     0
  0
CLASS
  1
CELLSTYLEMAP
  2
AcDbCellStyleMap
  3
ObjectDBX Classes
 90
     1152
280
     0
281
     0
  0
CLASS
  1
DICTIONARYVAR
  2
AcDbDictionaryVar
  3
ObjectDBX Classes
 90
        0
280
     0
281
     0
  0
CLASS
  1
EXACXREFPANELOBJECT
  2
ExAcXREFPanelObject
  3
EXAC_ESW
 90
     1025
280
     0
281
     0
  0
CLASS
  1
NPOCOLLECTION
  2
AcDbImpNonPersistentObjectsCollection
  3
ObjectDBX Classes
 90
     1153
280
     0
281
     0
  0
CLASS
  1
ACAD_EVALUATION_GRAPH
  2
AcDbEvalGraph
  3
ObjectDBX Classes
 90
    33921
280
     0
281
     0
  0
CLASS
  1
ACAECUSTOBJ
  2
AcAeEditorObj
  3
AcAeEditorObj
 90
    33792
280
     0
281
     0
  0
CLASS
  1
ACDB_DYNAMICBLOCKPURGEPREVENTER_VERSION
  2
AcDbDynamicBlockPurgePreventer
  3
ObjectDBX Classes
 90
    33921
280
     0
281
     0
  0
ENDSEC
  0
SECTION
  2
TABLES
  0
TABLE
  2
VPORT
  5
8
102
{ACAD_XDICTIONARY
360
784
102
}
330
0
100
AcDbSymbolTable
 70
     1
  0
VPORT
  5
6BB
330
8
100
AcDbSymbolTableRecord
100
AcDbViewportTableRecord
  2
*Active
 70
     0
 10
0.0
 20
0.0
 11
1.0
 21
1.0
 12
45.35684409445543
 22
42.26177278271268
 13
0.0
 23
0.0
 14
0.5
 24
0.5
 15
0.5
 25
0.5
 16
0.0
 26
0.0
 36
1.0
 17
0.0
 27
0.0
 37
0.0
 40
84.92751845790584
 41
1.481327800829875
 42
50.0
 43
0.0
 44
0.0
 50
0.0
 51
0.0
 71
     0
 72
   100
 73
     1
 74
     3
 75
     0
 76
     0
 77
     0
 78
     0
281
     0
 65
     1
110
0.0
120
0.0
130
0.0
111
1.0
121
0.0
131
0.0
112
0.0
122
1.0
132
0.0
 79
     0
146
0.0
1001
ACAD_NAV_VCDISPLAY
1070
     3
  0
ENDTAB
  0
TABLE
  2
LTYPE
  5
5
330
0
100
AcDbSymbolTable
 70
     7
  0
LTYPE
  5
14
330
5
100
AcDbSymbolTableRecord
100
AcDbLinetypeTableRecord
  2
ByBlock
 70
     0
  3

 72
    65
 73
     0
 40
0.0
  0
LTYPE
  5
15
330
5
100
AcDbSymbolTableRecord
100
AcDbLinetypeTableRecord
  2
ByLayer
 70
     0
  3

 72
    65
 73
     0
 40
0.0
  0
LTYPE
  5
16
330
5
100
AcDbSymbolTableRecord
100
AcDbLinetypeTableRecord
  2
Continuous
 70
     0
  3
Solid line
 72
    65
 73
     0
 40
0.0
  0
LTYPE
  5
2C
330
5
100
AcDbSymbolTableRecord
100
AcDbLinetypeTableRecord
  2
HIDDEN
 70
     0
  3
__ __ __ __ __ __ __ __ __ __ __ __ __ __ __ __
 72
    65
 73
     2
 40
0.375
 49
0.25
 74
     0
 49
-0.125
 74
     0
  0
LTYPE
  5
49D
330
5
100
AcDbSymbolTableRecord
100
AcDbLinetypeTableRecord
  2
CENTER2
 70
     0
  3
Center (.5x) ___ _ ___ _ ___ _ ___ _ ___ _ ___
 72
    65
 73
     4
 40
1.125
 49
0.75
 74
     0
 49
-0.125
 74
     0
 49
0.125
 74
     0
 49
-0.125
 74
     0
  0
LTYPE
  5
865
330
5
100
AcDbSymbolTableRecord
100
AcDbLinetypeTableRecord
  2
CENTER
 70
     0
  3
____ _ ____ _ ____ _ ____ _ ____ _ ____ _ ____ 
 72
    65
 73
     4
 40
2.0
 49
1.25
 74
     0
 49
-0.25
 74
     0
 49
0.25
 74
     0
 49
-0.25
 74
     0
  0
LTYPE
  5
882
330
5
100
AcDbSymbolTableRecord
100
AcDbLinetypeTableRecord
  2
HIDDEN2
 70
     0
  3
Hidden (.5x) _ _ _ _ _ _ _ _ _ _ _ _ _ _ _ _ _
 72
    65
 73
     2
 40
0.1875
 49
0.125
 74
     0
 49
-0.0625
 74
     0
  0
LTYPE
  5
C1C
330
5
100
AcDbSymbolTableRecord
100
AcDbLinetypeTableRecord
  2
DASHED
 70
     0
  3
Dashed __ __ __ __ __ __ __ __ __ __ __ __ __ _
 72
    65
 73
     2
 40
0.75
 49
0.5
 74
     0
 49
-0.25
 74
     0
  0
LTYPE
  5
C1D
330
5
100
AcDbSymbolTableRecord
100
AcDbLinetypeTableRecord
  2
DOT
 70
     0
  3
Dot . . . . . . . . . . . . . . . . . . . . . .
 72
    65
 73
     2
 40
0.25
 49
0.0
 74
     0
 49
-0.25
 74
     0
  0
ENDTAB
  0
TABLE
  2
LAYER
  5
2
102
{ACAD_XDICTIONARY
360
76E
102
}
330
0
100
AcDbSymbolTable
 70
    11
  0
LAYER
  5
10
102
{ACAD_XDICTIONARY
360
883
102
}
330
2
100
AcDbSymbolTableRecord
100
AcDbLayerTableRecord
  2
0
 70
     0
 62
     4
  6
Continuous
370
    -3
390
F
  0
LAYER
  5
2D
102
{ACAD_XDICTIONARY
360
885
102
}
330
2
100
AcDbSymbolTableRecord
100
AcDbLayerTableRecord
  2
R-SWTS-DET1
 70
     0
 62
     1
  6
Continuous
370
    -3
390
F
  0
LAYER
  5
2E
102
{ACAD_XDICTIONARY
360
887
102
}
330
2
100
AcDbSymbolTableRecord
100
AcDbLayerTableRecord
  2
R-SWTS-DET2
 70
     0
 62
     4
  6
Continuous
370
    -3
390
F
  0
LAYER
  5
DF
102
{ACAD_XDICTIONARY
360
88B
102
}
330
2
100
AcDbSymbolTableRecord
100
AcDbLayerTableRecord
  2
R-ANNO-DIMS
 70
     0
 62
     3
  6
Continuous
370
    -3
390
F
  0
LAYER
  5
E1
330
2
100
AcDbSymbolTableRecord
100
AcDbLayerTableRecord
  2
DEFPOINTS
 70
     0
 62
     7
  6
Continuous
290
     0
370
    -3
390
F
  0
LAYER
  5
820
102
{ACAD_XDICTIONARY
360
890
102
}
330
2
100
AcDbSymbolTableRecord
100
AcDbLayerTableRecord
  2
FORMAT
 70
     0
 62
     7
  6
Continuous
370
    -3
390
F
1001
AcAecLayerStandard
1000

1000

1001
AcCmTransparency
1071
        0
  0
LAYER
  5
831
102
{ACAD_XDICTIONARY
360
892
102
}
330
2
100
AcDbSymbolTableRecord
100
AcDbLayerTableRecord
  2
DIME
 70
     0
 62
     2
  6
Continuous
370
    -3
390
F
  0
LAYER
  5
85A
102
{ACAD_XDICTIONARY
360
894
102
}
330
2
100
AcDbSymbolTableRecord
100
AcDbLayerTableRecord
  2
TEXT
 70
     0
 62
     3
  6
Continuous
370
    -3
390
F
1001
AcAecLayerStandard
1000

1000

1001
AcCmTransparency
1071
        0
  0
LAYER
  5
866
102
{ACAD_XDICTIONARY
360
867
102
}
330
2
100
AcDbSymbolTableRecord
100
AcDbLayerTableRecord
  2
CENTER
 70
     0
 62
     1
  6
CENTER
370
    -3
390
F
  0
LAYER
  5
872
102
{ACAD_XDICTIONARY
360
873
102
}
330
2
100
AcDbSymbolTableRecord
100
AcDbLayerTableRecord
  2
HIDDEN
 70
     0
 62
     3
  6
HIDDEN
370
    -3
390
F
  0
LAYER
  5
C1E
330
2
100
AcDbSymbolTableRecord
100
AcDbLayerTableRecord
  2
Kawneer Logo-English
 70
     0
 62
     7
  6
Continuous
370
    -3
390
F
1001
AcAecLayerStandard
1000

1000

1001
AcCmTransparency
1071
        0
  0
ENDTAB
  0
TABLE
  2
STYLE
  5
3
330
0
100
AcDbSymbolTable
 70
     1
  0
STYLE
  5
11
330
3
100
AcDbSymbolTableRecord
100
AcDbTextStyleTableRecord
  2
Standard
 70
     0
 40
0.0
 41
1.0
 50
0.0
 71
     0
 42
0.2
  3
arial.ttf
  4

1001
ACAD
1000
Arial
1071
       34
  0
ENDTAB
  0
TABLE
  2
VIEW
  5
6
330
0
100
AcDbSymbolTable
 70
     0
  0
ENDTAB
  0
TABLE
  2
UCS
  5
7
330
0
100
AcDbSymbolTable
 70
     0
  0
ENDTAB
  0
TABLE
  2
APPID
  5
9
330
0
100
AcDbSymbolTable
 70
    15
  0
APPID
  5
12
330
9
100
AcDbSymbolTableRecord
100
AcDbRegAppTableRecord
  2
ACAD
 70
     0
  0
APPID
  5
821
330
9
100
AcDbSymbolTableRecord
100
AcDbRegAppTableRecord
  2
AcAecLayerStandard
 70
     0
  0
APPID
  5
822
330
9
100
AcDbSymbolTableRecord
100
AcDbRegAppTableRecord
  2
AcCmTransparency
 70
     0
  0
APPID
  5
898
330
9
100
AcDbSymbolTableRecord
100
AcDbRegAppTableRecord
  2
ACAD_PSEXT
 70
     0
  0
APPID
  5
8D9
330
9
100
AcDbSymbolTableRecord
100
AcDbRegAppTableRecord
  2
ACAD_NAV_VCDISPLAY
 70
     0
  0
APPID
  5
C1F
330
9
100
AcDbSymbolTableRecord
100
AcDbRegAppTableRecord
  2
ACAD_EXEMPT_FROM_CAD_STANDARDS
 70
     0
  0
APPID
  5
C20
330
9
100
AcDbSymbolTableRecord
100
AcDbRegAppTableRecord
  2
GradientColor1ACI
 70
     0
  0
APPID
  5
C21
330
9
100
AcDbSymbolTableRecord
100
AcDbRegAppTableRecord
  2
GradientColor2ACI
 70
     0
  0
APPID
  5
C22
330
9
100
AcDbSymbolTableRecord
100
AcDbRegAppTableRecord
  2
ACAD_MLEADERVER
 70
     0
  0
APPID
  5
C23
330
9
100
AcDbSymbolTableRecord
100
AcDbRegAppTableRecord
  2
ACAD_DSTYLE_DIMJAG
 70
     0
  0
APPID
  5
C24
330
9
100
AcDbSymbolTableRecord
100
AcDbRegAppTableRecord
  2
ACAD_DSTYLE_DIMTALN
 70
     0
  0
APPID
  5
C25
330
9
100
AcDbSymbolTableRecord
100
AcDbRegAppTableRecord
  2
ACAD_DSTYLE_DIMBREAK
 70
     0
  0
APPID
  5
C26
330
9
100
AcDbSymbolTableRecord
100
AcDbRegAppTableRecord
  2
AcDbDynamicBlockGUID
 70
     0
  0
APPID
  5
C27
330
9
100
AcDbSymbolTableRecord
100
AcDbRegAppTableRecord
  2
ACAUTHENVIRON
 70
     0
  0
APPID
  5
C28
330
9
100
AcDbSymbolTableRecord
100
AcDbRegAppTableRecord
  2
AcDbDynamicBlockTrueName
 70
     0
  0
ENDTAB
  0
TABLE
  2
DIMSTYLE
  5
A
330
0
100
AcDbSymbolTable
 70
     1
100
AcDbDimStyleTable
 71
     1
340
27
  0
DIMSTYLE
105
27
102
{ACAD_REACTORS
330
144
102
}
330
A
100
AcDbSymbolTableRecord
100
AcDbDimStyleTableRecord
  2
Standard
 70
     0
340
11
  0
ENDTAB
  0
TABLE
  2
BLOCK_RECORD
  5
1
330
0
100
AcDbSymbolTable
 70
     3
  0
BLOCK_RECORD
  5
1F
102
{ACAD_XDICTIONARY
360
4A2
102
}
330
1
100
AcDbSymbolTableRecord
100
AcDbBlockTableRecord
  2
*Model_Space
340
22
  0
BLOCK_RECORD
  5
1B
102
{ACAD_XDICTIONARY
360
4A4
102
}
330
1
100
AcDbSymbolTableRecord
100
AcDbBlockTableRecord
  2
*Paper_Space
340
1E
  0
BLOCK_RECORD
  5
23
102
{ACAD_XDICTIONARY
360
4A6
102
}
330
1
100
AcDbSymbolTableRecord
100
AcDbBlockTableRecord
  2
*Paper_Space0
340
26
  0
BLOCK_RECORD
  5
188
330
1
100
AcDbSymbolTableRecord
100
AcDbBlockTableRecord
  2
*D1
340
0
  0
BLOCK_RECORD
  5
C2B
102
{ACAD_XDICTIONARY
360
C35
102
}
330
1
100
AcDbSymbolTableRecord
100
AcDbBlockTableRecord
  2
Kawneer Logo English
340
0
102
{BLKREFS
331
C39
102
}
1001
ACAD
1000
DesignCenter Data
1002
{
1070
     1
1070
     1
1002
}
  0
ENDTAB
  0
ENDSEC
  0
SECTION
  2
BLOCKS
  0
BLOCK
  5
20
330
1F
100
AcDbEntity
  8
0
100
AcDbBlockBegin
  2
*Model_Space
 70
     0
 10
0.0
 20
0.0
 30
0.0
  3
*Model_Space
  1

  0
ENDBLK
  5
21
330
1F
100
AcDbEntity
  8
0
100
AcDbBlockEnd
  0
BLOCK
  5
1C
330
1B
100
AcDbEntity
 67
     1
  8
0
100
AcDbBlockBegin
  2
*Paper_Space
 70
     0
 10
0.0
 20
0.0
 30
0.0
  3
*Paper_Space
  1

  0
ENDBLK
  5
1D
330
1B
100
AcDbEntity
 67
     1
  8
0
100
AcDbBlockEnd
  0
BLOCK
  5
24
330
23
100
AcDbEntity
 67
     1
  8
0
100
AcDbBlockBegin
  2
*Paper_Space0
 70
     0
 10
0.0
 20
0.0
 30
0.0
  3
*Paper_Space0
  1

  0
ENDBLK
  5
25
330
23
100
AcDbEntity
 67
     1
  8
0
100
AcDbBlockEnd
  0
BLOCK
  5
193
330
188
100
AcDbEntity
  8
0
100
AcDbBlockBegin
  2
*D1
 70
     1
 10
0.0
 20
0.0
 30
0.0
  3
*D1
  1

  0
LINE
  5
850
330
188
100
AcDbEntity
  8
DIME
 62
     0
370
    -2
100
AcDbLine
 10
48.15821305061764
 20
24.88557037177707
 30
0.0
 11
48.15821305061764
 21
26.20349401300502
 31
0.0
  0
LINE
  5
851
330
188
100
AcDbEntity
  8
DIME
 62
     0
370
    -2
100
AcDbLine
 10
47.37921305061765
 20
24.88557037177707
 30
0.0
 11
47.37921305061765
 21
26.20349401300502
 31
0.0
  0
LINE
  5
852
330
188
100
AcDbEntity
  8
DIME
 62
     0
370
    -2
100
AcDbLine
 10
47.17921305061764
 20
26.07849401300502
 30
0.0
 11
46.97921305061765
 21
26.07849401300502
 31
0.0
  0
LINE
  5
853
330
188
100
AcDbEntity
  8
DIME
 62
     0
370
    -2
100
AcDbLine
 10
48.35821305061765
 20
26.07849401300502
 30
0.0
 11
49.77956366453306
 21
26.07849401300502
 31
0.0
  0
SOLID
  5
854
330
188
100
AcDbEntity
  8
DIME
 62
     0
100
AcDbTrace
 10
47.17921305061764
 20
26.11182734633835
 30
0.0
 11
47.17921305061764
 21
26.04516067967168
 31
0.0
 12
47.37921305061765
 22
26.07849401300502
 32
0.0
 13
47.37921305061765
 23
26.07849401300502
 33
0.0
  0
SOLID
  5
855
330
188
100
AcDbEntity
  8
DIME
 62
     0
100
AcDbTrace
 10
48.35821305061765
 20
26.11182734633835
 30
0.0
 11
48.35821305061765
 21
26.04516067967168
 31
0.0
 12
48.15821305061764
 22
26.07849401300502
 32
0.0
 13
48.15821305061764
 23
26.07849401300502
 33
0.0
  0
MTEXT
  5
856
330
188
100
AcDbEntity
  8
DIME
 62
     0
100
AcDbMText
 10
49.16888835757536
 20
26.33284258053571
 30
0.0
 40
0.25
 41
0.0
 71
     5
 72
     1
  1
\A1;25/32"
 73
     1
 44
1.0
1001
ACAD
1000
MTEXTBEGIN
1070
    73
1070
     1
1070
    44
1040
1.0
1070
    74
1070
     0
1000
MTEXTEND
  0
POINT
  5
857
330
188
100
AcDbEntity
  8
DEFPOINTS
 62
     0
100
AcDbPoint
 10
48.15821305061764
 20
24.76057037177707
 30
0.0
  0
POINT
  5
858
330
188
100
AcDbEntity
  8
DEFPOINTS
 62
     0
100
AcDbPoint
 10
47.37921305061765
 20
24.76057037177707
 30
0.0
  0
POINT
  5
859
330
188
100
AcDbEntity
  8
DEFPOINTS
 62
     0
100
AcDbPoint
 10
47.37921305061765
 20
26.07849401300502
 30
0.0
  0
ENDBLK
  5
194
330
188
100
AcDbEntity
  8
0
100
AcDbBlockEnd
  0
BLOCK
  5
C37
330
C2B
100
AcDbEntity
  8
0
100
AcDbBlockBegin
  2
Kawneer Logo English
 70
     0
 10
0.0
 20
0.0
 30
0.0
  3
Kawneer Logo English
  1

  0
MTEXT
  5
C2C
102
{ACAD_XDICTIONARY
360
CD5
102
}
330
C2B
100
AcDbEntity
  8
Kawneer Logo-English
100
AcDbMText
 10
1.510096758583198
 20
0.0372523876656778
 30
0.0
 40
0.036
 41
0.6125900866323382
 71
     3
 72
     5
  1
{\fArial TUR|b0|i0|c0|p34;\T1.05;AN ARCONIC COMPANY}
 73
     1
 44
1.0
1001
ACAD
1000
ACAD_MTEXT_COLUMN_INFO_BEGIN
1070
    75
1070
     2
1070
    79
1070
     0
1070
    76
1070
     1
1070
    78
1070
     0
1070
    48
1040
0.6125900866323382
1070
    49
1040
1.0
1070
    50
1070
     1
1040
0.0
1000
ACAD_MTEXT_COLUMN_INFO_END
1000
MTEXTBEGIN
1070
    73
1070
     1
1070
    44
1040
1.0
1070
    74
1070
     0
1000
MTEXTEND
  0
HATCH
  5
C2D
330
C2B
100
AcDbEntity
  8
Kawneer Logo-English
100
AcDbHatch
 10
0.0
 20
0.0
 30
0.0
210
0.0
220
0.0
230
1.0
  2
SOLID
 70
     1
 71
     0
 91
        1
 92
        1
 93
       81
 72
     1
 10
0.2706169776412204
 20
0.0336337282279411
 11
0.2687512969786691
 21
0.0350329887248546
 72
     1
 10
0.2687512969786696
 20
0.0350329887248547
 11
0.2633408230572721
 21
0.039137486182467
 72
     1
 10
0.2633408230572729
 20
0.0391374861824669
 11
0.2550385441089194
 21
0.0453875164020133
 72
     1
 10
0.2550385441089191
 20
0.0453875164020132
 11
0.2442175962661241
 21
0.053596511317238
 72
     1
 10
0.2442175962661235
 20
0.0535965113172379
 11
0.2314376837276472
 21
0.0632980507625037
 72
     1
 10
0.2314376837276479
 20
0.0632980507625037
 11
0.2172585106922595
 21
0.0741189986052996
 72
     1
 10
0.2172585106922598
 20
0.0741189986052996
 11
0.2019599292593419
 21
0.0856862187131167
 72
     1
 10
0.201959929259341
 20
0.0856862187131167
 11
0.1862882116939105
 21
0.0976265749534437
 72
     1
 10
0.1862882116939102
 20
0.0976265749534437
 11
0.1706164941284813
 21
0.1095669311937706
 72
     1
 10
0.1706164941284811
 20
0.1095669311937709
 11
0.1553179126955632
 21
0.1211341513015875
 72
     1
 10
0.1553179126955642
 20
0.1211341513015876
 11
0.1411387396601757
 21
0.131955099144384
 72
     1
 10
0.1411387396601755
 20
0.1319550991443839
 11
0.1284521111548274
 21
0.141749922622777
 72
     1
 10
0.1284521111548278
 20
0.1417499226227768
 11
0.117631163312031
 21
0.1499589175380016
 72
     1
 10
0.1176311633120304
 20
0.1499589175380017
 11
0.1094221683968068
 21
0.1563022317906752
 72
     1
 10
0.1094221683968062
 20
0.1563022317906754
 11
0.1041049785085351
 21
0.1604067292482882
 72
     1
 10
0.1041049785085351
 20
0.1604067292482878
 11
0.1023325818791119
 21
0.1618992737783286
 72
     1
 10
0.1023325818791116
 20
0.1618992737783289
 11
0.1043848306079176
 21
0.1636716704077524
 72
     1
 10
0.1043848306079194
 20
0.1636716704077524
 11
0.1100751566286996
 21
0.1683358720641301
 72
     1
 10
0.1100751566286986
 20
0.1683358720641301
 11
0.1189371397758159
 21
0.1757053106812067
 72
     1
 10
0.1189371397758161
 20
0.1757053106812067
 11
0.1304110758505067
 21
0.1851269980270901
 72
     1
 10
0.1304110758505059
 20
0.1851269980270902
 11
0.1439372606540007
 21
0.1963210820023967
 72
     1
 10
0.1439372606540017
 20
0.1963210820023967
 11
0.1589559899875385
 21
0.2087278584083611
 72
     1
 10
0.1589559899875379
 20
0.2087278584083611
 11
0.1750941277186041
 21
0.2220674751456017
 72
     1
 10
0.1750941277186047
 20
0.2220674751456017
 11
0.19169868561531
 21
0.2358735120484796
 72
     1
 10
0.1916986856153105
 20
0.2358735120484796
 11
0.208303243512014
 21
0.2495862649182301
 72
     1
 10
0.2083032435120131
 20
0.2495862649182304
 11
0.2244413812430811
 21
0.2628325976223432
 72
     1
 10
0.2244413812430812
 20
0.2628325976223429
 11
0.239460110576618
 21
0.2753326580614352
 72
     1
 10
0.2394601105766174
 20
0.2753326580614351
 11
0.2529862953801122
 21
0.2864334580036143
 72
     1
 10
0.2529862953801132
 20
0.2864334580036143
 11
0.2643669474216756
 21
0.2958551453494973
 72
     1
 10
0.2643669474216757
 20
0.2958551453494973
 11
0.2731356465356649
 21
0.3031312999334466
 72
     1
 10
0.273135646535664
 20
0.3031312999334466
 11
0.2788259725564443
 21
0.3077955015898243
 72
     1
 10
0.278825972556445
 20
0.3077955015898246
 11
0.2807849372521245
 21
0.3094746141861208
 72
     1
 10
0.2807849372521249
 20
0.3094746141861205
 11
0.2798520969208501
 21
0.3094746141861205
 72
     1
 10
0.2798520969208496
 20
0.3094746141861205
 11
0.2769602918938953
 21
0.3095678982192478
 72
     1
 10
0.2769602918938943
 20
0.3095678982192481
 11
0.2724826583037715
 21
0.3095678982192481
 72
     1
 10
0.2724826583037729
 20
0.3095678982192481
 11
0.2666057642167363
 21
0.3095678982192481
 72
     1
 10
0.266605764216735
 20
0.3095678982192481
 11
0.2597027457652953
 21
0.3095678982192481
 72
     1
 10
0.2597027457652956
 20
0.3095678982192481
 11
0.2519601710157094
 21
0.3095678982192481
 72
     1
 10
0.2519601710157104
 20
0.3095678982192481
 11
0.2437511761004851
 21
0.3095678982192481
 72
     1
 10
0.243751176100484
 20
0.3095678982192481
 11
0.2351690450527495
 21
0.3095678982192481
 72
     1
 10
0.2351690450527495
 20
0.3095678982192481
 11
0.2266801980381413
 21
0.3095678982192481
 72
     1
 10
0.2266801980381423
 20
0.3095678982192481
 11
0.2183779190897905
 21
0.3094746141861208
 72
     1
 10
0.2183779190897899
 20
0.3094746141861205
 11
0.2106353443402037
 21
0.3094746141861205
 72
     1
 10
0.2106353443402029
 20
0.3094746141861205
 11
0.2037323258887632
 21
0.3094746141861205
 72
     1
 10
0.203732325888764
 20
0.3094746141861205
 11
0.1978554318017273
 21
0.3094746141861205
 72
     1
 10
0.1978554318017278
 20
0.3094746141861205
 11
0.1932845141784786
 21
0.3094746141861205
 72
     1
 10
0.1932845141784787
 20
0.3094746141861205
 11
0.1903927091515244
 21
0.3094746141861205
 72
     1
 10
0.1903927091515234
 20
0.3094746141861205
 11
0.1893665847871204
 21
0.3094746141861205
 72
     1
 10
0.1893665847871206
 20
0.3094746141861205
 11
0.1879673242902067
 21
0.3077955015898243
 72
     1
 10
0.1879673242902076
 20
0.3077955015898246
 11
0.1841426789319786
 21
0.3030380159003196
 72
     1
 10
0.1841426789319787
 20
0.3030380159003192
 11
0.1780792167786874
 21
0.29576186131637
 72
     1
 10
0.1780792167786873
 20
0.29576186131637
 11
0.170243357995973
 21
0.2862468899373593
 72
     1
 10
0.170243357995973
 20
0.2862468899373593
 11
0.1610082387163447
 21
0.2750528059620528
 72
     1
 10
0.1610082387163438
 20
0.2750528059620528
 11
0.1507469950723126
 21
0.2624594614898328
 72
     1
 10
0.1507469950723133
 20
0.2624594614898328
 11
0.1396461951301336
 21
0.2491198447525922
 72
     1
 10
0.1396461951301333
 20
0.2491198447525922
 11
0.1282655430885727
 21
0.2352205238165866
 72
     1
 10
0.1282655430885726
 20
0.2352205238165868
 11
0.1168848910470102
 21
0.2214144869137089
 72
     1
 10
0.1168848910470102
 20
0.2214144869137087
 11
0.1058773751379587
 21
0.2079815861433408
 72
     1
 10
0.105877375137958
 20
0.2079815861433408
 11
0.0955228474608004
 21
0.1954815257042486
 72
     1
 10
0.0955228474608019
 20
0.1954815257042488
 11
0.0862877281811736
 21
0.1842874417289424
 72
     1
 10
0.0862877281811727
 20
0.1842874417289424
 11
0.0784518693984583
 21
0.1747724703499316
 72
     1
 10
0.0784518693984584
 20
0.1747724703499314
 11
0.0723884072451672
 21
0.1674963157659821
 72
     1
 10
0.0723884072451671
 20
0.1674963157659822
 11
0.0685637618869363
 21
0.1627388300764767
 72
     1
 10
0.0685637618869364
 20
0.1627388300764767
 11
0.0671645013900242
 21
0.1611530015133082
 72
     1
 10
0.0671645013900251
 20
0.1611530015133082
 11
0.0680040576881734
 21
0.1596604569832674
 72
     1
 10
0.0680040576881726
 20
0.1596604569832674
 11
0.0704294425494878
 21
0.1556492435587824
 72
     1
 10
0.0704294425494871
 20
0.1556492435587824
 11
0.0742540879077179
 21
0.1493059293061089
 72
     1
 10
0.0742540879077192
 20
0.1493059293061089
 11
0.0791048576303511
 21
0.1411902184240116
 72
     1
 10
0.0791048576303508
 20
0.1411902184240116
 11
0.0848884676842594
 21
0.1314886789787458
 72
     1
 10
0.0848884676842596
 20
0.1314886789787459
 11
0.0913250659700619
 21
0.1207610151690772
 72
     1
 10
0.0913250659700613
 20
0.1207610151690775
 11
0.0982280844214992
 21
0.1091937950612604
 72
     1
 10
0.0982280844214985
 20
0.1091937950612603
 11
0.1053176709391927
 21
0.0973467228540611
 72
     1
 10
0.105317670939193
 20
0.0973467228540612
 11
0.1124072574568872
 21
0.0854996506468619
 72
     1
 10
0.1124072574568871
 20
0.0854996506468617
 11
0.1193102759083267
 21
0.0739324305390446
 72
     1
 10
0.1193102759083278
 20
0.0739324305390448
 11
0.1257468741941283
 21
0.0632047667293762
 72
     1
 10
0.1257468741941277
 20
0.063204766729376
 11
0.1315304842480362
 21
0.0535032272841102
 72
     1
 10
0.1315304842480365
 20
0.0535032272841104
 11
0.1363812539706702
 21
0.0453875164020132
 72
     1
 10
0.1363812539706699
 20
0.0453875164020132
 11
0.1402058993288989
 21
0.0391374861824667
 72
     1
 10
0.1402058993288988
 20
0.0391374861824669
 11
0.1426312841902157
 21
0.0350329887248546
 72
     1
 10
0.1426312841902164
 20
0.0350329887248547
 11
0.1434708404883648
 21
0.0336337282279412
 72
     1
 10
0.143470840488364
 20
0.0336337282279411
 11
0.2706169776412211
 21
0.0336337282279411
 97
        0
 75
     0
 76
     1
 98
        1
 10
-0.3743130907707726
 20
-0.2500502867693841
1001
ACAD
1010
0.0
1020
0.0
1030
0.0
  0
HATCH
  5
C2E
330
C2B
100
AcDbEntity
  8
Kawneer Logo-English
100
AcDbHatch
 10
0.0
 20
0.0
 30
0.0
210
0.0
220
0.0
230
1.0
  2
SOLID
 70
     1
 71
     0
 91
        1
 92
        1
 93
       18
 72
     1
 10
0.0001865656044393
 20
0.2563959993365415
 11
-0.0000000024618153
 21
0.113671428651383
 72
     1
 10
-0.0000000024618159
 20
0.1136714286513832
 11
0.0012126899688416
 21
0.1152572572145516
 72
     1
 10
0.0012126899688421
 20
0.1152572572145516
 11
0.0045709151614355
 21
0.1197348908046738
 72
     1
 10
0.004570915161435
 20
0.119734890804674
 11
0.0098881050497044
 21
0.1268244773223682
 72
     1
 10
0.0098881050497044
 20
0.1268244773223682
 11
0.0166978394680158
 21
0.1359663125688683
 72
     1
 10
0.016697839468016
 20
0.1359663125688683
 11
0.0248135503501131
 21
0.1467872604116651
 72
     1
 10
0.024813550350113
 20
0.1467872604116652
 11
0.0338621015634867
 21
0.1588209006851195
 72
     1
 10
0.0338621015634872
 20
0.1588209006851194
 11
0.0434703569756247
 21
0.1716940972567221
 72
     1
 10
0.0434703569756247
 20
0.1716940972567224
 11
0.0534517485202732
 21
0.1850337139939626
 72
     1
 10
0.0534517485202724
 20
0.1850337139939624
 11
0.0634331400649208
 21
0.1983733307312025
 72
     1
 10
0.0634331400649222
 20
0.1983733307312024
 11
0.0730413954770597
 21
0.2112465273028051
 72
     1
 10
0.0730413954770595
 20
0.2112465273028053
 11
0.0820899466904331
 21
0.2233734516093873
 72
     1
 10
0.0820899466904321
 20
0.2233734516093873
 11
0.0902056575725293
 21
0.2341943994521837
 72
     1
 10
0.0902056575725308
 20
0.2341943994521837
 11
0.0970153919908422
 21
0.2433362346986839
 72
     1
 10
0.0970153919908405
 20
0.2433362346986839
 11
0.1022392978459834
 21
0.2503325371832507
 72
     1
 10
0.1022392978459843
 20
0.2503325371832508
 11
0.1056908070717041
 21
0.2549034548065008
 72
     1
 10
0.1056908070717046
 20
0.254903454806501
 11
0.1069034995023621
 21
0.2564892833696694
 72
     1
 10
0.1069034995023625
 20
0.2564892833696695
 11
0.0001865656044399
 21
0.2563959993365418
 97
        0
 75
     0
 76
     1
 98
        1
 10
-0.3743130907707726
 20
-0.2500502867693841
1001
ACAD
1010
0.0
1020
0.0
1030
0.0
  0
HATCH
  5
C2F
330
C2B
100
AcDbEntity
  8
Kawneer Logo-English
100
AcDbHatch
 10
0.0
 20
0.0
 30
0.0
210
0.0
220
0.0
230
1.0
  2
SOLID
 70
     1
 71
     0
 91
        2
 92
       16
 93
       76
 72
     1
 10
1.358402087941634
 20
0.1650709309046659
 11
1.358402087941634
 21
0.16796273593162
 72
     1
 10
1.358402087941634
 20
0.1679627359316202
 11
1.358402087941634
 21
0.1729067896873803
 72
     1
 10
1.358402087941634
 20
0.1729067896873803
 11
1.358402087941634
 21
0.1791568199069267
 72
     1
 10
1.358402087941634
 20
0.1791568199069267
 11
1.358402087941634
 21
0.1861531223914932
 72
     1
 10
1.358402087941634
 20
0.186153122391493
 11
1.358402087941634
 21
0.1931494248760595
 72
     1
 10
1.358402087941634
 20
0.1931494248760596
 11
1.358402087941634
 21
0.1994927391287338
 72
     1
 10
1.358402087941634
 20
0.1994927391287336
 11
1.358402087941634
 21
0.2044367928844937
 72
     1
 10
1.358402087941634
 20
0.2044367928844937
 11
1.358402087941634
 21
0.2072353138783208
 72
     1
 10
1.358402087941634
 20
0.2072353138783208
 11
1.359894632471676
 21
0.2072353138783208
 72
     1
 10
1.359894632471676
 20
0.2072353138783208
 11
1.362693153465502
 21
0.2072353138783208
 72
     1
 10
1.362693153465502
 20
0.2072353138783208
 11
1.366424514790605
 21
0.2072353138783208
 72
     1
 10
1.366424514790606
 20
0.2072353138783208
 11
1.371088716446983
 21
0.2072353138783208
 72
     1
 10
1.371088716446982
 20
0.2072353138783208
 11
1.376405906335254
 21
0.2072353138783208
 72
     1
 10
1.376405906335254
 20
0.2072353138783208
 11
1.382282800422289
 21
0.2072353138783208
 72
     1
 10
1.38228280042229
 20
0.2072353138783208
 11
1.388346262575581
 21
0.2072353138783208
 72
     1
 10
1.388346262575579
 20
0.2072353138783208
 11
1.394596292795125
 21
0.2072353138783208
 72
     1
 10
1.394596292795125
 20
0.2072353138783208
 11
1.400753038981545
 21
0.2072353138783208
 72
     1
 10
1.400753038981546
 20
0.2072353138783208
 11
1.406723217101709
 21
0.2072353138783208
 72
     1
 10
1.406723217101708
 20
0.2072353138783208
 11
1.412320259089362
 21
0.2072353138783208
 72
     1
 10
1.412320259089362
 20
0.2072353138783208
 11
1.417264312845122
 21
0.2072353138783208
 72
     1
 10
1.417264312845123
 20
0.2072353138783208
 11
1.421368810302735
 21
0.2072353138783208
 72
     1
 10
1.421368810302734
 20
0.2072353138783208
 11
1.424540467429071
 21
0.2072353138783208
 72
     1
 10
1.424540467429072
 20
0.2072353138783208
 11
1.426592716157878
 21
0.2072353138783208
 72
     1
 10
1.426592716157878
 20
0.2072353138783208
 11
1.427338988422898
 21
0.2072353138783208
 72
     1
 10
1.427338988422898
 20
0.2072353138783208
 11
1.430977065714873
 21
0.207142029845193
 72
     1
 10
1.430977065714872
 20
0.207142029845193
 11
1.434335290907465
 21
0.2068621777458102
 72
     1
 10
1.434335290907465
 20
0.2068621777458102
 11
1.435921119470633
 21
0.2066756096795552
 72
     1
 10
1.435921119470633
 20
0.206675609679555
 11
1.437413664000673
 21
0.2063957575801723
 72
     1
 10
1.437413664000674
 20
0.2063957575801723
 11
1.438906208530714
 21
0.2061159054807895
 72
     1
 10
1.438906208530714
 20
0.2061159054807898
 11
1.440398753060756
 21
0.2056494853151523
 72
     1
 10
1.440398753060756
 20
0.2056494853151521
 11
1.441704729524542
 21
0.2050897811163865
 72
     1
 10
1.441704729524542
 20
0.2050897811163866
 11
1.443010705988328
 21
0.204530076917621
 72
     1
 10
1.443010705988329
 20
0.204530076917621
 11
1.444223398418986
 21
0.2036905206194736
 72
     1
 10
1.444223398418985
 20
0.2036905206194736
 11
1.445436090849643
 21
0.2028509643213252
 72
     1
 10
1.445436090849643
 20
0.2028509643213252
 11
1.446555499247174
 21
0.2018248399569224
 72
     1
 10
1.446555499247173
 20
0.2018248399569223
 11
1.447581623611576
 21
0.2007054315593917
 72
     1
 10
1.447581623611578
 20
0.2007054315593915
 11
1.448607747975981
 21
0.1993061710624781
 72
     1
 10
1.448607747975981
 20
0.1993061710624781
 11
1.449540588307258
 21
0.1978136265324374
 72
     1
 10
1.449540588307256
 20
0.1978136265324373
 11
1.450380144605403
 21
0.1961345139361415
 72
     1
 10
1.450380144605404
 20
0.1961345139361415
 11
1.451126416870426
 21
0.1944554013398453
 72
     1
 10
1.451126416870426
 20
0.1944554013398454
 11
1.451592837036063
 21
0.1929628568098046
 72
     1
 10
1.451592837036062
 20
0.1929628568098046
 11
1.451965973168573
 21
0.1913770282466361
 72
     1
 10
1.451965973168574
 20
0.1913770282466361
 11
1.452245825267955
 21
0.1899777677497231
 72
     1
 10
1.452245825267954
 20
0.1899777677497231
 11
1.452432393334211
 21
0.188671791285937
 72
     1
 10
1.452432393334211
 20
0.1886717912859369
 11
1.452432393334211
 21
0.1874590988552789
 72
     1
 10
1.452432393334211
 20
0.1874590988552789
 11
1.452525677367338
 21
0.1863396904577482
 72
     1
 10
1.452525677367337
 20
0.1863396904577481
 11
1.452432393334211
 21
0.1844740097951972
 72
     1
 10
1.452432393334211
 20
0.1844740097951974
 11
1.452245825267955
 21
0.1827948971989012
 72
     1
 10
1.452245825267954
 20
0.1827948971989009
 11
1.451872689135445
 21
0.1810225005694773
 72
     1
 10
1.451872689135446
 20
0.1810225005694774
 11
1.451406268969809
 21
0.1794366720063093
 72
     1
 10
1.451406268969809
 20
0.1794366720063094
 11
1.450846564771043
 21
0.1779441274762682
 72
     1
 10
1.450846564771041
 20
0.1779441274762681
 11
1.450100292506021
 21
0.1764515829462274
 72
     1
 10
1.450100292506023
 20
0.1764515829462275
 11
1.449260736207875
 21
0.1750523224493141
 72
     1
 10
1.449260736207873
 20
0.1750523224493139
 11
1.448327895876597
 21
0.1737463459855283
 72
     1
 10
1.448327895876596
 20
0.1737463459855281
 11
1.44702191941281
 21
0.1723470854886151
 72
     1
 10
1.447021919412811
 20
0.1723470854886151
 11
1.445715942949025
 21
0.1711343930579568
 72
     1
 10
1.445715942949026
 20
0.1711343930579568
 11
1.444316682452114
 21
0.1700149846604262
 72
     1
 10
1.444316682452114
 20
0.1700149846604259
 11
1.442824137922072
 21
0.168988860296023
 72
     1
 10
1.442824137922072
 20
0.168988860296023
 11
1.441238309358904
 21
0.1682425880310024
 72
     1
 10
1.441238309358902
 20
0.1682425880310024
 11
1.439559196762608
 21
0.1674963157659821
 72
     1
 10
1.439559196762608
 20
0.1674963157659822
 11
1.437880084166311
 21
0.1669366115672166
 72
     1
 10
1.437880084166311
 20
0.1669366115672167
 11
1.436107687536888
 21
0.1664701914015788
 72
     1
 10
1.436107687536888
 20
0.1664701914015789
 11
1.434242006874337
 21
0.166003771235941
 72
     1
 10
1.434242006874337
 20
0.1660037712359412
 11
1.432376326211786
 21
0.1657239191365588
 72
     1
 10
1.432376326211785
 20
0.1657239191365585
 11
1.430417361516107
 21
0.1655373510703035
 72
     1
 10
1.430417361516108
 20
0.1655373510703037
 11
1.428458396820429
 21
0.1653507830040482
 72
     1
 10
1.428458396820428
 20
0.1653507830040482
 11
1.424353899362817
 21
0.1651642149377932
 72
     1
 10
1.424353899362817
 20
0.1651642149377932
 11
1.420156117872077
 21
0.1650709309046658
 72
     1
 10
1.420156117872076
 20
0.1650709309046659
 11
1.41773073301076
 21
0.1650709309046659
 72
     1
 10
1.417730733010761
 20
0.1650709309046659
 11
1.411107566658704
 21
0.1650709309046659
 72
     1
 10
1.411107566658702
 20
0.1650709309046659
 11
1.401779163345947
 21
0.1650709309046659
 72
     1
 10
1.401779163345949
 20
0.1650709309046659
 11
1.390958215503152
 21
0.1650709309046659
 72
     1
 10
1.390958215503152
 20
0.1650709309046659
 11
1.379950699594101
 21
0.1650709309046659
 72
     1
 10
1.379950699594099
 20
0.1650709309046659
 11
1.369969308049451
 21
0.1650709309046659
 72
     1
 10
1.369969308049451
 20
0.1650709309046659
 11
1.362320017332992
 21
0.1650709309046659
 72
     1
 10
1.362320017332992
 20
0.1650709309046659
 11
1.358402087941635
 21
0.1650709309046659
 97
        0
 92
        1
 93
      107
 72
     1
 10
1.443756978253348
 20
0.1485596570410883
 11
1.446928635379685
 21
0.1492126452729816
 72
     1
 10
1.446928635379685
 20
0.1492126452729817
 11
1.449540588307256
 21
0.1498656335048746
 72
     1
 10
1.449540588307256
 20
0.1498656335048745
 11
1.451872689135445
 21
0.1506119057698948
 72
     1
 10
1.451872689135446
 20
0.1506119057698946
 11
1.45401822189738
 21
0.1514514620680426
 72
     1
 10
1.45401822189738
 20
0.1514514620680425
 11
1.455883902559929
 21
0.1521977343330632
 72
     1
 10
1.455883902559929
 20
0.1521977343330631
 11
1.457563015156225
 21
0.1530372906312111
 72
     1
 10
1.457563015156225
 20
0.1530372906312111
 11
1.459148843719394
 21
0.1539701309624869
 72
     1
 10
1.459148843719394
 20
0.1539701309624866
 11
1.460641388249434
 21
0.1549029712937624
 72
     1
 10
1.460641388249434
 20
0.1549029712937622
 11
1.462133932779476
 21
0.155835811625038
 72
     1
 10
1.462133932779476
 20
0.155835811625038
 11
1.463439909243262
 21
0.1568619359894408
 72
     1
 10
1.463439909243262
 20
0.1568619359894408
 11
1.464745885707048
 21
0.1579813443869714
 72
     1
 10
1.464745885707047
 20
0.1579813443869716
 11
1.465865294104579
 21
0.1591007527845022
 72
     1
 10
1.465865294104579
 20
0.1591007527845025
 11
1.466984702502109
 21
0.1602201611820331
 72
     1
 10
1.466984702502108
 20
0.1602201611820328
 11
1.468010826866511
 21
0.1613395695795634
 72
     1
 10
1.468010826866511
 20
0.1613395695795637
 11
1.468943667197788
 21
0.1625522620102216
 72
     1
 10
1.468943667197788
 20
0.1625522620102216
 11
1.469876507529063
 21
0.1636716704077522
 72
     1
 10
1.469876507529063
 20
0.1636716704077524
 11
1.470622779794084
 21
0.1648843628384107
 72
     1
 10
1.470622779794084
 20
0.1648843628384107
 11
1.471462336092232
 21
0.1661903393021964
 72
     1
 10
1.471462336092232
 20
0.1661903393021967
 11
1.472115324324125
 21
0.1674030317328546
 72
     1
 10
1.472115324324124
 20
0.1674030317328546
 11
1.472768312556016
 21
0.1686157241635125
 72
     1
 10
1.472768312556017
 20
0.1686157241635125
 11
1.473328016754783
 21
0.1699217006272986
 72
     1
 10
1.473328016754782
 20
0.1699217006272989
 11
1.47379443692042
 21
0.1711343930579568
 72
     1
 10
1.47379443692042
 20
0.1711343930579568
 11
1.474260857086057
 21
0.1724403695217425
 72
     1
 10
1.474260857086058
 20
0.1724403695217424
 11
1.474727277251697
 21
0.1736530619524008
 72
     1
 10
1.474727277251697
 20
0.173653061952401
 11
1.475380265483589
 21
0.1760784468137175
 72
     1
 10
1.475380265483588
 20
0.1760784468137173
 11
1.475846685649225
 21
0.1785038316750338
 72
     1
 10
1.475846685649226
 20
0.1785038316750335
 11
1.476219821781737
 21
0.1808359325032223
 72
     1
 10
1.476219821781738
 20
0.1808359325032223
 11
1.47649967388112
 21
0.1830747492982838
 72
     1
 10
1.47649967388112
 20
0.1830747492982838
 11
1.476592957914248
 21
0.1851269980270901
 72
     1
 10
1.476592957914248
 20
0.1851269980270902
 11
1.476686241947374
 21
0.1870859627227688
 72
     1
 10
1.476686241947375
 20
0.1870859627227687
 11
1.476592957914249
 21
0.1888583593521923
 72
     1
 10
1.476592957914248
 20
0.1888583593521922
 11
1.476499673881119
 21
0.1906307559816158
 72
     1
 10
1.47649967388112
 20
0.1906307559816159
 11
1.476406389847991
 21
0.1924031526110394
 72
     1
 10
1.476406389847991
 20
0.1924031526110394
 11
1.476126537748608
 21
0.1940822652073352
 72
     1
 10
1.476126537748608
 20
0.1940822652073352
 11
1.475846685649226
 21
0.195761377803631
 72
     1
 10
1.475846685649226
 20
0.1957613778036309
 11
1.475566833549843
 21
0.1974404903999272
 72
     1
 10
1.475566833549843
 20
0.1974404903999272
 11
1.475100413384206
 21
0.1990263189630953
 72
     1
 10
1.475100413384205
 20
0.1990263189630952
 11
1.474633993218568
 21
0.2006121475262637
 72
     1
 10
1.474633993218568
 20
0.2006121475262639
 11
1.47416757305293
 21
0.2021046920563051
 72
     1
 10
1.474167573052932
 20
0.2021046920563049
 11
1.473514584821038
 21
0.2035972365863457
 72
     1
 10
1.473514584821037
 20
0.2035972365863459
 11
1.472954880622271
 21
0.2050897811163867
 72
     1
 10
1.472954880622272
 20
0.2050897811163866
 11
1.472208608357252
 21
0.2064890416133
 72
     1
 10
1.472208608357252
 20
0.2064890416133001
 11
1.471462336092232
 21
0.2078883021102135
 72
     1
 10
1.471462336092232
 20
0.2078883021102136
 11
1.470622779794083
 21
0.2091942785739993
 72
     1
 10
1.470622779794084
 20
0.2091942785739991
 11
1.469783223495935
 21
0.2105002550377848
 72
     1
 10
1.469783223495934
 20
0.2105002550377851
 11
1.468850383164659
 21
0.2118062315015707
 72
     1
 10
1.468850383164661
 20
0.2118062315015709
 11
1.467917542833386
 21
0.2130189239322288
 72
     1
 10
1.467917542833385
 20
0.2130189239322289
 11
1.466891418468982
 21
0.2141383323297595
 72
     1
 10
1.466891418468982
 20
0.2141383323297595
 11
1.465772010071451
 21
0.2153510247604178
 72
     1
 10
1.46577201007145
 20
0.215351024760418
 11
1.464652601673919
 21
0.2163771491248209
 72
     1
 10
1.46465260167392
 20
0.2163771491248209
 11
1.463533193276389
 21
0.2174032734892238
 72
     1
 10
1.463533193276389
 20
0.2174032734892238
 11
1.462227216812603
 21
0.2184293978536266
 72
     1
 10
1.462227216812602
 20
0.2184293978536266
 11
1.461014524381945
 21
0.2193622381849024
 72
     1
 10
1.461014524381946
 20
0.2193622381849023
 11
1.459615263885032
 21
0.2202950785161781
 72
     1
 10
1.459615263885031
 20
0.2202950785161782
 11
1.458309287421245
 21
0.2211346348143262
 72
     1
 10
1.458309287421246
 20
0.221134634814326
 11
1.456816742891206
 21
0.221974191112474
 72
     1
 10
1.456816742891206
 20
0.2219741911124738
 11
1.455417482394292
 21
0.2227204633774945
 72
     1
 10
1.455417482394291
 20
0.2227204633774944
 11
1.453831653831122
 21
0.2233734516093874
 72
     1
 10
1.453831653831123
 20
0.2233734516093873
 11
1.452339109301082
 21
0.2240264398412803
 72
     1
 10
1.452339109301082
 20
0.2240264398412803
 11
1.450659996704785
 21
0.2245861440400459
 72
     1
 10
1.450659996704787
 20
0.2245861440400457
 11
1.44907416814162
 21
0.2251458482388108
 72
     1
 10
1.449074168141619
 20
0.2251458482388109
 11
1.447301771512194
 21
0.2256122684044489
 72
     1
 10
1.447301771512194
 20
0.2256122684044488
 11
1.445249522783388
 21
0.2261719726032139
 72
     1
 10
1.445249522783388
 20
0.226171972603214
 11
1.44329055808771
 21
0.2265451087357246
 72
     1
 10
1.443290558087712
 20
0.2265451087357244
 11
1.441145025325778
 21
0.2269182448682345
 72
     1
 10
1.441145025325776
 20
0.2269182448682345
 11
1.438906208530714
 21
0.2271980969676173
 72
     1
 10
1.438906208530714
 20
0.2271980969676173
 11
1.436387539636271
 21
0.2273846650338724
 72
     1
 10
1.436387539636271
 20
0.2273846650338724
 11
1.433495734609316
 21
0.2275712331001274
 72
     1
 10
1.433495734609317
 20
0.2275712331001274
 11
1.430044225383597
 21
0.2276645171332552
 72
     1
 10
1.430044225383597
 20
0.2276645171332549
 11
1.42612629599224
 21
0.2277578011663822
 72
     1
 10
1.42612629599224
 20
0.2277578011663825
 11
1.426033011959112
 21
0.2277578011663825
 72
     1
 10
1.426033011959111
 20
0.2277578011663825
 11
1.33489451159349
 21
0.2277578011663825
 72
     1
 10
1.334894511593491
 20
0.2277578011663825
 11
1.334894511593491
 21
0.0926825211976832
 72
     1
 10
1.334894511593491
 20
0.0926825211976832
 11
1.358588656007891
 21
0.0926825211976832
 72
     1
 10
1.358588656007891
 20
0.0926825211976832
 11
1.358588656007891
 21
0.0947347699264896
 72
     1
 10
1.358588656007891
 20
0.0947347699264896
 11
1.358588656007891
 21
0.1001452438478876
 72
     1
 10
1.358588656007891
 20
0.1001452438478875
 11
1.358588656007891
 21
0.1079811026306024
 72
     1
 10
1.358588656007891
 20
0.1079811026306024
 11
1.358588656007891
 21
0.1170296538439752
 72
     1
 10
1.358588656007891
 20
0.1170296538439753
 11
1.358588656007891
 21
0.1262647731236032
 72
     1
 10
1.358588656007891
 20
0.1262647731236031
 11
1.358588656007891
 21
0.1347536201382103
 72
     1
 10
1.358588656007891
 20
0.1347536201382104
 11
1.358588656007891
 21
0.1412835024571394
 72
     1
 10
1.358588656007891
 20
0.1412835024571393
 11
1.358588656007891
 21
0.1448282957159864
 72
     1
 10
1.358588656007891
 20
0.1448282957159865
 11
1.362320017332992
 21
0.1448282957159865
 72
     1
 10
1.362320017332992
 20
0.1448282957159865
 11
1.369409603850688
 21
0.1448282957159865
 72
     1
 10
1.369409603850688
 20
0.1448282957159865
 11
1.378738007163443
 21
0.1448282957159865
 72
     1
 10
1.378738007163443
 20
0.1448282957159865
 11
1.388999250807475
 21
0.1448282957159865
 72
     1
 10
1.388999250807473
 20
0.1448282957159865
 11
1.399260494451505
 21
0.1448282957159865
 72
     1
 10
1.399260494451506
 20
0.1448282957159865
 11
1.408215761631749
 21
0.1448282957159865
 72
     1
 10
1.408215761631748
 20
0.1448282957159865
 11
1.414745643950677
 21
0.1448282957159865
 72
     1
 10
1.414745643950678
 20
0.1448282957159865
 11
1.41773073301076
 21
0.1448282957159865
 72
     1
 10
1.417730733010761
 20
0.1448282957159865
 11
1.420062833838949
 21
0.1420297747221594
 72
     1
 10
1.420062833838949
 20
0.1420297747221597
 11
1.425193455660966
 21
0.1359663125688683
 72
     1
 10
1.425193455660965
 20
0.1359663125688683
 11
1.432283042178659
 21
0.1275707495873888
 72
     1
 10
1.432283042178659
 20
0.1275707495873886
 11
1.440305469027628
 21
0.1180557782083779
 72
     1
 10
1.440305469027629
 20
0.1180557782083781
 11
1.448234611843471
 21
0.1087273748956225
 72
     1
 10
1.448234611843471
 20
0.1087273748956225
 11
1.455044346261782
 21
0.1006116640135252
 72
     1
 10
1.455044346261782
 20
0.1006116640135252
 11
1.459895115984414
 21
0.0948280539596167
 72
     1
 10
1.459895115984414
 20
0.0948280539596169
 11
1.461760796646965
 21
0.0926825211976832
 72
     1
 10
1.461760796646967
 20
0.0926825211976832
 11
1.49254452757906
 21
0.0926825211976832
 72
     1
 10
1.492544527579059
 20
0.0926825211976832
 11
1.490678846916508
 21
0.0948280539596169
 72
     1
 10
1.490678846916508
 20
0.0948280539596169
 11
1.48564150912762
 21
0.100518379980398
 72
     1
 10
1.48564150912762
 20
0.1005183799803981
 11
1.478458638576797
 21
0.1088206589287502
 72
     1
 10
1.478458638576798
 20
0.1088206589287502
 11
1.470063075595318
 21
0.1183356303077609
 72
     1
 10
1.470063075595317
 20
0.118335630307761
 11
1.461480944547582
 21
0.1282237378192818
 72
     1
 10
1.461480944547582
 20
0.1282237378192818
 11
1.453551801731739
 21
0.1372722890326546
 72
     1
 10
1.45355180173174
 20
0.1372722890326546
 11
1.447395055545323
 21
0.1444551595834761
 72
     1
 10
1.447395055545323
 20
0.1444551595834759
 11
1.443756978253349
 21
0.1485596570410882
 97
        0
 75
     0
 76
     1
 98
        1
 10
-0.3743130907707726
 20
-0.2500502867693841
1001
ACAD
1010
0.0
1020
0.0
1030
0.0
  0
HATCH
  5
C30
330
C2B
100
AcDbEntity
  8
Kawneer Logo-English
100
AcDbHatch
 10
0.0
 20
0.0
 30
0.0
210
0.0
220
0.0
230
1.0
  2
SOLID
 70
     1
 71
     0
 91
        1
 92
        1
 93
       87
 72
     1
 10
1.205602841678699
 20
0.1525708704655737
 11
1.207468522341251
 21
0.1525708704655737
 72
     1
 10
1.207468522341252
 20
0.1525708704655737
 11
1.211199883666355
 21
0.1525708704655737
 72
     1
 10
1.211199883666355
 20
0.1525708704655737
 11
1.216517073554626
 21
0.1525708704655737
 72
     1
 10
1.216517073554626
 20
0.1525708704655737
 11
1.223046955873555
 21
0.1525708704655737
 72
     1
 10
1.223046955873553
 20
0.1525708704655737
 11
1.230602962556885
 21
0.1525708704655737
 72
     1
 10
1.230602962556885
 20
0.1525708704655737
 11
1.238998525538365
 21
0.1525708704655737
 72
     1
 10
1.238998525538365
 20
0.1525708704655737
 11
1.247767224652354
 21
0.1525708704655737
 72
     1
 10
1.247767224652355
 20
0.1525708704655737
 11
1.256815775865728
 21
0.1525708704655737
 72
     1
 10
1.256815775865729
 20
0.1525708704655737
 11
1.265771043045974
 21
0.1525708704655737
 72
     1
 10
1.265771043045973
 20
0.1525708704655737
 11
1.274446458126836
 21
0.1525708704655737
 72
     1
 10
1.274446458126837
 20
0.1525708704655737
 11
1.282562169008935
 21
0.1525708704655737
 72
     1
 10
1.282562169008935
 20
0.1525708704655737
 11
1.289745039559756
 21
0.1525708704655737
 72
     1
 10
1.289745039559755
 20
0.1525708704655737
 11
1.295808501713046
 21
0.1525708704655737
 72
     1
 10
1.295808501713046
 20
0.1525708704655737
 11
1.300472703369423
 21
0.1525708704655737
 72
     1
 10
1.300472703369423
 20
0.1525708704655737
 11
1.303457792429505
 21
0.1525708704655737
 72
     1
 10
1.303457792429505
 20
0.1525708704655737
 11
1.304483916793908
 21
0.1525708704655737
 72
     1
 10
1.304483916793908
 20
0.1525708704655737
 11
1.304483916793908
 21
0.1730000737205081
 72
     1
 10
1.304483916793908
 20
0.1730000737205078
 11
1.303457792429505
 21
0.1730000737205078
 72
     1
 10
1.303457792429505
 20
0.1730000737205078
 11
1.300472703369423
 21
0.1730000737205078
 72
     1
 10
1.300472703369423
 20
0.1730000737205078
 11
1.295808501713045
 21
0.1730000737205078
 72
     1
 10
1.295808501713046
 20
0.1730000737205078
 11
1.289745039559754
 21
0.1730000737205078
 72
     1
 10
1.289745039559755
 20
0.1730000737205078
 11
1.282562169008934
 21
0.1730000737205078
 72
     1
 10
1.282562169008935
 20
0.1730000737205078
 11
1.274446458126837
 21
0.1730000737205078
 72
     1
 10
1.274446458126837
 20
0.1730000737205078
 11
1.265771043045975
 21
0.1730000737205078
 72
     1
 10
1.265771043045973
 20
0.1730000737205078
 11
1.256815775865728
 21
0.1730000737205078
 72
     1
 10
1.256815775865729
 20
0.1730000737205078
 11
1.247767224652355
 21
0.1730000737205078
 72
     1
 10
1.247767224652355
 20
0.1730000737205078
 11
1.238998525538365
 21
0.1730000737205078
 72
     1
 10
1.238998525538365
 20
0.1730000737205078
 11
1.230602962556885
 21
0.1730000737205078
 72
     1
 10
1.230602962556885
 20
0.1730000737205078
 11
1.223046955873553
 21
0.1730000737205078
 72
     1
 10
1.223046955873553
 20
0.1730000737205078
 11
1.216517073554625
 21
0.1730000737205078
 72
     1
 10
1.216517073554626
 20
0.1730000737205078
 11
1.211199883666355
 21
0.1730000737205078
 72
     1
 10
1.211199883666355
 20
0.1730000737205078
 11
1.207468522341252
 21
0.1730000737205078
 72
     1
 10
1.207468522341252
 20
0.1730000737205078
 11
1.205602841678701
 21
0.1730000737205078
 72
     1
 10
1.205602841678699
 20
0.1730000737205078
 11
1.205602841678699
 21
0.1754254585818243
 72
     1
 10
1.205602841678699
 20
0.1754254585818245
 11
1.205602841678699
 21
0.1794366720063095
 72
     1
 10
1.205602841678699
 20
0.1794366720063094
 11
1.205602841678699
 21
0.1843807257620694
 72
     1
 10
1.205602841678699
 20
0.1843807257620694
 11
1.205602841678699
 21
0.1898844837165951
 72
     1
 10
1.205602841678699
 20
0.1898844837165951
 11
1.205602841678699
 21
0.1952949576379935
 72
     1
 10
1.205602841678699
 20
0.1952949576379937
 11
1.205602841678699
 21
0.2003322954268815
 72
     1
 10
1.205602841678699
 20
0.2003322954268814
 11
1.205602841678699
 21
0.2042502248182386
 72
     1
 10
1.205602841678699
 20
0.2042502248182386
 11
1.205602841678699
 21
0.206675609679555
 72
     1
 10
1.205602841678699
 20
0.206675609679555
 11
1.207468522341251
 21
0.206675609679555
 72
     1
 10
1.207468522341252
 20
0.206675609679555
 11
1.211293167699483
 21
0.206675609679555
 72
     1
 10
1.211293167699483
 20
0.206675609679555
 11
1.21670364162088
 21
0.206675609679555
 72
     1
 10
1.216703641620879
 20
0.206675609679555
 11
1.223420092006063
 21
0.206675609679555
 72
     1
 10
1.223420092006064
 20
0.206675609679555
 11
1.231255950788778
 21
0.206675609679555
 72
     1
 10
1.231255950788778
 20
0.206675609679555
 11
1.239744797803386
 21
0.206675609679555
 72
     1
 10
1.239744797803385
 20
0.206675609679555
 11
1.248886633049885
 21
0.206675609679555
 72
     1
 10
1.248886633049885
 20
0.206675609679555
 11
1.258121752329513
 21
0.206675609679555
 72
     1
 10
1.258121752329514
 20
0.206675609679555
 11
1.267356871609143
 21
0.206675609679555
 72
     1
 10
1.267356871609142
 20
0.206675609679555
 11
1.276218854756259
 21
0.206675609679555
 72
     1
 10
1.276218854756259
 20
0.206675609679555
 11
1.284521133704611
 21
0.206675609679555
 72
     1
 10
1.284521133704611
 20
0.206675609679555
 11
1.291890572321688
 21
0.206675609679555
 72
     1
 10
1.291890572321688
 20
0.206675609679555
 11
1.298140602541234
 21
0.206675609679555
 72
     1
 10
1.298140602541234
 20
0.206675609679555
 11
1.30289808823074
 21
0.206675609679555
 72
     1
 10
1.30289808823074
 20
0.206675609679555
 11
1.305976461323949
 21
0.206675609679555
 72
     1
 10
1.305976461323949
 20
0.206675609679555
 11
1.30709586972148
 21
0.206675609679555
 72
     1
 10
1.307095869721479
 20
0.206675609679555
 11
1.307095869721479
 21
0.2277578011663822
 72
     1
 10
1.307095869721479
 20
0.2277578011663825
 11
1.304577200827036
 21
0.2277578011663825
 72
     1
 10
1.304577200827037
 20
0.2277578011663825
 11
1.182188549363684
 21
0.2277578011663825
 72
     1
 10
1.182188549363684
 20
0.2277578011663825
 11
1.182188549363684
 21
0.0926825211976832
 72
     1
 10
1.182188549363684
 20
0.0926825211976832
 11
1.311853355410986
 21
0.0926825211976832
 72
     1
 10
1.311853355410985
 20
0.0926825211976832
 11
1.311853355410985
 21
0.113671428651383
 72
     1
 10
1.311853355410985
 20
0.1136714286513832
 11
1.310733947013454
 21
0.1136714286513832
 72
     1
 10
1.310733947013455
 20
0.1136714286513832
 11
1.307469005853991
 21
0.1136714286513832
 72
     1
 10
1.307469005853991
 20
0.1136714286513832
 11
1.302431668065102
 21
0.1136714286513832
 72
     1
 10
1.302431668065103
 20
0.1136714286513832
 11
1.295901785746174
 21
0.1136714286513832
 72
     1
 10
1.295901785746174
 20
0.1136714286513832
 11
1.288159210996586
 21
0.1136714286513832
 72
     1
 10
1.288159210996587
 20
0.1136714286513832
 11
1.279483795915724
 21
0.1136714286513832
 72
     1
 10
1.279483795915723
 20
0.1136714286513832
 11
1.270155392602968
 21
0.1136714286513832
 72
     1
 10
1.270155392602969
 20
0.1136714286513832
 11
1.260547137190832
 21
0.1136714286513832
 72
     1
 10
1.260547137190831
 20
0.1136714286513832
 11
1.250752313712437
 21
0.1136714286513832
 72
     1
 10
1.250752313712437
 20
0.1136714286513832
 11
1.241330626366554
 21
0.1136714286513832
 72
     1
 10
1.241330626366555
 20
0.1136714286513832
 11
1.23237535918631
 21
0.1136714286513832
 72
     1
 10
1.232375359186308
 20
0.1136714286513832
 11
1.224166364271082
 21
0.1136714286513832
 72
     1
 10
1.224166364271083
 20
0.1136714286513832
 11
1.217170061786517
 21
0.1136714286513832
 72
     1
 10
1.217170061786517
 20
0.1136714286513832
 11
1.211479735765737
 21
0.1136714286513832
 72
     1
 10
1.211479735765737
 20
0.1136714286513832
 11
1.20756180637438
 21
0.1136714286513832
 72
     1
 10
1.207561806374379
 20
0.1136714286513832
 11
1.2056028416787
 21
0.1136714286513832
 72
     1
 10
1.205602841678699
 20
0.1136714286513832
 11
1.205602841678699
 21
0.1163766656120825
 72
     1
 10
1.205602841678699
 20
0.1163766656120823
 11
1.205602841678699
 21
0.1209475832353323
 72
     1
 10
1.205602841678699
 20
0.1209475832353325
 11
1.205602841678699
 21
0.1267311932892411
 72
     1
 10
1.205602841678699
 20
0.1267311932892408
 11
1.205602841678699
 21
0.1330745075419143
 72
     1
 10
1.205602841678699
 20
0.1330745075419144
 11
1.205602841678699
 21
0.1395111058277156
 72
     1
 10
1.205602841678699
 20
0.1395111058277158
 11
1.205602841678699
 21
0.1452947158816239
 72
     1
 10
1.205602841678699
 20
0.145294715881624
 11
1.205602841678699
 21
0.1498656335048746
 72
     1
 10
1.205602841678699
 20
0.1498656335048745
 11
1.205602841678699
 21
0.1525708704655738
 97
        0
 75
     0
 76
     1
 98
        1
 10
-0.3743130907707726
 20
-0.2500502867693841
1001
ACAD
1010
0.0
1020
0.0
1030
0.0
  0
HATCH
  5
C31
330
C2B
100
AcDbEntity
  8
Kawneer Logo-English
100
AcDbHatch
 10
0.0
 20
0.0
 30
0.0
210
0.0
220
0.0
230
1.0
  2
SOLID
 70
     1
 71
     0
 91
        1
 92
        1
 93
       87
 72
     1
 10
1.049352086190046
 20
0.1525708704655737
 11
1.051217766852597
 21
0.1525708704655737
 72
     1
 10
1.051217766852596
 20
0.1525708704655737
 11
1.054949128177699
 21
0.1525708704655737
 72
     1
 10
1.0549491281777
 20
0.1525708704655737
 11
1.060173034032843
 21
0.1525708704655737
 72
     1
 10
1.060173034032843
 20
0.1525708704655737
 11
1.0667962003849
 21
0.1525708704655737
 72
     1
 10
1.0667962003849
 20
0.1525708704655737
 11
1.074352207068231
 21
0.1525708704655737
 72
     1
 10
1.074352207068232
 20
0.1525708704655737
 11
1.082747770049711
 21
0.1525708704655737
 72
     1
 10
1.082747770049711
 20
0.1525708704655737
 11
1.0915164691637
 21
0.1525708704655737
 72
     1
 10
1.091516469163701
 20
0.1525708704655737
 11
1.100565020377075
 21
0.1525708704655737
 72
     1
 10
1.100565020377073
 20
0.1525708704655737
 11
1.109520287557319
 21
0.1525708704655737
 72
     1
 10
1.10952028755732
 20
0.1525708704655737
 11
1.118195702638183
 21
0.1525708704655737
 72
     1
 10
1.118195702638182
 20
0.1525708704655737
 11
1.126218129487151
 21
0.1525708704655737
 72
     1
 10
1.126218129487152
 20
0.1525708704655737
 11
1.133401000037974
 21
0.1525708704655737
 72
     1
 10
1.133401000037974
 20
0.1525708704655737
 11
1.139557746224391
 21
0.1525708704655737
 72
     1
 10
1.139557746224392
 20
0.1525708704655737
 11
1.14422194788077
 21
0.1525708704655737
 72
     1
 10
1.144221947880769
 20
0.1525708704655737
 11
1.147207036940851
 21
0.1525708704655737
 72
     1
 10
1.147207036940852
 20
0.1525708704655737
 11
1.148233161305255
 21
0.1525708704655737
 72
     1
 10
1.148233161305255
 20
0.1525708704655737
 11
1.148233161305255
 21
0.1730000737205081
 72
     1
 10
1.148233161305255
 20
0.1730000737205078
 11
1.147207036940852
 21
0.1730000737205078
 72
     1
 10
1.147207036940852
 20
0.1730000737205078
 11
1.14422194788077
 21
0.1730000737205078
 72
     1
 10
1.144221947880769
 20
0.1730000737205078
 11
1.139557746224391
 21
0.1730000737205078
 72
     1
 10
1.139557746224392
 20
0.1730000737205078
 11
1.133494284071101
 21
0.1730000737205078
 72
     1
 10
1.133494284071101
 20
0.1730000737205078
 11
1.126218129487152
 21
0.1730000737205078
 72
     1
 10
1.126218129487152
 20
0.1730000737205078
 11
1.118195702638183
 21
0.1730000737205078
 72
     1
 10
1.118195702638182
 20
0.1730000737205078
 11
1.10952028755732
 21
0.1730000737205078
 72
     1
 10
1.10952028755732
 20
0.1730000737205078
 11
1.100565020377074
 21
0.1730000737205078
 72
     1
 10
1.100565020377073
 20
0.1730000737205078
 11
1.0915164691637
 21
0.1730000737205078
 72
     1
 10
1.091516469163701
 20
0.1730000737205078
 11
1.082747770049712
 21
0.1730000737205078
 72
     1
 10
1.082747770049711
 20
0.1730000737205078
 11
1.074352207068231
 21
0.1730000737205078
 72
     1
 10
1.074352207068232
 20
0.1730000737205078
 11
1.0667962003849
 21
0.1730000737205078
 72
     1
 10
1.0667962003849
 20
0.1730000737205078
 11
1.060173034032843
 21
0.1730000737205078
 72
     1
 10
1.060173034032843
 20
0.1730000737205078
 11
1.054949128177701
 21
0.1730000737205078
 72
     1
 10
1.0549491281777
 20
0.1730000737205078
 11
1.051217766852597
 21
0.1730000737205078
 72
     1
 10
1.051217766852596
 20
0.1730000737205078
 11
1.049352086190045
 21
0.1730000737205078
 72
     1
 10
1.049352086190046
 20
0.1730000737205078
 11
1.049352086190046
 21
0.1754254585818243
 72
     1
 10
1.049352086190046
 20
0.1754254585818245
 11
1.049352086190046
 21
0.1794366720063095
 72
     1
 10
1.049352086190046
 20
0.1794366720063094
 11
1.049352086190046
 21
0.1843807257620694
 72
     1
 10
1.049352086190046
 20
0.1843807257620694
 11
1.049352086190046
 21
0.1898844837165951
 72
     1
 10
1.049352086190046
 20
0.1898844837165951
 11
1.049352086190046
 21
0.1952949576379935
 72
     1
 10
1.049352086190046
 20
0.1952949576379937
 11
1.049352086190046
 21
0.2003322954268815
 72
     1
 10
1.049352086190046
 20
0.2003322954268814
 11
1.049352086190046
 21
0.2042502248182386
 72
     1
 10
1.049352086190046
 20
0.2042502248182386
 11
1.049352086190046
 21
0.206675609679555
 72
     1
 10
1.049352086190046
 20
0.206675609679555
 11
1.051217766852597
 21
0.206675609679555
 72
     1
 10
1.051217766852596
 20
0.206675609679555
 11
1.055042412210825
 21
0.206675609679555
 72
     1
 10
1.055042412210827
 20
0.206675609679555
 11
1.060452886132226
 21
0.206675609679555
 72
     1
 10
1.060452886132225
 20
0.206675609679555
 11
1.067169336517409
 21
0.206675609679555
 72
     1
 10
1.06716933651741
 20
0.206675609679555
 11
1.075005195300124
 21
0.206675609679555
 72
     1
 10
1.075005195300123
 20
0.206675609679555
 11
1.083494042314731
 21
0.206675609679555
 72
     1
 10
1.083494042314732
 20
0.206675609679555
 11
1.092542593528105
 21
0.206675609679555
 72
     1
 10
1.092542593528106
 20
0.206675609679555
 11
1.10187099684086
 21
0.206675609679555
 72
     1
 10
1.101870996840861
 20
0.206675609679555
 11
1.111106116120489
 21
0.206675609679555
 72
     1
 10
1.111106116120488
 20
0.206675609679555
 11
1.119968099267605
 21
0.206675609679555
 72
     1
 10
1.119968099267605
 20
0.206675609679555
 11
1.128270378215957
 21
0.206675609679555
 72
     1
 10
1.128270378215957
 20
0.206675609679555
 11
1.135639816833034
 21
0.206675609679555
 72
     1
 10
1.135639816833034
 20
0.206675609679555
 11
1.14188984705258
 21
0.206675609679555
 72
     1
 10
1.141889847052581
 20
0.206675609679555
 11
1.146647332742086
 21
0.206675609679555
 72
     1
 10
1.146647332742086
 20
0.206675609679555
 11
1.149725705835295
 21
0.206675609679555
 72
     1
 10
1.149725705835296
 20
0.206675609679555
 11
1.150845114232827
 21
0.206675609679555
 72
     1
 10
1.150845114232826
 20
0.206675609679555
 11
1.150845114232826
 21
0.2277578011663822
 72
     1
 10
1.150845114232826
 20
0.2277578011663825
 11
1.148326445338383
 21
0.2277578011663825
 72
     1
 10
1.148326445338383
 20
0.2277578011663825
 11
1.025937793875031
 21
0.2277578011663825
 72
     1
 10
1.025937793875032
 20
0.2277578011663825
 11
1.025937793875032
 21
0.0926825211976832
 72
     1
 10
1.025937793875032
 20
0.0926825211976832
 11
1.155602599922332
 21
0.0926825211976832
 72
     1
 10
1.155602599922332
 20
0.0926825211976832
 11
1.155602599922332
 21
0.113671428651383
 72
     1
 10
1.155602599922332
 20
0.1136714286513832
 11
1.154483191524801
 21
0.1136714286513832
 72
     1
 10
1.154483191524799
 20
0.1136714286513832
 11
1.151218250365336
 21
0.1136714286513832
 72
     1
 10
1.151218250365338
 20
0.1136714286513832
 11
1.146180912576449
 21
0.1136714286513832
 72
     1
 10
1.146180912576449
 20
0.1136714286513832
 11
1.13965103025752
 21
0.1136714286513832
 72
     1
 10
1.13965103025752
 20
0.1136714286513832
 11
1.131908455507932
 21
0.1136714286513832
 72
     1
 10
1.131908455507931
 20
0.1136714286513832
 11
1.12323304042707
 21
0.1136714286513832
 72
     1
 10
1.123233040427071
 20
0.1136714286513832
 11
1.113904637114314
 21
0.1136714286513832
 72
     1
 10
1.113904637114314
 20
0.1136714286513832
 11
1.104296381702177
 21
0.1136714286513832
 72
     1
 10
1.104296381702177
 20
0.1136714286513832
 11
1.094501558223783
 21
0.1136714286513832
 72
     1
 10
1.094501558223784
 20
0.1136714286513832
 11
1.085079870877901
 21
0.1136714286513832
 72
     1
 10
1.085079870877899
 20
0.1136714286513832
 11
1.076124603697654
 21
0.1136714286513832
 72
     1
 10
1.076124603697655
 20
0.1136714286513832
 11
1.067915608782429
 21
0.1136714286513832
 72
     1
 10
1.067915608782429
 20
0.1136714286513832
 11
1.060919306297863
 21
0.1136714286513832
 72
     1
 10
1.060919306297863
 20
0.1136714286513832
 11
1.055228980277083
 21
0.1136714286513832
 72
     1
 10
1.055228980277082
 20
0.1136714286513832
 11
1.051311050885725
 21
0.1136714286513832
 72
     1
 10
1.051311050885726
 20
0.1136714286513832
 11
1.049352086190046
 21
0.1136714286513832
 72
     1
 10
1.049352086190046
 20
0.1136714286513832
 11
1.049352086190046
 21
0.1163766656120825
 72
     1
 10
1.049352086190046
 20
0.1163766656120823
 11
1.049352086190046
 21
0.1209475832353323
 72
     1
 10
1.049352086190046
 20
0.1209475832353325
 11
1.049352086190046
 21
0.1267311932892411
 72
     1
 10
1.049352086190046
 20
0.1267311932892408
 11
1.049352086190046
 21
0.1330745075419143
 72
     1
 10
1.049352086190046
 20
0.1330745075419144
 11
1.049352086190046
 21
0.1395111058277156
 72
     1
 10
1.049352086190046
 20
0.1395111058277158
 11
1.049352086190046
 21
0.1452947158816239
 72
     1
 10
1.049352086190046
 20
0.145294715881624
 11
1.049352086190046
 21
0.1498656335048746
 72
     1
 10
1.049352086190046
 20
0.1498656335048745
 11
1.049352086190046
 21
0.1525708704655738
 97
        0
 75
     0
 76
     1
 98
        1
 10
-0.3743130907707726
 20
-0.2500502867693841
1001
ACAD
1010
0.0
1020
0.0
1030
0.0
  0
HATCH
  5
C32
330
C2B
100
AcDbEntity
  8
Kawneer Logo-English
100
AcDbHatch
 10
0.0
 20
0.0
 30
0.0
210
0.0
220
0.0
230
1.0
  2
SOLID
 70
     1
 71
     0
 91
        1
 92
        1
 93
       42
 72
     1
 10
0.9725793269260698
 20
0.2277578011663825
 11
0.9725793269260698
 21
0.1354998924032311
 72
     1
 10
0.9725793269260698
 20
0.1354998924032311
 11
0.9729524630585808
 21
0.1264513411898582
 72
     1
 10
0.9729524630585796
 20
0.1264513411898583
 11
0.9729524630585796
 21
0.1255185008585825
 72
     1
 10
0.9729524630585796
 20
0.1255185008585824
 11
0.9731390311248343
 21
0.1238393882622866
 72
     1
 10
0.9731390311248349
 20
0.1238393882622866
 11
0.9717397706279211
 21
0.1254252168254551
 72
     1
 10
0.97173977062792
 20
0.1254252168254551
 11
0.9710867823960281
 21
0.1262647731236031
 72
     1
 10
0.9710867823960294
 20
0.1262647731236031
 11
0.9641837639445897
 21
0.1339140638400625
 72
     1
 10
0.9641837639445899
 20
0.1339140638400624
 11
0.8755639324734129
 21
0.2277578011663823
 72
     1
 10
0.8755639324734115
 20
0.2277578011663825
 11
0.8529891964565429
 21
0.2277578011663825
 72
     1
 10
0.8529891964565434
 20
0.2277578011663825
 11
0.8529891964565434
 21
0.0926825211976832
 72
     1
 10
0.8529891964565434
 20
0.0926825211976832
 11
0.8756572165065401
 21
0.0926825211976832
 72
     1
 10
0.875657216506541
 20
0.0926825211976832
 11
0.875657216506541
 21
0.1927762887435495
 72
     1
 10
0.875657216506541
 20
0.1927762887435495
 11
0.875657216506541
 21
0.1931494248760597
 72
     1
 10
0.875657216506541
 20
0.1931494248760596
 11
0.8755639324734129
 21
0.193988981174208
 72
     1
 10
0.8755639324734115
 20
0.1939889811742079
 11
0.8754706484402849
 21
0.1952949576379935
 72
     1
 10
0.8754706484402859
 20
0.1952949576379937
 11
0.8753773644071577
 21
0.1967875021680344
 72
     1
 10
0.875377364407158
 20
0.1967875021680343
 11
0.8755639324734126
 21
0.1965076500686515
 72
     1
 10
0.8755639324734115
 20
0.1965076500686517
 11
0.8756572165065396
 21
0.1963210820023967
 72
     1
 10
0.875657216506541
 20
0.1963210820023967
 11
0.8764967728046894
 21
0.1954815257042487
 72
     1
 10
0.8764967728046887
 20
0.1954815257042488
 11
0.8781758854009835
 21
0.1936158450416976
 72
     1
 10
0.8781758854009842
 20
0.1936158450416973
 11
0.8797617139641527
 21
0.1917501643791464
 72
     1
 10
0.879761713964152
 20
0.1917501643791466
 11
0.8805079862291723
 21
0.1909106080809982
 72
     1
 10
0.8805079862291727
 20
0.190910608080998
 11
0.8816273946267036
 21
0.1897911996834678
 72
     1
 10
0.8816273946267028
 20
0.1897911996834681
 11
0.884519199653657
 21
0.1867128265902584
 72
     1
 10
0.8845191996536581
 20
0.1867128265902582
 11
0.8891834013100353
 21
0.1818620568676254
 72
     1
 10
0.889183401310035
 20
0.1818620568676252
 11
0.8951535794301982
 21
0.1756120266480794
 72
     1
 10
0.8951535794301985
 20
0.1756120266480794
 11
0.9021498819147662
 21
0.1681493039978751
 72
     1
 10
0.9021498819147669
 20
0.1681493039978752
 11
0.9099857406974814
 21
0.1598470250495227
 72
     1
 10
0.9099857406974813
 20
0.1598470250495225
 11
0.9183813036789613
 21
0.1509850419024051
 72
     1
 10
0.9183813036789612
 20
0.1509850419024052
 11
0.9271500027929521
 21
0.1418432066559046
 72
     1
 10
0.9271500027929509
 20
0.1418432066559046
 11
0.9358254178738118
 21
0.1326080873762767
 72
     1
 10
0.9358254178738132
 20
0.1326080873762767
 11
0.9442209808552931
 21
0.1237461042291589
 72
     1
 10
0.9442209808552931
 20
0.1237461042291589
 11
0.9520568396380092
 21
0.1154438252808068
 72
     1
 10
0.9520568396380092
 20
0.1154438252808068
 11
0.9590531421225751
 21
0.1079811026306025
 72
     1
 10
0.959053142122574
 20
0.1079811026306024
 11
0.9650233202427372
 21
0.101731072411056
 72
     1
 10
0.9650233202427376
 20
0.101731072411056
 11
0.9695942378659868
 21
0.0968803026884232
 72
     1
 10
0.9695942378659871
 20
0.096880302688423
 11
0.9725793269260696
 21
0.0938019295952138
 72
     1
 10
0.9725793269260698
 20
0.093801929595214
 11
0.9736054512904727
 21
0.0926825211976834
 72
     1
 10
0.9736054512904726
 20
0.0926825211976832
 11
0.9952473469760661
 21
0.0926825211976832
 72
     1
 10
0.9952473469760651
 20
0.0926825211976832
 11
0.9952473469760651
 21
0.2277578011663825
 72
     1
 10
0.9952473469760651
 20
0.2277578011663825
 11
0.9927286780816201
 21
0.2277578011663825
 72
     1
 10
0.9927286780816203
 20
0.2277578011663825
 11
0.9725793269260686
 21
0.2277578011663825
 97
        0
 75
     0
 76
     1
 98
        1
 10
-0.3743130907707726
 20
-0.2500502867693841
1001
ACAD
1010
0.0
1020
0.0
1030
0.0
  0
HATCH
  5
C33
330
C2B
100
AcDbEntity
  8
Kawneer Logo-English
100
AcDbHatch
 10
0.0
 20
0.0
 30
0.0
210
0.0
220
0.0
230
1.0
  2
SOLID
 70
     1
 71
     0
 91
        2
 92
       16
 93
       32
 72
     1
 10
0.5269615006757409
 20
0.144641727649731
 11
0.5290137494045469
 21
0.148652941074216
 72
     1
 10
0.5290137494045464
 20
0.1486529410742159
 11
0.5322786905640116
 21
0.1551828233931449
 72
     1
 10
0.532278690564012
 20
0.1551828233931452
 11
0.5364764720547521
 21
0.1633918183083696
 72
     1
 10
0.5364764720547526
 20
0.1633918183083696
 11
0.5409541056448736
 21
0.1722538014554874
 72
     1
 10
0.5409541056448726
 20
0.1722538014554873
 11
0.545338455201869
 21
0.1808359325032223
 72
     1
 10
0.5453384552018701
 20
0.1808359325032223
 11
0.5490698165269726
 21
0.1882053711202994
 72
     1
 10
0.549069816526973
 20
0.1882053711202996
 11
0.5515884854214162
 21
0.1932427089091875
 72
     1
 10
0.5515884854214148
 20
0.1932427089091872
 11
0.5526146097858177
 21
0.1952016736048658
 72
     1
 10
0.5526146097858194
 20
0.1952016736048658
 11
0.552801177852074
 21
0.195761377803631
 72
     1
 10
0.5528011778520723
 20
0.1957613778036309
 11
0.5533608820508379
 21
0.1970673542674166
 72
     1
 10
0.5533608820508378
 20
0.1970673542674169
 11
0.5542004383489863
 21
0.1990263189630955
 72
     1
 10
0.5542004383489872
 20
0.1990263189630952
 11
0.5550399946471356
 21
0.2012651357581567
 72
     1
 10
0.5550399946471352
 20
0.2012651357581567
 11
0.5555064148127727
 21
0.2001457273606265
 72
     1
 10
0.5555064148127729
 20
0.2001457273606264
 11
0.5560661190115385
 21
0.198933034929968
 72
     1
 10
0.5560661190115379
 20
0.198933034929968
 11
0.5567191072434298
 21
0.197533774433055
 72
     1
 10
0.5567191072434304
 20
0.197533774433055
 11
0.5574653795084506
 21
0.1959479458698865
 72
     1
 10
0.557465379508451
 20
0.1959479458698865
 11
0.5583049358065995
 21
0.1942688332735902
 72
     1
 10
0.5583049358065986
 20
0.1942688332735903
 11
0.5606370366347874
 21
0.1896046316172126
 72
     1
 10
0.5606370366347871
 20
0.1896046316172126
 11
0.5639952618273804
 21
0.1828881812320289
 72
     1
 10
0.5639952618273814
 20
0.1828881812320287
 11
0.5680064752518651
 21
0.1748657543830587
 72
     1
 10
0.5680064752518637
 20
0.1748657543830589
 11
0.57239082480886
 21
0.1661903393021966
 72
     1
 10
0.5723908248088612
 20
0.1661903393021967
 11
0.5765886062996012
 21
0.1577947763207168
 72
     1
 10
0.5765886062996
 20
0.1577947763207165
 11
0.5803199676247008
 21
0.1503320536705122
 72
     1
 10
0.5803199676247015
 20
0.1503320536705122
 11
0.5831184886185295
 21
0.144641727649731
 72
     1
 10
0.5831184886185295
 20
0.144641727649731
 11
0.5791072751940441
 21
0.144641727649731
 72
     1
 10
0.5791072751940436
 20
0.144641727649731
 11
0.5724841088419869
 21
0.144641727649731
 72
     1
 10
0.5724841088419872
 20
0.144641727649731
 11
0.5641818298936356
 21
0.144641727649731
 72
     1
 10
0.5641818298936352
 20
0.144641727649731
 11
0.5550399946471351
 21
0.144641727649731
 72
     1
 10
0.5550399946471352
 20
0.144641727649731
 11
0.5458981594006351
 21
0.144641727649731
 72
     1
 10
0.5458981594006352
 20
0.144641727649731
 11
0.5375958804522815
 21
0.144641727649731
 72
     1
 10
0.5375958804522814
 20
0.144641727649731
 11
0.5310659981333528
 21
0.144641727649731
 72
     1
 10
0.5310659981333524
 20
0.144641727649731
 11
0.5269615006757405
 21
0.144641727649731
 97
        0
 92
        1
 93
      141
 72
     1
 10
0.5656743744236757
 20
0.2277578011663825
 11
0.544405614870593
 21
0.2277578011663825
 72
     1
 10
0.544405614870593
 20
0.2277578011663825
 11
0.4748157261574382
 21
0.0934287934627039
 72
     1
 10
0.4748157261574378
 20
0.0934287934627039
 11
0.4729500454948865
 21
0.0955743262246376
 72
     1
 10
0.4729500454948874
 20
0.0955743262246376
 11
0.4699649564348049
 21
0.0991191194834847
 72
     1
 10
0.4699649564348043
 20
0.0991191194834847
 11
0.4661403110765752
 21
0.1036900371067346
 72
     1
 10
0.4661403110765754
 20
0.1036900371067347
 11
0.4615693934533244
 21
0.1091005110281331
 72
     1
 10
0.461569393453325
 20
0.109100511028133
 11
0.456345487598182
 21
0.1152572572145517
 72
     1
 10
0.4563454875981812
 20
0.1152572572145516
 11
0.4506551615774008
 21
0.1219737075997353
 72
     1
 10
0.4506551615774015
 20
0.1219737075997354
 11
0.4447782674903648
 21
0.1290632941174296
 72
     1
 10
0.4447782674903636
 20
0.1290632941174296
 11
0.4387148053370722
 21
0.1362461646682511
 72
     1
 10
0.4387148053370727
 20
0.1362461646682512
 11
0.4326513431837832
 21
0.1433357511859454
 72
     1
 10
0.4326513431837844
 20
0.1433357511859453
 11
0.4268677331298759
 21
0.1502387696373844
 72
     1
 10
0.4268677331298756
 20
0.1502387696373844
 11
0.4214572592084763
 21
0.1566753679231857
 72
     1
 10
0.4214572592084754
 20
0.1566753679231858
 11
0.4165132054527153
 21
0.1625522620102216
 72
     1
 10
0.4165132054527163
 20
0.1625522620102216
 11
0.4123154239619763
 21
0.1674963157659821
 72
     1
 10
0.4123154239619753
 20
0.1674963157659822
 11
0.4088639147362555
 21
0.1715075291904667
 72
     1
 10
0.4088639147362568
 20
0.1715075291904669
 11
0.4065318139080681
 21
0.1743993342174211
 72
     1
 10
0.4065318139080665
 20
0.1743993342174211
 11
0.405319121477409
 21
0.1757985947143345
 72
     1
 10
0.4053191214774104
 20
0.1757985947143345
 11
0.4067183819743243
 21
0.1769180031118651
 72
     1
 10
0.4067183819743235
 20
0.1769180031118651
 11
0.4094236189350213
 21
0.1788769678075437
 72
     1
 10
0.4094236189350218
 20
0.1788769678075437
 11
0.4132482642932526
 21
0.1816754888013702
 72
     1
 10
0.4132482642932525
 20
0.1816754888013703
 11
0.4179124659496298
 21
0.1852202820602174
 72
     1
 10
0.417912465949629
 20
0.1852202820602174
 11
0.4232296558379
 21
0.189138211451575
 72
     1
 10
0.4232296558379001
 20
0.1891382114515751
 11
0.4291065499249351
 21
0.1935225610085696
 72
     1
 10
0.4291065499249367
 20
0.1935225610085698
 11
0.4352632961113562
 21
0.1981867626649482
 72
     1
 10
0.4352632961113554
 20
0.1981867626649479
 11
0.4416066103640296
 21
0.2028509643213252
 72
     1
 10
0.4416066103640293
 20
0.2028509643213252
 11
0.4479499246167016
 21
0.2076084500108307
 72
     1
 10
0.4479499246167018
 20
0.2076084500108307
 11
0.4540133867699932
 21
0.2120860836009535
 72
     1
 10
0.4540133867699927
 20
0.2120860836009535
 11
0.4596104287576467
 21
0.2162838650916932
 72
     1
 10
0.4596104287576468
 20
0.216283865091693
 11
0.4646477665465351
 21
0.2200152264167952
 72
     1
 10
0.464647766546535
 20
0.2200152264167951
 11
0.4689388320704013
 21
0.223186883543132
 72
     1
 10
0.4689388320704016
 20
0.2231868835431323
 11
0.4721104891967386
 21
0.2256122684044488
 72
     1
 10
0.4721104891967376
 20
0.2256122684044488
 11
0.4742560219586717
 21
0.2271980969676172
 72
     1
 10
0.4742560219586727
 20
0.2271980969676173
 11
0.475002294223693
 21
0.2277578011663825
 72
     1
 10
0.4750022942236929
 20
0.2277578011663825
 11
0.4674462875403612
 21
0.2277578011663825
 72
     1
 10
0.4674462875403611
 20
0.2277578011663825
 11
0.4395543616352215
 21
0.2277578011663825
 72
     1
 10
0.439554361635222
 20
0.2277578011663825
 11
0.4386215213039473
 21
0.2270115289013622
 72
     1
 10
0.4386215213039466
 20
0.2270115289013622
 11
0.4359162843432469
 21
0.2250525642056836
 72
     1
 10
0.4359162843432465
 20
0.2250525642056836
 11
0.4318117868856346
 21
0.2220674751456017
 72
     1
 10
0.4318117868856351
 20
0.2220674751456017
 11
0.4264013129642376
 21
0.2180562617211167
 72
     1
 10
0.4264013129642379
 20
0.2180562617211168
 11
0.4200579987115638
 21
0.2132987760316117
 72
     1
 10
0.4200579987115641
 20
0.2132987760316114
 11
0.4128751281607416
 21
0.2079815861433408
 72
     1
 10
0.4128751281607408
 20
0.2079815861433408
 11
0.4051325534111546
 21
0.20229126012256
 72
     1
 10
0.4051325534111552
 20
0.20229126012256
 11
0.397016842529058
 21
0.1963210820023964
 72
     1
 10
0.3970168425290583
 20
0.1963210820023967
 11
0.3889011316469611
 21
0.1903509038822331
 72
     1
 10
0.3889011316469611
 20
0.190350903882233
 11
0.3808787047979902
 21
0.1844740097951972
 72
     1
 10
0.3808787047979898
 20
0.1844740097951974
 11
0.3733226981146581
 21
0.1787836837744166
 72
     1
 10
0.373322698114658
 20
0.1787836837744166
 11
0.3663263956300919
 21
0.173653061952401
 72
     1
 10
0.3663263956300931
 20
0.173653061952401
 11
0.3601696494436735
 21
0.169082144329151
 72
     1
 10
0.3601696494436726
 20
0.1690821443291508
 11
0.3550390276216579
 21
0.1653507830040483
 72
     1
 10
0.3550390276216584
 20
0.1653507830040482
 11
0.3513076662965558
 21
0.1625522620102218
 72
     1
 10
0.3513076662965551
 20
0.1625522620102216
 11
0.3490688495014928
 21
0.1609664334470531
 72
     1
 10
0.3490688495014926
 20
0.1609664334470531
 11
0.3490688495014926
 21
0.1631119662089868
 72
     1
 10
0.3490688495014926
 20
0.1631119662089868
 11
0.3490688495014926
 21
0.1662836233353237
 72
     1
 10
0.3490688495014926
 20
0.1662836233353238
 11
0.3490688495014926
 21
0.1702948367598088
 72
     1
 10
0.3490688495014926
 20
0.1702948367598088
 11
0.3490688495014926
 21
0.1749590384161865
 72
     1
 10
0.3490688495014926
 20
0.1749590384161865
 11
0.3490688495014926
 21
0.1801829442713294
 72
     1
 10
0.3490688495014926
 20
0.1801829442713296
 11
0.3490688495014926
 21
0.185779986258983
 72
     1
 10
0.3490688495014926
 20
0.1857799862589829
 11
0.3490688495014926
 21
0.1916568803460187
 72
     1
 10
0.3490688495014926
 20
0.1916568803460186
 11
0.3490688495014926
 21
0.1975337744330549
 72
     1
 10
0.3490688495014926
 20
0.197533774433055
 11
0.3490688495014926
 21
0.2033173844869632
 72
     1
 10
0.3490688495014926
 20
0.2033173844869631
 11
0.3490688495014926
 21
0.2088211424414888
 72
     1
 10
0.3490688495014926
 20
0.2088211424414888
 11
0.3490688495014926
 21
0.2139517642635044
 72
     1
 10
0.3490688495014926
 20
0.2139517642635044
 11
0.3490688495014926
 21
0.2185226818867544
 72
     1
 10
0.3490688495014926
 20
0.2185226818867545
 11
0.3490688495014926
 21
0.2222540432118567
 72
     1
 10
0.3490688495014926
 20
0.2222540432118567
 11
0.3490688495014926
 21
0.2252391322719387
 72
     1
 10
0.3490688495014926
 20
0.2252391322719387
 11
0.3490688495014926
 21
0.2271048129344895
 72
     1
 10
0.3490688495014926
 20
0.2271048129344895
 11
0.3490688495014926
 21
0.2277578011663825
 72
     1
 10
0.3490688495014926
 20
0.2277578011663825
 11
0.3258411252527322
 21
0.2277578011663825
 72
     1
 10
0.3258411252527336
 20
0.2277578011663825
 11
0.3258411252527336
 21
0.0926825211976832
 72
     1
 10
0.3258411252527336
 20
0.0926825211976832
 11
0.3486957133689848
 21
0.0926825211976832
 72
     1
 10
0.3486957133689845
 20
0.0926825211976832
 11
0.3486957133689845
 21
0.0943616337939795
 72
     1
 10
0.3486957133689845
 20
0.0943616337939795
 11
0.3486957133689845
 21
0.0988392673841017
 72
     1
 10
0.3486957133689845
 20
0.0988392673841017
 11
0.3486957133689845
 21
0.1051825816367752
 72
     1
 10
0.3486957133689845
 20
0.1051825816367753
 11
0.3486957133689845
 21
0.1125520202538523
 72
     1
 10
0.3486957133689845
 20
0.1125520202538524
 11
0.3486957133689845
 21
0.1200147429040567
 72
     1
 10
0.3486957133689845
 20
0.1200147429040567
 11
0.3486957133689845
 21
0.1267311932892408
 72
     1
 10
0.3486957133689845
 20
0.1267311932892408
 11
0.3486957133689845
 21
0.1317685310781287
 72
     1
 10
0.3486957133689845
 20
0.1317685310781289
 11
0.3486957133689845
 21
0.1342871999725727
 72
     1
 10
0.3486957133689845
 20
0.1342871999725725
 11
0.3507479620977905
 21
0.1356864604694859
 72
     1
 10
0.35074796209779
 20
0.1356864604694859
 11
0.3548524595554018
 21
0.1387648335626952
 72
     1
 10
0.3548524595554015
 20
0.1387648335626952
 11
0.3605427855761835
 21
0.1428693310203079
 72
     1
 10
0.3605427855761842
 20
0.1428693310203079
 11
0.3668860998288565
 21
0.1476268167098129
 72
     1
 10
0.3668860998288568
 20
0.1476268167098129
 11
0.373322698114659
 21
0.1522910183661906
 72
     1
 10
0.373322698114658
 20
0.1522910183661908
 11
0.3791995922016947
 21
0.1565820838900582
 72
     1
 10
0.3791995922016946
 20
0.1565820838900582
 11
0.3836772257918156
 21
0.1599403090826502
 72
     1
 10
0.3836772257918159
 20
0.1599403090826503
 11
0.386195894686261
 21
0.1618059897452011
 72
     1
 10
0.3861958946862609
 20
0.1618059897452011
 11
0.3873153030837921
 21
0.1604067292482882
 72
     1
 10
0.3873153030837915
 20
0.1604067292482878
 11
0.3894608358457238
 21
0.1577947763207163
 72
     1
 10
0.3894608358457248
 20
0.1577947763207165
 11
0.3925392089389353
 21
0.1541566990287417
 72
     1
 10
0.3925392089389348
 20
0.1541566990287417
 11
0.396457138330292
 21
0.149492497372364
 72
     1
 10
0.3964571383302933
 20
0.149492497372364
 11
0.4009347719204161
 21
0.1442685915172211
 72
     1
 10
0.4009347719204146
 20
0.1442685915172209
 11
0.4057855416430466
 21
0.138391697430185
 72
     1
 10
0.4057855416430463
 20
0.1383916974301853
 11
0.4109161634650628
 21
0.1322349512437666
 72
     1
 10
0.410916163465064
 20
0.1322349512437666
 11
0.4162333533533335
 21
0.1259849210242201
 72
     1
 10
0.4162333533533334
 20
0.1259849210242201
 11
0.4215505432416044
 21
0.1196416067715466
 72
     1
 10
0.4215505432416045
 20
0.1196416067715466
 11
0.4265878810304927
 21
0.113671428651383
 72
     1
 10
0.4265878810304931
 20
0.1136714286513832
 11
0.4312520826868704
 21
0.1079811026306024
 72
     1
 10
0.4312520826868696
 20
0.1079811026306024
 11
0.4355431482107378
 21
0.1029437648417141
 72
     1
 10
0.435543148210738
 20
0.1029437648417139
 11
0.4390879414695842
 21
0.0987459833509739
 72
     1
 10
0.4390879414695843
 20
0.0987459833509741
 11
0.4417931784302841
 21
0.0954810421915098
 72
     1
 10
0.4417931784302845
 20
0.0954810421915096
 11
0.4435655750597076
 21
0.0934287934627037
 72
     1
 10
0.4435655750597074
 20
0.0934287934627039
 11
0.4442185632915993
 21
0.0926825211976832
 72
     1
 10
0.4442185632915985
 20
0.0926825211976832
 11
0.4743493059918004
 21
0.0926825211976832
 72
     1
 10
0.4743493059918001
 20
0.0926825211976832
 11
0.4753754303562029
 21
0.0926825211976832
 72
     1
 10
0.4753754303562033
 20
0.0926825211976832
 11
0.5008419714000258
 21
0.0926825211976832
 72
     1
 10
0.5008419714000265
 20
0.0926825211976832
 11
0.5014949596319184
 21
0.0939884976614689
 72
     1
 10
0.501494959631919
 20
0.0939884976614688
 11
0.5031740722282155
 21
0.0973467228540609
 72
     1
 10
0.503174072228215
 20
0.0973467228540612
 11
0.5055061730564038
 21
0.1021042085435666
 72
     1
 10
0.505506173056403
 20
0.1021042085435665
 11
0.5083046940502291
 21
0.1077012505312196
 72
     1
 10
0.5083046940502292
 20
0.1077012505312194
 11
0.5111032150440553
 21
0.1134848605851279
 72
     1
 10
0.5111032150440549
 20
0.1134848605851281
 11
0.5137151679716264
 21
0.1186154824071433
 72
     1
 10
0.5137151679716277
 20
0.1186154824071433
 11
0.5156741326673071
 21
0.1226266958316283
 72
     1
 10
0.5156741326673076
 20
0.122626695831628
 11
0.5167002570317104
 21
0.1247722285935621
 72
     1
 10
0.5167002570317103
 20
0.1247722285935622
 11
0.5180062334954961
 21
0.1247722285935622
 72
     1
 10
0.5180062334954961
 20
0.1247722285935622
 11
0.5207114704561957
 21
0.1247722285935622
 72
     1
 10
0.5207114704561944
 20
0.1247722285935622
 11
0.5246293998475517
 21
0.1247722285935622
 72
     1
 10
0.5246293998475525
 20
0.1247722285935622
 11
0.5295734536033125
 21
0.1247722285935622
 72
     1
 10
0.5295734536033115
 20
0.1247722285935622
 11
0.5352637796240919
 21
0.1247722285935622
 72
     1
 10
0.5352637796240929
 20
0.1247722285935622
 11
0.5415138098436386
 21
0.1247722285935622
 72
     1
 10
0.5415138098436394
 20
0.1247722285935622
 11
0.5482302602288245
 21
0.1247722285935622
 72
     1
 10
0.5482302602288236
 20
0.1247722285935622
 11
0.5551332786802616
 21
0.1247722285935622
 72
     1
 10
0.5551332786802608
 20
0.1247722285935622
 11
0.5620362971317004
 21
0.1247722285935622
 72
     1
 10
0.5620362971317015
 20
0.1247722285935622
 11
0.5687527475168847
 21
0.1247722285935622
 72
     1
 10
0.5687527475168839
 20
0.1247722285935622
 11
0.5750027777364317
 21
0.1247722285935622
 72
     1
 10
0.5750027777364322
 20
0.1247722285935622
 11
0.5806931037572126
 21
0.1247722285935622
 72
     1
 10
0.5806931037572119
 20
0.1247722285935622
 11
0.585637157512972
 21
0.1247722285935622
 72
     1
 10
0.5856371575129727
 20
0.1247722285935622
 11
0.5895550869043299
 21
0.1247722285935622
 72
     1
 10
0.5895550869043289
 20
0.1247722285935622
 11
0.5922603238650286
 21
0.1247722285935622
 72
     1
 10
0.5922603238650291
 20
0.1247722285935622
 11
0.5935663003288148
 21
0.1247722285935622
 72
     1
 10
0.5935663003288148
 20
0.1247722285935622
 11
0.5945924246932176
 21
0.1226266958316281
 72
     1
 10
0.5945924246932175
 20
0.122626695831628
 11
0.5965513893888953
 21
0.1186154824071431
 72
     1
 10
0.5965513893888957
 20
0.1186154824071433
 11
0.5991633423164672
 21
0.1134848605851281
 72
     1
 10
0.5991633423164667
 20
0.1134848605851281
 11
0.6019618633102946
 21
0.1077012505312196
 72
     1
 10
0.6019618633102959
 20
0.1077012505312194
 11
0.604760384304122
 21
0.1021042085435664
 72
     1
 10
0.6047603843041221
 20
0.1021042085435665
 11
0.6070924851323109
 21
0.0973467228540611
 72
     1
 10
0.6070924851323101
 20
0.0973467228540612
 11
0.6087715977286067
 21
0.0939884976614691
 72
     1
 10
0.6087715977286062
 20
0.0939884976614688
 11
0.609424585960498
 21
0.0926825211976832
 72
     1
 10
0.6094245859604986
 20
0.0926825211976832
 11
0.6363836715343633
 21
0.0926825211976832
 72
     1
 10
0.6363836715343641
 20
0.0926825211976832
 11
0.5671669189537184
 21
0.2277578011663825
 72
     1
 10
0.5671669189537179
 20
0.2277578011663825
 11
0.5656743744236758
 21
0.2277578011663825
 97
        0
 75
     0
 76
     1
 98
        1
 10
-0.3743130907707726
 20
-0.2500502867693841
1001
ACAD
1010
0.0
1020
0.0
1030
0.0
  0
HATCH
  5
C34
330
C2B
100
AcDbEntity
  8
Kawneer Logo-English
100
AcDbHatch
 10
0.0
 20
0.0
 30
0.0
210
0.0
220
0.0
230
1.0
  2
SOLID
 70
     1
 71
     0
 91
        1
 92
        1
 93
       69
 72
     1
 10
0.8092389849197205
 20
0.2277578011663825
 11
0.778921674153266
 21
0.1309289747799811
 72
     1
 10
0.778921674153267
 20
0.1309289747799809
 11
0.7781754018882468
 21
0.1287834420180468
 72
     1
 10
0.7781754018882468
 20
0.1287834420180467
 11
0.7776156976894812
 21
0.1270110453886236
 72
     1
 10
0.7776156976894813
 20
0.1270110453886237
 11
0.7771492775238438
 21
0.1253319327923275
 72
     1
 10
0.7771492775238436
 20
0.1253319327923274
 11
0.7766828573582045
 21
0.1238393882622867
 72
     1
 10
0.7766828573582046
 20
0.1238393882622866
 11
0.7764030052588217
 21
0.1248655126266895
 72
     1
 10
0.776403005258822
 20
0.1248655126266896
 11
0.7761231531594392
 21
0.1259849210242202
 72
     1
 10
0.7761231531594391
 20
0.1259849210242201
 11
0.7759365850931844
 21
0.1268244773223681
 72
     1
 10
0.7759365850931843
 20
0.1268244773223682
 11
0.7758433010600562
 21
0.1271976134548783
 72
     1
 10
0.7758433010600552
 20
0.1271976134548783
 11
0.7755634489606744
 21
0.1280371697530267
 72
     1
 10
0.775563448960674
 20
0.1280371697530267
 11
0.7750970287950349
 21
0.1291565781505569
 72
     1
 10
0.7750970287950363
 20
0.1291565781505568
 11
0.773977620397507
 21
0.1323282352768938
 72
     1
 10
0.7739776203975062
 20
0.1323282352768939
 11
0.7721119397349549
 21
0.1372722890326544
 72
     1
 10
0.7721119397349554
 20
0.1372722890326546
 11
0.7697798389067666
 21
0.1436156032853281
 72
     1
 10
0.769779838906767
 20
0.1436156032853281
 11
0.7670746019460673
 21
0.1511716099686602
 72
     1
 10
0.7670746019460668
 20
0.15117160996866
 11
0.7639962288528581
 21
0.1595671729501399
 72
     1
 10
0.7639962288528582
 20
0.15956717295014
 11
0.7606380036602665
 21
0.1686157241635125
 72
     1
 10
0.7606380036602652
 20
0.1686157241635125
 11
0.7572797784676718
 21
0.1778508434431408
 72
     1
 10
0.7572797784676726
 20
0.1778508434431408
 11
0.753921553275081
 21
0.187179246755896
 72
     1
 10
0.7539215532750814
 20
0.1871792467558961
 11
0.7505633280824898
 21
0.1962277979692689
 72
     1
 10
0.7505633280824902
 20
0.1962277979692689
 11
0.7474849549892814
 21
0.2046233609507488
 72
     1
 10
0.7474849549892797
 20
0.2046233609507488
 11
0.74477971802858
 21
0.2121793676340809
 72
     1
 10
0.7447797180285814
 20
0.2121793676340809
 11
0.7424476172003926
 21
0.2185226818867544
 72
     1
 10
0.7424476172003929
 20
0.2185226818867545
 11
0.7405819365378416
 21
0.2234667356425151
 72
     1
 10
0.7405819365378408
 20
0.2234667356425151
 11
0.7394625281403098
 21
0.2266383927688516
 72
     1
 10
0.7394625281403103
 20
0.2266383927688516
 11
0.7390893920078009
 21
0.2277578011663822
 72
     1
 10
0.7390893920078004
 20
0.2277578011663825
 11
0.7191266089185034
 21
0.2277578011663825
 72
     1
 10
0.7191266089185029
 20
0.2277578011663825
 11
0.6843316645619254
 21
0.1336342117406798
 72
     1
 10
0.6843316645619267
 20
0.1336342117406795
 11
0.6832122561643957
 21
0.130649122680598
 72
     1
 10
0.6832122561643961
 20
0.1306491226805981
 11
0.6823726998662476
 21
0.1282237378192816
 72
     1
 10
0.6823726998662468
 20
0.1282237378192818
 11
0.6817197116343549
 21
0.1260782050573481
 72
     1
 10
0.6817197116343552
 20
0.1260782050573481
 11
0.6811600074355896
 21
0.1241192403616695
 72
     1
 10
0.6811600074355884
 20
0.1241192403616695
 11
0.6808801553362055
 21
0.1250520806929446
 72
     1
 10
0.6808801553362059
 20
0.1250520806929445
 11
0.6805070192036949
 21
0.1261714890904751
 72
     1
 10
0.680507019203696
 20
0.1261714890904752
 11
0.6802271671043131
 21
0.1272908974880058
 72
     1
 10
0.680227167104313
 20
0.1272908974880061
 11
0.6798540309718037
 21
0.1286901579849195
 72
     1
 10
0.6798540309718031
 20
0.1286901579849194
 11
0.6794808948392922
 21
0.12980956638245
 72
     1
 10
0.6794808948392932
 20
0.1298095663824503
 11
0.6784547704748904
 21
0.1328879394756595
 72
     1
 10
0.67845477047489
 20
0.1328879394756595
 11
0.6769622259448497
 21
0.1378319932314196
 72
     1
 10
0.6769622259448496
 20
0.1378319932314196
 11
0.6750032612491701
 21
0.1441753074840938
 72
     1
 10
0.6750032612491697
 20
0.1441753074840937
 11
0.6725778763878547
 21
0.1516380301342981
 72
     1
 10
0.6725778763878556
 20
0.1516380301342981
 11
0.6699659234602841
 21
0.160033593115778
 72
     1
 10
0.6699659234602829
 20
0.160033593115778
 11
0.6671674024664549
 21
0.168988860296023
 72
     1
 10
0.6671674024664554
 20
0.168988860296023
 11
0.6642755974395012
 21
0.1782239795756509
 72
     1
 10
0.6642755974395019
 20
0.178223979575651
 11
0.6613837924125477
 21
0.1874590988552789
 72
     1
 10
0.6613837924125466
 20
0.1874590988552789
 11
0.6585852714187205
 21
0.1964143660355239
 72
     1
 10
0.6585852714187204
 20
0.1964143660355237
 11
0.6559733184911489
 21
0.2047166449838762
 72
     1
 10
0.6559733184911494
 20
0.2047166449838765
 11
0.6536412176629606
 21
0.2122726516672082
 72
     1
 10
0.6536412176629614
 20
0.2122726516672082
 11
0.6515889689341538
 21
0.2186159659198823
 72
     1
 10
0.6515889689341537
 20
0.2186159659198821
 11
0.6500964244041133
 21
0.2234667356425149
 72
     1
 10
0.6500964244041132
 20
0.2234667356425151
 11
0.6490703000397104
 21
0.2266383927688516
 72
     1
 10
0.6490703000397105
 20
0.2266383927688516
 11
0.6487904479403276
 21
0.2277578011663822
 72
     1
 10
0.648790447940328
 20
0.2277578011663825
 11
0.6237903270621445
 21
0.2277578011663825
 72
     1
 10
0.6237903270621437
 20
0.2277578011663825
 11
0.6676338226320932
 21
0.0926825211976832
 72
     1
 10
0.6676338226320926
 20
0.0926825211976832
 11
0.6922608073777669
 21
0.0926825211976832
 72
     1
 10
0.6922608073777666
 20
0.0926825211976832
 11
0.726029627369941
 21
0.1855001341596003
 72
     1
 10
0.7260296273699423
 20
0.1855001341596003
 11
0.7269624677012189
 21
0.1882986551534267
 72
     1
 10
0.7269624677012177
 20
0.1882986551534266
 11
0.7278020239993661
 21
0.1906307559816158
 72
     1
 10
0.727802023999367
 20
0.1906307559816159
 11
0.7284550122312589
 21
0.1927762887435496
 72
     1
 10
0.7284550122312581
 20
0.1927762887435495
 11
0.7290147164300237
 21
0.1947352534392281
 72
     1
 10
0.7290147164300232
 20
0.1947352534392282
 11
0.7298542727281716
 21
0.192216584544784
 72
     1
 10
0.729854272728173
 20
0.1922165845447839
 11
0.7306938290263214
 21
0.1894180635509575
 72
     1
 10
0.7306938290263206
 20
0.1894180635509575
 11
0.7318132374238499
 21
0.1863396904577483
 72
     1
 10
0.7318132374238511
 20
0.1863396904577481
 11
0.7331192138876387
 21
0.1827016131657736
 72
     1
 10
0.7331192138876382
 20
0.1827016131657737
 11
0.7654887733828987
 21
0.0926825211976834
 72
     1
 10
0.7654887733828986
 20
0.0926825211976832
 11
0.7895560539298075
 21
0.0926825211976832
 72
     1
 10
0.7895560539298075
 20
0.0926825211976832
 11
0.8341458217647785
 21
0.2277578011663825
 72
     1
 10
0.8341458217647783
 20
0.2277578011663825
 11
0.830601028505932
 21
0.2277578011663825
 72
     1
 10
0.8306010285059324
 20
0.2277578011663825
 11
0.8092389849197216
 21
0.2277578011663825
 97
        0
 75
     0
 76
     1
 98
        1
 10
-0.3743130907707726
 20
-0.2500502867693841
1001
ACAD
1010
0.0
1020
0.0
1030
0.0
  0
ENDBLK
  5
C38
330
C2B
100
AcDbEntity
  8
0
100
AcDbBlockEnd
  0
ENDSEC
  0
SECTION
  2
ENTITIES
  0
LWPOLYLINE
  5
53
330
1F
100
AcDbEntity
  8
0
100
AcDbPolyline
 90
       34
 70
     1
 43
0.0
 10
13.94399141650435
 20
23.81286376833867
 42
0.4142135623730951
 10
13.92799141650435
 20
23.79686376833867
 10
13.92799141650435
 20
22.25336376833867
 10
13.86999141650435
 20
22.15286376833867
 10
13.83799141650435
 20
22.15286376833867
 10
13.83799141650435
 20
23.79686376833867
 42
0.4142135623730951
 10
13.82199141650435
 20
23.81286376833867
 10
12.25499141650435
 20
23.81286376833867
 10
12.25499141650435
 20
23.64486376833867
 10
12.29499141650435
 20
23.64486376833867
 10
12.26020004341442
 20
23.5843570325301
 42
-0.7680280789598953
 10
12.19299141650435
 20
23.60230199300339
 10
12.19299141650435
 20
23.81286376833867
 10
12.06499141650435
 20
23.81286376833867
 10
12.06499141650435
 20
23.74286376833867
 10
12.01499141650435
 20
23.74286376833867
 10
12.01499141650435
 20
23.81286376833867
 10
11.97499141650435
 20
23.81286376833867
 10
11.97499141650435
 20
23.90286376833867
 10
14.72499141650435
 20
23.90286376833867
 10
14.72499141650435
 20
22.66886376833867
 42
-0.4142135623730951
 10
14.70899141650435
 20
22.65286376833867
 10
14.59999141650435
 20
22.65286376833867
 10
14.59999141650435
 20
22.71486376833867
 10
14.61899141650435
 20
22.71486376833867
 42
0.4142135623730951
 10
14.63499141650435
 20
22.73086376833867
 10
14.63499141650435
 20
23.26186376833867
 42
0.4142135623730951
 10
14.61899141650435
 20
23.27786376833867
 10
14.59999141650435
 20
23.27786376833867
 10
14.59999141650435
 20
23.33986376833867
 10
14.61899141650435
 20
23.33986376833867
 42
0.4142135623730951
 10
14.63499141650435
 20
23.35586376833867
 10
14.63499141650435
 20
23.79686376833867
 42
0.4142135623730951
 10
14.61899141650435
 20
23.81286376833867
  0
LWPOLYLINE
  5
54
330
1F
100
AcDbEntity
  8
0
100
AcDbPolyline
 90
       22
 70
     1
 43
0.0
 10
17.90174370720616
 20
24.03594985438075
 10
17.90174370720616
 20
23.94594985438075
 10
17.90174370720616
 20
24.03594985438075
 10
22.15169370720616
 20
24.03594985438075
 10
22.15169370720616
 20
23.03594985438075
 10
22.06169370720616
 20
23.03594985438075
 10
22.06169370720616
 20
23.94594985438075
 10
21.37474370720616
 20
23.94594985438075
 10
21.37474370720616
 20
22.28594985438075
 10
21.28474370720616
 20
22.28594985438075
 10
21.28474370720616
 20
23.94594985438075
 10
18.18174370720616
 20
23.94594985438075
 10
18.18174370720616
 20
23.77794985438075
 10
18.22174370720616
 20
23.77794985438075
 10
18.14772972967287
 20
23.64992567702587
 42
-0.7670963001465942
 10
18.11974370720616
 20
23.65743322126444
 10
18.11974370720616
 20
23.94594985438075
 10
17.99174370720616
 20
23.94594985438075
 10
17.99174370720616
 20
23.87594985438075
 10
17.94174370720616
 20
23.87594985438075
 10
17.94174370720616
 20
23.94594985438075
 10
17.90174370720616
 20
23.94594985438075
  0
MTEXT
  5
55
330
1F
100
AcDbEntity
  8
TEXT
100
AcDbMText
 10
20.71175816696332
 20
14.844283824443
 30
0.0
 40
0.375
 41
5.15625
 71
     2
 72
     5
  1
6-1/8"\PSTOOL TRIM
 73
     1
 44
1.0
1001
ACAD
1000
MTEXTBEGIN
1070
    73
1070
     1
1070
    44
1040
1.0
1070
    74
1070
     0
1000
MTEXTEND
  0
TEXT
  5
56
330
1F
100
AcDbEntity
  8
TEXT
100
AcDbText
 10
18.3285325566089
 20
17.35237449425742
 30
0.0
 40
0.25
  1
069267 STOOL TRIM
100
AcDbText
  0
MTEXT
  5
57
330
1F
100
AcDbEntity
  8
TEXT
100
AcDbMText
 10
20.11242363036092
 20
21.77972826085512
 30
0.0
 40
0.375
 41
5.15625
 71
     2
 72
     5
  1
4-1/2"\PSTOOL TRIM
 73
     1
 44
1.0
1001
ACAD
1000
MTEXTBEGIN
1070
    73
1070
     1
1070
    44
1040
1.0
1070
    74
1070
     0
1000
MTEXTEND
  0
LWPOLYLINE
  5
58
330
1F
100
AcDbEntity
  8
0
100
AcDbPolyline
 90
       20
 70
     1
 43
0.0
 10
13.59143866306154
 20
10.14583100690762
 10
13.59143866306154
 20
10.43434764002393
 10
13.46343866306154
 20
10.43434764002393
 10
13.46343866306154
 20
10.36434764002393
 10
13.41343866306154
 20
10.36434764002393
 10
13.41343866306154
 20
10.43434764002393
 10
13.37343866306154
 20
10.43434764002393
 10
13.37343866306154
 20
10.52434764002393
 10
20.12343866306154
 20
10.52434764002393
 10
20.12343866306154
 20
9.274347640023929
 10
20.03343866306154
 20
9.274347640023929
 10
20.03343866306154
 20
10.43434764002393
 10
19.36143866306154
 20
10.43434764002393
 10
19.36143866306154
 20
8.524347640023929
 10
19.27143866306154
 20
8.524347640023929
 10
19.27143866306154
 20
10.43434764002393
 10
13.65343866306154
 20
10.43434764002393
 10
13.65343866306154
 20
10.26634764002393
 10
13.69343866306154
 20
10.26634764002393
 10
13.61942468552825
 20
10.13832346266905
 42
-0.7670963001465966
  0
LWPOLYLINE
  5
59
330
1F
100
AcDbEntity
  8
0
100
AcDbPolyline
 90
       20
 70
     1
 43
0.0
 10
17.85337293811242
 20
16.77235975521811
 10
17.85337293811242
 20
17.06087638833441
 10
17.72537293811241
 20
17.06087638833441
 10
17.72537293811241
 20
16.99087638833441
 10
17.67537293811242
 20
16.99087638833441
 10
17.67537293811242
 20
17.06087638833441
 10
17.63537293811242
 20
17.06087638833441
 10
17.63537293811242
 20
17.15087638833441
 10
23.76037293811242
 20
17.15087638833441
 10
23.76037293811242
 20
15.77587638833441
 10
23.67037293811242
 20
15.77587638833441
 10
23.67037293811242
 20
17.06087638833441
 10
22.98337293811242
 20
17.06087638833441
 10
22.98337293811242
 20
15.15087638833441
 10
22.89337293811242
 20
15.15087638833441
 10
22.89337293811242
 20
17.06087638833441
 10
17.91537293811241
 20
17.06087638833441
 10
17.91537293811241
 20
16.89287638833441
 10
17.95537293811242
 20
16.89287638833441
 10
17.88135896057912
 20
16.76485221097954
 42
-0.7670963001465966
  0
MTEXT
  5
5A
330
1F
100
AcDbEntity
  8
TEXT
100
AcDbMText
 10
16.38325122214964
 20
9.415480428376561
 30
0.0
 40
0.375
 41
5.15625
 71
     2
 72
     5
  1
6-3/4"\PSTOOL TRIM
 73
     1
 44
1.0
1001
ACAD
1000
MTEXTBEGIN
1070
    73
1070
     1
1070
    44
1040
1.0
1070
    74
1070
     0
1000
MTEXTEND
  0
TEXT
  5
5B
330
1F
100
AcDbEntity
  8
TEXT
100
AcDbText
 10
14.46615452879496
 20
10.79238871307185
 30
0.0
 40
0.25
  1
069268 STOOL TRIM
100
AcDbText
  0
TEXT
  5
5C
330
1F
100
AcDbEntity
  8
TEXT
100
AcDbText
 10
10.537184017084
 20
17.35237449425742
 30
0.0
 40
0.25
  1
069266 STOOL TRIM
100
AcDbText
  0
LWPOLYLINE
  5
5D
330
1F
100
AcDbEntity
  8
0
100
AcDbPolyline
 90
       20
 70
     1
 43
0.0
 10
10.5947661192745
 20
16.63927374478786
 10
10.5947661192745
 20
16.92779037790417
 10
10.4667661192745
 20
16.92779037790417
 10
10.4667661192745
 20
16.85779037790417
 10
10.4167661192745
 20
16.85779037790417
 10
10.4167661192745
 20
16.92779037790417
 10
10.3767661192745
 20
16.92779037790417
 10
10.3767661192745
 20
17.01779037790417
 10
15.3767161192745
 20
17.01779037790417
 10
15.3767161192745
 20
15.76779037790417
 10
15.2867161192745
 20
15.76779037790417
 10
15.2867161192745
 20
16.92779037790417
 10
14.6147161192745
 20
16.92779037790417
 10
14.6147161192745
 20
15.01779037790417
 10
14.5247161192745
 20
15.01779037790417
 10
14.5247161192745
 20
16.92779037790417
 10
10.6567661192745
 20
16.92779037790417
 10
10.6567661192745
 20
16.75979037790417
 10
10.6967661192745
 20
16.75979037790417
 10
10.62275214174121
 20
16.63176620054929
 42
-0.7670963001465942
  0
MTEXT
  5
5E
330
1F
100
AcDbEntity
  8
TEXT
100
AcDbMText
 10
12.92040962743842
 20
14.844283824443
 30
0.0
 40
0.375
 41
5.15625
 71
     2
 72
     5
  1
5"\PSTOOL TRIM
 73
     1
 44
1.0
1001
ACAD
1000
MTEXTBEGIN
1070
    73
1070
     1
1070
    44
1040
1.0
1070
    74
1070
     0
1000
MTEXTEND
  0
MTEXT
  5
5F
330
1F
100
AcDbEntity
  8
TEXT
100
AcDbMText
 10
13.38655861450562
 20
21.77972826085512
 30
0.0
 40
0.375
 41
5.162073192826355
 71
     2
 72
     5
  1
2-3/4"\PSTOOL TRIM
 73
     1
 44
1.0
1001
ACAD
1000
MTEXTBEGIN
1070
    73
1070
     1
1070
    44
1040
1.0
1070
    74
1070
     0
1000
MTEXTEND
  0
TEXT
  5
60
330
1F
100
AcDbEntity
  8
TEXT
100
AcDbText
 10
17.99556882820627
 20
24.28781893066954
 30
0.0
 40
0.25
  1
069265 STOOL TRIM
100
AcDbText
  0
MTEXT
  5
61
330
1F
100
AcDbEntity
  8
TEXT
 62
     7
100
AcDbMText
 10
15.91708216501493
 20
29.01648905331778
 30
0.0
 40
0.375
 41
9.406299999999999
 71
     2
 72
     5
  1
STOOL TRIM DETAIL
 73
     1
 44
1.0
1001
ACAD
1000
MTEXTBEGIN
1070
    73
1070
     1
1070
    44
1040
1.0
1070
    74
1070
     0
1000
MTEXTEND
  0
TEXT
  5
62
330
1F
100
AcDbEntity
  8
TEXT
100
AcDbText
 10
19.99751098504158
 20
35.00966731009807
 30
0.0
 40
0.25
  1
069271 STOOL TRIM CLIP PKG.
100
AcDbText
  0
LWPOLYLINE
  5
63
330
1F
100
AcDbEntity
  8
0
  6
HIDDEN
100
AcDbPolyline
 90
       20
 70
     1
 43
0.0
 10
20.06470561824926
 20
34.37826053661613
 10
20.06470561824926
 20
34.66676053660892
 10
19.93670561825245
 20
34.66676053660892
 10
19.93670561825245
 20
34.59676053661067
 10
19.8867056182537
 20
34.59676053661067
 10
19.8867056182537
 20
34.66676053660892
 10
19.8467056182547
 20
34.66676053660892
 10
19.8467056182547
 20
34.75676053660667
 10
22.73228928400774
 20
34.75676053660667
 10
22.73228928400774
 20
33.50676053663792
 10
22.64228928400999
 20
33.50676053663792
 10
22.64228928400999
 20
34.66676053660892
 10
21.9702892840268
 20
34.66676053660892
 10
21.9702892840268
 20
32.75676053665666
 10
21.88028928402904
 20
32.75676053665666
 10
21.88028928402904
 20
34.66676053660892
 10
20.12670561824771
 20
34.66676053660892
 10
20.12670561824771
 20
34.49876053661312
 10
20.16670561824671
 20
34.49876053661312
 10
20.09270532943234
 20
34.37075803661632
 42
-0.7673269879789605
  0
TEXT
  5
64
330
1F
100
AcDbEntity
  8
TEXT
100
AcDbText
 10
11.93563112372089
 20
24.28781893066954
 30
0.0
 40
0.25
  1
069264 STOOL TRIM
100
AcDbText
  0
MTEXT
  5
B5
330
1F
100
AcDbEntity
  8
0
 62
     2
100
AcDbMText
 10
29.89682197113513
 20
5.667748413107162
 30
0.0
 40
0.5
 41
16.4375
 71
     2
 72
     5
  1
1600 WALL SYSTEM™ 2 CURTAIN WALL\PSTOOL TRIM OPTIONS
 73
     1
 44
1.0
1001
ACAD
1000
MTEXTBEGIN
1070
    73
1070
     1
1070
    44
1040
1.0
1070
    74
1070
     0
1000
MTEXTEND
  0
MTEXT
  5
B7
330
1F
100
AcDbEntity
  8
0
 62
     2
100
AcDbMText
 10
29.89682197113513
 20
3.435629182014352
 30
0.0
 40
0.375
 41
11.59375
 71
     2
 72
     5
  1
DETAIL SCALE: 1" = 1"
 73
     1
 44
1.0
1001
ACAD
1000
MTEXTBEGIN
1070
    73
1070
     1
1070
    44
1040
1.0
1070
    74
1070
     0
1000
MTEXTEND
  0
TEXT
  5
13C
330
1F
100
AcDbEntity
  8
TEXT
  6
Continuous
100
AcDbText
 10
40.47332239459884
 20
18.30433715096557
 30
0.0
 40
0.375
  1
APPLIED GYPSUM BOARD TRIM DETAIL
 72
     1
 11
45.49438310401221
 21
18.30433715096557
 31
0.0
100
AcDbText
  0
DIMENSION
  5
144
330
1F
100
AcDbEntity
  8
DIME
100
AcDbDimension
  2
*D1
 10
47.37921305061765
 20
26.07849401300502
 30
0.0
 11
49.16888835757536
 21
26.07849401300502
 31
0.0
 70
   160
 71
     5
 42
0.7789999999999964
  3
Standard
100
AcDbAlignedDimension
 13
48.15821305061764
 23
24.76057037177707
 33
0.0
 14
47.37921305061765
 24
24.76057037177707
 34
0.0
100
AcDbRotatedDimension
1001
ACAD
1000
DSTYLE
1002
{
1070
    41
1040
0.2
1070
    42
1040
0.125
1070
    43
1040
0.375
1070
    44
1040
0.125
1070
    73
1070
     0
1070
    74
1070
     0
1070
    77
1070
     1
1070
    78
1070
     3
1070
   140
1040
0.25
1070
   141
1040
0.0
1070
   147
1040
0.125
1070
   271
1070
     5
1070
   272
1070
     5
1070
   273
1070
     4
1070
   276
1070
     2
1070
   277
1070
     4
1070
   284
1070
     3
1070
   285
1070
     3
1070
   286
1070
     3
1070
   289
1070
     0
1002
}
  0
LWPOLYLINE
  5
16D
330
1F
100
AcDbEntity
  8
R-SWTS-DET2
  6
Continuous
100
AcDbPolyline
 90
       12
 70
     1
 43
0.003
 10
48.09621305061766
 20
24.69857037177707
 10
48.09621305061766
 20
24.01057037177707
 10
48.12428705061766
 20
24.02375537177707
 10
48.14547205061765
 20
24.04471837177708
 10
48.15821305061764
 20
24.07257037177708
 10
48.15821305061764
 20
24.76057037177707
 10
47.37921305061765
 20
24.76057037177707
 10
47.37921305061765
 20
23.26157037177707
 10
47.41017605061766
 20
23.27053337177707
 10
47.43225005061766
 20
23.29260737177707
 10
47.44121305061766
 20
23.32357037177708
 10
47.44121305061766
 20
24.69857037177707
  0
LWPOLYLINE
  5
266
330
1F
100
AcDbEntity
  8
0
100
AcDbPolyline
 90
        6
 70
     0
 43
0.0
 10
40.4927576269016
 20
26.76057037177707
 10
43.53546305061763
 20
26.76057037177707
 10
43.58838346528005
 20
26.97282256189995
 10
43.69430412883046
 20
26.54799798406453
 10
43.74722454349288
 20
26.7602501741874
 10
47.65347454349288
 20
26.7602501741874
  0
LWPOLYLINE
  5
267
330
1F
100
AcDbEntity
  8
0
100
AcDbPolyline
 90
       59
 70
     1
 43
0.0
 10
40.39321305061763
 20
22.57457037177706
 10
40.39321305061763
 20
22.4605703717771
 10
40.25838838142548
 20
22.4605703717771
 10
40.15321305061763
 20
22.52129337733111
 42
1.000000000000009
 10
40.11321305061763
 20
22.45201134502836
 10
40.29584217348834
 20
22.3465703717771
 42
-0.849090458656993
 10
40.39321305061762
 20
22.33057037177709
 10
40.39321305061762
 20
22.29057037177707
 42
0.4142135623731122
 10
40.42321305061762
 20
22.26057037177707
 10
40.60921305061763
 20
22.26057037177707
 42
0.4142135623730951
 10
40.62921305061762
 20
22.28057037177707
 10
40.62921305061762
 20
22.36257037177707
 42
0.6693764950686889
 10
40.60357139200821
 20
22.37314180034851
 42
-0.1997729274168814
 10
40.53972144035176
 20
22.34657037177707
 10
40.52921305061763
 20
22.34657037177707
 42
-0.4142135623731054
 10
40.47921305061763
 20
22.39657037177707
 10
40.47921305061763
 20
22.48457037177707
 42
-0.4142135623730951
 10
40.52921305061763
 20
22.53457037177707
 10
40.53972144035176
 20
22.53457037177707
 42
-0.1997729274168702
 10
40.60357139200823
 20
22.50799894320564
 42
0.6693764950687497
 10
40.62921305061762
 20
22.51857037177707
 10
40.62921305061762
 20
23.28557037177708
 10
40.64421305061762
 20
23.30057037177707
 10
40.62921305061762
 20
23.31557037177707
 10
40.62921305061762
 20
23.70557037177707
 10
40.64421305061762
 20
23.72057037177707
 10
40.62921305061762
 20
23.73557037177707
 10
40.62921305061762
 20
24.50257037177708
 42
0.6693764950687072
 10
40.60357139200823
 20
24.5131418003485
 42
-0.1997729274168761
 10
40.53972144035176
 20
24.48657037177707
 10
40.52921305061763
 20
24.48657037177708
 42
-0.4142135623730951
 10
40.47921305061763
 20
24.53657037177708
 10
40.47921305061763
 20
24.62457037177708
 42
-0.4142135623731054
 10
40.52921305061763
 20
24.67457037177708
 10
40.53972144035176
 20
24.67457037177708
 42
-0.1997729274168748
 10
40.60357139200821
 20
24.64799894320564
 42
0.6693764950686886
 10
40.62921305061762
 20
24.65857037177708
 10
40.62921305061762
 20
24.74057037177708
 42
0.4142135623730951
 10
40.60921305061763
 20
24.76057037177707
 10
40.42321305061762
 20
24.76057037177708
 42
0.4142135623731039
 10
40.39321305061763
 20
24.73057037177708
 10
40.39321305061763
 20
24.69057037177705
 42
-0.8490904586570017
 10
40.29584217348832
 20
24.67457037177704
 10
40.11321305061763
 20
24.56912939852578
 42
1.000000000000009
 10
40.15321305061763
 20
24.49984736622303
 10
40.25838838142548
 20
24.56057037177705
 10
40.39321305061763
 20
24.56057037177705
 10
40.39321305061763
 20
24.44657037177709
 42
0.4142135623730516
 10
40.45321305061762
 20
24.38657037177709
 10
40.52921305061763
 20
24.38657037177708
 10
40.52921305061763
 20
23.83557037177707
 10
40.50421305061763
 20
23.81057037177707
 10
40.50421305061763
 20
23.52557037177707
 10
40.51921305061763
 20
23.51057037177707
 10
40.50421305061763
 20
23.49557037177707
 10
40.50421305061763
 20
23.21057037177707
 10
40.52921305061763
 20
23.18557037177707
 10
40.52921305061763
 20
22.63457037177706
 10
40.45321305061762
 20
22.63457037177705
 42
0.4142135623730518
  0
LINE
  5
268
330
1F
100
AcDbEntity
  8
R-SWTS-DET2
100
AcDbLine
 10
40.87945812859377
 20
22.12364931464512
 30
0.0
 11
40.33945812859378
 21
22.20018474771599
 31
0.0
  0
LINE
  5
269
330
1F
100
AcDbEntity
  8
R-SWTS-DET2
100
AcDbLine
 10
40.87945812859377
 20
24.89749142890902
 30
0.0
 11
40.33945812859378
 21
24.82095599583816
 31
0.0
  0
LINE
  5
26A
330
1F
100
AcDbEntity
  8
0
100
AcDbLine
 10
40.62921305061762
 20
23.64357037177707
 30
0.0
 11
40.50421305061763
 21
23.64357037177707
 31
0.0
  0
LINE
  5
26B
330
1F
100
AcDbEntity
  8
0
100
AcDbLine
 10
40.62921305061762
 20
23.37757037177707
 30
0.0
 11
40.50421305061763
 21
23.37757037177707
 31
0.0
  0
LINE
  5
26C
330
1F
100
AcDbEntity
  8
R-SWTS-DET2
100
AcDbLine
 10
40.50421305061765
 20
23.63595037177707
 30
0.0
 11
41.16921305061764
 21
23.63595037177707
 31
0.0
  0
LINE
  5
26D
330
1F
100
AcDbEntity
  8
R-SWTS-DET2
100
AcDbLine
 10
40.50421305061765
 20
23.38518037177708
 30
0.0
 11
41.16921305061764
 21
23.38518037177708
 31
0.0
  0
LWPOLYLINE
  5
26F
330
1F
100
AcDbEntity
  8
HIDDEN
  6
HIDDEN2
100
AcDbPolyline
 90
        5
 70
     0
 43
0.0
 10
40.52921305061763
 20
23.83557037177707
 10
40.62921305061762
 20
24.13557037177707
 10
40.52921305061763
 20
24.13557037177707
 10
40.62921305061762
 20
23.82357037177706
 10
40.51721305061762
 20
23.82357037177706
  0
LINE
  5
270
330
1F
100
AcDbEntity
  8
0
 62
     3
100
AcDbLine
 10
40.09521305061762
 20
23.97957037177707
 30
0.0
 11
40.96468934534833
 21
23.97957037177707
 31
0.0
  0
LWPOLYLINE
  5
271
330
1F
100
AcDbEntity
  8
0
100
AcDbPolyline
 90
        6
 70
     0
 43
0.0
 10
40.58113318537642
 20
20.26057037177707
 10
43.52333230418
 20
20.26057037177707
 10
43.57625271884243
 20
20.47282256189995
 10
43.68217338239283
 20
20.04799798406452
 10
43.73509379705526
 20
20.2602501741874
 10
47.62921305061762
 20
20.26057037177707
  0
TEXT
  5
272
330
1F
100
AcDbEntity
  8
DIME
  6
ByBlock
100
AcDbText
 10
38.00421305061763
 20
23.06019520124501
 30
0.0
 40
0.25
  1
2 1/2"
 50
90.0
 72
     1
 11
37.87921305061763
 21
23.51057037177707
 31
0.0
100
AcDbText
 73
     2
  0
LINE
  5
273
330
1F
100
AcDbEntity
  8
DIME
  6
ByBlock
100
AcDbLine
 10
38.12921305061763
 20
22.46057037177707
 30
0.0
 11
38.12921305061763
 21
24.56057037177707
 31
0.0
  0
LWPOLYLINE
  5
274
330
1F
100
AcDbEntity
  8
0
100
AcDbPolyline
 90
       14
 70
     1
 43
0.0
 10
39.93921305061763
 20
24.71057037177707
 10
40.30321305061762
 20
24.71057037177708
 10
40.30321305061762
 20
24.68057037177704
 42
1.0
 10
40.38321305061763
 20
24.68057037177704
 10
40.38321305061763
 20
24.70057037177707
 42
0.4142135623730908
 10
40.32321305061763
 20
24.76057037177707
 10
39.87921305061763
 20
24.76057037177707
 10
39.87921305061763
 20
22.26057037177707
 10
40.32321305061763
 20
22.26057037177707
 42
0.4142135623730907
 10
40.38321305061762
 20
22.32057037177707
 10
40.38321305061762
 20
22.3405703717771
 42
1.0
 10
40.30321305061762
 20
22.3405703717771
 10
40.30321305061762
 20
22.31057037177707
 10
39.93921305061763
 20
22.31057037177707
  0
LINE
  5
275
330
1F
100
AcDbEntity
  8
R-SWTS-DET2
100
AcDbLine
 10
40.50421305061765
 20
23.76057037177707
 30
0.0
 11
40.50421305061765
 21
23.26057037177707
 31
0.0
  0
LINE
  5
276
330
1F
100
AcDbEntity
  8
R-SWTS-DET2
100
AcDbLine
 10
40.46421305061765
 20
23.76057037177707
 30
0.0
 11
40.46421305061765
 21
23.26057037177707
 31
0.0
  0
LINE
  5
277
330
1F
100
AcDbEntity
  8
R-SWTS-DET2
100
AcDbLine
 10
40.32060805061764
 20
23.69716037177707
 30
0.0
 11
40.32060805061764
 21
23.32397037177707
 31
0.0
  0
ARC
  5
278
330
1F
100
AcDbEntity
  8
R-SWTS-DET2
100
AcDbCircle
 10
40.34391805061765
 20
23.35837537177707
 30
0.0
 40
0.0543126
100
AcDbArc
 50
110.9106999999998
 51
249.0893000000001
  0
LINE
  5
279
330
1F
100
AcDbEntity
  8
0
 62
     3
100
AcDbLine
 10
40.09521305061762
 20
22.23804751566228
 30
0.0
 11
40.09521305061762
 21
23.97957037177707
 31
0.0
  0
SOLID
  5
27A
330
1F
100
AcDbEntity
  8
DIME
  6
ByBlock
100
AcDbTrace
 10
38.0958797172843
 20
22.46057037177707
 30
0.0
 11
38.16254638395096
 21
22.46057037177707
 31
0.0
 12
38.12921305061763
 22
22.26057037177707
 32
0.0
 13
38.12921305061763
 23
22.26057037177707
 33
0.0
  0
LINE
  5
27B
330
1F
100
AcDbEntity
  8
DIME
  6
ByBlock
100
AcDbLine
 10
39.75421305061763
 20
22.26057037177707
 30
0.0
 11
38.00421305061763
 21
22.26057037177707
 31
0.0
  0
SOLID
  5
27C
330
1F
100
AcDbEntity
  8
R-ANNO-DIMS
  6
ByBlock
100
AcDbTrace
 10
38.0958797172843
 20
20.46057037177707
 30
0.0
 11
38.16254638395096
 21
20.46057037177707
 31
0.0
 12
38.12921305061763
 22
20.26057037177707
 32
0.0
 13
38.12921305061763
 23
20.26057037177707
 33
0.0
  0
SOLID
  5
27D
330
1F
100
AcDbEntity
  8
DIME
  6
ByBlock
100
AcDbTrace
 10
38.0958797172843
 20
22.06057037177707
 30
0.0
 11
38.16254638395096
 21
22.06057037177707
 31
0.0
 12
38.12921305061763
 22
22.26057037177707
 32
0.0
 13
38.12921305061763
 23
22.26057037177707
 33
0.0
  0
LINE
  5
27E
330
1F
100
AcDbEntity
  8
DIME
  6
ByBlock
100
AcDbLine
 10
39.75421305061763
 20
22.26057037177707
 30
0.0
 11
38.00421305061763
 21
22.26057037177707
 31
0.0
  0
TEXT
  5
27F
330
1F
100
AcDbEntity
  8
DIME
  6
ByBlock
100
AcDbText
 10
38.00421305061763
 20
20.90151511938962
 30
0.0
 40
0.25
  1
DLO
 50
90.0
 72
     1
 11
37.87921305061763
 21
21.26057037177707
 31
0.0
100
AcDbText
 73
     2
  0
LINE
  5
280
330
1F
100
AcDbEntity
  8
DIME
  6
ByBlock
100
AcDbLine
 10
38.12921305061763
 20
22.06057037177707
 30
0.0
 11
38.12921305061763
 21
20.46057037177707
 31
0.0
  0
LINE
  5
283
330
1F
100
AcDbEntity
  8
R-SWTS-DET2
100
AcDbLine
 10
40.33945812859377
 20
22.26018474771599
 30
0.0
 11
40.45508898630711
 21
22.26018474771599
 31
0.0
  0
LINE
  5
284
330
1F
100
AcDbEntity
  8
R-SWTS-DET2
100
AcDbLine
 10
40.33945812859378
 20
22.20018474771599
 30
0.0
 11
40.33945812859377
 21
22.26018474771599
 31
0.0
  0
LINE
  5
285
330
1F
100
AcDbEntity
  8
R-SWTS-DET2
100
AcDbLine
 10
40.46421305061765
 20
23.26057037177707
 30
0.0
 11
40.50421305061765
 21
23.26057037177707
 31
0.0
  0
LINE
  5
286
330
1F
100
AcDbEntity
  8
R-SWTS-DET2
100
AcDbLine
 10
40.30190305061764
 20
23.32397037177707
 30
0.0
 11
40.32060805061764
 21
23.32397037177707
 31
0.0
  0
LINE
  5
287
330
1F
100
AcDbEntity
  8
R-SWTS-DET2
100
AcDbLine
 10
40.32453305061765
 20
23.30765037177707
 30
0.0
 11
40.46421305061765
 21
23.30765037177707
 31
0.0
  0
LWPOLYLINE
  5
288
330
1F
100
AcDbEntity
  8
HIDDEN
  6
HIDDEN2
100
AcDbPolyline
 90
        4
 70
     1
 43
0.0
 10
40.25121305061762
 20
22.26057037177707
 10
39.93921305061763
 20
22.31057037177707
 10
39.93921305061763
 20
22.26057037177707
 10
40.25121305061762
 20
22.31057037177707
  0
SOLID
  5
289
330
1F
100
AcDbEntity
  8
0
 62
     3
100
AcDbTrace
 10
40.12854638395096
 20
22.23804751566228
 30
0.0
 11
40.06187971728428
 21
22.23804751566228
 31
0.0
 12
40.09521305061762
 22
22.03804751566228
 32
0.0
 13
40.09521305061762
 23
22.03804751566228
 33
0.0
  0
SOLID
  5
28A
330
1F
100
AcDbEntity
  8
DIME
  6
ByBlock
100
AcDbTrace
 10
38.0958797172843
 20
24.56057037177707
 30
0.0
 11
38.16254638395096
 21
24.56057037177707
 31
0.0
 12
38.12921305061763
 22
24.76057037177707
 32
0.0
 13
38.12921305061763
 23
24.76057037177707
 33
0.0
  0
LINE
  5
28B
330
1F
100
AcDbEntity
  8
DIME
  6
ByBlock
100
AcDbLine
 10
39.75421305061763
 20
24.76057037177707
 30
0.0
 11
38.00421305061763
 21
24.76057037177707
 31
0.0
  0
SOLID
  5
28C
330
1F
100
AcDbEntity
  8
R-ANNO-DIMS
  6
ByBlock
100
AcDbTrace
 10
38.0958797172843
 20
26.56057037177707
 30
0.0
 11
38.16254638395096
 21
26.56057037177707
 31
0.0
 12
38.12921305061763
 22
26.76057037177707
 32
0.0
 13
38.12921305061763
 23
26.76057037177707
 33
0.0
  0
SOLID
  5
28D
330
1F
100
AcDbEntity
  8
DIME
  6
ByBlock
100
AcDbTrace
 10
38.0958797172843
 20
24.96057037177707
 30
0.0
 11
38.16254638395096
 21
24.96057037177707
 31
0.0
 12
38.12921305061763
 22
24.76057037177707
 32
0.0
 13
38.12921305061763
 23
24.76057037177707
 33
0.0
  0
LINE
  5
28E
330
1F
100
AcDbEntity
  8
DIME
  6
ByBlock
100
AcDbLine
 10
39.75421305061763
 20
24.76057037177707
 30
0.0
 11
38.00421305061763
 21
24.76057037177707
 31
0.0
  0
TEXT
  5
28F
330
1F
100
AcDbEntity
  8
DIME
  6
ByBlock
100
AcDbText
 10
38.00421305061763
 20
25.40151511938962
 30
0.0
 40
0.25
  1
DLO
 50
90.0
 72
     1
 11
37.87921305061763
 21
25.76057037177707
 31
0.0
100
AcDbText
 73
     2
  0
LINE
  5
290
330
1F
100
AcDbEntity
  8
DIME
  6
ByBlock
100
AcDbLine
 10
38.12921305061763
 20
24.96057037177707
 30
0.0
 11
38.12921305061763
 21
26.56057037177707
 31
0.0
  0
LINE
  5
293
330
1F
100
AcDbEntity
  8
R-SWTS-DET2
100
AcDbLine
 10
40.33945812859377
 20
24.76095599583815
 30
0.0
 11
40.45508898630711
 21
24.76095599583815
 31
0.0
  0
LINE
  5
294
330
1F
100
AcDbEntity
  8
R-SWTS-DET2
100
AcDbLine
 10
40.33945812859378
 20
24.82095599583816
 30
0.0
 11
40.33945812859377
 21
24.76095599583815
 31
0.0
  0
LINE
  5
295
330
1F
100
AcDbEntity
  8
R-SWTS-DET2
100
AcDbLine
 10
40.46421305061765
 20
23.76057037177707
 30
0.0
 11
40.50421305061765
 21
23.76057037177707
 31
0.0
  0
LINE
  5
296
330
1F
100
AcDbEntity
  8
R-SWTS-DET2
100
AcDbLine
 10
40.30190305061764
 20
23.69716037177707
 30
0.0
 11
40.32060805061764
 21
23.69716037177707
 31
0.0
  0
ARC
  5
297
330
1F
100
AcDbEntity
  8
R-SWTS-DET2
100
AcDbCircle
 10
40.34391805061765
 20
23.66275037177707
 30
0.0
 40
0.0543126
100
AcDbArc
 50
110.9106999999998
 51
249.0893000000001
  0
ARC
  5
298
330
1F
100
AcDbEntity
  8
R-SWTS-DET2
100
AcDbCircle
 10
40.45445805061765
 20
23.51057037177707
 30
0.0
 40
0.16484915
100
AcDbArc
 50
142.0123000000001
 51
217.9876999999997
  0
LINE
  5
299
330
1F
100
AcDbEntity
  8
R-SWTS-DET2
100
AcDbLine
 10
40.28960805061765
 20
23.66275037177707
 30
0.0
 11
40.28960805061765
 21
23.35837537177707
 31
0.0
  0
LINE
  5
29A
330
1F
100
AcDbEntity
  8
R-SWTS-DET2
100
AcDbLine
 10
40.32453305061765
 20
23.40910537177707
 30
0.0
 11
40.46421305061765
 21
23.40910537177707
 31
0.0
  0
LINE
  5
29B
330
1F
100
AcDbEntity
  8
R-SWTS-DET2
100
AcDbLine
 10
40.32453305061765
 20
23.61202537177707
 30
0.0
 11
40.46421305061765
 21
23.61202537177707
 31
0.0
  0
LINE
  5
29C
330
1F
100
AcDbEntity
  8
R-SWTS-DET2
100
AcDbLine
 10
40.32453305061765
 20
23.71348037177707
 30
0.0
 11
40.46421305061765
 21
23.71348037177707
 31
0.0
  0
LWPOLYLINE
  5
29F
330
1F
100
AcDbEntity
  8
0
100
AcDbPolyline
 90
       36
 70
     1
 43
0.0
 10
42.35921305061761
 20
24.40557037177707
 42
0.4142135623730844
 10
42.37921305061761
 20
24.42557037177707
 10
42.37921305061763
 20
24.63057037177708
 42
-0.4142135623731124
 10
42.40921305061763
 20
24.66057037177707
 10
47.27921305061761
 20
24.66057037177707
 10
47.27921305061761
 20
24.50057037177708
 42
-0.4142135623730907
 10
47.21921305061762
 20
24.44057037177708
 10
47.15921305061763
 20
24.44057037177708
 10
47.15921305061763
 20
24.20557037177708
 10
47.21921305061764
 20
24.20557037177708
 42
-0.4142135623730974
 10
47.27921305061764
 20
24.14557037177708
 10
47.27921305061763
 20
22.87557037177707
 42
-0.4142135623731013
 10
47.21921305061763
 20
22.81557037177706
 10
47.15921305061763
 20
22.81557037177706
 10
47.15921305061763
 20
22.58057037177707
 10
47.21921305061762
 20
22.58057037177707
 42
-0.4142135623730994
 10
47.27921305061761
 20
22.52057037177706
 10
47.27921305061761
 20
22.36057037177707
 10
42.40921305061763
 20
22.36057037177706
 42
-0.4142135623730951
 10
42.37921305061763
 20
22.39057037177706
 10
42.37921305061761
 20
22.59557037177707
 42
0.4142135623730829
 10
42.35921305061761
 20
22.61557037177707
 10
42.25421305061763
 20
22.61557037177707
 10
42.25421305061763
 20
23.19757037177707
 10
42.35921305061761
 20
23.19757037177707
 42
0.4142135623731015
 10
42.37921305061762
 20
23.21757037177706
 10
42.37921305061762
 20
23.25757037177706
 42
0.4142135623731017
 10
42.35921305061761
 20
23.27757037177707
 10
42.22921305061762
 20
23.27757037177707
 10
42.22921305061762
 20
23.74357037177707
 10
42.35921305061761
 20
23.74357037177707
 42
0.4142135623731015
 10
42.37921305061762
 20
23.76357037177707
 10
42.37921305061762
 20
23.80357037177707
 42
0.4142135623731017
 10
42.35921305061761
 20
23.82357037177707
 10
42.25421305061763
 20
23.82357037177707
 10
42.25421305061763
 20
24.40557037177707
  0
LWPOLYLINE
  5
2A0
330
1F
100
AcDbEntity
  8
0
100
AcDbPolyline
 90
       64
 70
     1
 43
0.0
 10
42.14921305061762
 20
24.76057037177707
 42
0.4142135623730951
 10
42.12921305061762
 20
24.74057037177708
 10
42.12921305061761
 20
24.65857037177708
 42
0.6693764950687492
 10
42.15485470922704
 20
24.64799894320564
 42
-0.1997729274168754
 10
42.21870466088349
 20
24.67457037177708
 10
42.22921305061762
 20
24.67457037177708
 42
-0.4142135623730847
 10
42.27921305061761
 20
24.62457037177708
 10
42.27921305061761
 20
24.53657037177707
 42
-0.4142135623730847
 10
42.22921305061762
 20
24.48657037177707
 10
42.21870466088349
 20
24.48657037177707
 42
-0.1997729274168809
 10
42.15485470922703
 20
24.5131418003485
 42
0.6693764950687373
 10
42.12921305061763
 20
24.50257037177707
 10
42.12921305061763
 20
24.15057037177707
 10
42.14421305061763
 20
24.13557037177707
 10
42.12921305061763
 20
24.12057037177707
 10
42.12921305061763
 20
23.77357037177707
 42
-0.4142135623730951
 10
42.11921305061763
 20
23.76357037177708
 10
42.06321305061761
 20
23.76357037177708
 42
-0.4142135623730951
 10
42.05321305061762
 20
23.77357037177707
 10
42.05321305061762
 20
23.81357037177707
 42
0.4142135623730951
 10
42.04321305061761
 20
23.82357037177707
 10
40.8792130506176
 20
23.82357037177707
 10
40.87921305061763
 20
23.78357037177707
 10
40.86421305061764
 20
23.76857037177708
 10
40.87921305061763
 20
23.7535703718367
 10
40.87921305061763
 20
23.6805703718365
 10
40.86421305061772
 20
23.66557037177698
 10
40.87921305061763
 20
23.65057037177708
 10
40.87921305061763
 20
23.61057037177707
 10
41.3092130506176
 20
23.61057037177707
 10
41.52732522926434
 20
23.55212738964928
 42
-0.7673269879789285
 10
41.52732522926434
 20
23.46901335390485
 10
41.30921305061759
 20
23.41057037177707
 10
40.87921305061763
 20
23.41057037177706
 10
40.87921305061763
 20
23.37057037177705
 10
40.86421305061772
 20
23.35557037177716
 10
40.87921305061763
 20
23.34057037171764
 10
40.87921305061763
 20
23.26757037171743
 10
40.86421305061764
 20
23.25257037177705
 10
40.87921305061763
 20
23.23757037177707
 10
40.8792130506176
 20
23.19757037177707
 10
42.04321305061761
 20
23.19757037177707
 42
0.4142135623730951
 10
42.05321305061762
 20
23.20757037177707
 10
42.05321305061762
 20
23.24757037177706
 42
-0.4142135623730951
 10
42.06321305061761
 20
23.25757037177706
 10
42.11921305061763
 20
23.25757037177706
 42
-0.414213562373069
 10
42.12921305061763
 20
23.24757037177706
 10
42.12921305061763
 20
22.90057037177707
 10
42.14421305061763
 20
22.88557037177707
 10
42.12921305061763
 20
22.87057037177707
 10
42.12921305061762
 20
22.51857037177707
 42
0.6693764950687008
 10
42.15485470922703
 20
22.50799894320564
 42
-0.1997729274168789
 10
42.21870466088349
 20
22.53457037177707
 10
42.22921305061762
 20
22.53457037177707
 42
-0.4142135623730743
 10
42.27921305061761
 20
22.48457037177707
 10
42.27921305061761
 20
22.39657037177707
 42
-0.4142135623730951
 10
42.22921305061762
 20
22.34657037177707
 10
42.21870466088349
 20
22.34657037177708
 42
-0.1997729274168741
 10
42.15485470922703
 20
22.37314180034851
 42
0.6693764950687253
 10
42.12921305061761
 20
22.36257037177707
 10
42.12921305061762
 20
22.28057037177707
 42
0.4142135623730951
 10
42.14921305061762
 20
22.26057037177707
 10
47.37921305061761
 20
22.26057037177707
 10
47.37921305061765
 20
24.76057037177707
  0
LWPOLYLINE
  5
2A3
330
1F
100
AcDbEntity
  8
0
100
AcDbPolyline
 90
       12
 70
     1
 43
0.0
 10
41.96523346090629
 20
23.72357037177707
 10
41.50173426325969
 20
23.72357037177707
 42
0.8769764629927651
 10
41.49396969190662
 20
23.6645925969884
 10
41.5532071337746
 20
23.64871997227818
 42
-0.7673269879789323
 10
41.5532071337746
 20
23.37242077127596
 10
41.49396969190662
 20
23.35654814656574
 42
0.8769764629927397
 10
41.50173426325969
 20
23.29757037177707
 10
41.96523346090629
 20
23.29757037177707
 42
-0.2818610536572086
 10
42.06321305061761
 20
23.35757037177706
 10
42.12921305061763
 20
23.35757037177706
 10
42.12921305061763
 20
23.66357037177708
 10
42.06321305061761
 20
23.66357037177708
 42
-0.2818610536572082
  0
LINE
  5
2A5
330
1F
100
AcDbEntity
  8
R-SWTS-DET2
100
AcDbLine
 10
42.41896797264153
 20
22.21754998363228
 30
0.0
 11
42.41896797264153
 21
20.2605703717771
 31
0.0
  0
LWPOLYLINE
  5
2A6
330
1F
100
AcDbEntity
  8
0
100
AcDbPolyline
 90
        4
 70
     0
 43
0.0
 10
41.87921305061762
 20
20.26057037177707
 10
41.87921305061762
 20
22.76057037177707
 10
40.87921305061763
 20
22.76057037177707
 10
40.87921305061763
 20
20.26057037177707
  0
LINE
  5
2A7
330
1F
100
AcDbEntity
  8
0
100
AcDbLine
 10
41.12921305061763
 20
22.76057037177707
 30
0.0
 11
41.12921305061763
 21
20.26057037177707
 31
0.0
  0
LINE
  5
2A8
330
1F
100
AcDbEntity
  8
0
100
AcDbLine
 10
41.62921305061763
 20
20.26057037177707
 30
0.0
 11
41.62921305061763
 21
22.76057037177707
 31
0.0
  0
LINE
  5
2A9
330
1F
100
AcDbEntity
  8
R-SWTS-DET2
100
AcDbLine
 10
40.62945812859378
 20
22.74018474771598
 30
0.0
 11
40.87945812859377
 21
22.74018474771598
 31
0.0
  0
LINE
  5
2AA
330
1F
100
AcDbEntity
  8
0
100
AcDbLine
 10
40.62921305061762
 20
23.19757037177708
 30
0.0
 11
40.62921305061762
 21
23.26007037177708
 31
0.0
  0
LINE
  5
2AB
330
1F
100
AcDbEntity
  8
0
100
AcDbLine
 10
40.62921305061762
 20
23.19757037177708
 30
0.0
 11
40.87921305061763
 21
23.19757037177708
 31
0.0
  0
LINE
  5
2AC
330
1F
100
AcDbEntity
  8
0
100
AcDbLine
 10
40.87921305061763
 20
23.19757037177708
 30
0.0
 11
40.87921305061763
 21
23.26007037177708
 31
0.0
  0
LINE
  5
2AD
330
1F
100
AcDbEntity
  8
0
100
AcDbLine
 10
41.62921305061763
 20
22.51057037177707
 30
0.0
 11
41.12921305061763
 21
22.51057037177707
 31
0.0
  0
LINE
  5
2B8
330
1F
100
AcDbEntity
  8
R-SWTS-DET2
100
AcDbLine
 10
42.41896797264154
 20
22.26018474771602
 30
0.0
 11
42.30333711492819
 21
22.26018474771602
 31
0.0
  0
LINE
  5
2B9
330
1F
100
AcDbEntity
  8
R-SWTS-DET2
100
AcDbLine
 10
42.41896797264153
 20
22.20018474771602
 30
0.0
 11
42.41896797264154
 21
22.26018474771602
 31
0.0
  0
LINE
  5
2BA
330
1F
100
AcDbEntity
  8
R-SWTS-DET2
100
AcDbLine
 10
41.87896797264154
 20
22.12364931464515
 30
0.0
 11
42.41896797264153
 21
22.20018474771602
 31
0.0
  0
LINE
  5
2BB
330
1F
100
AcDbEntity
  8
R-SWTS-DET2
100
AcDbLine
 10
42.12896797264154
 20
22.74018474771601
 30
0.0
 11
41.87896797264154
 21
22.74018474771601
 31
0.0
  0
LINE
  5
2C0
330
1F
100
AcDbEntity
  8
0
100
AcDbLine
 10
41.62921305061763
 20
26.76057037177707
 30
0.0
 11
41.62921305061763
 21
24.26057037177707
 31
0.0
  0
LINE
  5
2C1
330
1F
100
AcDbEntity
  8
0
100
AcDbLine
 10
41.12921305061763
 20
24.26057037177707
 30
0.0
 11
41.12921305061763
 21
26.76057037177707
 31
0.0
  0
LWPOLYLINE
  5
2C2
330
1F
100
AcDbEntity
  8
0
100
AcDbPolyline
 90
        4
 70
     0
 43
0.0
 10
41.87921305061762
 20
26.76057037177707
 10
41.87921305061762
 20
24.26057037177707
 10
40.87921305061763
 20
24.26057037177707
 10
40.87921305061763
 20
26.76057037177707
  0
LINE
  5
2C3
330
1F
100
AcDbEntity
  8
R-SWTS-DET2
100
AcDbLine
 10
42.41896797264153
 20
24.80359075992187
 30
0.0
 11
42.41896797264153
 21
26.76057037177705
 31
0.0
  0
LINE
  5
2C4
330
1F
100
AcDbEntity
  8
R-SWTS-DET2
100
AcDbLine
 10
42.00421305061762
 20
23.82357037177708
 30
0.0
 11
41.62921305061762
 21
23.82357037177708
 31
0.0
  0
LINE
  5
2C5
330
1F
100
AcDbEntity
  8
R-SWTS-DET2
100
AcDbLine
 10
40.81671305061762
 20
24.26057037177708
 30
0.0
 11
42.06671305061762
 21
24.26057037177708
 31
0.0
  0
LINE
  5
2C6
330
1F
100
AcDbEntity
  8
R-SWTS-DET2
100
AcDbLine
 10
40.62945812859378
 20
24.28095599583816
 30
0.0
 11
40.87945812859377
 21
24.28095599583816
 31
0.0
  0
LINE
  5
2C7
330
1F
100
AcDbEntity
  8
0
100
AcDbLine
 10
40.62921305061762
 20
23.76107037177707
 30
0.0
 11
40.62921305061762
 21
23.82357037177706
 31
0.0
  0
LINE
  5
2C8
330
1F
100
AcDbEntity
  8
0
100
AcDbLine
 10
40.87921305061763
 20
23.76107037177707
 30
0.0
 11
40.87921305061763
 21
23.82357037177706
 31
0.0
  0
LINE
  5
2C9
330
1F
100
AcDbEntity
  8
0
100
AcDbLine
 10
40.87921305061763
 20
23.82357037177706
 30
0.0
 11
40.62921305061762
 21
23.82357037177706
 31
0.0
  0
LINE
  5
2CA
330
1F
100
AcDbEntity
  8
R-SWTS-DET2
100
AcDbLine
 10
41.16921305061764
 20
23.38518037177708
 30
0.0
 11
41.50421305061764
 21
23.51057037177707
 31
0.0
  0
LINE
  5
2CB
330
1F
100
AcDbEntity
  8
R-SWTS-DET2
100
AcDbLine
 10
41.50421305061764
 20
23.51057037177707
 30
0.0
 11
41.16921305061764
 21
23.63595037177707
 31
0.0
  0
LINE
  5
2CC
330
1F
100
AcDbEntity
  8
R-SWTS-DET2
100
AcDbLine
 10
41.62921305061762
 20
23.82357037177708
 30
0.0
 11
41.62921305061762
 21
23.94857037177708
 31
0.0
  0
ARC
  5
2CD
330
1F
100
AcDbEntity
  8
R-SWTS-DET2
100
AcDbCircle
 10
40.81671305061762
 20
24.19807037177708
 30
0.0
 40
0.0625000000000009
100
AcDbArc
 50
90.0
 51
270.0
  0
LINE
  5
2CE
330
1F
100
AcDbEntity
  8
0
100
AcDbLine
 10
40.87921305061762
 20
24.13557037177708
 30
0.0
 11
40.81671305061762
 21
24.13557037177708
 31
0.0
  0
LINE
  5
2CF
330
1F
100
AcDbEntity
  8
R-SWTS-DET2
100
AcDbLine
 10
40.87921305061762
 20
23.82357037177708
 30
0.0
 11
40.87921305061762
 21
24.13557037177708
 31
0.0
  0
LINE
  5
2D0
330
1F
100
AcDbEntity
  8
R-SWTS-DET2
100
AcDbLine
 10
41.25421305061762
 20
23.82357037177708
 30
0.0
 11
40.87921305061762
 21
23.82357037177708
 31
0.0
  0
LINE
  5
2D1
330
1F
100
AcDbEntity
  8
R-SWTS-DET2
100
AcDbLine
 10
41.25421305061762
 20
23.94857037177708
 30
0.0
 11
41.25421305061762
 21
23.82357037177708
 31
0.0
  0
LINE
  5
2D2
330
1F
100
AcDbEntity
  8
R-SWTS-DET2
100
AcDbLine
 10
41.62921305061762
 20
23.94857037177708
 30
0.0
 11
41.25421305061762
 21
23.94857037177708
 31
0.0
  0
LINE
  5
2D3
330
1F
100
AcDbEntity
  8
0
100
AcDbLine
 10
41.62921305061763
 20
24.51057037177707
 30
0.0
 11
41.12921305061763
 21
24.51057037177707
 31
0.0
  0
LINE
  5
2D4
330
1F
100
AcDbEntity
  8
R-SWTS-DET2
100
AcDbLine
 10
42.41896797264154
 20
24.76095599583813
 30
0.0
 11
42.30333711492819
 21
24.76095599583813
 31
0.0
  0
LINE
  5
2D5
330
1F
100
AcDbEntity
  8
R-SWTS-DET2
100
AcDbLine
 10
42.41896797264153
 20
24.82095599583813
 30
0.0
 11
42.41896797264154
 21
24.76095599583813
 31
0.0
  0
LINE
  5
2D6
330
1F
100
AcDbEntity
  8
R-SWTS-DET2
100
AcDbLine
 10
41.87896797264154
 20
24.89749142890899
 30
0.0
 11
42.41896797264153
 21
24.82095599583813
 31
0.0
  0
LINE
  5
2D7
330
1F
100
AcDbEntity
  8
R-SWTS-DET2
100
AcDbLine
 10
42.12896797264154
 20
24.28095599583814
 30
0.0
 11
41.87896797264154
 21
24.28095599583814
 31
0.0
  0
LINE
  5
2E6
330
1F
100
AcDbEntity
  8
R-SWTS-DET2
100
AcDbLine
 10
42.00421305061762
 20
24.13557037177708
 30
0.0
 11
42.00421305061762
 21
23.82357037177708
 31
0.0
  0
LINE
  5
2E7
330
1F
100
AcDbEntity
  8
R-SWTS-DET2
100
AcDbLine
 10
42.06671305061762
 20
24.13557037177708
 30
0.0
 11
42.00421305061762
 21
24.13557037177708
 31
0.0
  0
ARC
  5
2E8
330
1F
100
AcDbEntity
  8
R-SWTS-DET2
100
AcDbCircle
 10
42.06671305061762
 20
24.19807037177708
 30
0.0
 40
0.0625
100
AcDbArc
 50
270.0
 51
90.0
  0
LINE
  5
2EE
330
1F
100
AcDbEntity
  8
0
100
AcDbLine
 10
47.37921305061763
 20
22.26057037177707
 30
0.0
 11
47.37921305061763
 21
20.26057037177707
 31
0.0
  0
LINE
  5
2EF
330
1F
100
AcDbEntity
  8
R-SWTS-DET1
100
AcDbLine
 10
47.37921305061765
 20
22.26057037177708
 30
0.0
 11
47.37921305061765
 21
22.27957037177707
 31
0.0
  0
LINE
  5
2F0
330
1F
100
AcDbEntity
  8
R-SWTS-DET1
100
AcDbLine
 10
47.37921305061765
 20
22.26057037177708
 30
0.0
 11
47.37921305061765
 21
22.27957037177707
 31
0.0
  0
LINE
  5
2F1
330
1F
100
AcDbEntity
  8
0
100
AcDbLine
 10
47.37921305061763
 20
24.76057037177707
 30
0.0
 11
47.37921305061763
 21
26.76057037177707
 31
0.0
  0
LWPOLYLINE
  5
3AC
330
1F
100
AcDbEntity
  8
0
100
AcDbPolyline
 90
        6
 70
     0
 43
0.0
 10
13.03310201093745
 20
36.75676053660666
 10
15.95295561825368
 20
36.75676053660666
 10
16.00587603291611
 20
36.96901272672954
 10
16.11179669646651
 20
36.54418814889412
 10
16.16471711112894
 20
36.75644033901699
 10
20.07096711112894
 20
36.75644033901699
  0
LWPOLYLINE
  5
3AD
330
1F
100
AcDbEntity
  8
0
100
AcDbPolyline
 90
       59
 70
     1
 43
0.0
 10
12.81070561825368
 20
32.57076053660665
 10
12.81070561825369
 20
32.45676053660669
 10
12.67588094906154
 20
32.45676053660669
 10
12.57070561825369
 20
32.51748354216071
 42
1.000000000000009
 10
12.53070561825369
 20
32.44820150985795
 10
12.7133347411244
 20
32.34276053660669
 42
-0.849090458656993
 10
12.81070561825368
 20
32.32676053660668
 10
12.81070561825368
 20
32.28676053660667
 42
0.4142135623731122
 10
12.84070561825368
 20
32.25676053660667
 10
13.02670561825368
 20
32.25676053660667
 42
0.4142135623730951
 10
13.04670561825368
 20
32.27676053660666
 10
13.04670561825368
 20
32.35876053660666
 42
0.6693764950686889
 10
13.02106395964427
 20
32.3693319651781
 42
-0.1997729274168814
 10
12.95721400798782
 20
32.34276053660666
 10
12.94670561825369
 20
32.34276053660666
 42
-0.4142135623731054
 10
12.89670561825368
 20
32.39276053660666
 10
12.89670561825368
 20
32.48076053660666
 42
-0.4142135623730951
 10
12.94670561825369
 20
32.53076053660666
 10
12.95721400798782
 20
32.53076053660667
 42
-0.1997729274168702
 10
13.02106395964427
 20
32.50418910803523
 42
0.6693764950687497
 10
13.04670561825368
 20
32.51476053660667
 10
13.04670561825368
 20
33.28176053660667
 10
13.06170561825368
 20
33.29676053660666
 10
13.04670561825368
 20
33.31176053660666
 10
13.04670561825368
 20
33.70176053660666
 10
13.06170561825368
 20
33.71676053660666
 10
13.04670561825368
 20
33.73176053660666
 10
13.04670561825368
 20
34.49876053660667
 42
0.6693764950687072
 10
13.02106395964427
 20
34.50933196517809
 42
-0.1997729274168761
 10
12.95721400798782
 20
34.48276053660666
 10
12.94670561825369
 20
34.48276053660667
 42
-0.4142135623730951
 10
12.89670561825368
 20
34.53276053660667
 10
12.89670561825368
 20
34.62076053660667
 42
-0.4142135623731054
 10
12.94670561825369
 20
34.67076053660667
 10
12.95721400798782
 20
34.67076053660667
 42
-0.1997729274168748
 10
13.02106395964427
 20
34.64418910803523
 42
0.6693764950686886
 10
13.04670561825368
 20
34.65476053660667
 10
13.04670561825368
 20
34.73676053660667
 42
0.4142135623730951
 10
13.02670561825368
 20
34.75676053660667
 10
12.84070561825368
 20
34.75676053660667
 42
0.4142135623731039
 10
12.81070561825368
 20
34.72676053660667
 10
12.81070561825368
 20
34.68676053660664
 42
-0.8490904586570017
 10
12.71333474112437
 20
34.67076053660664
 10
12.53070561825369
 20
34.56531956335537
 42
1.000000000000009
 10
12.57070561825369
 20
34.49603753105262
 10
12.67588094906154
 20
34.55676053660664
 10
12.81070561825368
 20
34.55676053660664
 10
12.81070561825368
 20
34.44276053660669
 42
0.4142135623730516
 10
12.87070561825367
 20
34.38276053660668
 10
12.94670561825369
 20
34.38276053660667
 10
12.94670561825368
 20
33.83176053660667
 10
12.92170561825368
 20
33.80676053660666
 10
12.92170561825368
 20
33.52176053660667
 10
12.93670561825368
 20
33.50676053660667
 10
12.92170561825368
 20
33.49176053660666
 10
12.92170561825368
 20
33.20676053660666
 10
12.94670561825368
 20
33.18176053660666
 10
12.94670561825369
 20
32.63076053660666
 10
12.87070561825367
 20
32.63076053660665
 42
0.4142135623730518
  0
LINE
  5
3AE
330
1F
100
AcDbEntity
  8
R-SWTS-DET2
100
AcDbLine
 10
13.29695069622983
 20
32.11983947947472
 30
0.0
 11
12.75695069622983
 21
32.19637491254558
 31
0.0
  0
LINE
  5
3AF
330
1F
100
AcDbEntity
  8
R-SWTS-DET2
100
AcDbLine
 10
13.29695069622983
 20
34.89368159373861
 30
0.0
 11
12.75695069622983
 21
34.81714616066775
 31
0.0
  0
LINE
  5
3B0
330
1F
100
AcDbEntity
  8
0
100
AcDbLine
 10
13.04670561825368
 20
33.63976053660666
 30
0.0
 11
12.92170561825368
 21
33.63976053660666
 31
0.0
  0
LINE
  5
3B1
330
1F
100
AcDbEntity
  8
0
100
AcDbLine
 10
13.04670561825368
 20
33.37376053660666
 30
0.0
 11
12.92170561825368
 21
33.37376053660666
 31
0.0
  0
LINE
  5
3B2
330
1F
100
AcDbEntity
  8
R-SWTS-DET2
100
AcDbLine
 10
12.9217056182537
 20
33.63214053660666
 30
0.0
 11
13.5867056182537
 21
33.63214053660666
 31
0.0
  0
LINE
  5
3B3
330
1F
100
AcDbEntity
  8
R-SWTS-DET2
100
AcDbLine
 10
12.9217056182537
 20
33.38137053660667
 30
0.0
 11
13.5867056182537
 21
33.38137053660667
 31
0.0
  0
LWPOLYLINE
  5
3B5
330
1F
100
AcDbEntity
  8
HIDDEN
  6
HIDDEN2
100
AcDbPolyline
 90
        5
 70
     0
 43
0.0
 10
12.94670561825368
 20
33.83176053660667
 10
13.04670561825368
 20
34.13176053660666
 10
12.94670561825368
 20
34.13176053660666
 10
13.04670561825368
 20
33.81976053660666
 10
12.93470561825367
 20
33.81976053660666
  0
LINE
  5
3B6
330
1F
100
AcDbEntity
  8
0
 62
     3
100
AcDbLine
 10
12.51270561825368
 20
33.97576053660666
 30
0.0
 11
13.38218191298438
 21
33.97576053660666
 31
0.0
  0
LWPOLYLINE
  5
3B7
330
1F
100
AcDbEntity
  8
0
100
AcDbPolyline
 90
        6
 70
     0
 43
0.0
 10
13.00188719884571
 20
30.25676053660666
 10
15.94082487181605
 20
30.25676053660666
 10
15.99374528647848
 20
30.46901272672954
 10
16.09966595002888
 20
30.04418814889412
 10
16.15258636469131
 20
30.25644033901699
 10
20.04670561825368
 20
30.25676053660666
  0
TEXT
  5
3B8
330
1F
100
AcDbEntity
  8
DIME
  6
ByBlock
100
AcDbText
 10
10.42170561825368
 20
33.0563853660746
 30
0.0
 40
0.25
  1
2 1/2"
 50
90.0
 72
     1
 11
10.29670561825368
 21
33.50676053660667
 31
0.0
100
AcDbText
 73
     2
  0
LINE
  5
3B9
330
1F
100
AcDbEntity
  8
DIME
  6
ByBlock
100
AcDbLine
 10
10.54670561825368
 20
32.45676053660667
 30
0.0
 11
10.54670561825368
 21
34.55676053660666
 31
0.0
  0
LWPOLYLINE
  5
3BA
330
1F
100
AcDbEntity
  8
0
100
AcDbPolyline
 90
       14
 70
     1
 43
0.0
 10
12.35670561825368
 20
34.70676053660666
 10
12.72070561825368
 20
34.70676053660667
 10
12.72070561825368
 20
34.67676053660664
 42
1.0
 10
12.80070561825368
 20
34.67676053660664
 10
12.80070561825368
 20
34.69676053660666
 42
0.4142135623730908
 10
12.74070561825368
 20
34.75676053660667
 10
12.29670561825368
 20
34.75676053660667
 10
12.29670561825368
 20
32.25676053660667
 10
12.74070561825368
 20
32.25676053660667
 42
0.4142135623730907
 10
12.80070561825368
 20
32.31676053660667
 10
12.80070561825368
 20
32.33676053660669
 42
1.0
 10
12.72070561825368
 20
32.33676053660669
 10
12.72070561825368
 20
32.30676053660666
 10
12.35670561825368
 20
32.30676053660667
  0
LINE
  5
3BB
330
1F
100
AcDbEntity
  8
0
100
AcDbLine
 10
12.9217056182537
 20
33.75676053660666
 30
0.0
 11
12.9217056182537
 21
33.25676053660667
 31
0.0
  0
LINE
  5
3BC
330
1F
100
AcDbEntity
  8
0
100
AcDbLine
 10
12.8817056182537
 20
33.75676053660666
 30
0.0
 11
12.8817056182537
 21
33.25676053660667
 31
0.0
  0
LINE
  5
3BD
330
1F
100
AcDbEntity
  8
R-SWTS-DET2
100
AcDbLine
 10
12.7381006182537
 20
33.69335053660666
 30
0.0
 11
12.7381006182537
 21
33.32016053660666
 31
0.0
  0
ARC
  5
3BE
330
1F
100
AcDbEntity
  8
R-SWTS-DET2
100
AcDbCircle
 10
12.7614106182537
 20
33.35456553660666
 30
0.0
 40
0.0543126
100
AcDbArc
 50
110.9107
 51
249.0893
  0
LINE
  5
3BF
330
1F
100
AcDbEntity
  8
0
 62
     3
100
AcDbLine
 10
12.51270561825368
 20
32.23423768049187
 30
0.0
 11
12.51270561825368
 21
33.97576053660666
 31
0.0
  0
SOLID
  5
3C0
330
1F
100
AcDbEntity
  8
DIME
  6
ByBlock
100
AcDbTrace
 10
10.51337228492035
 20
32.45676053660667
 30
0.0
 11
10.58003895158701
 21
32.45676053660667
 31
0.0
 12
10.54670561825368
 22
32.25676053660667
 32
0.0
 13
10.54670561825368
 23
32.25676053660667
 33
0.0
  0
LINE
  5
3C1
330
1F
100
AcDbEntity
  8
DIME
  6
ByBlock
100
AcDbLine
 10
12.17170561825368
 20
32.25676053660667
 30
0.0
 11
10.42170561825368
 21
32.25676053660667
 31
0.0
  0
SOLID
  5
3C2
330
1F
100
AcDbEntity
  8
R-ANNO-DIMS
  6
ByBlock
100
AcDbTrace
 10
10.51337228492035
 20
30.45676053660667
 30
0.0
 11
10.58003895158701
 21
30.45676053660667
 31
0.0
 12
10.54670561825368
 22
30.25676053660666
 32
0.0
 13
10.54670561825368
 23
30.25676053660666
 33
0.0
  0
SOLID
  5
3C3
330
1F
100
AcDbEntity
  8
DIME
  6
ByBlock
100
AcDbTrace
 10
10.51337228492035
 20
32.05676053660666
 30
0.0
 11
10.58003895158701
 21
32.05676053660666
 31
0.0
 12
10.54670561825368
 22
32.25676053660667
 32
0.0
 13
10.54670561825368
 23
32.25676053660667
 33
0.0
  0
LINE
  5
3C4
330
1F
100
AcDbEntity
  8
DIME
  6
ByBlock
100
AcDbLine
 10
12.17170561825368
 20
32.25676053660667
 30
0.0
 11
10.42170561825368
 21
32.25676053660667
 31
0.0
  0
TEXT
  5
3C5
330
1F
100
AcDbEntity
  8
DIME
  6
ByBlock
100
AcDbText
 10
10.42170561825368
 20
30.89770528421921
 30
0.0
 40
0.25
  1
DLO
 50
90.0
 72
     1
 11
10.29670561825368
 21
31.25676053660666
 31
0.0
100
AcDbText
 73
     2
  0
LINE
  5
3C6
330
1F
100
AcDbEntity
  8
DIME
  6
ByBlock
100
AcDbLine
 10
10.54670561825368
 20
32.05676053660666
 30
0.0
 11
10.54670561825368
 21
30.45676053660667
 31
0.0
  0
LINE
  5
3C9
330
1F
100
AcDbEntity
  8
R-SWTS-DET2
100
AcDbLine
 10
12.75695069622982
 20
32.25637491254558
 30
0.0
 11
12.87258155394317
 21
32.25637491254558
 31
0.0
  0
LINE
  5
3CA
330
1F
100
AcDbEntity
  8
R-SWTS-DET2
100
AcDbLine
 10
12.75695069622983
 20
32.19637491254558
 30
0.0
 11
12.75695069622982
 21
32.25637491254558
 31
0.0
  0
LINE
  5
3CB
330
1F
100
AcDbEntity
  8
0
100
AcDbLine
 10
12.8817056182537
 20
33.25676053660667
 30
0.0
 11
12.9217056182537
 21
33.25676053660667
 31
0.0
  0
LINE
  5
3CC
330
1F
100
AcDbEntity
  8
R-SWTS-DET2
100
AcDbLine
 10
12.7193956182537
 20
33.32016053660666
 30
0.0
 11
12.7381006182537
 21
33.32016053660666
 31
0.0
  0
LINE
  5
3CD
330
1F
100
AcDbEntity
  8
R-SWTS-DET2
100
AcDbLine
 10
12.7420256182537
 20
33.30384053660667
 30
0.0
 11
12.8817056182537
 21
33.30384053660667
 31
0.0
  0
LWPOLYLINE
  5
3CE
330
1F
100
AcDbEntity
  8
HIDDEN
  6
HIDDEN2
100
AcDbPolyline
 90
        4
 70
     1
 43
0.0
 10
12.66870561825368
 20
32.25676053660667
 10
12.35670561825368
 20
32.30676053660666
 10
12.35670561825368
 20
32.25676053660667
 10
12.66870561825368
 20
32.30676053660666
  0
SOLID
  5
3CF
330
1F
100
AcDbEntity
  8
0
 62
     3
100
AcDbTrace
 10
12.54603895158701
 20
32.23423768049187
 30
0.0
 11
12.47937228492035
 21
32.23423768049187
 31
0.0
 12
12.51270561825368
 22
32.03423768049187
 32
0.0
 13
12.51270561825368
 23
32.03423768049187
 33
0.0
  0
SOLID
  5
3D0
330
1F
100
AcDbEntity
  8
DIME
  6
ByBlock
100
AcDbTrace
 10
10.51337228492035
 20
34.55676053660666
 30
0.0
 11
10.58003895158701
 21
34.55676053660666
 31
0.0
 12
10.54670561825368
 22
34.75676053660667
 32
0.0
 13
10.54670561825368
 23
34.75676053660667
 33
0.0
  0
LINE
  5
3D1
330
1F
100
AcDbEntity
  8
DIME
  6
ByBlock
100
AcDbLine
 10
12.17170561825368
 20
34.75676053660667
 30
0.0
 11
10.42170561825368
 21
34.75676053660667
 31
0.0
  0
SOLID
  5
3D2
330
1F
100
AcDbEntity
  8
R-ANNO-DIMS
  6
ByBlock
100
AcDbTrace
 10
10.51337228492035
 20
36.55676053660666
 30
0.0
 11
10.58003895158701
 21
36.55676053660666
 31
0.0
 12
10.54670561825368
 22
36.75676053660666
 32
0.0
 13
10.54670561825368
 23
36.75676053660666
 33
0.0
  0
SOLID
  5
3D3
330
1F
100
AcDbEntity
  8
DIME
  6
ByBlock
100
AcDbTrace
 10
10.51337228492035
 20
34.95676053660667
 30
0.0
 11
10.58003895158701
 21
34.95676053660667
 31
0.0
 12
10.54670561825368
 22
34.75676053660667
 32
0.0
 13
10.54670561825368
 23
34.75676053660667
 33
0.0
  0
LINE
  5
3D4
330
1F
100
AcDbEntity
  8
DIME
  6
ByBlock
100
AcDbLine
 10
12.17170561825368
 20
34.75676053660667
 30
0.0
 11
10.42170561825368
 21
34.75676053660667
 31
0.0
  0
TEXT
  5
3D5
330
1F
100
AcDbEntity
  8
DIME
  6
ByBlock
100
AcDbText
 10
10.42170561825368
 20
35.39770528421922
 30
0.0
 40
0.25
  1
DLO
 50
90.0
 72
     1
 11
10.29670561825368
 21
35.75676053660667
 31
0.0
100
AcDbText
 73
     2
  0
LINE
  5
3D6
330
1F
100
AcDbEntity
  8
DIME
  6
ByBlock
100
AcDbLine
 10
10.54670561825368
 20
34.95676053660667
 30
0.0
 11
10.54670561825368
 21
36.55676053660666
 31
0.0
  0
LINE
  5
3D9
330
1F
100
AcDbEntity
  8
R-SWTS-DET2
100
AcDbLine
 10
12.75695069622982
 20
34.75714616066774
 30
0.0
 11
12.87258155394317
 21
34.75714616066774
 31
0.0
  0
LINE
  5
3DA
330
1F
100
AcDbEntity
  8
R-SWTS-DET2
100
AcDbLine
 10
12.75695069622983
 20
34.81714616066775
 30
0.0
 11
12.75695069622982
 21
34.75714616066774
 31
0.0
  0
LINE
  5
3DB
330
1F
100
AcDbEntity
  8
0
100
AcDbLine
 10
12.8817056182537
 20
33.75676053660666
 30
0.0
 11
12.9217056182537
 21
33.75676053660666
 31
0.0
  0
LINE
  5
3DC
330
1F
100
AcDbEntity
  8
R-SWTS-DET2
100
AcDbLine
 10
12.7193956182537
 20
33.69335053660666
 30
0.0
 11
12.7381006182537
 21
33.69335053660666
 31
0.0
  0
ARC
  5
3DD
330
1F
100
AcDbEntity
  8
R-SWTS-DET2
100
AcDbCircle
 10
12.7614106182537
 20
33.65894053660666
 30
0.0
 40
0.0543126
100
AcDbArc
 50
110.9107
 51
249.0893
  0
ARC
  5
3DE
330
1F
100
AcDbEntity
  8
R-SWTS-DET2
100
AcDbCircle
 10
12.8719506182537
 20
33.50676053660667
 30
0.0
 40
0.16484915
100
AcDbArc
 50
142.0123000000002
 51
217.9876999999998
  0
LINE
  5
3DF
330
1F
100
AcDbEntity
  8
R-SWTS-DET2
100
AcDbLine
 10
12.7071006182537
 20
33.65894053660666
 30
0.0
 11
12.7071006182537
 21
33.35456553660666
 31
0.0
  0
LINE
  5
3E0
330
1F
100
AcDbEntity
  8
R-SWTS-DET2
100
AcDbLine
 10
12.7420256182537
 20
33.40529553660667
 30
0.0
 11
12.8817056182537
 21
33.40529553660667
 31
0.0
  0
LINE
  5
3E1
330
1F
100
AcDbEntity
  8
R-SWTS-DET2
100
AcDbLine
 10
12.7420256182537
 20
33.60821553660667
 30
0.0
 11
12.8817056182537
 21
33.60821553660667
 31
0.0
  0
LINE
  5
3E2
330
1F
100
AcDbEntity
  8
R-SWTS-DET2
100
AcDbLine
 10
12.7420256182537
 20
33.70967053660667
 30
0.0
 11
12.8817056182537
 21
33.70967053660667
 31
0.0
  0
LWPOLYLINE
  5
3E5
330
1F
100
AcDbEntity
  8
0
100
AcDbPolyline
 90
       36
 70
     1
 43
0.0
 10
14.77670561825367
 20
34.40176053660666
 42
0.4142135623730844
 10
14.79670561825367
 20
34.42176053660666
 10
14.79670561825368
 20
34.62676053660667
 42
-0.4142135623731124
 10
14.82670561825368
 20
34.65676053660666
 10
19.69670561825368
 20
34.65676053660666
 10
19.69670561825368
 20
34.49676053660667
 42
-0.4142135623730907
 10
19.63670561825368
 20
34.43676053660667
 10
19.57670561825368
 20
34.43676053660667
 10
19.57670561825368
 20
34.20176053660667
 10
19.63670561825369
 20
34.20176053660667
 42
-0.4142135623730974
 10
19.69670561825369
 20
34.14176053660667
 10
19.69670561825368
 20
32.87176053660666
 42
-0.4142135623731013
 10
19.63670561825368
 20
32.81176053660666
 10
19.57670561825368
 20
32.81176053660666
 10
19.57670561825368
 20
32.57676053660666
 10
19.63670561825368
 20
32.57676053660666
 42
-0.4142135623730994
 10
19.69670561825368
 20
32.51676053660665
 10
19.69670561825368
 20
32.35676053660667
 10
14.82670561825368
 20
32.35676053660666
 42
-0.4142135623730951
 10
14.79670561825368
 20
32.38676053660666
 10
14.79670561825367
 20
32.59176053660667
 42
0.4142135623730829
 10
14.77670561825367
 20
32.61176053660666
 10
14.67170561825368
 20
32.61176053660666
 10
14.67170561825368
 20
33.19376053660666
 10
14.77670561825367
 20
33.19376053660666
 42
0.4142135623731015
 10
14.79670561825367
 20
33.21376053660666
 10
14.79670561825367
 20
33.25376053660666
 42
0.4142135623731017
 10
14.77670561825367
 20
33.27376053660666
 10
14.64670561825368
 20
33.27376053660666
 10
14.64670561825368
 20
33.73976053660667
 10
14.77670561825367
 20
33.73976053660667
 42
0.4142135623731015
 10
14.79670561825367
 20
33.75976053660667
 10
14.79670561825367
 20
33.79976053660666
 42
0.4142135623731017
 10
14.77670561825367
 20
33.81976053660667
 10
14.67170561825368
 20
33.81976053660667
 10
14.67170561825368
 20
34.40176053660666
  0
LWPOLYLINE
  5
3E6
330
1F
100
AcDbEntity
  8
0
100
AcDbPolyline
 90
       64
 70
     1
 43
0.0
 10
14.56670561825367
 20
34.75676053660667
 42
0.4142135623730951
 10
14.54670561825367
 20
34.73676053660667
 10
14.54670561825367
 20
34.65476053660667
 42
0.6693764950687492
 10
14.57234727686309
 20
34.64418910803523
 42
-0.1997729274168754
 10
14.63619722851954
 20
34.67076053660667
 10
14.64670561825367
 20
34.67076053660667
 42
-0.4142135623730847
 10
14.69670561825368
 20
34.62076053660667
 10
14.69670561825367
 20
34.53276053660666
 42
-0.4142135623730847
 10
14.64670561825367
 20
34.48276053660666
 10
14.63619722851954
 20
34.48276053660666
 42
-0.1997729274168809
 10
14.57234727686308
 20
34.50933196517809
 42
0.6693764950687373
 10
14.54670561825368
 20
34.49876053660666
 10
14.54670561825368
 20
34.14676053660667
 10
14.56170561825368
 20
34.13176053660667
 10
14.54670561825368
 20
34.11676053660666
 10
14.54670561825368
 20
33.76976053660667
 42
-0.4142135623730951
 10
14.53670561825368
 20
33.75976053660667
 10
14.48070561825367
 20
33.75976053660667
 42
-0.4142135623730951
 10
14.47070561825367
 20
33.76976053660667
 10
14.47070561825367
 20
33.80976053660666
 42
0.4142135623730951
 10
14.46070561825367
 20
33.81976053660667
 10
13.29670561825365
 20
33.81976053660667
 10
13.29670561825368
 20
33.77976053660666
 10
13.28170561825369
 20
33.76476053660667
 10
13.29670561825368
 20
33.7497605366663
 10
13.29670561825368
 20
33.67676053666609
 10
13.28170561825378
 20
33.66176053660657
 10
13.29670561825368
 20
33.64676053660667
 10
13.29670561825368
 20
33.60676053660667
 10
13.72670561825366
 20
33.60676053660667
 10
13.9448177969004
 20
33.54831755447887
 42
-0.7673269879789285
 10
13.9448177969004
 20
33.46520351873445
 10
13.72670561825364
 20
33.40676053660666
 10
13.29670561825368
 20
33.40676053660665
 10
13.29670561825368
 20
33.36676053660665
 10
13.28170561825378
 20
33.35176053660675
 10
13.29670561825368
 20
33.33676053654723
 10
13.29670561825368
 20
33.26376053654703
 10
13.28170561825369
 20
33.24876053660665
 10
13.29670561825368
 20
33.23376053660666
 10
13.29670561825365
 20
33.19376053660666
 10
14.46070561825367
 20
33.19376053660666
 42
0.4142135623730951
 10
14.47070561825367
 20
33.20376053660666
 10
14.47070561825367
 20
33.24376053660665
 42
-0.4142135623730951
 10
14.48070561825367
 20
33.25376053660665
 10
14.53670561825369
 20
33.25376053660665
 42
-0.414213562373069
 10
14.54670561825368
 20
33.24376053660665
 10
14.54670561825368
 20
32.89676053660666
 10
14.56170561825368
 20
32.88176053660666
 10
14.54670561825368
 20
32.86676053660666
 10
14.54670561825367
 20
32.51476053660667
 42
0.6693764950687008
 10
14.57234727686308
 20
32.50418910803523
 42
-0.1997729274168789
 10
14.63619722851954
 20
32.53076053660666
 10
14.64670561825367
 20
32.53076053660666
 42
-0.4142135623730743
 10
14.69670561825367
 20
32.48076053660666
 10
14.69670561825368
 20
32.39276053660666
 42
-0.4142135623730951
 10
14.64670561825367
 20
32.34276053660666
 10
14.63619722851954
 20
32.34276053660667
 42
-0.1997729274168741
 10
14.57234727686309
 20
32.3693319651781
 42
0.6693764950687253
 10
14.54670561825367
 20
32.35876053660666
 10
14.54670561825367
 20
32.27676053660666
 42
0.4142135623730951
 10
14.56670561825367
 20
32.25676053660667
 10
19.79670561825367
 20
32.25676053660667
 10
19.7967056182537
 20
34.75676053660667
  0
LWPOLYLINE
  5
3E9
330
1F
100
AcDbEntity
  8
0
100
AcDbPolyline
 90
       12
 70
     1
 43
0.0
 10
14.38272602854234
 20
33.71976053660667
 10
13.91922683089575
 20
33.71976053660666
 42
0.8769764629927651
 10
13.91146225954267
 20
33.66078276181799
 10
13.97069970141066
 20
33.64491013710777
 42
-0.7673269879789323
 10
13.97069970141066
 20
33.36861093610555
 10
13.91146225954267
 20
33.35273831139534
 42
0.8769764629927397
 10
13.91922683089575
 20
33.29376053660666
 10
14.38272602854234
 20
33.29376053660666
 42
-0.2818610536572086
 10
14.48070561825367
 20
33.35376053660665
 10
14.54670561825368
 20
33.35376053660665
 10
14.54670561825368
 20
33.65976053660667
 10
14.48070561825367
 20
33.65976053660667
 42
-0.2818610536572082
  0
LINE
  5
3EB
330
1F
100
AcDbEntity
  8
R-SWTS-DET2
100
AcDbLine
 10
14.83646054027759
 20
32.21374014846187
 30
0.0
 11
14.83646054027759
 21
30.25676053660669
 31
0.0
  0
LWPOLYLINE
  5
3EC
330
1F
100
AcDbEntity
  8
0
100
AcDbPolyline
 90
        4
 70
     0
 43
0.0
 10
14.29670561825368
 20
30.25676053660666
 10
14.29670561825368
 20
32.75676053660666
 10
13.29670561825368
 20
32.75676053660666
 10
13.29670561825368
 20
30.25676053660666
  0
LINE
  5
3ED
330
1F
100
AcDbEntity
  8
0
100
AcDbLine
 10
13.54670561825368
 20
32.75676053660666
 30
0.0
 11
13.54670561825368
 21
30.25676053660666
 31
0.0
  0
LINE
  5
3EE
330
1F
100
AcDbEntity
  8
0
100
AcDbLine
 10
14.04670561825368
 20
30.25676053660666
 30
0.0
 11
14.04670561825368
 21
32.75676053660666
 31
0.0
  0
LINE
  5
3EF
330
1F
100
AcDbEntity
  8
R-SWTS-DET2
100
AcDbLine
 10
13.04695069622983
 20
32.73637491254557
 30
0.0
 11
13.29695069622983
 21
32.73637491254557
 31
0.0
  0
LINE
  5
3F0
330
1F
100
AcDbEntity
  8
0
100
AcDbLine
 10
13.04670561825368
 20
33.19376053660667
 30
0.0
 11
13.04670561825368
 21
33.25626053660667
 31
0.0
  0
LINE
  5
3F1
330
1F
100
AcDbEntity
  8
0
100
AcDbLine
 10
13.04670561825368
 20
33.19376053660667
 30
0.0
 11
13.29670561825368
 21
33.19376053660667
 31
0.0
  0
LINE
  5
3F2
330
1F
100
AcDbEntity
  8
0
100
AcDbLine
 10
13.29670561825368
 20
33.19376053660667
 30
0.0
 11
13.29670561825368
 21
33.25626053660667
 31
0.0
  0
LINE
  5
3F3
330
1F
100
AcDbEntity
  8
0
100
AcDbLine
 10
14.04670561825368
 20
32.50676053660666
 30
0.0
 11
13.54670561825368
 21
32.50676053660666
 31
0.0
  0
LINE
  5
3FE
330
1F
100
AcDbEntity
  8
R-SWTS-DET2
100
AcDbLine
 10
14.83646054027759
 20
32.25637491254561
 30
0.0
 11
14.72082968256424
 21
32.25637491254561
 31
0.0
  0
LINE
  5
3FF
330
1F
100
AcDbEntity
  8
R-SWTS-DET2
100
AcDbLine
 10
14.83646054027758
 20
32.19637491254561
 30
0.0
 11
14.83646054027759
 21
32.25637491254561
 31
0.0
  0
LINE
  5
400
330
1F
100
AcDbEntity
  8
R-SWTS-DET2
100
AcDbLine
 10
14.29646054027759
 20
32.11983947947474
 30
0.0
 11
14.83646054027758
 21
32.19637491254561
 31
0.0
  0
LINE
  5
401
330
1F
100
AcDbEntity
  8
0
100
AcDbLine
 10
14.54646054027759
 20
32.73637491254561
 30
0.0
 11
14.29646054027759
 21
32.73637491254561
 31
0.0
  0
LINE
  5
406
330
1F
100
AcDbEntity
  8
0
100
AcDbLine
 10
14.04670561825368
 20
36.75676053660666
 30
0.0
 11
14.04670561825368
 21
34.25676053660666
 31
0.0
  0
LINE
  5
407
330
1F
100
AcDbEntity
  8
0
100
AcDbLine
 10
13.54670561825368
 20
34.25676053660666
 30
0.0
 11
13.54670561825368
 21
36.75676053660666
 31
0.0
  0
LWPOLYLINE
  5
408
330
1F
100
AcDbEntity
  8
0
100
AcDbPolyline
 90
        4
 70
     0
 43
0.0
 10
14.29670561825368
 20
36.75676053660666
 10
14.29670561825368
 20
34.25676053660666
 10
13.29670561825368
 20
34.25676053660666
 10
13.29670561825368
 20
36.75676053660666
  0
LINE
  5
409
330
1F
100
AcDbEntity
  8
R-SWTS-DET2
100
AcDbLine
 10
14.83646054027759
 20
34.79978092475146
 30
0.0
 11
14.83646054027759
 21
36.75676053660664
 31
0.0
  0
LINE
  5
40A
330
1F
100
AcDbEntity
  8
R-SWTS-DET2
100
AcDbLine
 10
14.42170561825367
 20
33.81976053660667
 30
0.0
 11
14.04670561825368
 21
33.81976053660667
 31
0.0
  0
LINE
  5
40B
330
1F
100
AcDbEntity
  8
R-SWTS-DET2
100
AcDbLine
 10
13.23420561825368
 20
34.25676053660667
 30
0.0
 11
14.48420561825367
 21
34.25676053660667
 31
0.0
  0
LINE
  5
40C
330
1F
100
AcDbEntity
  8
0
100
AcDbLine
 10
13.04695069622983
 20
34.27714616066776
 30
0.0
 11
13.29695069622983
 21
34.27714616066776
 31
0.0
  0
LINE
  5
40D
330
1F
100
AcDbEntity
  8
0
100
AcDbLine
 10
13.04670561825368
 20
33.75726053660666
 30
0.0
 11
13.04670561825368
 21
33.81976053660666
 31
0.0
  0
LINE
  5
40E
330
1F
100
AcDbEntity
  8
0
100
AcDbLine
 10
13.29670561825368
 20
33.75726053660666
 30
0.0
 11
13.29670561825368
 21
33.81976053660666
 31
0.0
  0
LINE
  5
40F
330
1F
100
AcDbEntity
  8
0
100
AcDbLine
 10
13.29670561825368
 20
33.81976053660666
 30
0.0
 11
13.04670561825368
 21
33.81976053660666
 31
0.0
  0
LINE
  5
410
330
1F
100
AcDbEntity
  8
R-SWTS-DET2
100
AcDbLine
 10
13.5867056182537
 20
33.38137053660667
 30
0.0
 11
13.9217056182537
 21
33.50676053660667
 31
0.0
  0
LINE
  5
411
330
1F
100
AcDbEntity
  8
R-SWTS-DET2
100
AcDbLine
 10
13.9217056182537
 20
33.50676053660667
 30
0.0
 11
13.5867056182537
 21
33.63214053660666
 31
0.0
  0
LINE
  5
412
330
1F
100
AcDbEntity
  8
R-SWTS-DET2
100
AcDbLine
 10
14.04670561825368
 20
33.81976053660667
 30
0.0
 11
14.04670561825368
 21
33.94476053660667
 31
0.0
  0
ARC
  5
413
330
1F
100
AcDbEntity
  8
R-SWTS-DET2
100
AcDbCircle
 10
13.23420561825368
 20
34.19426053660667
 30
0.0
 40
0.0625000000000009
100
AcDbArc
 50
90.0
 51
270.0
  0
LINE
  5
414
330
1F
100
AcDbEntity
  8
R-SWTS-DET2
100
AcDbLine
 10
13.29670561825367
 20
34.13176053660667
 30
0.0
 11
13.23420561825368
 21
34.13176053660667
 31
0.0
  0
LINE
  5
415
330
1F
100
AcDbEntity
  8
R-SWTS-DET2
100
AcDbLine
 10
13.29670561825367
 20
33.81976053660667
 30
0.0
 11
13.29670561825367
 21
34.13176053660667
 31
0.0
  0
LINE
  5
416
330
1F
100
AcDbEntity
  8
R-SWTS-DET2
100
AcDbLine
 10
13.67170561825368
 20
33.81976053660667
 30
0.0
 11
13.29670561825367
 21
33.81976053660667
 31
0.0
  0
LINE
  5
417
330
1F
100
AcDbEntity
  8
R-SWTS-DET2
100
AcDbLine
 10
13.67170561825368
 20
33.94476053660667
 30
0.0
 11
13.67170561825368
 21
33.81976053660667
 31
0.0
  0
LINE
  5
418
330
1F
100
AcDbEntity
  8
R-SWTS-DET2
100
AcDbLine
 10
14.04670561825368
 20
33.94476053660667
 30
0.0
 11
13.67170561825368
 21
33.94476053660667
 31
0.0
  0
LINE
  5
419
330
1F
100
AcDbEntity
  8
0
100
AcDbLine
 10
14.04670561825368
 20
34.50676053660667
 30
0.0
 11
13.54670561825368
 21
34.50676053660667
 31
0.0
  0
LINE
  5
41A
330
1F
100
AcDbEntity
  8
R-SWTS-DET2
100
AcDbLine
 10
14.83646054027759
 20
34.75714616066772
 30
0.0
 11
14.72082968256424
 21
34.75714616066772
 31
0.0
  0
LINE
  5
41B
330
1F
100
AcDbEntity
  8
R-SWTS-DET2
100
AcDbLine
 10
14.83646054027758
 20
34.81714616066772
 30
0.0
 11
14.83646054027759
 21
34.75714616066772
 31
0.0
  0
LINE
  5
41C
330
1F
100
AcDbEntity
  8
R-SWTS-DET2
100
AcDbLine
 10
14.29646054027759
 20
34.89368159373859
 30
0.0
 11
14.83646054027758
 21
34.81714616066772
 31
0.0
  0
LINE
  5
41D
330
1F
100
AcDbEntity
  8
R-SWTS-DET2
100
AcDbLine
 10
14.54646054027759
 20
34.27714616066773
 30
0.0
 11
14.29646054027759
 21
34.27714616066773
 31
0.0
  0
LINE
  5
42C
330
1F
100
AcDbEntity
  8
R-SWTS-DET2
100
AcDbLine
 10
14.42170561825367
 20
34.13176053660667
 30
0.0
 11
14.42170561825367
 21
33.81976053660667
 31
0.0
  0
LINE
  5
42D
330
1F
100
AcDbEntity
  8
R-SWTS-DET2
100
AcDbLine
 10
14.48420561825367
 20
34.13176053660667
 30
0.0
 11
14.42170561825367
 21
34.13176053660667
 31
0.0
  0
ARC
  5
42E
330
1F
100
AcDbEntity
  8
R-SWTS-DET2
100
AcDbCircle
 10
14.48420561825367
 20
34.19426053660667
 30
0.0
 40
0.0625
100
AcDbArc
 50
270.0
 51
90.0
  0
LINE
  5
434
330
1F
100
AcDbEntity
  8
0
100
AcDbLine
 10
19.79670561825368
 20
32.25676053660667
 30
0.0
 11
19.79670561825368
 21
30.25676053660666
 31
0.0
  0
LINE
  5
435
330
1F
100
AcDbEntity
  8
R-SWTS-DET1
100
AcDbLine
 10
19.7967056182537
 20
32.25676053660667
 30
0.0
 11
19.7967056182537
 21
32.27576053660666
 31
0.0
  0
LINE
  5
436
330
1F
100
AcDbEntity
  8
R-SWTS-DET1
100
AcDbLine
 10
19.7967056182537
 20
32.25676053660667
 30
0.0
 11
19.7967056182537
 21
32.27576053660666
 31
0.0
  0
LINE
  5
437
330
1F
100
AcDbEntity
  8
0
100
AcDbLine
 10
19.79670561825368
 20
34.75676053660667
 30
0.0
 11
19.79670561825368
 21
36.75676053660666
 31
0.0
  0
LWPOLYLINE
  5
496
330
1F
100
AcDbEntity
  8
R-SWTS-DET2
100
AcDbPolyline
 90
       21
 70
     1
 43
0.0
 10
20.1367056182537
 20
34.51781361583726
 10
20.02324494039684
 20
34.20608296542952
 42
-0.3152987888789811
 10
19.94994891597554
 20
34.15476053660892
 10
19.8747056182537
 20
34.15476053660892
 10
19.8747056182537
 20
34.58876053660892
 10
19.8867056182537
 20
34.58876053660892
 10
19.8867056182537
 20
34.66676053660892
 10
19.8367056182537
 20
34.66676053660892
 10
19.8367056182537
 20
34.72676053660892
 10
19.7967056182537
 20
34.72676053660892
 10
19.7967056182537
 20
34.39176053660891
 10
19.8067056182537
 20
34.38176053660892
 10
19.7967056182537
 20
34.37176053660892
 10
19.7967056182537
 20
34.07676053660892
 10
19.97476812632657
 20
34.07676053660892
 42
0.3152987888789831
 10
20.04806415074787
 20
34.12808296542952
 10
20.1867056182537
 20
34.50899726680184
 10
20.1867056182537
 20
34.63825280444471
 42
0.7673269879789691
 10
20.13350946583099
 20
34.65250667052681
 10
20.0967056182537
 20
34.58876053660892
 10
20.1367056182537
 20
34.58876053660892
  0
TEXT
  5
497
330
1F
100
AcDbEntity
  8
TEXT
100
AcDbText
 10
48.56092032278144
 20
24.48220652832726
 30
0.0
 40
0.25
  1
069263 GYPSUM BOARD TRIM
100
AcDbText
  0
LWPOLYLINE
  5
499
330
1F
100
AcDbEntity
  8
R-SWTS-DET2
100
AcDbPolyline
 90
        8
 70
     1
 43
0.0
 10
47.34243202500102
 20
23.77205468162649
 10
47.44143202500101
 20
23.85530468162649
 10
47.44143202500101
 20
23.52680468162649
 10
47.34243202500102
 20
23.6100546816265
 10
46.94443799013379
 20
23.6100546816265
 10
46.79907164777279
 20
23.67026739214499
 42
-0.6681786379193252
 10
46.79907164777279
 20
23.711841971108
 10
46.94443799013379
 20
23.77205468162649
  0
LINE
  5
49A
330
1F
100
AcDbEntity
  8
CENTER
  6
CENTER2
100
AcDbLine
 10
47.79002660974334
 20
23.69105468162649
 30
0.0
 11
46.4840037459433
 21
23.69105468162649
 31
0.0
  0
LINE
  5
49F
330
1F
100
AcDbEntity
  8
CENTER
  6
CENTER2
100
AcDbLine
 10
20.22330020299603
 20
34.37176053660892
 30
0.0
 11
18.91727733919599
 21
34.37176053660892
 31
0.0
  0
LWPOLYLINE
  5
4A0
330
1F
100
AcDbEntity
  8
R-SWTS-DET2
100
AcDbPolyline
 90
        8
 70
     1
 43
0.0
 10
19.7757056182537
 20
34.45276053660891
 10
19.8747056182537
 20
34.53601053660892
 10
19.8747056182537
 20
34.20751053660892
 10
19.7757056182537
 20
34.29076053660892
 10
19.37771158338648
 20
34.29076053660892
 10
19.23234524102548
 20
34.35097324712741
 42
-0.6681786379193252
 10
19.23234524102548
 20
34.39254782609042
 10
19.37771158338648
 20
34.45276053660891
  0
LWPOLYLINE
  5
82A
330
1F
100
AcDbEntity
  8
FORMAT
100
AcDbPolyline
 90
        3
 70
     0
 43
0.0
 10
0.0000000778132403
 20
58.85027889924176
 10
0.0000000778132403
 20
0.0000001255472313
 10
90.71368692157799
 20
0.0000001255472313
  0
MTEXT
  5
B2C
330
1F
100
AcDbEntity
  8
TEXT
100
AcDbMText
 10
1.00000007781324
 20
2.000000067678868
 30
0.0
 40
0.375
 41
14.22387531454843
 71
     1
 72
     5
  1
ENGINEERING CHANGE:  97910-087 (MARCH 2017)\PFILE NAME:  KCDD026 SHEET 03 OF 03.DWG
 73
     1
 44
1.0
1001
ACAD
1000
ACAD_MTEXT_COLUMN_INFO_BEGIN
1070
    75
1070
     2
1070
    79
1070
     0
1070
    76
1070
     1
1070
    78
1070
     0
1070
    48
1040
14.22387531454843
1070
    49
1040
1.25
1070
    50
1070
     1
1040
0.0
1000
ACAD_MTEXT_COLUMN_INFO_END
1000
MTEXTBEGIN
1070
    73
1070
     1
1070
    44
1040
1.0
1070
    74
1070
     0
1000
MTEXTEND
  0
INSERT
  5
C39
330
1F
100
AcDbEntity
  8
0
100
AcDbBlockReference
  2
Kawneer Logo English
 10
1.0
 20
2.5
 30
0.0
 41
5.337
 42
5.337
 43
5.337
  0
ENDSEC
  0
SECTION
  2
OBJECTS
  0
DICTIONARY
  5
C
330
0
100
AcDbDictionary
281
     1
  3
ACAD_CIP_PREVIOUS_PRODUCT_INFO
350
80F
  3
ACAD_COLOR
350
731
  3
ACAD_GROUP
350
D
  3
ACAD_LAYOUT
350
1A
  3
ACAD_MATERIAL
350
6FF
  3
ACAD_MLEADERSTYLE
350
746
  3
ACAD_MLINESTYLE
350
17
  3
ACAD_PLOTSETTINGS
350
19
  3
ACAD_PLOTSTYLENAME
350
E
  3
ACAD_SCALELIST
350
734
  3
ACAD_TABLESTYLE
350
732
  3
ACAD_VISUALSTYLE
350
718
  3
ACDB_RECOMPOSE_DATA
350
CD7
  3
AcDbVariableDictionary
350
7C1
  3
DWGPROPS
350
CD8
  0
DICTIONARY
  5
784
330
8
100
AcDbDictionary
280
     1
281
     1
  0
DICTIONARY
  5
76E
330
2
100
AcDbDictionary
280
     1
281
     1
  3
ACAD_LAYERSTATES
360
76F
  0
DICTIONARY
  5
883
330
10
100
AcDbDictionary
280
     1
281
     1
  3
ADSK_XREC_LAYER_RECONCILED
360
884
  0
DICTIONARY
  5
885
330
2D
100
AcDbDictionary
280
     1
281
     1
  3
ADSK_XREC_LAYER_RECONCILED
360
886
  0
DICTIONARY
  5
887
330
2E
100
AcDbDictionary
280
     1
281
     1
  3
ADSK_XREC_LAYER_RECONCILED
360
888
  0
DICTIONARY
  5
88B
330
DF
100
AcDbDictionary
280
     1
281
     1
  3
ADSK_XREC_LAYER_RECONCILED
360
88C
  0
DICTIONARY
  5
890
330
820
100
AcDbDictionary
280
     1
281
     1
  3
ADSK_XREC_LAYER_RECONCILED
360
891
  0
DICTIONARY
  5
892
330
831
100
AcDbDictionary
280
     1
281
     1
  3
ADSK_XREC_LAYER_RECONCILED
360
893
  0
DICTIONARY
  5
894
330
85A
100
AcDbDictionary
280
     1
281
     1
  3
ADSK_XREC_LAYER_RECONCILED
360
895
  0
DICTIONARY
  5
867
330
866
100
AcDbDictionary
280
     1
281
     1
  3
ADSK_XREC_LAYER_RECONCILED
360
896
  0
DICTIONARY
  5
873
330
872
100
AcDbDictionary
280
     1
281
     1
  3
ADSK_XREC_LAYER_RECONCILED
360
897
  0
DICTIONARY
  5
4A2
330
1F
100
AcDbDictionary
280
     1
281
     1
  3
ACAD_LAYOUTSELFREF
360
6F0
  0
DICTIONARY
  5
4A4
330
1B
100
AcDbDictionary
280
     1
281
     1
  3
ACAD_LAYOUTSELFREF
360
6EF
  0
DICTIONARY
  5
4A6
330
23
100
AcDbDictionary
280
     1
281
     1
  3
ACAD_LAYOUTSELFREF
360
6F1
  0
DICTIONARY
  5
C35
330
C2B
100
AcDbDictionary
280
     1
281
     1
  3
ACAD_SORTENTS
360
C36
  0
DICTIONARY
  5
CD5
330
C2C
100
AcDbDictionary
280
     1
281
     1
  3
ACAD_MTEXT_2008_RT
360
CD6
  0
XRECORD
  5
80F
102
{ACAD_REACTORS
330
C
102
}
330
C
100
AcDbXrecord
280
     1
300
ACD
300
2012
300
85730ACD_2012_0F
  0
DICTIONARY
  5
731
102
{ACAD_REACTORS
330
C
102
}
330
C
100
AcDbDictionary
281
     1
  0
DICTIONARY
  5
D
102
{ACAD_REACTORS
330
C
102
}
330
C
100
AcDbDictionary
281
     1
  0
DICTIONARY
  5
1A
102
{ACAD_REACTORS
330
C
102
}
330
C
100
AcDbDictionary
281
     1
  3
Layout1
350
1E
  3
Layout2
350
26
  3
Model
350
22
  0
DICTIONARY
  5
6FF
102
{ACAD_REACTORS
330
C
102
}
330
C
100
AcDbDictionary
281
     1
  3
ByBlock
350
708
  3
ByLayer
350
700
  3
Global
350
710
  0
DICTIONARY
  5
746
102
{ACAD_REACTORS
330
C
102
}
330
C
100
AcDbDictionary
281
     1
  3
Standard
350
747
  0
DICTIONARY
  5
17
102
{ACAD_REACTORS
330
C
102
}
330
C
100
AcDbDictionary
281
     1
  3
Standard
350
18
  0
DICTIONARY
  5
19
102
{ACAD_REACTORS
330
C
102
}
330
C
100
AcDbDictionary
281
     1
  0
ACDBDICTIONARYWDFLT
  5
E
102
{ACAD_REACTORS
330
C
102
}
330
C
100
AcDbDictionary
281
     1
  3
Normal
350
F
100
AcDbDictionaryWithDefault
340
F
  0
DICTIONARY
  5
734
102
{ACAD_REACTORS
330
C
102
}
330
C
100
AcDbDictionary
281
     1
  3
A0
350
735
  3
A1
350
C0C
  3
A2
350
C0D
  3
A3
350
C0E
  3
A4
350
C0F
  3
A5
350
C10
  3
A6
350
C11
  3
A7
350
C12
  3
A8
350
C13
  3
A9
350
C14
  3
B0
350
C15
  3
B1
350
C16
  3
B2
350
C17
  3
B3
350
C18
  3
B4
350
C19
  3
B5
350
C1A
  3
B6
350
C1B
  0
DICTIONARY
  5
732
102
{ACAD_REACTORS
330
C
102
}
330
C
100
AcDbDictionary
281
     1
  3
Standard
350
733
  0
DICTIONARY
  5
718
102
{ACAD_REACTORS
330
C
102
}
330
C
100
AcDbDictionary
281
     1
  3
2dWireframe
350
71E
  3
3D Hidden
350
C29
  3
3dWireframe
350
C2A
  3
Basic
350
71D
  3
Brighten
350
724
  3
ColorChange
350
728
  3
Conceptual
350
721
  3
Dim
350
723
  3
EdgeColorOff
350
730
  3
Facepattern
350
727
  3
Flat
350
719
  3
FlatWithEdges
350
71A
  3
Gouraud
350
71B
  3
GouraudWithEdges
350
71C
  3
Hidden
350
720
  3
JitterOff
350
72E
  3
Linepattern
350
726
  3
OverhangOff
350
72F
  3
Realistic
350
722
  3
Shaded
350
72D
  3
Shaded with edges
350
72C
  3
Shades of Gray
350
729
  3
Sketchy
350
72A
  3
Thicken
350
725
  3
Wireframe
350
71F
  3
X-Ray
350
72B
  0
XRECORD
  5
CD7
102
{ACAD_REACTORS
330
C
102
}
330
C
100
AcDbXrecord
280
     1
 90
        1
330
733
330
B2C
330
C2C
  0
DICTIONARY
  5
7C1
102
{ACAD_REACTORS
330
C
102
}
330
C
100
AcDbDictionary
281
     1
  3
CANNOSCALE
350
7C4
  3
CMLEADERSTYLE
350
7C3
  3
CTABLESTYLE
350
7C2
  3
DIMASSOC
350
7C7
  3
INDEXCTL
350
7C6
  3
LAYEREVAL
350
ACA
  3
LAYERNOTIFY
350
ACB
  3
LIGHTINGUNITS
350
AC9
  3
MSLTSCALE
350
AC8
  3
SORTENTS
350
7C5
  3
XCLIPFRAME
350
CD3
  0
XRECORD
  5
CD8
102
{ACAD_REACTORS
330
C
102
}
330
C
100
AcDbXrecord
280
     1
  1
DWGPROPS COOKIE
  2

  3

  4

  6

  7

  8
quadiss
  9

300
=
301
=
302
=
303
=
304
=
305
=
306
=
307
=
308
=
309
=
 40
0.1978326273148148
 41
2453123.446422338
 42
2457799.489735914
  1

 90
        0
  0
DICTIONARY
  5
76F
102
{ACAD_REACTORS
330
76E
102
}
330
76E
100
AcDbDictionary
281
     1
  0
XRECORD
  5
884
102
{ACAD_REACTORS
330
883
102
}
330
883
100
AcDbXrecord
280
     1
290
     1
  0
XRECORD
  5
886
102
{ACAD_REACTORS
330
885
102
}
330
885
100
AcDbXrecord
280
     1
290
     1
  0
XRECORD
  5
888
102
{ACAD_REACTORS
330
887
102
}
330
887
100
AcDbXrecord
280
     1
290
     1
  0
XRECORD
  5
88C
102
{ACAD_REACTORS
330
88B
102
}
330
88B
100
AcDbXrecord
280
     1
290
     1
  0
XRECORD
  5
891
102
{ACAD_REACTORS
330
890
102
}
330
890
100
AcDbXrecord
280
     1
290
     1
  0
XRECORD
  5
893
102
{ACAD_REACTORS
330
892
102
}
330
892
100
AcDbXrecord
280
     1
290
     1
  0
XRECORD
  5
895
102
{ACAD_REACTORS
330
894
102
}
330
894
100
AcDbXrecord
280
     1
290
     1
  0
XRECORD
  5
896
102
{ACAD_REACTORS
330
867
102
}
330
867
100
AcDbXrecord
280
     1
290
     1
  0
XRECORD
  5
897
102
{ACAD_REACTORS
330
873
102
}
330
873
100
AcDbXrecord
280
     1
290
     1
  0
XRECORD
  5
6F0
102
{ACAD_REACTORS
330
4A2
102
}
330
4A2
100
AcDbXrecord
280
     1
340
1F
  0
XRECORD
  5
6EF
102
{ACAD_REACTORS
330
4A4
102
}
330
4A4
100
AcDbXrecord
280
     1
340
1B
  0
XRECORD
  5
6F1
102
{ACAD_REACTORS
330
4A6
102
}
330
4A6
100
AcDbXrecord
280
     1
340
23
  0
SORTENTSTABLE
  5
C36
102
{ACAD_REACTORS
330
C35
102
}
330
C35
100
AcDbSortentsTable
330
C2B
  0
XRECORD
  5
CD6
102
{ACAD_REACTORS
330
CD5
102
}
330
CD5
100
AcDbXrecord
280
     1
 40
102645.0
  1
\pxqr;{\fArial TUR|b0|i0|c0|p34;\T1.05;AN ARCONIC COMPANY}
  0
LAYOUT
  5
1E
102
{ACAD_XDICTIONARY
360
CD9
102
}
102
{ACAD_REACTORS
330
1A
102
}
330
1A
100
AcDbPlotSettings
  1

  2
\\noakci-hub01\KCI_MKT_HP9000_PCL6
  4

  6

 40
0.0
 41
0.0
 42
0.0
 43
0.0
 44
0.0
 45
0.0
 46
0.0
 47
0.0
 48
0.0
 49
0.0
140
0.0
141
0.0
142
1.0
143
1.0
 70
   688
 72
     0
 73
     0
 74
     5
  7
monochrome2.ctb
 75
    16
147
1.0
148
0.0
149
0.0
100
AcDbLayout
  1
Layout1
 70
     1
 71
     1
 10
0.0
 20
0.0
 11
12.0
 21
9.0
 12
0.0
 22
0.0
 32
0.0
 14
1.000000000000000E+20
 24
1.000000000000000E+20
 34
1.000000000000000E+20
 15
-1.000000000000000E+20
 25
-1.000000000000000E+20
 35
-1.000000000000000E+20
146
0.0
 13
0.0
 23
0.0
 33
0.0
 16
1.0
 26
0.0
 36
0.0
 17
0.0
 27
1.0
 37
0.0
 76
     0
330
1B
  0
LAYOUT
  5
26
102
{ACAD_XDICTIONARY
360
CDD
102
}
102
{ACAD_REACTORS
330
1A
102
}
330
1A
100
AcDbPlotSettings
  1

  2
\\noakci-hub01\KCI_MKT_HP9000_PCL6
  4

  6

 40
0.0
 41
0.0
 42
0.0
 43
0.0
 44
0.0
 45
0.0
 46
0.0
 47
0.0
 48
0.0
 49
0.0
140
0.0
141
0.0
142
1.0
143
1.0
 70
   688
 72
     0
 73
     0
 74
     5
  7
monochrome2.ctb
 75
    16
147
1.0
148
0.0
149
0.0
100
AcDbLayout
  1
Layout2
 70
     1
 71
     2
 10
0.0
 20
0.0
 11
12.0
 21
9.0
 12
0.0
 22
0.0
 32
0.0
 14
0.0
 24
0.0
 34
0.0
 15
0.0
 25
0.0
 35
0.0
146
0.0
 13
0.0
 23
0.0
 33
0.0
 16
1.0
 26
0.0
 36
0.0
 17
0.0
 27
1.0
 37
0.0
 76
     0
330
23
  0
LAYOUT
  5
22
102
{ACAD_XDICTIONARY
360
CDB
102
}
102
{ACAD_REACTORS
330
1A
102
}
330
1A
100
AcDbPlotSettings
  1

  2
none_device
  4
Letter_(8.50_x_11.00_Inches)
  6

 40
6.349999904632568
 41
6.349999904632568
 42
6.350006103515625
 43
6.350006103515625
 44
215.8999938964844
 45
279.3999938964844
 46
0.0
 47
0.0
 48
0.0
 49
0.0
140
0.0
141
0.0
142
1.0
143
12.48044767181463
 70
 11952
 72
     0
 73
     1
 74
     0
  7
monochrome2.ctb
 75
     0
147
0.0801253309413221
148
522.2414016472344
149
5.371224675323062
100
AcDbLayout
  1
Model
 70
     1
 71
     0
 10
0.0
 20
0.0
 11
12.0
 21
9.0
 12
0.0
 22
0.0
 32
0.0
 14
0.0
 24
0.0
 34
0.0
 15
0.0
 25
0.0
 35
0.0
146
0.0
 13
0.0
 23
0.0
 33
0.0
 16
1.0
 26
0.0
 36
0.0
 17
0.0
 27
1.0
 37
0.0
 76
     0
330
1F
331
6BB
1001
ACAD_PSEXT
1000
None
1000
None
1000
Not applicable
1000
The layout will not be plotted unless a new plotter configuration name is selected.
1070
     0
  0
MATERIAL
  5
708
102
{ACAD_XDICTIONARY
360
709
102
}
102
{ACAD_REACTORS
330
6FF
102
}
330
6FF
100
AcDbMaterial
  1
ByBlock
 72
     0
 43
0.0208333333333333
 43
0.0
 43
0.0
 43
0.0
 43
0.0
 43
0.0208333333333333
 43
0.0
 43
0.0
 43
0.0
 43
0.0
 43
1.0
 43
0.0
 43
0.0
 43
0.0
 43
0.0
 43
1.0
 77
     0
 47
0.0208333333333333
 47
0.0
 47
0.0
 47
0.0
 47
0.0
 47
0.0208333333333333
 47
0.0
 47
0.0
 47
0.0
 47
0.0
 47
1.0
 47
0.0
 47
0.0
 47
0.0
 47
0.0
 47
1.0
171
     0
 49
0.0208333333333333
 49
0.0
 49
0.0
 49
0.0
 49
0.0
 49
0.0208333333333333
 49
0.0
 49
0.0
 49
0.0
 49
0.0
 49
1.0
 49
0.0
 49
0.0
 49
0.0
 49
0.0
 49
1.0
175
     0
142
0.0208333333333333
142
0.0
142
0.0
142
0.0
142
0.0
142
0.0208333333333333
142
0.0
142
0.0
142
0.0
142
0.0
142
1.0
142
0.0
142
0.0
142
0.0
142
0.0
142
1.0
179
     0
144
0.0208333333333333
144
0.0
144
0.0
144
0.0
144
0.0
144
0.0208333333333333
144
0.0
144
0.0
144
0.0
144
0.0
144
1.0
144
0.0
144
0.0
144
0.0
144
0.0
144
1.0
147
0.0208333333333333
147
0.0
147
0.0
147
0.0
147
0.0
147
0.0208333333333333
147
0.0
147
0.0
147
0.0
147
0.0
147
1.0
147
0.0
147
0.0
147
0.0
147
0.0
147
1.0
  0
MATERIAL
  5
700
102
{ACAD_XDICTIONARY
360
701
102
}
102
{ACAD_REACTORS
330
6FF
102
}
330
6FF
100
AcDbMaterial
  1
ByLayer
 72
     0
 43
0.0208333333333333
 43
0.0
 43
0.0
 43
0.0
 43
0.0
 43
0.0208333333333333
 43
0.0
 43
0.0
 43
0.0
 43
0.0
 43
1.0
 43
0.0
 43
0.0
 43
0.0
 43
0.0
 43
1.0
 77
     0
 47
0.0208333333333333
 47
0.0
 47
0.0
 47
0.0
 47
0.0
 47
0.0208333333333333
 47
0.0
 47
0.0
 47
0.0
 47
0.0
 47
1.0
 47
0.0
 47
0.0
 47
0.0
 47
0.0
 47
1.0
171
     0
 49
0.0208333333333333
 49
0.0
 49
0.0
 49
0.0
 49
0.0
 49
0.0208333333333333
 49
0.0
 49
0.0
 49
0.0
 49
0.0
 49
1.0
 49
0.0
 49
0.0
 49
0.0
 49
0.0
 49
1.0
175
     0
142
0.0208333333333333
142
0.0
142
0.0
142
0.0
142
0.0
142
0.0208333333333333
142
0.0
142
0.0
142
0.0
142
0.0
142
1.0
142
0.0
142
0.0
142
0.0
142
0.0
142
1.0
179
     0
144
0.0208333333333333
144
0.0
144
0.0
144
0.0
144
0.0
144
0.0208333333333333
144
0.0
144
0.0
144
0.0
144
0.0
144
1.0
144
0.0
144
0.0
144
0.0
144
0.0
144
1.0
147
0.0208333333333333
147
0.0
147
0.0
147
0.0
147
0.0
147
0.0208333333333333
147
0.0
147
0.0
147
0.0
147
0.0
147
1.0
147
0.0
147
0.0
147
0.0
147
0.0
147
1.0
  0
MATERIAL
  5
710
102
{ACAD_XDICTIONARY
360
711
102
}
102
{ACAD_REACTORS
330
6FF
102
}
330
6FF
100
AcDbMaterial
  1
Global
 72
     0
 43
0.0208333333333333
 43
0.0
 43
0.0
 43
0.0
 43
0.0
 43
0.0208333333333333
 43
0.0
 43
0.0
 43
0.0
 43
0.0
 43
1.0
 43
0.0
 43
0.0
 43
0.0
 43
0.0
 43
1.0
 77
     0
 47
0.0208333333333333
 47
0.0
 47
0.0
 47
0.0
 47
0.0
 47
0.0208333333333333
 47
0.0
 47
0.0
 47
0.0
 47
0.0
 47
1.0
 47
0.0
 47
0.0
 47
0.0
 47
0.0
 47
1.0
171
     0
 49
0.0208333333333333
 49
0.0
 49
0.0
 49
0.0
 49
0.0
 49
0.0208333333333333
 49
0.0
 49
0.0
 49
0.0
 49
0.0
 49
1.0
 49
0.0
 49
0.0
 49
0.0
 49
0.0
 49
1.0
175
     0
142
0.0208333333333333
142
0.0
142
0.0
142
0.0
142
0.0
142
0.0208333333333333
142
0.0
142
0.0
142
0.0
142
0.0
142
1.0
142
0.0
142
0.0
142
0.0
142
0.0
142
1.0
179
     0
144
0.0208333333333333
144
0.0
144
0.0
144
0.0
144
0.0
144
0.0208333333333333
144
0.0
144
0.0
144
0.0
144
0.0
144
1.0
144
0.0
144
0.0
144
0.0
144
0.0
144
1.0
147
0.0208333333333333
147
0.0
147
0.0
147
0.0
147
0.0
147
0.0208333333333333
147
0.0
147
0.0
147
0.0
147
0.0
147
1.0
147
0.0
147
0.0
147
0.0
147
0.0
147
1.0
  0
MLEADERSTYLE
  5
747
102
{ACAD_REACTORS
330
746
102
}
330
746
100
AcDbMLeaderStyle
170
     2
171
     1
172
     0
 90
        2
 40
0.0
 41
0.0
173
     1
 91
-1056964608
340
14
 92
       -2
290
     1
 42
0.09
291
     1
 43
0.36
  3
Standard
 44
0.18
300

342
11
174
     1
178
     6
175
     1
176
     0
 93
-1056964608
 45
0.18
292
     0
297
     0
 46
0.18
 94
-1056964608
 47
1.0
 49
1.0
140
1.0
293
     1
141
0.0
294
     1
177
     0
142
1.0
295
     0
296
     0
143
0.125
1001
ACAD_MLEADERVER
1070
     2
  0
MLINESTYLE
  5
18
102
{ACAD_REACTORS
330
17
102
}
330
17
100
AcDbMlineStyle
  2
STANDARD
 70
     0
  3

 62
   256
 51
90.0
 52
90.0
 71
     2
 49
0.5
 62
   256
  6
BYLAYER
 49
-0.5
 62
   256
  6
BYLAYER
  0
ACDBPLACEHOLDER
  5
F
102
{ACAD_REACTORS
330
E
102
}
330
E
  0
SCALE
  5
735
102
{ACAD_REACTORS
330
734
102
}
330
734
100
AcDbScale
 70
     0
300
1:1
140
1.0
141
1.0
290
     1
  0
SCALE
  5
C0C
102
{ACAD_REACTORS
330
734
102
}
330
734
100
AcDbScale
 70
     0
300
1/128" = 1'-0"
140
0.0078125
141
12.0
290
     0
  0
SCALE
  5
C0D
102
{ACAD_REACTORS
330
734
102
}
330
734
100
AcDbScale
 70
     0
300
1/64" = 1'-0"
140
0.015625
141
12.0
290
     0
  0
SCALE
  5
C0E
102
{ACAD_REACTORS
330
734
102
}
330
734
100
AcDbScale
 70
     0
300
1/32" = 1'-0"
140
0.03125
141
12.0
290
     0
  0
SCALE
  5
C0F
102
{ACAD_REACTORS
330
734
102
}
330
734
100
AcDbScale
 70
     0
300
1/16" = 1'-0"
140
0.0625
141
12.0
290
     0
  0
SCALE
  5
C10
102
{ACAD_REACTORS
330
734
102
}
330
734
100
AcDbScale
 70
     0
300
3/32" = 1'-0"
140
0.09375
141
12.0
290
     0
  0
SCALE
  5
C11
102
{ACAD_REACTORS
330
734
102
}
330
734
100
AcDbScale
 70
     0
300
1/8" = 1'-0"
140
0.125
141
12.0
290
     0
  0
SCALE
  5
C12
102
{ACAD_REACTORS
330
734
102
}
330
734
100
AcDbScale
 70
     0
300
3/16" = 1'-0"
140
0.1875
141
12.0
290
     0
  0
SCALE
  5
C13
102
{ACAD_REACTORS
330
734
102
}
330
734
100
AcDbScale
 70
     0
300
1/4" = 1'-0"
140
0.25
141
12.0
290
     0
  0
SCALE
  5
C14
102
{ACAD_REACTORS
330
734
102
}
330
734
100
AcDbScale
 70
     0
300
3/8" = 1'-0"
140
0.375
141
12.0
290
     0
  0
SCALE
  5
C15
102
{ACAD_REACTORS
330
734
102
}
330
734
100
AcDbScale
 70
     0
300
1/2" = 1'-0"
140
0.5
141
12.0
290
     0
  0
SCALE
  5
C16
102
{ACAD_REACTORS
330
734
102
}
330
734
100
AcDbScale
 70
     0
300
3/4" = 1'-0"
140
0.75
141
12.0
290
     0
  0
SCALE
  5
C17
102
{ACAD_REACTORS
330
734
102
}
330
734
100
AcDbScale
 70
     0
300
1" = 1'-0"
140
1.0
141
12.0
290
     0
  0
SCALE
  5
C18
102
{ACAD_REACTORS
330
734
102
}
330
734
100
AcDbScale
 70
     0
300
1-1/2" = 1'-0"
140
1.5
141
12.0
290
     0
  0
SCALE
  5
C19
102
{ACAD_REACTORS
330
734
102
}
330
734
100
AcDbScale
 70
     0
300
3" = 1'-0"
140
3.0
141
12.0
290
     0
  0
SCALE
  5
C1A
102
{ACAD_REACTORS
330
734
102
}
330
734
100
AcDbScale
 70
     0
300
6" = 1'-0"
140
6.0
141
12.0
290
     0
  0
SCALE
  5
C1B
102
{ACAD_REACTORS
330
734
102
}
330
734
100
AcDbScale
 70
     0
300
1'-0" = 1'-0"
140
12.0
141
12.0
290
     0
  0
TABLESTYLE
  5
733
102
{ACAD_XDICTIONARY
360
780
102
}
102
{ACAD_REACTORS
330
732
102
}
330
732
100
AcDbTableStyle
  3
Standard
 70
     0
 71
     0
 40
0.06
 41
0.06
280
     0
281
     0
  7
Standard
140
0.18
170
     2
 62
     0
 63
     7
283
     0
274
    -2
284
     1
 64
     0
275
    -2
285
     1
 65
     0
276
    -2
286
     1
 66
     0
277
    -2
287
     1
 67
     0
278
    -2
288
     1
 68
     0
279
    -2
289
     1
 69
     0
  7
Standard
140
0.25
170
     5
 62
     0
 63
     7
283
     0
274
    -2
284
     1
 64
     0
275
    -2
285
     1
 65
     0
276
    -2
286
     1
 66
     0
277
    -2
287
     1
 67
     0
278
    -2
288
     1
 68
     0
279
    -2
289
     1
 69
     0
  7
Standard
140
0.18
170
     5
 62
     0
 63
     7
283
     0
274
    -2
284
     1
 64
     0
275
    -2
285
     1
 65
     0
276
    -2
286
     1
 66
     0
277
    -2
287
     1
 67
     0
278
    -2
288
     1
 68
     0
279
    -2
289
     1
 69
     0
  0
VISUALSTYLE
  5
71E
102
{ACAD_XDICTIONARY
360
CEC
102
}
102
{ACAD_REACTORS
330
718
102
}
330
718
100
AcDbVisualStyle
  2
2dWireframe
 70
     4
 71
     0
 72
     2
 73
     0
 90
        0
 40
-0.6
 41
-30.0
 62
     5
 63
     7
 74
     1
 91
        4
 64
     7
 65
   257
 75
     1
175
     1
 42
1.0
 92
        0
 66
   257
 43
1.0
 76
     1
 77
     6
 78
     2
 67
     7
 79
     5
170
     0
171
     0
290
     0
174
     0
 93
        1
 44
0.0
173
     0
291
     0
 45
0.0
1001
ACAD
1000
AcDbSavedByObjectVersion
1070
     0
  0
VISUALSTYLE
  5
C29
102
{ACAD_XDICTIONARY
360
D13
102
}
102
{ACAD_REACTORS
330
718
102
}
330
718
100
AcDbVisualStyle
  2
3D Hidden
 70
     6
 71
     1
 72
     2
 73
     2
 90
        0
 40
-0.6
 41
-30.0
 62
     5
 63
     7
 74
     2
 91
        2
 64
     7
 65
   257
 75
     2
175
     1
 42
40.0
 92
        0
 66
   257
 43
1.0
 76
     1
 77
     6
 78
     2
 67
     7
 79
     3
170
     0
171
     0
290
     0
174
     0
 93
        1
 44
0.0
173
     0
291
     0
 45
0.0
1001
ACAD
1000
AcDbSavedByObjectVersion
1070
     0
  0
VISUALSTYLE
  5
C2A
102
{ACAD_XDICTIONARY
360
D15
102
}
102
{ACAD_REACTORS
330
718
102
}
330
718
100
AcDbVisualStyle
  2
3dWireframe
 70
     5
 71
     0
 72
     2
 73
     0
 90
        0
 40
-0.6
 41
-30.0
 62
     5
 63
     7
 74
     1
 91
        4
 64
     7
 65
   257
 75
     1
175
     1
 42
1.0
 92
        0
 66
   257
 43
1.0
 76
     1
 77
     6
 78
     2
 67
     7
 79
     5
170
     0
171
     0
290
     0
174
     0
 93
        1
 44
0.0
173
     0
291
     0
 45
0.0
1001
ACAD
1000
AcDbSavedByObjectVersion
1070
     0
  0
VISUALSTYLE
  5
71D
102
{ACAD_XDICTIONARY
360
CEA
102
}
102
{ACAD_REACTORS
330
718
102
}
330
718
100
AcDbVisualStyle
  2
Basic
 70
     7
 71
     1
 72
     0
 73
     1
 90
        0
 40
-0.6
 41
-30.0
 62
     5
 63
     7
 74
     0
 91
        4
 64
     7
 65
   257
 75
     1
175
     1
 42
1.0
 92
        8
 66
     7
 43
1.0
 76
     1
 77
     6
 78
     2
 67
     7
 79
     5
170
     0
171
     0
290
     0
174
     0
 93
        1
 44
0.0
173
     0
291
     1
 45
0.0
1001
ACAD
1000
AcDbSavedByObjectVersion
1070
     0
  0
VISUALSTYLE
  5
724
102
{ACAD_XDICTIONARY
360
CF8
102
}
102
{ACAD_REACTORS
330
718
102
}
330
718
100
AcDbVisualStyle
  2
Brighten
 70
    12
 71
     2
 72
     2
 73
     0
 90
        0
 40
-0.6
 41
-30.0
 62
     5
 63
     7
 74
     1
 91
        4
 64
     7
 65
   257
 75
     1
175
     1
 42
1.0
 92
        8
 66
     7
 43
1.0
 76
     1
 77
     6
 78
     2
 67
     7
 79
     5
170
     0
171
     0
290
     0
174
     0
 93
        1
 44
50.0
173
     0
291
     1
 45
0.0
1001
ACAD
1000
AcDbSavedByObjectVersion
1070
     0
  0
VISUALSTYLE
  5
728
102
{ACAD_XDICTIONARY
360
D00
102
}
102
{ACAD_REACTORS
330
718
102
}
330
718
100
AcDbVisualStyle
  2
ColorChange
 70
    16
 71
     2
 72
     2
 73
     3
 90
        0
 40
-0.6
 41
-30.0
 62
     5
 63
     8
 74
     1
 91
        4
 64
     7
 65
   257
 75
     1
175
     1
 42
1.0
 92
        8
 66
     8
 43
1.0
 76
     1
 77
     6
 78
     2
 67
     7
 79
     5
170
     0
171
     0
290
     0
174
     0
 93
        1
 44
0.0
173
     0
291
     1
 45
0.0
1001
ACAD
1000
AcDbSavedByObjectVersion
1070
     0
  0
VISUALSTYLE
  5
721
102
{ACAD_XDICTIONARY
360
CF2
102
}
102
{ACAD_REACTORS
330
718
102
}
330
718
100
AcDbVisualStyle
  2
Conceptual
 70
     9
 71
     3
 72
     2
 73
     0
 90
        0
 40
-0.6
 41
-30.0
 62
     5
 63
     7
 74
     2
 91
        2
 64
     7
 65
   257
 75
     1
175
     1
 42
179.0
 92
        8
 66
     7
 43
1.0
 76
     1
 77
     6
 78
     2
 67
     7
 79
     3
170
     0
171
     0
290
     0
174
     0
 93
        1
 44
0.0
173
     0
291
     0
 45
0.0
1001
ACAD
1000
AcDbSavedByObjectVersion
1070
     0
  0
VISUALSTYLE
  5
723
102
{ACAD_XDICTIONARY
360
CF6
102
}
102
{ACAD_REACTORS
330
718
102
}
330
718
100
AcDbVisualStyle
  2
Dim
 70
    11
 71
     2
 72
     2
 73
     0
 90
        0
 40
-0.6
 41
-30.0
 62
     5
 63
     7
 74
     1
 91
        4
 64
     7
 65
   257
 75
     1
175
     1
 42
1.0
 92
        8
 66
     7
 43
1.0
 76
     1
 77
     6
 78
     2
 67
     7
 79
     5
170
     0
171
     0
290
     0
174
     0
 93
        1
 44
-50.0
173
     0
291
     1
 45
0.0
1001
ACAD
1000
AcDbSavedByObjectVersion
1070
     0
  0
VISUALSTYLE
  5
730
102
{ACAD_XDICTIONARY
360
D10
102
}
102
{ACAD_REACTORS
330
718
102
}
330
718
100
AcDbVisualStyle
  2
EdgeColorOff
 70
    22
 71
     2
 72
     2
 73
     0
 90
        0
 40
-0.6
 41
-30.0
 62
     5
 63
     7
 74
     1
 91
        4
 64
     7
 65
   257
 75
     1
175
     1
 42
1.0
 92
        8
 66
     7
 43
1.0
 76
     1
 77
     6
 78
     2
 67
     7
 79
     5
170
     0
171
     0
290
     0
174
     0
 93
        1
 44
0.0
173
     0
291
     1
 45
0.0
1001
ACAD
1000
AcDbSavedByObjectVersion
1070
     0
  0
VISUALSTYLE
  5
727
102
{ACAD_XDICTIONARY
360
CFE
102
}
102
{ACAD_REACTORS
330
718
102
}
330
718
100
AcDbVisualStyle
  2
Facepattern
 70
    15
 71
     2
 72
     2
 73
     0
 90
        0
 40
-0.6
 41
-30.0
 62
     5
 63
     7
 74
     1
 91
        4
 64
     7
 65
   257
 75
     1
175
     1
 42
1.0
 92
        8
 66
     7
 43
1.0
 76
     1
 77
     6
 78
     2
 67
     7
 79
     5
170
     0
171
     0
290
     0
174
     0
 93
        1
 44
0.0
173
     0
291
     1
 45
0.0
1001
ACAD
1000
AcDbSavedByObjectVersion
1070
     0
  0
VISUALSTYLE
  5
719
102
{ACAD_XDICTIONARY
360
CE2
102
}
102
{ACAD_REACTORS
330
718
102
}
330
718
100
AcDbVisualStyle
  2
Flat
 70
     0
 71
     2
 72
     1
 73
     1
 90
        2
 40
-0.6
 41
30.0
 62
     5
 63
     7
 74
     0
 91
        0
 64
     7
 65
   257
 75
     1
175
     1
 42
1.0
 92
        8
 66
     7
 43
1.0
 76
     1
 77
     6
 78
     2
 67
     7
 79
     5
170
     0
171
     0
290
     0
174
     0
 93
       13
 44
0.0
173
     0
291
     1
 45
0.0
1001
ACAD
1000
AcDbSavedByObjectVersion
1070
     0
  0
VISUALSTYLE
  5
71A
102
{ACAD_XDICTIONARY
360
CE4
102
}
102
{ACAD_REACTORS
330
718
102
}
330
718
100
AcDbVisualStyle
  2
FlatWithEdges
 70
     1
 71
     2
 72
     1
 73
     1
 90
        2
 40
-0.6
 41
30.0
 62
     5
 63
     7
 74
     1
 91
        0
 64
     7
 65
   257
 75
     1
175
     1
 42
1.0
 92
        0
 66
   257
 43
1.0
 76
     1
 77
     6
 78
     2
 67
     7
 79
     5
170
     0
171
     0
290
     0
174
     0
 93
       13
 44
0.0
173
     0
291
     1
 45
0.0
1001
ACAD
1000
AcDbSavedByObjectVersion
1070
     0
  0
VISUALSTYLE
  5
71B
102
{ACAD_XDICTIONARY
360
CE6
102
}
102
{ACAD_REACTORS
330
718
102
}
330
718
100
AcDbVisualStyle
  2
Gouraud
 70
     2
 71
     2
 72
     2
 73
     1
 90
        2
 40
-0.6
 41
30.0
 62
     5
 63
     7
 74
     0
 91
        0
 64
     7
 65
   257
 75
     1
175
     1
 42
1.0
 92
        0
 66
     7
 43
1.0
 76
     1
 77
     6
 78
     2
 67
     7
 79
     5
170
     0
171
     0
290
     0
174
     0
 93
       13
 44
0.0
173
     0
291
     1
 45
0.0
1001
ACAD
1000
AcDbSavedByObjectVersion
1070
     0
  0
VISUALSTYLE
  5
71C
102
{ACAD_XDICTIONARY
360
CE8
102
}
102
{ACAD_REACTORS
330
718
102
}
330
718
100
AcDbVisualStyle
  2
GouraudWithEdges
 70
     3
 71
     2
 72
     2
 73
     1
 90
        2
 40
-0.6
 41
30.0
 62
     5
 63
     7
 74
     1
 91
        0
 64
     7
 65
   257
 75
     1
175
     1
 42
1.0
 92
        0
 66
   257
 43
1.0
 76
     1
 77
     6
 78
     2
 67
     7
 79
     5
170
     0
171
     0
290
     0
174
     0
 93
       13
 44
0.0
173
     0
291
     1
 45
0.0
1001
ACAD
1000
AcDbSavedByObjectVersion
1070
     0
  0
VISUALSTYLE
  5
720
102
{ACAD_XDICTIONARY
360
CF0
102
}
102
{ACAD_REACTORS
330
718
102
}
330
718
100
AcDbVisualStyle
  2
Hidden
 70
     6
 71
     1
 72
     2
 73
     2
 90
        0
 40
-0.6
 41
-30.0
 62
     5
 63
     7
 74
     2
 91
        2
 64
     7
 65
   257
 75
     2
175
     1
 42
40.0
 92
        0
 66
   257
 43
1.0
 76
     1
 77
     6
 78
     2
 67
     7
 79
     3
170
     0
171
     0
290
     0
174
     0
 93
        1
 44
0.0
173
     0
291
     0
 45
0.0
1001
ACAD
1000
AcDbSavedByObjectVersion
1070
     0
  0
VISUALSTYLE
  5
72E
102
{ACAD_XDICTIONARY
360
D0C
102
}
102
{ACAD_REACTORS
330
718
102
}
330
718
100
AcDbVisualStyle
  2
JitterOff
 70
    20
 71
     2
 72
     2
 73
     0
 90
        0
 40
-0.6
 41
-30.0
 62
     5
 63
     7
 74
     1
 91
        4
 64
     7
 65
   257
 75
     1
175
     1
 42
1.0
 92
       10
 66
     7
 43
1.0
 76
     1
 77
     6
 78
     2
 67
     7
 79
     5
170
     0
171
     0
290
     0
174
     0
 93
        1
 44
0.0
173
     0
291
     1
 45
0.0
1001
ACAD
1000
AcDbSavedByObjectVersion
1070
     0
  0
VISUALSTYLE
  5
726
102
{ACAD_XDICTIONARY
360
CFC
102
}
102
{ACAD_REACTORS
330
718
102
}
330
718
100
AcDbVisualStyle
  2
Linepattern
 70
    14
 71
     2
 72
     2
 73
     0
 90
        0
 40
-0.6
 41
-30.0
 62
     5
 63
     7
 74
     1
 91
        4
 64
     7
 65
   257
 75
     7
175
     7
 42
1.0
 92
        8
 66
     7
 43
1.0
 76
     1
 77
     6
 78
     2
 67
     7
 79
     5
170
     0
171
     0
290
     0
174
     0
 93
        1
 44
0.0
173
     0
291
     1
 45
0.0
1001
ACAD
1000
AcDbSavedByObjectVersion
1070
     0
  0
VISUALSTYLE
  5
72F
102
{ACAD_XDICTIONARY
360
D0E
102
}
102
{ACAD_REACTORS
330
718
102
}
330
718
100
AcDbVisualStyle
  2
OverhangOff
 70
    21
 71
     2
 72
     2
 73
     0
 90
        0
 40
-0.6
 41
-30.0
 62
     5
 63
     7
 74
     1
 91
        4
 64
     7
 65
   257
 75
     1
175
     1
 42
1.0
 92
        9
 66
     7
 43
1.0
 76
     1
 77
     6
 78
     2
 67
     7
 79
     5
170
     0
171
     0
290
     0
174
     0
 93
        1
 44
0.0
173
     0
291
     1
 45
0.0
1001
ACAD
1000
AcDbSavedByObjectVersion
1070
     0
  0
VISUALSTYLE
  5
722
102
{ACAD_XDICTIONARY
360
CF4
102
}
102
{ACAD_REACTORS
330
718
102
}
330
718
100
AcDbVisualStyle
  2
Realistic
 70
     8
 71
     2
 72
     2
 73
     0
 90
        2
 40
-0.6
 41
30.0
 62
     5
 63
     7
 74
     0
 91
        0
 64
     7
 65
   257
 75
     1
175
     1
 42
1.0
 92
        8
 66
   257
 43
1.0
 76
     1
 77
     6
 78
     2
 67
     7
 79
     3
170
     0
171
     0
290
     0
174
     0
 93
       13
 44
0.0
173
     0
291
     0
 45
0.0
1001
ACAD
1000
AcDbSavedByObjectVersion
1070
     0
  0
VISUALSTYLE
  5
72D
102
{ACAD_XDICTIONARY
360
D0A
102
}
102
{ACAD_REACTORS
330
718
102
}
330
718
100
AcDbVisualStyle
  2
Shaded
 70
    27
 71
     2
 72
     2
 73
     1
 90
        2
 40
-0.6
 41
30.0
 62
     5
 63
     7
 74
     0
 91
        4
 64
     7
 65
   257
 75
     1
175
     1
 42
1.0
 92
        8
 66
   257
 43
1.0
 76
     1
 77
     6
 78
     2
 67
     8
 79
     3
170
     0
171
     0
290
     0
174
     0
 93
        5
 44
0.0
173
     0
291
     0
 45
0.0
1001
ACAD
1000
AcDbSavedByObjectVersion
1070
     0
  0
VISUALSTYLE
  5
72C
102
{ACAD_XDICTIONARY
360
D08
102
}
102
{ACAD_REACTORS
330
718
102
}
330
718
100
AcDbVisualStyle
  2
Shaded with edges
 70
    26
 71
     2
 72
     2
 73
     1
 90
        2
 40
-0.6
 41
30.0
 62
     5
 63
     7
 74
     1
 91
       10
 64
     7
 65
   257
 75
     2
175
     1
 42
1.0
 92
        8
 66
   257
 43
1.0
 76
     1
 77
     6
 78
     2
 67
     7
 79
     3
170
     0
171
     0
290
     0
174
     0
 93
        5
 44
0.0
173
     0
291
     0
 45
0.0
1001
ACAD
1000
AcDbSavedByObjectVersion
1070
     0
  0
VISUALSTYLE
  5
729
102
{ACAD_XDICTIONARY
360
D02
102
}
102
{ACAD_REACTORS
330
718
102
}
330
718
100
AcDbVisualStyle
  2
Shades of Gray
 70
    23
 71
     2
 72
     2
 73
     3
 90
        0
 40
-0.6
 41
-30.0
 62
     5
 63
     7
 74
     2
 91
        2
 64
     7
 65
     7
 75
     1
175
     1
 42
40.0
 92
        8
 66
     7
 43
1.0
 76
     1
 77
     6
 78
     2
 67
     7
 79
     3
170
     0
171
     0
290
     0
174
     0
 93
        1
 44
0.0
173
     0
291
     0
 45
0.0
1001
ACAD
1000
AcDbSavedByObjectVersion
1070
     0
  0
VISUALSTYLE
  5
72A
102
{ACAD_XDICTIONARY
360
D04
102
}
102
{ACAD_REACTORS
330
718
102
}
330
718
100
AcDbVisualStyle
  2
Sketchy
 70
    24
 71
     1
 72
     2
 73
     2
 90
        0
 40
-0.6
 41
-30.0
 62
     5
 63
     7
 74
     2
 91
        2
 64
     7
 65
     7
 75
     1
175
     1
 42
40.0
 92
       11
 66
     7
 43
1.0
 76
     1
 77
     6
 78
     2
 67
     7
 79
     6
170
     0
171
     0
290
     0
174
     0
 93
        1
 44
0.0
173
     0
291
     0
 45
0.0
1001
ACAD
1000
AcDbSavedByObjectVersion
1070
     0
  0
VISUALSTYLE
  5
725
102
{ACAD_XDICTIONARY
360
CFA
102
}
102
{ACAD_REACTORS
330
718
102
}
330
718
100
AcDbVisualStyle
  2
Thicken
 70
    13
 71
     2
 72
     2
 73
     0
 90
        0
 40
-0.6
 41
-30.0
 62
     5
 63
     7
 74
     1
 91
        4
 64
     7
 65
   257
 75
     1
175
     1
 42
1.0
 92
       12
 66
     7
 43
1.0
 76
     1
 77
     6
 78
     2
 67
     7
 79
     5
170
     0
171
     0
290
     0
174
     0
 93
        1
 44
0.0
173
     0
291
     1
 45
0.0
1001
ACAD
1000
AcDbSavedByObjectVersion
1070
     0
  0
VISUALSTYLE
  5
71F
102
{ACAD_XDICTIONARY
360
CEE
102
}
102
{ACAD_REACTORS
330
718
102
}
330
718
100
AcDbVisualStyle
  2
Wireframe
 70
     5
 71
     0
 72
     2
 73
     0
 90
        0
 40
-0.6
 41
-30.0
 62
     5
 63
     7
 74
     1
 91
        4
 64
     7
 65
   257
 75
     1
175
     1
 42
1.0
 92
        0
 66
   257
 43
1.0
 76
     1
 77
     6
 78
     2
 67
     7
 79
     3
170
     0
171
     0
290
     0
174
     0
 93
        1
 44
0.0
173
     0
291
     0
 45
0.0
1001
ACAD
1000
AcDbSavedByObjectVersion
1070
     0
  0
VISUALSTYLE
  5
72B
102
{ACAD_XDICTIONARY
360
D06
102
}
102
{ACAD_REACTORS
330
718
102
}
330
718
100
AcDbVisualStyle
  2
X-Ray
 70
    25
 71
     2
 72
     2
 73
     1
 90
        1
 40
0.5
 41
-30.0
 62
     5
 63
     7
 74
     1
 91
        0
 64
     7
 65
   257
 75
     1
175
     1
 42
1.0
 92
        8
 66
     7
 43
1.0
 76
     1
 77
     6
 78
     2
 67
     7
 79
     3
170
     0
171
     0
290
     0
174
     0
 93
       13
 44
0.0
173
     0
291
     0
 45
0.0
1001
ACAD
1000
AcDbSavedByObjectVersion
1070
     0
  0
DICTIONARYVAR
  5
7C4
102
{ACAD_REACTORS
330
7C1
102
}
330
7C1
100
DictionaryVariables
280
     0
  1
1:1
  0
DICTIONARYVAR
  5
7C3
102
{ACAD_REACTORS
330
7C1
102
}
330
7C1
100
DictionaryVariables
280
     0
  1
STANDARD
  0
DICTIONARYVAR
  5
7C2
102
{ACAD_REACTORS
330
7C1
102
}
330
7C1
100
DictionaryVariables
280
     0
  1
STANDARD
  0
DICTIONARYVAR
  5
7C7
102
{ACAD_REACTORS
330
7C1
102
}
330
7C1
100
DictionaryVariables
280
     0
  1
1
  0
DICTIONARYVAR
  5
7C6
102
{ACAD_REACTORS
330
7C1
102
}
330
7C1
100
DictionaryVariables
280
     0
  1
0
  0
DICTIONARYVAR
  5
ACA
102
{ACAD_REACTORS
330
7C1
102
}
330
7C1
100
DictionaryVariables
280
     0
  1
1
  0
DICTIONARYVAR
  5
ACB
102
{ACAD_REACTORS
330
7C1
102
}
330
7C1
100
DictionaryVariables
280
     0
  1
15
  0
DICTIONARYVAR
  5
AC9
102
{ACAD_REACTORS
330
7C1
102
}
330
7C1
100
DictionaryVariables
280
     0
  1
0
  0
DICTIONARYVAR
  5
AC8
102
{ACAD_REACTORS
330
7C1
102
}
330
7C1
100
DictionaryVariables
280
     0
  1
0
  0
DICTIONARYVAR
  5
7C5
102
{ACAD_REACTORS
330
7C1
102
}
330
7C1
100
DictionaryVariables
280
     0
  1
127
  0
DICTIONARYVAR
  5
CD3
102
{ACAD_REACTORS
330
7C1
102
}
330
7C1
100
DictionaryVariables
280
     0
  1
2
  0
DICTIONARY
  5
CD9
330
1E
100
AcDbDictionary
280
     1
281
     1
  3
ACAD_XREC_ROUNDTRIP
360
CDA
  0
DICTIONARY
  5
CDD
330
26
100
AcDbDictionary
280
     1
281
     1
  3
ACAD_XREC_ROUNDTRIP
360
CDE
  0
DICTIONARY
  5
CDB
330
22
100
AcDbDictionary
280
     1
281
     1
  3
ACAD_XREC_ROUNDTRIP
360
CDC
  0
DICTIONARY
  5
709
330
708
100
AcDbDictionary
280
     1
281
     1
  3
ACAD_XREC_ROUNDTRIP
360
CE0
  3
BUMPTILE
360
70B
  3
DIFFUSETILE
360
70A
  3
OPACITYTILE
360
70E
  3
REFLECTIONTILE
360
70D
  3
REFRACTIONTILE
360
70F
  3
SPECULARTILE
360
70C
  0
DICTIONARY
  5
701
330
700
100
AcDbDictionary
280
     1
281
     1
  3
ACAD_XREC_ROUNDTRIP
360
CDF
  3
BUMPTILE
360
703
  3
DIFFUSETILE
360
702
  3
OPACITYTILE
360
706
  3
REFLECTIONTILE
360
705
  3
REFRACTIONTILE
360
707
  3
SPECULARTILE
360
704
  0
DICTIONARY
  5
711
330
710
100
AcDbDictionary
280
     1
281
     1
  3
ACAD_XREC_ROUNDTRIP
360
CE1
  3
BUMPTILE
360
713
  3
DIFFUSETILE
360
712
  3
OPACITYTILE
360
716
  3
REFLECTIONTILE
360
715
  3
REFRACTIONTILE
360
717
  3
SPECULARTILE
360
714
  0
DICTIONARY
  5
780
330
733
100
AcDbDictionary
280
     1
281
     1
  3
ACAD_ROUNDTRIP_2008_TABLESTYLE_CELLSTYLEMAP
360
CD4
  3
ACAD_XREC_ROUNDTRIP
360
D12
  0
DICTIONARY
  5
CEC
330
71E
100
AcDbDictionary
280
     1
281
     1
  3
ACAD_XREC_ROUNDTRIP
360
CED
  0
DICTIONARY
  5
D13
330
C29
100
AcDbDictionary
280
     1
281
     1
  3
ACAD_XREC_ROUNDTRIP
360
D14
  0
DICTIONARY
  5
D15
330
C2A
100
AcDbDictionary
280
     1
281
     1
  3
ACAD_XREC_ROUNDTRIP
360
D16
  0
DICTIONARY
  5
CEA
330
71D
100
AcDbDictionary
280
     1
281
     1
  3
ACAD_XREC_ROUNDTRIP
360
CEB
  0
DICTIONARY
  5
CF8
330
724
100
AcDbDictionary
280
     1
281
     1
  3
ACAD_XREC_ROUNDTRIP
360
CF9
  0
DICTIONARY
  5
D00
330
728
100
AcDbDictionary
280
     1
281
     1
  3
ACAD_XREC_ROUNDTRIP
360
D01
  0
DICTIONARY
  5
CF2
330
721
100
AcDbDictionary
280
     1
281
     1
  3
ACAD_XREC_ROUNDTRIP
360
CF3
  0
DICTIONARY
  5
CF6
330
723
100
AcDbDictionary
280
     1
281
     1
  3
ACAD_XREC_ROUNDTRIP
360
CF7
  0
DICTIONARY
  5
D10
330
730
100
AcDbDictionary
280
     1
281
     1
  3
ACAD_XREC_ROUNDTRIP
360
D11
  0
DICTIONARY
  5
CFE
330
727
100
AcDbDictionary
280
     1
281
     1
  3
ACAD_XREC_ROUNDTRIP
360
CFF
  0
DICTIONARY
  5
CE2
330
719
100
AcDbDictionary
280
     1
281
     1
  3
ACAD_XREC_ROUNDTRIP
360
CE3
  0
DICTIONARY
  5
CE4
330
71A
100
AcDbDictionary
280
     1
281
     1
  3
ACAD_XREC_ROUNDTRIP
360
CE5
  0
DICTIONARY
  5
CE6
330
71B
100
AcDbDictionary
280
     1
281
     1
  3
ACAD_XREC_ROUNDTRIP
360
CE7
  0
DICTIONARY
  5
CE8
330
71C
100
AcDbDictionary
280
     1
281
     1
  3
ACAD_XREC_ROUNDTRIP
360
CE9
  0
DICTIONARY
  5
CF0
330
720
100
AcDbDictionary
280
     1
281
     1
  3
ACAD_XREC_ROUNDTRIP
360
CF1
  0
DICTIONARY
  5
D0C
330
72E
100
AcDbDictionary
280
     1
281
     1
  3
ACAD_XREC_ROUNDTRIP
360
D0D
  0
DICTIONARY
  5
CFC
330
726
100
AcDbDictionary
280
     1
281
     1
  3
ACAD_XREC_ROUNDTRIP
360
CFD
  0
DICTIONARY
  5
D0E
330
72F
100
AcDbDictionary
280
     1
281
     1
  3
ACAD_XREC_ROUNDTRIP
360
D0F
  0
DICTIONARY
  5
CF4
330
722
100
AcDbDictionary
280
     1
281
     1
  3
ACAD_XREC_ROUNDTRIP
360
CF5
  0
DICTIONARY
  5
D0A
330
72D
100
AcDbDictionary
280
     1
281
     1
  3
ACAD_XREC_ROUNDTRIP
360
D0B
  0
DICTIONARY
  5
D08
330
72C
100
AcDbDictionary
280
     1
281
     1
  3
ACAD_XREC_ROUNDTRIP
360
D09
  0
DICTIONARY
  5
D02
330
729
100
AcDbDictionary
280
     1
281
     1
  3
ACAD_XREC_ROUNDTRIP
360
D03
  0
DICTIONARY
  5
D04
330
72A
100
AcDbDictionary
280
     1
281
     1
  3
ACAD_XREC_ROUNDTRIP
360
D05
  0
DICTIONARY
  5
CFA
330
725
100
AcDbDictionary
280
     1
281
     1
  3
ACAD_XREC_ROUNDTRIP
360
CFB
  0
DICTIONARY
  5
CEE
330
71F
100
AcDbDictionary
280
     1
281
     1
  3
ACAD_XREC_ROUNDTRIP
360
CEF
  0
DICTIONARY
  5
D06
330
72B
100
AcDbDictionary
280
     1
281
     1
  3
ACAD_XREC_ROUNDTRIP
360
D07
  0
XRECORD
  5
CDA
102
{ACAD_REACTORS
330
CD9
102
}
330
CD9
100
AcDbXrecord
280
     1
102
SHADEPLOT
 70
     0
102
SHADEPLOTRESLEVEL
 70
     2
102
SHADEPLOTCUSTOMDPI
 70
   300
  0
XRECORD
  5
CDE
102
{ACAD_REACTORS
330
CDD
102
}
330
CDD
100
AcDbXrecord
280
     1
102
SHADEPLOT
 70
     0
102
SHADEPLOTRESLEVEL
 70
     2
102
SHADEPLOTCUSTOMDPI
 70
   300
  0
XRECORD
  5
CDC
102
{ACAD_REACTORS
330
CDB
102
}
330
CDB
100
AcDbXrecord
280
     1
102
SHADEPLOT
 70
     0
102
SHADEPLOTRESLEVEL
 70
     2
102
SHADEPLOTCUSTOMDPI
 70
   300
  0
XRECORD
  5
CE0
102
{ACAD_REACTORS
330
709
102
}
330
709
100
AcDbXrecord
280
     1
102
MATERIAL
148
0.0
149
0.0
149
0.0
 93
        0
 94
      127
282
     0
 72
     0
 77
     0
171
     0
175
     0
179
     0
273
     0
  0
XRECORD
  5
70B
102
{ACAD_REACTORS
330
709
102
}
330
709
100
AcDbXrecord
280
     1
270
     1
271
     1
  0
XRECORD
  5
70A
102
{ACAD_REACTORS
330
709
102
}
330
709
100
AcDbXrecord
280
     1
270
     1
271
     1
  0
XRECORD
  5
70E
102
{ACAD_REACTORS
330
709
102
}
330
709
100
AcDbXrecord
280
     1
270
     1
271
     1
  0
XRECORD
  5
70D
102
{ACAD_REACTORS
330
709
102
}
330
709
100
AcDbXrecord
280
     1
270
     1
271
     1
  0
XRECORD
  5
70F
102
{ACAD_REACTORS
330
709
102
}
330
709
100
AcDbXrecord
280
     1
270
     1
271
     1
  0
XRECORD
  5
70C
102
{ACAD_REACTORS
330
709
102
}
330
709
100
AcDbXrecord
280
     1
270
     1
271
     1
  0
XRECORD
  5
CDF
102
{ACAD_REACTORS
330
701
102
}
330
701
100
AcDbXrecord
280
     1
102
MATERIAL
148
0.0
149
0.0
149
0.0
 93
        0
 94
      127
282
     0
 72
     0
 77
     0
171
     0
175
     0
179
     0
273
     0
  0
XRECORD
  5
703
102
{ACAD_REACTORS
330
701
102
}
330
701
100
AcDbXrecord
280
     1
270
     1
271
     1
  0
XRECORD
  5
702
102
{ACAD_REACTORS
330
701
102
}
330
701
100
AcDbXrecord
280
     1
270
     1
271
     1
  0
XRECORD
  5
706
102
{ACAD_REACTORS
330
701
102
}
330
701
100
AcDbXrecord
280
     1
270
     1
271
     1
  0
XRECORD
  5
705
102
{ACAD_REACTORS
330
701
102
}
330
701
100
AcDbXrecord
280
     1
270
     1
271
     1
  0
XRECORD
  5
707
102
{ACAD_REACTORS
330
701
102
}
330
701
100
AcDbXrecord
280
     1
270
     1
271
     1
  0
XRECORD
  5
704
102
{ACAD_REACTORS
330
701
102
}
330
701
100
AcDbXrecord
280
     1
270
     1
271
     1
  0
XRECORD
  5
CE1
102
{ACAD_REACTORS
330
711
102
}
330
711
100
AcDbXrecord
280
     1
102
MATERIAL
148
0.0
149
0.0
149
0.0
 93
        0
 94
      127
282
     0
 72
     0
 77
     0
171
     0
175
     0
179
     0
273
     0
  0
XRECORD
  5
713
102
{ACAD_REACTORS
330
711
102
}
330
711
100
AcDbXrecord
280
     1
270
     1
271
     1
  0
XRECORD
  5
712
102
{ACAD_REACTORS
330
711
102
}
330
711
100
AcDbXrecord
280
     1
270
     1
271
     1
  0
XRECORD
  5
716
102
{ACAD_REACTORS
330
711
102
}
330
711
100
AcDbXrecord
280
     1
270
     1
271
     1
  0
XRECORD
  5
715
102
{ACAD_REACTORS
330
711
102
}
330
711
100
AcDbXrecord
280
     1
270
     1
271
     1
  0
XRECORD
  5
717
102
{ACAD_REACTORS
330
711
102
}
330
711
100
AcDbXrecord
280
     1
270
     1
271
     1
  0
XRECORD
  5
714
102
{ACAD_REACTORS
330
711
102
}
330
711
100
AcDbXrecord
280
     1
270
     1
271
     1
  0
CELLSTYLEMAP
  5
CD4
102
{ACAD_REACTORS
330
780
102
}
330
780
100
AcDbCellStyleMap
 90
        3
300
CELLSTYLE
  1
TABLEFORMAT_BEGIN
 90
        5
170
     1
 91
        0
 92
    32768
 62
   257
 93
        1
300
CONTENTFORMAT
  1
CONTENTFORMAT_BEGIN
 90
        0
 91
        0
 92
      512
 93
        0
300

 40
0.0
140
1.0
 94
        5
 62
     0
340
11
144
0.25
309
CONTENTFORMAT_END
171
     0
 94
        0
309
TABLEFORMAT_END
  1
CELLSTYLE_BEGIN
 90
        1
 91
        1
300
_TITLE
309
CELLSTYLE_END
300
CELLSTYLE
  1
TABLEFORMAT_BEGIN
 90
        5
170
     1
 91
        0
 92
        0
 62
   257
 93
        1
300
CONTENTFORMAT
  1
CONTENTFORMAT_BEGIN
 90
        0
 91
        0
 92
      512
 93
        0
300

 40
0.0
140
1.0
 94
        5
 62
     0
340
11
144
0.18
309
CONTENTFORMAT_END
171
     0
 94
        0
309
TABLEFORMAT_END
  1
CELLSTYLE_BEGIN
 90
        2
 91
        1
300
_HEADER
309
CELLSTYLE_END
300
CELLSTYLE
  1
TABLEFORMAT_BEGIN
 90
        5
170
     1
 91
        0
 92
        0
 62
   257
 93
        1
300
CONTENTFORMAT
  1
CONTENTFORMAT_BEGIN
 90
        0
 91
        0
 92
      512
 93
        0
300

 40
0.0
140
1.0
 94
        2
 62
     0
340
11
144
0.18
309
CONTENTFORMAT_END
171
     0
 94
        0
309
TABLEFORMAT_END
  1
CELLSTYLE_BEGIN
 90
        3
 91
        2
300
_DATA
309
CELLSTYLE_END
  0
XRECORD
  5
D12
102
{ACAD_REACTORS
330
780
102
}
330
780
100
AcDbXrecord
280
     1
102
ACAD_ROUNDTRIP_PRE2007_TABLESTYLE
 90
      512
 91
        0
  1

 92
      512
 93
        0
  2

 94
      512
 95
        0
  3

  0
XRECORD
  5
CED
102
{ACAD_REACTORS
330
CEC
102
}
330
CEC
100
AcDbXrecord
280
     1
102
RTVSPropertyOp0
 70
     1
102
RTVSPropertyOp1
 70
     1
102
RTVSPropertyOp2
 70
     1
102
RTVSPropertyOp3
 70
     1
102
RTVSPropertyOp4
 70
     1
102
RTVSPropertyOp5
 70
     1
102
RTVSPropertyOp6
 70
     1
102
RTVSPropertyOp7
 70
     1
102
RTVSPropertyOp8
 70
     1
102
RTVSPropertyOp9
 70
     1
102
RTVSPropertyOp10
 70
     1
102
RTVSPropertyOp11
 70
     1
102
RTVSPropertyOp12
 70
     1
102
RTVSPropertyOp13
 70
     1
102
RTVSPropertyOp14
 70
     1
102
RTVSPropertyOp15
 70
     1
102
RTVSPropertyOp16
 70
     1
102
RTVSPropertyOp17
 70
     1
102
RTVSPropertyOp18
 70
     1
102
RTVSPropertyOp19
 70
     1
102
RTVSPropertyOp20
 70
     1
102
RTVSPropertyOp21
 70
     1
102
RTVSPropertyOp22
 70
     1
102
RTVSPropertyOp23
 70
     1
102
RTVSPropertyOp24
 70
     1
102
RTVSPropertyOp25
 70
     1
102
RTVSPropertyOp26
 70
     1
102
RTVSPropertyOp27
 70
     1
102
RTVSPropertyOp28
 70
     1
102
RTVSPropertyOp29
 70
     1
102
RTVSPropertyOp30
 70
     1
102
RTVSPropertyOp31
 70
     1
102
RTVSPropertyOp32
 70
     1
  0
XRECORD
  5
D14
102
{ACAD_REACTORS
330
D13
102
}
330
D13
100
AcDbXrecord
280
     1
102
RTVSPropertyOp0
 70
     1
102
RTVSPropertyOp1
 70
     1
102
RTVSPropertyOp2
 70
     1
102
RTVSPropertyOp3
 70
     1
102
RTVSPropertyOp4
 70
     1
102
RTVSPropertyOp5
 70
     1
102
RTVSPropertyOp6
 70
     1
102
RTVSPropertyOp7
 70
     1
102
RTVSPropertyOp8
 70
     1
102
RTVSPropertyOp9
 70
     1
102
RTVSPropertyOp10
 70
     1
102
RTVSPropertyOp11
 70
     1
102
RTVSPropertyOp12
 70
     1
102
RTVSPropertyOp13
 70
     1
102
RTVSPropertyOp14
 70
     1
102
RTVSPropertyOp15
 70
     1
102
RTVSPropertyOp16
 70
     1
102
RTVSPropertyOp17
 70
     1
102
RTVSPropertyOp18
 70
     1
102
RTVSPropertyOp19
 70
     1
102
RTVSPropertyOp20
 70
     1
102
RTVSPropertyOp21
 70
     1
102
RTVSPropertyOp22
 70
     1
102
RTVSPropertyOp23
 70
     1
102
RTVSPropertyOp24
 70
     1
102
RTVSPropertyOp25
 70
     1
102
RTVSPropertyOp26
 70
     1
102
RTVSPropertyOp27
 70
     1
102
RTVSPropertyOp28
 70
     1
102
RTVSPropertyOp29
 70
     1
102
RTVSPropertyOp30
 70
     1
102
RTVSPropertyOp31
 70
     1
102
RTVSPropertyOp32
 70
     1
  0
XRECORD
  5
D16
102
{ACAD_REACTORS
330
D15
102
}
330
D15
100
AcDbXrecord
280
     1
102
RTVSPropertyOp0
 70
     1
102
RTVSPropertyOp1
 70
     1
102
RTVSPropertyOp2
 70
     1
102
RTVSPropertyOp3
 70
     1
102
RTVSPropertyOp4
 70
     1
102
RTVSPropertyOp5
 70
     1
102
RTVSPropertyOp6
 70
     1
102
RTVSPropertyOp7
 70
     1
102
RTVSPropertyOp8
 70
     1
102
RTVSPropertyOp9
 70
     1
102
RTVSPropertyOp10
 70
     1
102
RTVSPropertyOp11
 70
     1
102
RTVSPropertyOp12
 70
     1
102
RTVSPropertyOp13
 70
     1
102
RTVSPropertyOp14
 70
     1
102
RTVSPropertyOp15
 70
     1
102
RTVSPropertyOp16
 70
     1
102
RTVSPropertyOp17
 70
     1
102
RTVSPropertyOp18
 70
     1
102
RTVSPropertyOp19
 70
     1
102
RTVSPropertyOp20
 70
     1
102
RTVSPropertyOp21
 70
     1
102
RTVSPropertyOp22
 70
     1
102
RTVSPropertyOp23
 70
     1
102
RTVSPropertyOp24
 70
     1
102
RTVSPropertyOp25
 70
     1
102
RTVSPropertyOp26
 70
     1
102
RTVSPropertyOp27
 70
     1
102
RTVSPropertyOp28
 70
     1
102
RTVSPropertyOp29
 70
     1
102
RTVSPropertyOp30
 70
     1
102
RTVSPropertyOp31
 70
     1
102
RTVSPropertyOp32
 70
     1
  0
XRECORD
  5
CEB
102
{ACAD_REACTORS
330
CEA
102
}
330
CEA
100
AcDbXrecord
280
     1
102
RTVSPropertyOp0
 70
     1
102
RTVSPropertyOp1
 70
     1
102
RTVSPropertyOp2
 70
     1
102
RTVSPropertyOp3
 70
     1
102
RTVSPropertyOp4
 70
     1
102
RTVSPropertyOp5
 70
     1
102
RTVSPropertyOp6
 70
     1
102
RTVSPropertyOp7
 70
     1
102
RTVSPropertyOp8
 70
     1
102
RTVSPropertyOp9
 70
     1
102
RTVSPropertyOp10
 70
     1
102
RTVSPropertyOp11
 70
     1
102
RTVSPropertyOp12
 70
     1
102
RTVSPropertyOp13
 70
     1
102
RTVSPropertyOp14
 70
     1
102
RTVSPropertyOp15
 70
     1
102
RTVSPropertyOp16
 70
     1
102
RTVSPropertyOp17
 70
     1
102
RTVSPropertyOp18
 70
     1
102
RTVSPropertyOp19
 70
     1
102
RTVSPropertyOp20
 70
     1
102
RTVSPropertyOp21
 70
     1
102
RTVSPropertyOp22
 70
     1
102
RTVSPropertyOp23
 70
     1
102
RTVSPropertyOp24
 70
     1
102
RTVSPropertyOp25
 70
     1
102
RTVSPropertyOp26
 70
     1
102
RTVSPropertyOp27
 70
     1
102
RTVSPropertyOp28
 70
     1
102
RTVSPropertyOp29
 70
     1
102
RTVSPropertyOp30
 70
     1
102
RTVSPropertyOp31
 70
     1
102
RTVSPropertyOp32
 70
     1
  0
XRECORD
  5
CF9
102
{ACAD_REACTORS
330
CF8
102
}
330
CF8
100
AcDbXrecord
280
     1
102
RTVSPropertyOp0
 70
     1
102
RTVSPropertyOp1
 70
     1
102
RTVSPropertyOp2
 70
     1
102
RTVSPropertyOp3
 70
     1
102
RTVSPropertyOp4
 70
     1
102
RTVSPropertyOp5
 70
     1
102
RTVSPropertyOp6
 70
     1
102
RTVSPropertyOp7
 70
     1
102
RTVSPropertyOp8
 70
     1
102
RTVSPropertyOp9
 70
     1
102
RTVSPropertyOp10
 70
     1
102
RTVSPropertyOp11
 70
     1
102
RTVSPropertyOp12
 70
     1
102
RTVSPropertyOp13
 70
     1
102
RTVSPropertyOp14
 70
     1
102
RTVSPropertyOp15
 70
     1
102
RTVSPropertyOp16
 70
     1
102
RTVSPropertyOp17
 70
     1
102
RTVSPropertyOp18
 70
     1
102
RTVSPropertyOp19
 70
     1
102
RTVSPropertyOp20
 70
     1
102
RTVSPropertyOp21
 70
     1
102
RTVSPropertyOp22
 70
     1
102
RTVSPropertyOp23
 70
     1
102
RTVSPropertyOp24
 70
     1
102
RTVSPropertyOp25
 70
     1
102
RTVSPropertyOp26
 70
     1
102
RTVSPropertyOp27
 70
     1
102
RTVSPropertyOp28
 70
     1
102
RTVSPropertyOp29
 70
     1
102
RTVSPropertyOp30
 70
     1
102
RTVSPropertyOp31
 70
     1
102
RTVSPropertyOp32
 70
     1
  0
XRECORD
  5
D01
102
{ACAD_REACTORS
330
D00
102
}
330
D00
100
AcDbXrecord
280
     1
102
RTVSPropertyOp0
 70
     1
102
RTVSPropertyOp1
 70
     1
102
RTVSPropertyOp2
 70
     1
102
RTVSPropertyOp3
 70
     1
102
RTVSPropertyOp4
 70
     1
102
RTVSPropertyOp5
 70
     1
102
RTVSPropertyOp6
 70
     1
102
RTVSPropertyOp7
 70
     1
102
RTVSPropertyOp8
 70
     1
102
RTVSPropertyOp9
 70
     1
102
RTVSPropertyOp10
 70
     1
102
RTVSPropertyOp11
 70
     1
102
RTVSPropertyOp12
 70
     1
102
RTVSPropertyOp13
 70
     1
102
RTVSPropertyOp14
 70
     1
102
RTVSPropertyOp15
 70
     1
102
RTVSPropertyOp16
 70
     1
102
RTVSPropertyOp17
 70
     1
102
RTVSPropertyOp18
 70
     1
102
RTVSPropertyOp19
 70
     1
102
RTVSPropertyOp20
 70
     1
102
RTVSPropertyOp21
 70
     1
102
RTVSPropertyOp22
 70
     1
102
RTVSPropertyOp23
 70
     1
102
RTVSPropertyOp24
 70
     1
102
RTVSPropertyOp25
 70
     1
102
RTVSPropertyOp26
 70
     1
102
RTVSPropertyOp27
 70
     1
102
RTVSPropertyOp28
 70
     1
102
RTVSPropertyOp29
 70
     1
102
RTVSPropertyOp30
 70
     1
102
RTVSPropertyOp31
 70
     1
102
RTVSPropertyOp32
 70
     1
  0
XRECORD
  5
CF3
102
{ACAD_REACTORS
330
CF2
102
}
330
CF2
100
AcDbXrecord
280
     1
102
RTVSPropertyOp0
 70
     1
102
RTVSPropertyOp1
 70
     1
102
RTVSPropertyOp2
 70
     1
102
RTVSPropertyOp3
 70
     1
102
RTVSPropertyOp4
 70
     1
102
RTVSPropertyOp5
 70
     1
102
RTVSPropertyOp6
 70
     1
102
RTVSPropertyOp7
 70
     1
102
RTVSPropertyOp8
 70
     1
102
RTVSPropertyOp9
 70
     1
102
RTVSPropertyOp10
 70
     1
102
RTVSPropertyOp11
 70
     1
102
RTVSPropertyOp12
 70
     1
102
RTVSPropertyOp13
 70
     1
102
RTVSPropertyOp14
 70
     1
102
RTVSPropertyOp15
 70
     1
102
RTVSPropertyOp16
 70
     1
102
RTVSPropertyOp17
 70
     1
102
RTVSPropertyOp18
 70
     1
102
RTVSPropertyOp19
 70
     1
102
RTVSPropertyOp20
 70
     1
102
RTVSPropertyOp21
 70
     1
102
RTVSPropertyOp22
 70
     1
102
RTVSPropertyOp23
 70
     1
102
RTVSPropertyOp24
 70
     1
102
RTVSPropertyOp25
 70
     1
102
RTVSPropertyOp26
 70
     1
102
RTVSPropertyOp27
 70
     1
102
RTVSPropertyOp28
 70
     1
102
RTVSPropertyOp29
 70
     1
102
RTVSPropertyOp30
 70
     1
102
RTVSPropertyOp31
 70
     1
102
RTVSPropertyOp32
 70
     1
  0
XRECORD
  5
CF7
102
{ACAD_REACTORS
330
CF6
102
}
330
CF6
100
AcDbXrecord
280
     1
102
RTVSPropertyOp0
 70
     1
102
RTVSPropertyOp1
 70
     1
102
RTVSPropertyOp2
 70
     1
102
RTVSPropertyOp3
 70
     1
102
RTVSPropertyOp4
 70
     1
102
RTVSPropertyOp5
 70
     1
102
RTVSPropertyOp6
 70
     1
102
RTVSPropertyOp7
 70
     1
102
RTVSPropertyOp8
 70
     1
102
RTVSPropertyOp9
 70
     1
102
RTVSPropertyOp10
 70
     1
102
RTVSPropertyOp11
 70
     1
102
RTVSPropertyOp12
 70
     1
102
RTVSPropertyOp13
 70
     1
102
RTVSPropertyOp14
 70
     1
102
RTVSPropertyOp15
 70
     1
102
RTVSPropertyOp16
 70
     1
102
RTVSPropertyOp17
 70
     1
102
RTVSPropertyOp18
 70
     1
102
RTVSPropertyOp19
 70
     1
102
RTVSPropertyOp20
 70
     1
102
RTVSPropertyOp21
 70
     1
102
RTVSPropertyOp22
 70
     1
102
RTVSPropertyOp23
 70
     1
102
RTVSPropertyOp24
 70
     1
102
RTVSPropertyOp25
 70
     1
102
RTVSPropertyOp26
 70
     1
102
RTVSPropertyOp27
 70
     1
102
RTVSPropertyOp28
 70
     1
102
RTVSPropertyOp29
 70
     1
102
RTVSPropertyOp30
 70
     1
102
RTVSPropertyOp31
 70
     1
102
RTVSPropertyOp32
 70
     1
  0
XRECORD
  5
D11
102
{ACAD_REACTORS
330
D10
102
}
330
D10
100
AcDbXrecord
280
     1
102
RTVSPropertyOp0
 70
     0
102
RTVSPropertyOp1
 70
     0
102
RTVSPropertyOp2
 70
     0
102
RTVSPropertyOp3
 70
     0
102
RTVSPropertyOp4
 70
     0
102
RTVSPropertyOp5
 70
     0
102
RTVSPropertyOp6
 70
     0
102
RTVSPropertyOp7
 70
     0
102
RTVSPropertyOp8
 70
     0
102
RTVSPropertyOp9
 70
     0
102
RTVSPropertyOp10
 70
     0
102
RTVSPropertyOp11
 70
     0
102
RTVSPropertyOp12
 70
     0
102
RTVSPropertyOp13
 70
     0
102
RTVSPropertyOp14
 70
     2
102
RTVSPropertyOp15
 70
     0
102
RTVSPropertyOp16
 70
     0
102
RTVSPropertyOp17
 70
     0
102
RTVSPropertyOp18
 70
     0
102
RTVSPropertyOp19
 70
     0
102
RTVSPropertyOp20
 70
     0
102
RTVSPropertyOp21
 70
     0
102
RTVSPropertyOp22
 70
     0
102
RTVSPropertyOp23
 70
     0
102
RTVSPropertyOp24
 70
     0
102
RTVSPropertyOp25
 70
     0
102
RTVSPropertyOp26
 70
     0
102
RTVSPropertyOp27
 70
     0
102
RTVSPropertyOp28
 70
     1
102
RTVSPropertyOp29
 70
     1
102
RTVSPropertyOp30
 70
     1
102
RTVSPropertyOp31
 70
     1
102
RTVSPropertyOp32
 70
     1
  0
XRECORD
  5
CFF
102
{ACAD_REACTORS
330
CFE
102
}
330
CFE
100
AcDbXrecord
280
     1
102
RTVSPropertyOp0
 70
     1
102
RTVSPropertyOp1
 70
     1
102
RTVSPropertyOp2
 70
     1
102
RTVSPropertyOp3
 70
     1
102
RTVSPropertyOp4
 70
     1
102
RTVSPropertyOp5
 70
     1
102
RTVSPropertyOp6
 70
     1
102
RTVSPropertyOp7
 70
     1
102
RTVSPropertyOp8
 70
     1
102
RTVSPropertyOp9
 70
     1
102
RTVSPropertyOp10
 70
     1
102
RTVSPropertyOp11
 70
     1
102
RTVSPropertyOp12
 70
     1
102
RTVSPropertyOp13
 70
     1
102
RTVSPropertyOp14
 70
     1
102
RTVSPropertyOp15
 70
     1
102
RTVSPropertyOp16
 70
     1
102
RTVSPropertyOp17
 70
     1
102
RTVSPropertyOp18
 70
     1
102
RTVSPropertyOp19
 70
     1
102
RTVSPropertyOp20
 70
     1
102
RTVSPropertyOp21
 70
     1
102
RTVSPropertyOp22
 70
     1
102
RTVSPropertyOp23
 70
     1
102
RTVSPropertyOp24
 70
     1
102
RTVSPropertyOp25
 70
     1
102
RTVSPropertyOp26
 70
     1
102
RTVSPropertyOp27
 70
     1
102
RTVSPropertyOp28
 70
     1
102
RTVSPropertyOp29
 70
     1
102
RTVSPropertyOp30
 70
     1
102
RTVSPropertyOp31
 70
     1
102
RTVSPropertyOp32
 70
     1
  0
XRECORD
  5
CE3
102
{ACAD_REACTORS
330
CE2
102
}
330
CE2
100
AcDbXrecord
280
     1
102
RTVSPropertyOp0
 70
     1
102
RTVSPropertyOp1
 70
     1
102
RTVSPropertyOp2
 70
     1
102
RTVSPropertyOp3
 70
     1
102
RTVSPropertyOp4
 70
     1
102
RTVSPropertyOp5
 70
     1
102
RTVSPropertyOp6
 70
     1
102
RTVSPropertyOp7
 70
     1
102
RTVSPropertyOp8
 70
     1
102
RTVSPropertyOp9
 70
     1
102
RTVSPropertyOp10
 70
     1
102
RTVSPropertyOp11
 70
     1
102
RTVSPropertyOp12
 70
     1
102
RTVSPropertyOp13
 70
     1
102
RTVSPropertyOp14
 70
     1
102
RTVSPropertyOp15
 70
     1
102
RTVSPropertyOp16
 70
     1
102
RTVSPropertyOp17
 70
     1
102
RTVSPropertyOp18
 70
     1
102
RTVSPropertyOp19
 70
     1
102
RTVSPropertyOp20
 70
     1
102
RTVSPropertyOp21
 70
     1
102
RTVSPropertyOp22
 70
     1
102
RTVSPropertyOp23
 70
     1
102
RTVSPropertyOp24
 70
     1
102
RTVSPropertyOp25
 70
     1
102
RTVSPropertyOp26
 70
     1
102
RTVSPropertyOp27
 70
     1
102
RTVSPropertyOp28
 70
     1
102
RTVSPropertyOp29
 70
     1
102
RTVSPropertyOp30
 70
     1
102
RTVSPropertyOp31
 70
     1
102
RTVSPropertyOp32
 70
     1
  0
XRECORD
  5
CE5
102
{ACAD_REACTORS
330
CE4
102
}
330
CE4
100
AcDbXrecord
280
     1
102
RTVSPropertyOp0
 70
     1
102
RTVSPropertyOp1
 70
     1
102
RTVSPropertyOp2
 70
     1
102
RTVSPropertyOp3
 70
     1
102
RTVSPropertyOp4
 70
     1
102
RTVSPropertyOp5
 70
     1
102
RTVSPropertyOp6
 70
     1
102
RTVSPropertyOp7
 70
     1
102
RTVSPropertyOp8
 70
     1
102
RTVSPropertyOp9
 70
     1
102
RTVSPropertyOp10
 70
     1
102
RTVSPropertyOp11
 70
     1
102
RTVSPropertyOp12
 70
     1
102
RTVSPropertyOp13
 70
     1
102
RTVSPropertyOp14
 70
     1
102
RTVSPropertyOp15
 70
     1
102
RTVSPropertyOp16
 70
     1
102
RTVSPropertyOp17
 70
     1
102
RTVSPropertyOp18
 70
     1
102
RTVSPropertyOp19
 70
     1
102
RTVSPropertyOp20
 70
     1
102
RTVSPropertyOp21
 70
     1
102
RTVSPropertyOp22
 70
     1
102
RTVSPropertyOp23
 70
     1
102
RTVSPropertyOp24
 70
     1
102
RTVSPropertyOp25
 70
     1
102
RTVSPropertyOp26
 70
     1
102
RTVSPropertyOp27
 70
     1
102
RTVSPropertyOp28
 70
     1
102
RTVSPropertyOp29
 70
     1
102
RTVSPropertyOp30
 70
     1
102
RTVSPropertyOp31
 70
     1
102
RTVSPropertyOp32
 70
     1
  0
XRECORD
  5
CE7
102
{ACAD_REACTORS
330
CE6
102
}
330
CE6
100
AcDbXrecord
280
     1
102
RTVSPropertyOp0
 70
     1
102
RTVSPropertyOp1
 70
     1
102
RTVSPropertyOp2
 70
     1
102
RTVSPropertyOp3
 70
     1
102
RTVSPropertyOp4
 70
     1
102
RTVSPropertyOp5
 70
     1
102
RTVSPropertyOp6
 70
     1
102
RTVSPropertyOp7
 70
     1
102
RTVSPropertyOp8
 70
     1
102
RTVSPropertyOp9
 70
     1
102
RTVSPropertyOp10
 70
     1
102
RTVSPropertyOp11
 70
     1
102
RTVSPropertyOp12
 70
     1
102
RTVSPropertyOp13
 70
     1
102
RTVSPropertyOp14
 70
     1
102
RTVSPropertyOp15
 70
     1
102
RTVSPropertyOp16
 70
     1
102
RTVSPropertyOp17
 70
     1
102
RTVSPropertyOp18
 70
     1
102
RTVSPropertyOp19
 70
     1
102
RTVSPropertyOp20
 70
     1
102
RTVSPropertyOp21
 70
     1
102
RTVSPropertyOp22
 70
     1
102
RTVSPropertyOp23
 70
     1
102
RTVSPropertyOp24
 70
     1
102
RTVSPropertyOp25
 70
     1
102
RTVSPropertyOp26
 70
     1
102
RTVSPropertyOp27
 70
     1
102
RTVSPropertyOp28
 70
     1
102
RTVSPropertyOp29
 70
     1
102
RTVSPropertyOp30
 70
     1
102
RTVSPropertyOp31
 70
     1
102
RTVSPropertyOp32
 70
     1
  0
XRECORD
  5
CE9
102
{ACAD_REACTORS
330
CE8
102
}
330
CE8
100
AcDbXrecord
280
     1
102
RTVSPropertyOp0
 70
     1
102
RTVSPropertyOp1
 70
     1
102
RTVSPropertyOp2
 70
     1
102
RTVSPropertyOp3
 70
     1
102
RTVSPropertyOp4
 70
     1
102
RTVSPropertyOp5
 70
     1
102
RTVSPropertyOp6
 70
     1
102
RTVSPropertyOp7
 70
     1
102
RTVSPropertyOp8
 70
     1
102
RTVSPropertyOp9
 70
     1
102
RTVSPropertyOp10
 70
     1
102
RTVSPropertyOp11
 70
     1
102
RTVSPropertyOp12
 70
     1
102
RTVSPropertyOp13
 70
     1
102
RTVSPropertyOp14
 70
     1
102
RTVSPropertyOp15
 70
     1
102
RTVSPropertyOp16
 70
     1
102
RTVSPropertyOp17
 70
     1
102
RTVSPropertyOp18
 70
     1
102
RTVSPropertyOp19
 70
     1
102
RTVSPropertyOp20
 70
     1
102
RTVSPropertyOp21
 70
     1
102
RTVSPropertyOp22
 70
     1
102
RTVSPropertyOp23
 70
     1
102
RTVSPropertyOp24
 70
     1
102
RTVSPropertyOp25
 70
     1
102
RTVSPropertyOp26
 70
     1
102
RTVSPropertyOp27
 70
     1
102
RTVSPropertyOp28
 70
     1
102
RTVSPropertyOp29
 70
     1
102
RTVSPropertyOp30
 70
     1
102
RTVSPropertyOp31
 70
     1
102
RTVSPropertyOp32
 70
     1
  0
XRECORD
  5
CF1
102
{ACAD_REACTORS
330
CF0
102
}
330
CF0
100
AcDbXrecord
280
     1
102
RTVSPropertyOp0
 70
     1
102
RTVSPropertyOp1
 70
     1
102
RTVSPropertyOp2
 70
     1
102
RTVSPropertyOp3
 70
     1
102
RTVSPropertyOp4
 70
     1
102
RTVSPropertyOp5
 70
     1
102
RTVSPropertyOp6
 70
     1
102
RTVSPropertyOp7
 70
     1
102
RTVSPropertyOp8
 70
     1
102
RTVSPropertyOp9
 70
     1
102
RTVSPropertyOp10
 70
     1
102
RTVSPropertyOp11
 70
     1
102
RTVSPropertyOp12
 70
     1
102
RTVSPropertyOp13
 70
     1
102
RTVSPropertyOp14
 70
     1
102
RTVSPropertyOp15
 70
     1
102
RTVSPropertyOp16
 70
     1
102
RTVSPropertyOp17
 70
     1
102
RTVSPropertyOp18
 70
     1
102
RTVSPropertyOp19
 70
     1
102
RTVSPropertyOp20
 70
     1
102
RTVSPropertyOp21
 70
     1
102
RTVSPropertyOp22
 70
     1
102
RTVSPropertyOp23
 70
     1
102
RTVSPropertyOp24
 70
     1
102
RTVSPropertyOp25
 70
     1
102
RTVSPropertyOp26
 70
     1
102
RTVSPropertyOp27
 70
     1
102
RTVSPropertyOp28
 70
     1
102
RTVSPropertyOp29
 70
     1
102
RTVSPropertyOp30
 70
     1
102
RTVSPropertyOp31
 70
     1
102
RTVSPropertyOp32
 70
     1
  0
XRECORD
  5
D0D
102
{ACAD_REACTORS
330
D0C
102
}
330
D0C
100
AcDbXrecord
280
     1
102
RTVSPropertyOp0
 70
     0
102
RTVSPropertyOp1
 70
     0
102
RTVSPropertyOp2
 70
     0
102
RTVSPropertyOp3
 70
     0
102
RTVSPropertyOp4
 70
     0
102
RTVSPropertyOp5
 70
     0
102
RTVSPropertyOp6
 70
     0
102
RTVSPropertyOp7
 70
     0
102
RTVSPropertyOp8
 70
     0
102
RTVSPropertyOp9
 70
     0
102
RTVSPropertyOp10
 70
     0
102
RTVSPropertyOp11
 70
     0
102
RTVSPropertyOp12
 70
     0
102
RTVSPropertyOp13
 70
     0
102
RTVSPropertyOp14
 70
     2
102
RTVSPropertyOp15
 70
     0
102
RTVSPropertyOp16
 70
     0
102
RTVSPropertyOp17
 70
     0
102
RTVSPropertyOp18
 70
     0
102
RTVSPropertyOp19
 70
     0
102
RTVSPropertyOp20
 70
     0
102
RTVSPropertyOp21
 70
     0
102
RTVSPropertyOp22
 70
     0
102
RTVSPropertyOp23
 70
     0
102
RTVSPropertyOp24
 70
     0
102
RTVSPropertyOp25
 70
     0
102
RTVSPropertyOp26
 70
     0
102
RTVSPropertyOp27
 70
     0
102
RTVSPropertyOp28
 70
     1
102
RTVSPropertyOp29
 70
     1
102
RTVSPropertyOp30
 70
     1
102
RTVSPropertyOp31
 70
     1
102
RTVSPropertyOp32
 70
     1
  0
XRECORD
  5
CFD
102
{ACAD_REACTORS
330
CFC
102
}
330
CFC
100
AcDbXrecord
280
     1
102
RTVSPropertyOp0
 70
     1
102
RTVSPropertyOp1
 70
     1
102
RTVSPropertyOp2
 70
     1
102
RTVSPropertyOp3
 70
     1
102
RTVSPropertyOp4
 70
     1
102
RTVSPropertyOp5
 70
     1
102
RTVSPropertyOp6
 70
     1
102
RTVSPropertyOp7
 70
     1
102
RTVSPropertyOp8
 70
     1
102
RTVSPropertyOp9
 70
     1
102
RTVSPropertyOp10
 70
     1
102
RTVSPropertyOp11
 70
     1
102
RTVSPropertyOp12
 70
     1
102
RTVSPropertyOp13
 70
     1
102
RTVSPropertyOp14
 70
     1
102
RTVSPropertyOp15
 70
     1
102
RTVSPropertyOp16
 70
     1
102
RTVSPropertyOp17
 70
     1
102
RTVSPropertyOp18
 70
     1
102
RTVSPropertyOp19
 70
     1
102
RTVSPropertyOp20
 70
     1
102
RTVSPropertyOp21
 70
     1
102
RTVSPropertyOp22
 70
     1
102
RTVSPropertyOp23
 70
     1
102
RTVSPropertyOp24
 70
     1
102
RTVSPropertyOp25
 70
     1
102
RTVSPropertyOp26
 70
     1
102
RTVSPropertyOp27
 70
     1
102
RTVSPropertyOp28
 70
     1
102
RTVSPropertyOp29
 70
     1
102
RTVSPropertyOp30
 70
     1
102
RTVSPropertyOp31
 70
     1
102
RTVSPropertyOp32
 70
     1
  0
XRECORD
  5
D0F
102
{ACAD_REACTORS
330
D0E
102
}
330
D0E
100
AcDbXrecord
280
     1
102
RTVSPropertyOp0
 70
     0
102
RTVSPropertyOp1
 70
     0
102
RTVSPropertyOp2
 70
     0
102
RTVSPropertyOp3
 70
     0
102
RTVSPropertyOp4
 70
     0
102
RTVSPropertyOp5
 70
     0
102
RTVSPropertyOp6
 70
     0
102
RTVSPropertyOp7
 70
     0
102
RTVSPropertyOp8
 70
     0
102
RTVSPropertyOp9
 70
     0
102
RTVSPropertyOp10
 70
     0
102
RTVSPropertyOp11
 70
     0
102
RTVSPropertyOp12
 70
     0
102
RTVSPropertyOp13
 70
     0
102
RTVSPropertyOp14
 70
     2
102
RTVSPropertyOp15
 70
     0
102
RTVSPropertyOp16
 70
     0
102
RTVSPropertyOp17
 70
     0
102
RTVSPropertyOp18
 70
     0
102
RTVSPropertyOp19
 70
     0
102
RTVSPropertyOp20
 70
     0
102
RTVSPropertyOp21
 70
     0
102
RTVSPropertyOp22
 70
     0
102
RTVSPropertyOp23
 70
     0
102
RTVSPropertyOp24
 70
     0
102
RTVSPropertyOp25
 70
     0
102
RTVSPropertyOp26
 70
     0
102
RTVSPropertyOp27
 70
     0
102
RTVSPropertyOp28
 70
     1
102
RTVSPropertyOp29
 70
     1
102
RTVSPropertyOp30
 70
     1
102
RTVSPropertyOp31
 70
     1
102
RTVSPropertyOp32
 70
     1
  0
XRECORD
  5
CF5
102
{ACAD_REACTORS
330
CF4
102
}
330
CF4
100
AcDbXrecord
280
     1
102
RTVSPropertyOp0
 70
     1
102
RTVSPropertyOp1
 70
     1
102
RTVSPropertyOp2
 70
     1
102
RTVSPropertyOp3
 70
     1
102
RTVSPropertyOp4
 70
     1
102
RTVSPropertyOp5
 70
     1
102
RTVSPropertyOp6
 70
     1
102
RTVSPropertyOp7
 70
     1
102
RTVSPropertyOp8
 70
     1
102
RTVSPropertyOp9
 70
     1
102
RTVSPropertyOp10
 70
     1
102
RTVSPropertyOp11
 70
     1
102
RTVSPropertyOp12
 70
     1
102
RTVSPropertyOp13
 70
     1
102
RTVSPropertyOp14
 70
     1
102
RTVSPropertyOp15
 70
     1
102
RTVSPropertyOp16
 70
     1
102
RTVSPropertyOp17
 70
     1
102
RTVSPropertyOp18
 70
     1
102
RTVSPropertyOp19
 70
     1
102
RTVSPropertyOp20
 70
     1
102
RTVSPropertyOp21
 70
     1
102
RTVSPropertyOp22
 70
     1
102
RTVSPropertyOp23
 70
     1
102
RTVSPropertyOp24
 70
     1
102
RTVSPropertyOp25
 70
     1
102
RTVSPropertyOp26
 70
     1
102
RTVSPropertyOp27
 70
     1
102
RTVSPropertyOp28
 70
     1
102
RTVSPropertyOp29
 70
     1
102
RTVSPropertyOp30
 70
     1
102
RTVSPropertyOp31
 70
     1
102
RTVSPropertyOp32
 70
     1
  0
XRECORD
  5
D0B
102
{ACAD_REACTORS
330
D0A
102
}
330
D0A
100
AcDbXrecord
280
     1
102
RTVSPropertyOp0
 70
     1
102
RTVSPropertyOp1
 70
     1
102
RTVSPropertyOp2
 70
     1
102
RTVSPropertyOp3
 70
     1
102
RTVSPropertyOp4
 70
     1
102
RTVSPropertyOp5
 70
     1
102
RTVSPropertyOp6
 70
     1
102
RTVSPropertyOp7
 70
     1
102
RTVSPropertyOp8
 70
     1
102
RTVSPropertyOp9
 70
     1
102
RTVSPropertyOp10
 70
     1
102
RTVSPropertyOp11
 70
     1
102
RTVSPropertyOp12
 70
     1
102
RTVSPropertyOp13
 70
     1
102
RTVSPropertyOp14
 70
     1
102
RTVSPropertyOp15
 70
     1
102
RTVSPropertyOp16
 70
     1
102
RTVSPropertyOp17
 70
     1
102
RTVSPropertyOp18
 70
     1
102
RTVSPropertyOp19
 70
     1
102
RTVSPropertyOp20
 70
     1
102
RTVSPropertyOp21
 70
     1
102
RTVSPropertyOp22
 70
     1
102
RTVSPropertyOp23
 70
     1
102
RTVSPropertyOp24
 70
     1
102
RTVSPropertyOp25
 70
     1
102
RTVSPropertyOp26
 70
     1
102
RTVSPropertyOp27
 70
     1
102
RTVSPropertyOp28
 70
     1
102
RTVSPropertyOp29
 70
     1
102
RTVSPropertyOp30
 70
     1
102
RTVSPropertyOp31
 70
     1
102
RTVSPropertyOp32
 70
     1
  0
XRECORD
  5
D09
102
{ACAD_REACTORS
330
D08
102
}
330
D08
100
AcDbXrecord
280
     1
102
RTVSPropertyOp0
 70
     1
102
RTVSPropertyOp1
 70
     1
102
RTVSPropertyOp2
 70
     1
102
RTVSPropertyOp3
 70
     1
102
RTVSPropertyOp4
 70
     1
102
RTVSPropertyOp5
 70
     1
102
RTVSPropertyOp6
 70
     1
102
RTVSPropertyOp7
 70
     1
102
RTVSPropertyOp8
 70
     1
102
RTVSPropertyOp9
 70
     1
102
RTVSPropertyOp10
 70
     1
102
RTVSPropertyOp11
 70
     1
102
RTVSPropertyOp12
 70
     1
102
RTVSPropertyOp13
 70
     1
102
RTVSPropertyOp14
 70
     1
102
RTVSPropertyOp15
 70
     1
102
RTVSPropertyOp16
 70
     1
102
RTVSPropertyOp17
 70
     1
102
RTVSPropertyOp18
 70
     1
102
RTVSPropertyOp19
 70
     1
102
RTVSPropertyOp20
 70
     1
102
RTVSPropertyOp21
 70
     1
102
RTVSPropertyOp22
 70
     1
102
RTVSPropertyOp23
 70
     1
102
RTVSPropertyOp24
 70
     1
102
RTVSPropertyOp25
 70
     1
102
RTVSPropertyOp26
 70
     1
102
RTVSPropertyOp27
 70
     1
102
RTVSPropertyOp28
 70
     1
102
RTVSPropertyOp29
 70
     1
102
RTVSPropertyOp30
 70
     1
102
RTVSPropertyOp31
 70
     1
102
RTVSPropertyOp32
 70
     1
  0
XRECORD
  5
D03
102
{ACAD_REACTORS
330
D02
102
}
330
D02
100
AcDbXrecord
280
     1
102
RTVSPropertyOp0
 70
     1
102
RTVSPropertyOp1
 70
     1
102
RTVSPropertyOp2
 70
     1
102
RTVSPropertyOp3
 70
     1
102
RTVSPropertyOp4
 70
     1
102
RTVSPropertyOp5
 70
     1
102
RTVSPropertyOp6
 70
     1
102
RTVSPropertyOp7
 70
     1
102
RTVSPropertyOp8
 70
     1
102
RTVSPropertyOp9
 70
     1
102
RTVSPropertyOp10
 70
     1
102
RTVSPropertyOp11
 70
     1
102
RTVSPropertyOp12
 70
     1
102
RTVSPropertyOp13
 70
     1
102
RTVSPropertyOp14
 70
     1
102
RTVSPropertyOp15
 70
     1
102
RTVSPropertyOp16
 70
     1
102
RTVSPropertyOp17
 70
     1
102
RTVSPropertyOp18
 70
     1
102
RTVSPropertyOp19
 70
     1
102
RTVSPropertyOp20
 70
     1
102
RTVSPropertyOp21
 70
     1
102
RTVSPropertyOp22
 70
     1
102
RTVSPropertyOp23
 70
     1
102
RTVSPropertyOp24
 70
     1
102
RTVSPropertyOp25
 70
     1
102
RTVSPropertyOp26
 70
     1
102
RTVSPropertyOp27
 70
     1
102
RTVSPropertyOp28
 70
     1
102
RTVSPropertyOp29
 70
     1
102
RTVSPropertyOp30
 70
     1
102
RTVSPropertyOp31
 70
     1
102
RTVSPropertyOp32
 70
     1
  0
XRECORD
  5
D05
102
{ACAD_REACTORS
330
D04
102
}
330
D04
100
AcDbXrecord
280
     1
102
RTVSPropertyOp0
 70
     1
102
RTVSPropertyOp1
 70
     1
102
RTVSPropertyOp2
 70
     1
102
RTVSPropertyOp3
 70
     1
102
RTVSPropertyOp4
 70
     1
102
RTVSPropertyOp5
 70
     1
102
RTVSPropertyOp6
 70
     1
102
RTVSPropertyOp7
 70
     1
102
RTVSPropertyOp8
 70
     1
102
RTVSPropertyOp9
 70
     1
102
RTVSPropertyOp10
 70
     1
102
RTVSPropertyOp11
 70
     1
102
RTVSPropertyOp12
 70
     1
102
RTVSPropertyOp13
 70
     1
102
RTVSPropertyOp14
 70
     1
102
RTVSPropertyOp15
 70
     1
102
RTVSPropertyOp16
 70
     1
102
RTVSPropertyOp17
 70
     1
102
RTVSPropertyOp18
 70
     1
102
RTVSPropertyOp19
 70
     1
102
RTVSPropertyOp20
 70
     1
102
RTVSPropertyOp21
 70
     1
102
RTVSPropertyOp22
 70
     1
102
RTVSPropertyOp23
 70
     1
102
RTVSPropertyOp24
 70
     1
102
RTVSPropertyOp25
 70
     1
102
RTVSPropertyOp26
 70
     1
102
RTVSPropertyOp27
 70
     1
102
RTVSPropertyOp28
 70
     1
102
RTVSPropertyOp29
 70
     1
102
RTVSPropertyOp30
 70
     1
102
RTVSPropertyOp31
 70
     1
102
RTVSPropertyOp32
 70
     1
  0
XRECORD
  5
CFB
102
{ACAD_REACTORS
330
CFA
102
}
330
CFA
100
AcDbXrecord
280
     1
102
RTVSPropertyOp0
 70
     1
102
RTVSPropertyOp1
 70
     1
102
RTVSPropertyOp2
 70
     1
102
RTVSPropertyOp3
 70
     1
102
RTVSPropertyOp4
 70
     1
102
RTVSPropertyOp5
 70
     1
102
RTVSPropertyOp6
 70
     1
102
RTVSPropertyOp7
 70
     1
102
RTVSPropertyOp8
 70
     1
102
RTVSPropertyOp9
 70
     1
102
RTVSPropertyOp10
 70
     1
102
RTVSPropertyOp11
 70
     1
102
RTVSPropertyOp12
 70
     1
102
RTVSPropertyOp13
 70
     1
102
RTVSPropertyOp14
 70
     1
102
RTVSPropertyOp15
 70
     1
102
RTVSPropertyOp16
 70
     1
102
RTVSPropertyOp17
 70
     1
102
RTVSPropertyOp18
 70
     1
102
RTVSPropertyOp19
 70
     1
102
RTVSPropertyOp20
 70
     1
102
RTVSPropertyOp21
 70
     1
102
RTVSPropertyOp22
 70
     1
102
RTVSPropertyOp23
 70
     1
102
RTVSPropertyOp24
 70
     1
102
RTVSPropertyOp25
 70
     1
102
RTVSPropertyOp26
 70
     1
102
RTVSPropertyOp27
 70
     1
102
RTVSPropertyOp28
 70
     1
102
RTVSPropertyOp29
 70
     1
102
RTVSPropertyOp30
 70
     1
102
RTVSPropertyOp31
 70
     1
102
RTVSPropertyOp32
 70
     1
  0
XRECORD
  5
CEF
102
{ACAD_REACTORS
330
CEE
102
}
330
CEE
100
AcDbXrecord
280
     1
102
RTVSPropertyOp0
 70
     1
102
RTVSPropertyOp1
 70
     1
102
RTVSPropertyOp2
 70
     1
102
RTVSPropertyOp3
 70
     1
102
RTVSPropertyOp4
 70
     1
102
RTVSPropertyOp5
 70
     1
102
RTVSPropertyOp6
 70
     1
102
RTVSPropertyOp7
 70
     1
102
RTVSPropertyOp8
 70
     1
102
RTVSPropertyOp9
 70
     1
102
RTVSPropertyOp10
 70
     1
102
RTVSPropertyOp11
 70
     1
102
RTVSPropertyOp12
 70
     1
102
RTVSPropertyOp13
 70
     1
102
RTVSPropertyOp14
 70
     1
102
RTVSPropertyOp15
 70
     1
102
RTVSPropertyOp16
 70
     1
102
RTVSPropertyOp17
 70
     1
102
RTVSPropertyOp18
 70
     1
102
RTVSPropertyOp19
 70
     1
102
RTVSPropertyOp20
 70
     1
102
RTVSPropertyOp21
 70
     1
102
RTVSPropertyOp22
 70
     1
102
RTVSPropertyOp23
 70
     1
102
RTVSPropertyOp24
 70
     1
102
RTVSPropertyOp25
 70
     1
102
RTVSPropertyOp26
 70
     1
102
RTVSPropertyOp27
 70
     1
102
RTVSPropertyOp28
 70
     1
102
RTVSPropertyOp29
 70
     1
102
RTVSPropertyOp30
 70
     1
102
RTVSPropertyOp31
 70
     1
102
RTVSPropertyOp32
 70
     1
  0
XRECORD
  5
D07
102
{ACAD_REACTORS
330
D06
102
}
330
D06
100
AcDbXrecord
280
     1
102
RTVSPropertyOp0
 70
     1
102
RTVSPropertyOp1
 70
     1
102
RTVSPropertyOp2
 70
     1
102
RTVSPropertyOp3
 70
     1
102
RTVSPropertyOp4
 70
     1
102
RTVSPropertyOp5
 70
     1
102
RTVSPropertyOp6
 70
     1
102
RTVSPropertyOp7
 70
     1
102
RTVSPropertyOp8
 70
     1
102
RTVSPropertyOp9
 70
     1
102
RTVSPropertyOp10
 70
     1
102
RTVSPropertyOp11
 70
     1
102
RTVSPropertyOp12
 70
     1
102
RTVSPropertyOp13
 70
     1
102
RTVSPropertyOp14
 70
     1
102
RTVSPropertyOp15
 70
     1
102
RTVSPropertyOp16
 70
     1
102
RTVSPropertyOp17
 70
     1
102
RTVSPropertyOp18
 70
     1
102
RTVSPropertyOp19
 70
     1
102
RTVSPropertyOp20
 70
     1
102
RTVSPropertyOp21
 70
     1
102
RTVSPropertyOp22
 70
     1
102
RTVSPropertyOp23
 70
     1
102
RTVSPropertyOp24
 70
     1
102
RTVSPropertyOp25
 70
     1
102
RTVSPropertyOp26
 70
     1
102
RTVSPropertyOp27
 70
     1
102
RTVSPropertyOp28
 70
     1
102
RTVSPropertyOp29
 70
     1
102
RTVSPropertyOp30
 70
     1
102
RTVSPropertyOp31
 70
     1
102
RTVSPropertyOp32
 70
     1
  0
ENDSEC
  0
EOF
