  0
SECTION
  2
HEADER
  9
$ACADVER
  1
AC1015
  9
$ACADMAINTVER
 70
    20
  9
$DWGCODEPAGE
  3
ANSI_1252
  9
$INSBASE
 10
0.0
 20
0.0
 30
0.0
  9
$EXTMIN
 10
-0.0023545809142718
 20
-0.0013895934523731
 30
-0.0015258207003583
  9
$EXTMAX
 10
77.16314915069259
 20
45.53906224887668
 30
0.0000000349246037
  9
$LIMMIN
 10
0.0
 20
0.0
  9
$LIMMAX
 10
12.0
 20
9.0
  9
$ORTHOMODE
 70
     0
  9
$REGENMODE
 70
     1
  9
$FILLMODE
 70
     1
  9
$QTEXTMODE
 70
     0
  9
$MIRRTEXT
 70
     1
  9
$LTSCALE
 40
0.5
  9
$ATTMODE
 70
     1
  9
$TEXTSIZE
 40
0.25
  9
$TRACEWID
 40
0.05
  9
$TEXTSTYLE
  7
STANDARD
  9
$CLAYER
  8
0
  9
$CELTYPE
  6
BYLAYER
  9
$CECOLOR
 62
   256
  9
$CELTSCALE
 40
1.0
  9
$DISPSILH
 70
     0
  9
$DIMSCALE
 40
1.0
  9
$DIMASZ
 40
0.2
  9
$DIMEXO
 40
0.125
  9
$DIMDLI
 40
0.375
  9
$DIMRND
 40
0.0
  9
$DIMDLE
 40
0.0
  9
$DIMEXE
 40
0.125
  9
$DIMTP
 40
0.0
  9
$DIMTM
 40
0.0
  9
$DIMTXT
 40
0.25
  9
$DIMCEN
 40
0.0
  9
$DIMTSZ
 40
0.0
  9
$DIMTOL
 70
     0
  9
$DIMLIM
 70
     0
  9
$DIMTIH
 70
     0
  9
$DIMTOH
 70
     0
  9
$DIMSE1
 70
     0
  9
$DIMSE2
 70
     0
  9
$DIMTAD
 70
     1
  9
$DIMZIN
 70
     3
  9
$DIMBLK
  1

  9
$DIMASO
 70
     1
  9
$DIMSHO
 70
     1
  9
$DIMPOST
  1

  9
$DIMAPOST
  1

  9
$DIMALT
 70
     0
  9
$DIMALTD
 70
     2
  9
$DIMALTF
 40
25.4
  9
$DIMLFAC
 40
1.0
  9
$DIMTOFL
 70
     0
  9
$DIMTVP
 40
0.0
  9
$DIMTIX
 70
     0
  9
$DIMSOXD
 70
     0
  9
$DIMSAH
 70
     0
  9
$DIMBLK1
  1

  9
$DIMBLK2
  1

  9
$DIMSTYLE
  2
STANDARD
  9
$DIMCLRD
 70
     0
  9
$DIMCLRE
 70
     0
  9
$DIMCLRT
 70
     0
  9
$DIMTFAC
 40
1.0
  9
$DIMGAP
 40
0.125
  9
$DIMJUST
 70
     0
  9
$DIMSD1
 70
     0
  9
$DIMSD2
 70
     0
  9
$DIMTOLJ
 70
     1
  9
$DIMTZIN
 70
     3
  9
$DIMALTZ
 70
     3
  9
$DIMALTTZ
 70
     3
  9
$DIMUPT
 70
     0
  9
$DIMDEC
 70
     5
  9
$DIMTDEC
 70
     5
  9
$DIMALTU
 70
     4
  9
$DIMALTTD
 70
     2
  9
$DIMTXSTY
  7
STANDARD
  9
$DIMAUNIT
 70
     0
  9
$DIMADEC
 70
     0
  9
$DIMALTRND
 40
0.0
  9
$DIMAZIN
 70
     0
  9
$DIMDSEP
 70
    46
  9
$DIMATFIT
 70
     0
  9
$DIMFRAC
 70
     2
  9
$DIMLDRBLK
  1

  9
$DIMLUNIT
 70
     4
  9
$DIMLWD
 70
    -2
  9
$DIMLWE
 70
    -2
  9
$DIMTMOVE
 70
     0
  9
$LUNITS
 70
     2
  9
$LUPREC
 70
     5
  9
$SKETCHINC
 40
0.1
  9
$FILLETRAD
 40
0.0
  9
$AUNITS
 70
     0
  9
$AUPREC
 70
     0
  9
$MENU
  1
ACAD
  9
$ELEVATION
 40
0.0
  9
$PELEVATION
 40
0.0
  9
$THICKNESS
 40
0.0
  9
$LIMCHECK
 70
     0
  9
$CHAMFERA
 40
0.0
  9
$CHAMFERB
 40
0.0
  9
$CHAMFERC
 40
0.0
  9
$CHAMFERD
 40
0.0
  9
$SKPOLY
 70
     0
  9
$TDCREATE
 40
2450777.579237616
  9
$TDUCREATE
 40
2450777.745904282
  9
$TDUPDATE
 40
2457828.327307628
  9
$TDUUPDATE
 40
2457828.493974294
  9
$TDINDWG
 40
0.6024553356
  9
$TDUSRTIMER
 40
0.6024553356
  9
$USRTIMER
 70
     1
  9
$ANGBASE
 50
0.0
  9
$ANGDIR
 70
     0
  9
$PDMODE
 70
     0
  9
$PDSIZE
 40
0.0
  9
$PLINEWID
 40
0.0
  9
$SPLFRAME
 70
     0
  9
$SPLINETYPE
 70
     6
  9
$SPLINESEGS
 70
     8
  9
$HANDSEED
  5
68E5
  9
$SURFTAB1
 70
     6
  9
$SURFTAB2
 70
     6
  9
$SURFTYPE
 70
     6
  9
$SURFU
 70
     6
  9
$SURFV
 70
     6
  9
$UCSBASE
  2

  9
$UCSNAME
  2

  9
$UCSORG
 10
0.0
 20
0.0
 30
0.0
  9
$UCSXDIR
 10
1.0
 20
0.0
 30
0.0
  9
$UCSYDIR
 10
0.0
 20
1.0
 30
0.0
  9
$UCSORTHOREF
  2

  9
$UCSORTHOVIEW
 70
     0
  9
$UCSORGTOP
 10
0.0
 20
0.0
 30
0.0
  9
$UCSORGBOTTOM
 10
0.0
 20
0.0
 30
0.0
  9
$UCSORGLEFT
 10
0.0
 20
0.0
 30
0.0
  9
$UCSORGRIGHT
 10
0.0
 20
0.0
 30
0.0
  9
$UCSORGFRONT
 10
0.0
 20
0.0
 30
0.0
  9
$UCSORGBACK
 10
0.0
 20
0.0
 30
0.0
  9
$PUCSBASE
  2

  9
$PUCSNAME
  2

  9
$PUCSORG
 10
0.0
 20
0.0
 30
0.0
  9
$PUCSXDIR
 10
1.0
 20
0.0
 30
0.0
  9
$PUCSYDIR
 10
0.0
 20
1.0
 30
0.0
  9
$PUCSORTHOREF
  2

  9
$PUCSORTHOVIEW
 70
     0
  9
$PUCSORGTOP
 10
0.0
 20
0.0
 30
0.0
  9
$PUCSORGBOTTOM
 10
0.0
 20
0.0
 30
0.0
  9
$PUCSORGLEFT
 10
0.0
 20
0.0
 30
0.0
  9
$PUCSORGRIGHT
 10
0.0
 20
0.0
 30
0.0
  9
$PUCSORGFRONT
 10
0.0
 20
0.0
 30
0.0
  9
$PUCSORGBACK
 10
0.0
 20
0.0
 30
0.0
  9
$USERI1
 70
     0
  9
$USERI2
 70
     0
  9
$USERI3
 70
     0
  9
$USERI4
 70
     0
  9
$USERI5
 70
     0
  9
$USERR1
 40
0.0
  9
$USERR2
 40
0.0
  9
$USERR3
 40
0.0
  9
$USERR4
 40
0.0
  9
$USERR5
 40
0.0
  9
$WORLDVIEW
 70
     1
  9
$SHADEDGE
 70
     3
  9
$SHADEDIF
 70
    70
  9
$TILEMODE
 70
     1
  9
$MAXACTVP
 70
    16
  9
$PINSBASE
 10
0.0
 20
0.0
 30
0.0
  9
$PLIMCHECK
 70
     0
  9
$PEXTMIN
 10
1.000000000000000E+20
 20
1.000000000000000E+20
 30
1.000000000000000E+20
  9
$PEXTMAX
 10
-1.000000000000000E+20
 20
-1.000000000000000E+20
 30
-1.000000000000000E+20
  9
$PLIMMIN
 10
0.0
 20
0.0
  9
$PLIMMAX
 10
12.0
 20
9.0
  9
$UNITMODE
 70
     0
  9
$VISRETAIN
 70
     0
  9
$PLINEGEN
 70
     0
  9
$PSLTSCALE
 70
     1
  9
$TREEDEPTH
 70
  3020
  9
$CMLSTYLE
  2
STANDARD
  9
$CMLJUST
 70
     0
  9
$CMLSCALE
 40
1.0
  9
$PROXYGRAPHICS
 70
     1
  9
$MEASUREMENT
 70
     0
  9
$CELWEIGHT
370
    -1
  9
$ENDCAPS
280
     0
  9
$JOINSTYLE
280
     0
  9
$LWDISPLAY
290
     0
  9
$INSUNITS
 70
     0
  9
$HYPERLINKBASE
  1

  9
$STYLESHEET
  1
Default R14 pen assignments.ctb
  9
$XEDIT
290
     1
  9
$CEPSNTYPE
380
     0
  9
$PSTYLEMODE
290
     1
  9
$FINGERPRINTGUID
  2
{E59B568C-F463-11D5-8103-00A0C992F75F}
  9
$VERSIONGUID
  2
{B38534CB-272B-4C54-9CBB-F68921FAF269}
  9
$EXTNAMES
290
     1
  9
$PSVPSCALE
 40
0.0
  9
$OLESTARTUP
290
     0
  0
ENDSEC
  0
SECTION
  2
CLASSES
  0
CLASS
  1
DICTIONARYVAR
  2
AcDbDictionaryVar
  3
ObjectDBX Classes
 90
        0
280
     0
281
     0
  0
CLASS
  1
ACDBDICTIONARYWDFLT
  2
AcDbDictionaryWithDefault
  3
ObjectDBX Classes
 90
        0
280
     0
281
     0
  0
CLASS
  1
ACDBPLACEHOLDER
  2
AcDbPlaceHolder
  3
ObjectDBX Classes
 90
        0
280
     0
281
     0
  0
CLASS
  1
LAYOUT
  2
AcDbLayout
  3
ObjectDBX Classes
 90
        0
280
     0
281
     0
  0
CLASS
  1
MATERIAL
  2
AcDbMaterial
  3
ObjectDBX Classes
 90
     1153
280
     0
281
     0
  0
CLASS
  1
VISUALSTYLE
  2
AcDbVisualStyle
  3
ObjectDBX Classes
 90
     4095
280
     0
281
     0
  0
CLASS
  1
TABLESTYLE
  2
AcDbTableStyle
  3
ObjectDBX Classes
 90
     4095
280
     0
281
     0
  0
CLASS
  1
SCALE
  2
AcDbScale
  3
ObjectDBX Classes
 90
     1153
280
     0
281
     0
  0
CLASS
  1
MLEADERSTYLE
  2
AcDbMLeaderStyle
  3
ACDB_MLEADERSTYLE_CLASS
 90
     4095
280
     0
281
     0
  0
CLASS
  1
SORTENTSTABLE
  2
AcDbSortentsTable
  3
ObjectDBX Classes
 90
        0
280
     0
281
     0
  0
CLASS
  1
CELLSTYLEMAP
  2
AcDbCellStyleMap
  3
ObjectDBX Classes
 90
     1152
280
     0
281
     0
  0
CLASS
  1
EXACXREFPANELOBJECT
  2
ExAcXREFPanelObject
  3
EXAC_ESW
 90
     1025
280
     0
281
     0
  0
CLASS
  1
NPOCOLLECTION
  2
AcDbImpNonPersistentObjectsCollection
  3
ObjectDBX Classes
 90
     1153
280
     0
281
     0
  0
CLASS
  1
FIELD
  2
AcDbField
  3
ObjectDBX Classes
 90
    33920
280
     0
281
     0
  0
CLASS
  1
FIELDLIST
  2
AcDbFieldList
  3
ObjectDBX Classes
 90
     1152
280
     0
281
     0
  0
ENDSEC
  0
SECTION
  2
TABLES
  0
TABLE
  2
VPORT
  5
8
102
{ACAD_XDICTIONARY
360
6299
102
}
330
0
100
AcDbSymbolTable
 70
     1
  0
VPORT
  5
61DE
330
8
100
AcDbSymbolTableRecord
100
AcDbViewportTableRecord
  2
*Active
 70
     0
 10
0.0
 20
0.0
 11
1.0
 21
1.0
 12
38.58039728488917
 22
22.76883632771216
 13
0.0
 23
0.0
 14
1.0
 24
1.0
 15
0.0
 25
0.0
 16
0.0
 26
0.0
 36
1.0
 17
0.0
 27
0.0
 37
0.0
 40
45.85166221938369
 41
2.123147092360319
 42
50.0
 43
0.0
 44
0.0
 50
0.0
 51
0.0
 71
     0
 72
  2000
 73
     1
 74
     0
 75
     0
 76
     0
 77
     0
 78
     0
281
     0
 65
     1
110
0.0
120
0.0
130
0.0
111
1.0
121
0.0
131
0.0
112
0.0
122
1.0
132
0.0
 79
     0
146
0.0
1001
ACAD_NAV_VCDISPLAY
1070
     3
  0
ENDTAB
  0
TABLE
  2
LTYPE
  5
5
330
0
100
AcDbSymbolTable
 70
     4
  0
LTYPE
  5
11
330
5
100
AcDbSymbolTableRecord
100
AcDbLinetypeTableRecord
  2
BYBLOCK
 70
     0
  3

 72
    65
 73
     0
 40
0.0
  0
LTYPE
  5
12
330
5
100
AcDbSymbolTableRecord
100
AcDbLinetypeTableRecord
  2
BYLAYER
 70
     0
  3

 72
    65
 73
     0
 40
0.0
  0
LTYPE
  5
13
330
5
100
AcDbSymbolTableRecord
100
AcDbLinetypeTableRecord
  2
CONTINUOUS
 70
     0
  3
Solid line
 72
    65
 73
     0
 40
0.0
  0
LTYPE
  5
501D
330
5
100
AcDbSymbolTableRecord
100
AcDbLinetypeTableRecord
  2
DASHED
 70
     0
  3
Dashed __ __ __ __ __ __ __ __ __ __ __ __ __ _
 72
    65
 73
     2
 40
0.75
 49
0.5
 74
     0
 49
-0.25
 74
     0
  0
ENDTAB
  0
TABLE
  2
LAYER
  5
2
102
{ACAD_XDICTIONARY
360
6278
102
}
330
0
100
AcDbSymbolTable
 70
     9
  0
LAYER
  5
E
102
{ACAD_XDICTIONARY
360
6288
102
}
330
2
100
AcDbSymbolTableRecord
100
AcDbLayerTableRecord
  2
0
 70
     0
 62
     7
  6
CONTINUOUS
370
    -3
390
5386
  0
LAYER
  5
276
102
{ACAD_XDICTIONARY
360
628A
102
}
330
2
100
AcDbSymbolTableRecord
100
AcDbLayerTableRecord
  2
PART_NUMBERS
 70
     0
 62
     6
  6
CONTINUOUS
370
    -3
390
5386
  0
LAYER
  5
34CC
102
{ACAD_XDICTIONARY
360
628C
102
}
330
2
100
AcDbSymbolTableRecord
100
AcDbLayerTableRecord
  2
R-SWTS-DET1
 70
     0
 62
     1
  6
CONTINUOUS
370
    -3
390
5386
  0
LAYER
  5
34CD
102
{ACAD_XDICTIONARY
360
628E
102
}
330
2
100
AcDbSymbolTableRecord
100
AcDbLayerTableRecord
  2
R-SWTS-DET2
 70
     0
 62
     4
  6
CONTINUOUS
370
    -3
390
5386
  0
LAYER
  5
34CE
102
{ACAD_XDICTIONARY
360
6290
102
}
330
2
100
AcDbSymbolTableRecord
100
AcDbLayerTableRecord
  2
R-SWTS-DET3
 70
     0
 62
     5
  6
CONTINUOUS
370
    -3
390
5386
  0
LAYER
  5
34CF
102
{ACAD_XDICTIONARY
360
6292
102
}
330
2
100
AcDbSymbolTableRecord
100
AcDbLayerTableRecord
  2
R-ANNO-DIMS
 70
     0
 62
     3
  6
CONTINUOUS
370
    -3
390
5386
  0
LAYER
  5
575D
330
2
100
AcDbSymbolTableRecord
100
AcDbLayerTableRecord
  2
Defpoints
 70
     0
 62
     7
  6
CONTINUOUS
290
     0
370
    -3
390
5386
  0
LAYER
  5
62F2
102
{ACAD_XDICTIONARY
360
62F3
102
}
330
2
100
AcDbSymbolTableRecord
100
AcDbLayerTableRecord
  2
TEXT
 70
     0
 62
     3
  6
CONTINUOUS
370
    -3
390
5386
  0
LAYER
  5
67B7
330
2
100
AcDbSymbolTableRecord
100
AcDbLayerTableRecord
  2
Kawneer Logo-English
 70
     0
 62
     7
  6
CONTINUOUS
370
    -3
390
5386
1001
AcAecLayerStandard
1000

1000

1001
AcCmTransparency
1071
        0
  0
ENDTAB
  0
TABLE
  2
STYLE
  5
3
330
0
100
AcDbSymbolTable
 70
     1
  0
STYLE
  5
F
330
3
100
AcDbSymbolTableRecord
100
AcDbTextStyleTableRecord
  2
STANDARD
 70
     0
 40
0.0
 41
1.0
 50
0.0
 71
     0
 42
0.25
  3
arial.ttf
  4

1001
ACAD
1000
Arial
1071
       34
  0
ENDTAB
  0
TABLE
  2
VIEW
  5
6
330
0
100
AcDbSymbolTable
 70
     0
  0
ENDTAB
  0
TABLE
  2
UCS
  5
7
330
0
100
AcDbSymbolTable
 70
     0
  0
ENDTAB
  0
TABLE
  2
APPID
  5
9
330
0
100
AcDbSymbolTable
 70
    16
  0
APPID
  5
10
330
9
100
AcDbSymbolTableRecord
100
AcDbRegAppTableRecord
  2
ACAD
 70
     0
  0
APPID
  5
62F6
330
9
100
AcDbSymbolTableRecord
100
AcDbRegAppTableRecord
  2
ACAD_NAV_VCDISPLAY
 70
     0
  0
APPID
  5
67C3
330
9
100
AcDbSymbolTableRecord
100
AcDbRegAppTableRecord
  2
AcAecLayerStandard
 70
     0
  0
APPID
  5
67C4
330
9
100
AcDbSymbolTableRecord
100
AcDbRegAppTableRecord
  2
AcCmTransparency
 70
     0
  0
APPID
  5
68E0
330
9
100
AcDbSymbolTableRecord
100
AcDbRegAppTableRecord
  2
ACAD_MLEADERVER
 70
     0
  0
ENDTAB
  0
TABLE
  2
DIMSTYLE
  5
A
330
0
100
AcDbSymbolTable
 70
     1
100
AcDbDimStyleTable
 71
     0
  0
DIMSTYLE
105
26C
102
{ACAD_REACTORS
330
575C
102
}
330
A
100
AcDbSymbolTableRecord
100
AcDbDimStyleTableRecord
  2
STANDARD
 70
     0
340
F
  0
ENDTAB
  0
TABLE
  2
BLOCK_RECORD
  5
1
330
0
100
AcDbSymbolTable
 70
     3
  0
BLOCK_RECORD
  5
17
102
{ACAD_XDICTIONARY
360
53B6
102
}
330
1
100
AcDbSymbolTableRecord
100
AcDbBlockTableRecord
  2
*MODEL_SPACE
340
5389
  0
BLOCK_RECORD
  5
14
102
{ACAD_XDICTIONARY
360
53B4
102
}
330
1
100
AcDbSymbolTableRecord
100
AcDbBlockTableRecord
  2
*PAPER_SPACE
340
538A
  0
BLOCK_RECORD
  5
575E
330
1
100
AcDbSymbolTableRecord
100
AcDbBlockTableRecord
  2
*D0
340
0
  0
BLOCK_RECORD
  5
67C7
102
{ACAD_XDICTIONARY
360
67D1
102
}
330
1
100
AcDbSymbolTableRecord
100
AcDbBlockTableRecord
  2
Kawneer Logo English
340
0
102
{BLKREFS
331
6885
331
688C
102
}
1001
ACAD
1000
DesignCenter Data
1002
{
1070
     1
1070
     1
1002
}
  0
ENDTAB
  0
ENDSEC
  0
SECTION
  2
BLOCKS
  0
BLOCK
  5
3C
330
17
100
AcDbEntity
  8
0
100
AcDbBlockBegin
  2
*MODEL_SPACE
 70
     0
 10
0.0
 20
0.0
 30
0.0
  3
*MODEL_SPACE
  1

  0
ENDBLK
  5
3D
330
17
100
AcDbEntity
  8
0
100
AcDbBlockEnd
  0
BLOCK
  5
3A
330
14
100
AcDbEntity
 67
     1
  8
0
100
AcDbBlockBegin
  2
*PAPER_SPACE
 70
     0
 10
0.0
 20
0.0
 30
0.0
  3
*PAPER_SPACE
  1

  0
ENDBLK
  5
3B
330
14
100
AcDbEntity
 67
     1
  8
0
100
AcDbBlockEnd
  0
BLOCK
  5
5768
330
575E
100
AcDbEntity
  8
0
100
AcDbBlockBegin
  2
*D0
 70
     1
 10
0.0
 20
0.0
 30
0.0
  3
*D0
  1

  0
LINE
  5
6208
330
575E
100
AcDbEntity
  8
R-ANNO-DIMS
 62
     0
100
AcDbLine
 10
34.49389173340687
 20
15.55797758012914
 30
0.0
 11
36.59938437617794
 21
15.55797758012914
 31
0.0
  0
LINE
  5
6209
330
575E
100
AcDbEntity
  8
R-ANNO-DIMS
 62
     0
100
AcDbLine
 10
34.4938917334062
 20
10.30797758012916
 30
0.0
 11
36.59938437617794
 21
10.30797758012916
 31
0.0
  0
LINE
  5
620A
330
575E
100
AcDbEntity
  8
R-ANNO-DIMS
 62
     0
100
AcDbLine
 10
36.47438437617794
 20
15.35797758012914
 30
0.0
 11
36.47438437617794
 21
10.50797758012916
 31
0.0
  0
SOLID
  5
620B
330
575E
100
AcDbEntity
  8
R-ANNO-DIMS
 62
     0
100
AcDbTrace
 10
36.44105104284461
 20
15.35797758012914
 30
0.0
 11
36.50771770951127
 21
15.35797758012914
 31
0.0
 12
36.47438437617794
 22
15.55797758012914
 32
0.0
 13
36.47438437617794
 23
15.55797758012914
 33
0.0
  0
SOLID
  5
620C
330
575E
100
AcDbEntity
  8
R-ANNO-DIMS
 62
     0
100
AcDbTrace
 10
36.44105104284461
 20
10.50797758012916
 30
0.0
 11
36.50771770951127
 21
10.50797758012916
 31
0.0
 12
36.47438437617794
 22
10.30797758012916
 32
0.0
 13
36.47438437617794
 23
10.30797758012916
 33
0.0
  0
MTEXT
  5
620D
330
575E
100
AcDbEntity
  8
R-ANNO-DIMS
 62
     0
100
AcDbMText
 10
36.22438437617794
 20
12.93297758012916
 30
0.0
 40
0.25
 41
0.0
 71
     5
 72
     1
  1
\A1;5 1/4"
 11
0.0000000000000001
 21
1.0
 31
0.0
 73
     1
 44
1.0
1001
ACAD
1000
MTEXTBEGIN
1070
    73
1070
     1
1070
    44
1040
1.0
1070
    74
1070
     0
1000
MTEXTEND
  0
POINT
  5
620E
330
575E
100
AcDbEntity
  8
Defpoints
 62
     0
100
AcDbPoint
 10
34.36889173340687
 20
15.55797758012914
 30
0.0
  0
POINT
  5
620F
330
575E
100
AcDbEntity
  8
Defpoints
 62
     0
100
AcDbPoint
 10
34.3688917334062
 20
10.30797758012916
 30
0.0
  0
POINT
  5
6210
330
575E
100
AcDbEntity
  8
Defpoints
 62
     0
100
AcDbPoint
 10
36.47438437617794
 20
10.30797758012916
 30
0.0
  0
ENDBLK
  5
5769
330
575E
100
AcDbEntity
  8
0
100
AcDbBlockEnd
  0
BLOCK
  5
67D3
330
67C7
100
AcDbEntity
  8
0
100
AcDbBlockBegin
  2
Kawneer Logo English
 70
     0
 10
0.0
 20
0.0
 30
0.0
  3
Kawneer Logo English
  1

  0
MTEXT
  5
67C8
102
{ACAD_XDICTIONARY
360
68A4
102
}
330
67C7
100
AcDbEntity
  8
Kawneer Logo-English
100
AcDbMText
 10
1.510096758583198
 20
0.0372523876656778
 30
0.0
 40
0.036
 41
0.6125900866323382
 71
     3
 72
     5
  1
{\fArial TUR|b0|i0|c0|p34;\T1.05;AN ARCONIC COMPANY}
 73
     1
 44
1.0
1001
ACAD
1000
ACAD_MTEXT_COLUMN_INFO_BEGIN
1070
    75
1070
     2
1070
    79
1070
     0
1070
    76
1070
     1
1070
    78
1070
     0
1070
    48
1040
0.6125900866323382
1070
    49
1040
1.0
1070
    50
1070
     1
1040
0.0
1000
ACAD_MTEXT_COLUMN_INFO_END
1000
MTEXTBEGIN
1070
    73
1070
     1
1070
    44
1040
1.0
1070
    74
1070
     0
1000
MTEXTEND
  0
HATCH
  5
67C9
330
67C7
100
AcDbEntity
  8
Kawneer Logo-English
100
AcDbHatch
 10
0.0
 20
0.0
 30
0.0
210
0.0
220
0.0
230
1.0
  2
SOLID
 70
     1
 71
     0
 91
        1
 92
        1
 93
       81
 72
     1
 10
0.2706169776412204
 20
0.0336337282279411
 11
0.2687512969786691
 21
0.0350329887248546
 72
     1
 10
0.2687512969786696
 20
0.0350329887248547
 11
0.2633408230572721
 21
0.039137486182467
 72
     1
 10
0.2633408230572729
 20
0.0391374861824669
 11
0.2550385441089194
 21
0.0453875164020133
 72
     1
 10
0.2550385441089191
 20
0.0453875164020132
 11
0.2442175962661241
 21
0.053596511317238
 72
     1
 10
0.2442175962661235
 20
0.0535965113172379
 11
0.2314376837276472
 21
0.0632980507625037
 72
     1
 10
0.2314376837276479
 20
0.0632980507625037
 11
0.2172585106922595
 21
0.0741189986052996
 72
     1
 10
0.2172585106922598
 20
0.0741189986052996
 11
0.2019599292593419
 21
0.0856862187131167
 72
     1
 10
0.201959929259341
 20
0.0856862187131167
 11
0.1862882116939105
 21
0.0976265749534437
 72
     1
 10
0.1862882116939102
 20
0.0976265749534437
 11
0.1706164941284813
 21
0.1095669311937706
 72
     1
 10
0.1706164941284811
 20
0.1095669311937709
 11
0.1553179126955632
 21
0.1211341513015875
 72
     1
 10
0.1553179126955642
 20
0.1211341513015876
 11
0.1411387396601757
 21
0.131955099144384
 72
     1
 10
0.1411387396601755
 20
0.1319550991443839
 11
0.1284521111548274
 21
0.141749922622777
 72
     1
 10
0.1284521111548278
 20
0.1417499226227768
 11
0.117631163312031
 21
0.1499589175380016
 72
     1
 10
0.1176311633120304
 20
0.1499589175380017
 11
0.1094221683968068
 21
0.1563022317906752
 72
     1
 10
0.1094221683968062
 20
0.1563022317906754
 11
0.1041049785085351
 21
0.1604067292482882
 72
     1
 10
0.1041049785085351
 20
0.1604067292482878
 11
0.1023325818791119
 21
0.1618992737783286
 72
     1
 10
0.1023325818791116
 20
0.1618992737783289
 11
0.1043848306079176
 21
0.1636716704077524
 72
     1
 10
0.1043848306079194
 20
0.1636716704077524
 11
0.1100751566286996
 21
0.1683358720641301
 72
     1
 10
0.1100751566286986
 20
0.1683358720641301
 11
0.1189371397758159
 21
0.1757053106812067
 72
     1
 10
0.1189371397758161
 20
0.1757053106812067
 11
0.1304110758505067
 21
0.1851269980270901
 72
     1
 10
0.1304110758505059
 20
0.1851269980270902
 11
0.1439372606540007
 21
0.1963210820023967
 72
     1
 10
0.1439372606540017
 20
0.1963210820023967
 11
0.1589559899875385
 21
0.2087278584083611
 72
     1
 10
0.1589559899875379
 20
0.2087278584083611
 11
0.1750941277186041
 21
0.2220674751456017
 72
     1
 10
0.1750941277186047
 20
0.2220674751456017
 11
0.19169868561531
 21
0.2358735120484796
 72
     1
 10
0.1916986856153105
 20
0.2358735120484796
 11
0.208303243512014
 21
0.2495862649182301
 72
     1
 10
0.2083032435120131
 20
0.2495862649182304
 11
0.2244413812430811
 21
0.2628325976223432
 72
     1
 10
0.2244413812430812
 20
0.2628325976223429
 11
0.239460110576618
 21
0.2753326580614352
 72
     1
 10
0.2394601105766174
 20
0.2753326580614351
 11
0.2529862953801122
 21
0.2864334580036143
 72
     1
 10
0.2529862953801132
 20
0.2864334580036143
 11
0.2643669474216756
 21
0.2958551453494973
 72
     1
 10
0.2643669474216757
 20
0.2958551453494973
 11
0.2731356465356649
 21
0.3031312999334466
 72
     1
 10
0.273135646535664
 20
0.3031312999334466
 11
0.2788259725564443
 21
0.3077955015898243
 72
     1
 10
0.278825972556445
 20
0.3077955015898246
 11
0.2807849372521245
 21
0.3094746141861208
 72
     1
 10
0.2807849372521249
 20
0.3094746141861205
 11
0.2798520969208501
 21
0.3094746141861205
 72
     1
 10
0.2798520969208496
 20
0.3094746141861205
 11
0.2769602918938953
 21
0.3095678982192478
 72
     1
 10
0.2769602918938943
 20
0.3095678982192481
 11
0.2724826583037715
 21
0.3095678982192481
 72
     1
 10
0.2724826583037729
 20
0.3095678982192481
 11
0.2666057642167363
 21
0.3095678982192481
 72
     1
 10
0.266605764216735
 20
0.3095678982192481
 11
0.2597027457652953
 21
0.3095678982192481
 72
     1
 10
0.2597027457652956
 20
0.3095678982192481
 11
0.2519601710157094
 21
0.3095678982192481
 72
     1
 10
0.2519601710157104
 20
0.3095678982192481
 11
0.2437511761004851
 21
0.3095678982192481
 72
     1
 10
0.243751176100484
 20
0.3095678982192481
 11
0.2351690450527495
 21
0.3095678982192481
 72
     1
 10
0.2351690450527495
 20
0.3095678982192481
 11
0.2266801980381413
 21
0.3095678982192481
 72
     1
 10
0.2266801980381423
 20
0.3095678982192481
 11
0.2183779190897905
 21
0.3094746141861208
 72
     1
 10
0.2183779190897899
 20
0.3094746141861205
 11
0.2106353443402037
 21
0.3094746141861205
 72
     1
 10
0.2106353443402029
 20
0.3094746141861205
 11
0.2037323258887632
 21
0.3094746141861205
 72
     1
 10
0.203732325888764
 20
0.3094746141861205
 11
0.1978554318017273
 21
0.3094746141861205
 72
     1
 10
0.1978554318017278
 20
0.3094746141861205
 11
0.1932845141784786
 21
0.3094746141861205
 72
     1
 10
0.1932845141784787
 20
0.3094746141861205
 11
0.1903927091515244
 21
0.3094746141861205
 72
     1
 10
0.1903927091515234
 20
0.3094746141861205
 11
0.1893665847871204
 21
0.3094746141861205
 72
     1
 10
0.1893665847871206
 20
0.3094746141861205
 11
0.1879673242902067
 21
0.3077955015898243
 72
     1
 10
0.1879673242902076
 20
0.3077955015898246
 11
0.1841426789319786
 21
0.3030380159003196
 72
     1
 10
0.1841426789319787
 20
0.3030380159003192
 11
0.1780792167786874
 21
0.29576186131637
 72
     1
 10
0.1780792167786873
 20
0.29576186131637
 11
0.170243357995973
 21
0.2862468899373593
 72
     1
 10
0.170243357995973
 20
0.2862468899373593
 11
0.1610082387163447
 21
0.2750528059620528
 72
     1
 10
0.1610082387163438
 20
0.2750528059620528
 11
0.1507469950723126
 21
0.2624594614898328
 72
     1
 10
0.1507469950723133
 20
0.2624594614898328
 11
0.1396461951301336
 21
0.2491198447525922
 72
     1
 10
0.1396461951301333
 20
0.2491198447525922
 11
0.1282655430885727
 21
0.2352205238165866
 72
     1
 10
0.1282655430885726
 20
0.2352205238165868
 11
0.1168848910470102
 21
0.2214144869137089
 72
     1
 10
0.1168848910470102
 20
0.2214144869137087
 11
0.1058773751379587
 21
0.2079815861433408
 72
     1
 10
0.105877375137958
 20
0.2079815861433408
 11
0.0955228474608004
 21
0.1954815257042486
 72
     1
 10
0.0955228474608019
 20
0.1954815257042488
 11
0.0862877281811736
 21
0.1842874417289424
 72
     1
 10
0.0862877281811727
 20
0.1842874417289424
 11
0.0784518693984583
 21
0.1747724703499316
 72
     1
 10
0.0784518693984584
 20
0.1747724703499314
 11
0.0723884072451672
 21
0.1674963157659821
 72
     1
 10
0.0723884072451671
 20
0.1674963157659822
 11
0.0685637618869363
 21
0.1627388300764767
 72
     1
 10
0.0685637618869364
 20
0.1627388300764767
 11
0.0671645013900242
 21
0.1611530015133082
 72
     1
 10
0.0671645013900251
 20
0.1611530015133082
 11
0.0680040576881734
 21
0.1596604569832674
 72
     1
 10
0.0680040576881726
 20
0.1596604569832674
 11
0.0704294425494878
 21
0.1556492435587824
 72
     1
 10
0.0704294425494871
 20
0.1556492435587824
 11
0.0742540879077179
 21
0.1493059293061089
 72
     1
 10
0.0742540879077192
 20
0.1493059293061089
 11
0.0791048576303511
 21
0.1411902184240116
 72
     1
 10
0.0791048576303508
 20
0.1411902184240116
 11
0.0848884676842594
 21
0.1314886789787458
 72
     1
 10
0.0848884676842596
 20
0.1314886789787459
 11
0.0913250659700619
 21
0.1207610151690772
 72
     1
 10
0.0913250659700613
 20
0.1207610151690775
 11
0.0982280844214992
 21
0.1091937950612604
 72
     1
 10
0.0982280844214985
 20
0.1091937950612603
 11
0.1053176709391927
 21
0.0973467228540611
 72
     1
 10
0.105317670939193
 20
0.0973467228540612
 11
0.1124072574568872
 21
0.0854996506468619
 72
     1
 10
0.1124072574568871
 20
0.0854996506468617
 11
0.1193102759083267
 21
0.0739324305390446
 72
     1
 10
0.1193102759083278
 20
0.0739324305390448
 11
0.1257468741941283
 21
0.0632047667293762
 72
     1
 10
0.1257468741941277
 20
0.063204766729376
 11
0.1315304842480362
 21
0.0535032272841102
 72
     1
 10
0.1315304842480365
 20
0.0535032272841104
 11
0.1363812539706702
 21
0.0453875164020132
 72
     1
 10
0.1363812539706699
 20
0.0453875164020132
 11
0.1402058993288989
 21
0.0391374861824667
 72
     1
 10
0.1402058993288988
 20
0.0391374861824669
 11
0.1426312841902157
 21
0.0350329887248546
 72
     1
 10
0.1426312841902164
 20
0.0350329887248547
 11
0.1434708404883648
 21
0.0336337282279412
 72
     1
 10
0.143470840488364
 20
0.0336337282279411
 11
0.2706169776412211
 21
0.0336337282279411
 97
        0
 75
     0
 76
     1
 98
        1
 10
-0.3743130907707726
 20
-0.2500502867693841
1001
ACAD
1010
0.0
1020
0.0
1030
0.0
  0
HATCH
  5
67CA
330
67C7
100
AcDbEntity
  8
Kawneer Logo-English
100
AcDbHatch
 10
0.0
 20
0.0
 30
0.0
210
0.0
220
0.0
230
1.0
  2
SOLID
 70
     1
 71
     0
 91
        1
 92
        1
 93
       18
 72
     1
 10
0.0001865656044393
 20
0.2563959993365415
 11
-0.0000000024618153
 21
0.113671428651383
 72
     1
 10
-0.0000000024618159
 20
0.1136714286513832
 11
0.0012126899688416
 21
0.1152572572145516
 72
     1
 10
0.0012126899688421
 20
0.1152572572145516
 11
0.0045709151614355
 21
0.1197348908046738
 72
     1
 10
0.004570915161435
 20
0.119734890804674
 11
0.0098881050497044
 21
0.1268244773223682
 72
     1
 10
0.0098881050497044
 20
0.1268244773223682
 11
0.0166978394680158
 21
0.1359663125688683
 72
     1
 10
0.016697839468016
 20
0.1359663125688683
 11
0.0248135503501131
 21
0.1467872604116651
 72
     1
 10
0.024813550350113
 20
0.1467872604116652
 11
0.0338621015634867
 21
0.1588209006851195
 72
     1
 10
0.0338621015634872
 20
0.1588209006851194
 11
0.0434703569756247
 21
0.1716940972567221
 72
     1
 10
0.0434703569756247
 20
0.1716940972567224
 11
0.0534517485202732
 21
0.1850337139939626
 72
     1
 10
0.0534517485202724
 20
0.1850337139939624
 11
0.0634331400649208
 21
0.1983733307312025
 72
     1
 10
0.0634331400649222
 20
0.1983733307312024
 11
0.0730413954770597
 21
0.2112465273028051
 72
     1
 10
0.0730413954770595
 20
0.2112465273028053
 11
0.0820899466904331
 21
0.2233734516093873
 72
     1
 10
0.0820899466904321
 20
0.2233734516093873
 11
0.0902056575725293
 21
0.2341943994521837
 72
     1
 10
0.0902056575725308
 20
0.2341943994521837
 11
0.0970153919908422
 21
0.2433362346986839
 72
     1
 10
0.0970153919908405
 20
0.2433362346986839
 11
0.1022392978459834
 21
0.2503325371832507
 72
     1
 10
0.1022392978459843
 20
0.2503325371832508
 11
0.1056908070717041
 21
0.2549034548065008
 72
     1
 10
0.1056908070717046
 20
0.254903454806501
 11
0.1069034995023621
 21
0.2564892833696694
 72
     1
 10
0.1069034995023625
 20
0.2564892833696695
 11
0.0001865656044399
 21
0.2563959993365418
 97
        0
 75
     0
 76
     1
 98
        1
 10
-0.3743130907707726
 20
-0.2500502867693841
1001
ACAD
1010
0.0
1020
0.0
1030
0.0
  0
HATCH
  5
67CB
330
67C7
100
AcDbEntity
  8
Kawneer Logo-English
100
AcDbHatch
 10
0.0
 20
0.0
 30
0.0
210
0.0
220
0.0
230
1.0
  2
SOLID
 70
     1
 71
     0
 91
        2
 92
       16
 93
       76
 72
     1
 10
1.358402087941634
 20
0.1650709309046659
 11
1.358402087941634
 21
0.16796273593162
 72
     1
 10
1.358402087941634
 20
0.1679627359316202
 11
1.358402087941634
 21
0.1729067896873803
 72
     1
 10
1.358402087941634
 20
0.1729067896873803
 11
1.358402087941634
 21
0.1791568199069267
 72
     1
 10
1.358402087941634
 20
0.1791568199069267
 11
1.358402087941634
 21
0.1861531223914932
 72
     1
 10
1.358402087941634
 20
0.186153122391493
 11
1.358402087941634
 21
0.1931494248760595
 72
     1
 10
1.358402087941634
 20
0.1931494248760596
 11
1.358402087941634
 21
0.1994927391287338
 72
     1
 10
1.358402087941634
 20
0.1994927391287336
 11
1.358402087941634
 21
0.2044367928844937
 72
     1
 10
1.358402087941634
 20
0.2044367928844937
 11
1.358402087941634
 21
0.2072353138783208
 72
     1
 10
1.358402087941634
 20
0.2072353138783208
 11
1.359894632471676
 21
0.2072353138783208
 72
     1
 10
1.359894632471676
 20
0.2072353138783208
 11
1.362693153465502
 21
0.2072353138783208
 72
     1
 10
1.362693153465502
 20
0.2072353138783208
 11
1.366424514790605
 21
0.2072353138783208
 72
     1
 10
1.366424514790606
 20
0.2072353138783208
 11
1.371088716446983
 21
0.2072353138783208
 72
     1
 10
1.371088716446982
 20
0.2072353138783208
 11
1.376405906335254
 21
0.2072353138783208
 72
     1
 10
1.376405906335254
 20
0.2072353138783208
 11
1.382282800422289
 21
0.2072353138783208
 72
     1
 10
1.38228280042229
 20
0.2072353138783208
 11
1.388346262575581
 21
0.2072353138783208
 72
     1
 10
1.388346262575579
 20
0.2072353138783208
 11
1.394596292795125
 21
0.2072353138783208
 72
     1
 10
1.394596292795125
 20
0.2072353138783208
 11
1.400753038981545
 21
0.2072353138783208
 72
     1
 10
1.400753038981546
 20
0.2072353138783208
 11
1.406723217101709
 21
0.2072353138783208
 72
     1
 10
1.406723217101708
 20
0.2072353138783208
 11
1.412320259089362
 21
0.2072353138783208
 72
     1
 10
1.412320259089362
 20
0.2072353138783208
 11
1.417264312845122
 21
0.2072353138783208
 72
     1
 10
1.417264312845123
 20
0.2072353138783208
 11
1.421368810302735
 21
0.2072353138783208
 72
     1
 10
1.421368810302734
 20
0.2072353138783208
 11
1.424540467429071
 21
0.2072353138783208
 72
     1
 10
1.424540467429072
 20
0.2072353138783208
 11
1.426592716157878
 21
0.2072353138783208
 72
     1
 10
1.426592716157878
 20
0.2072353138783208
 11
1.427338988422898
 21
0.2072353138783208
 72
     1
 10
1.427338988422898
 20
0.2072353138783208
 11
1.430977065714873
 21
0.207142029845193
 72
     1
 10
1.430977065714872
 20
0.207142029845193
 11
1.434335290907465
 21
0.2068621777458102
 72
     1
 10
1.434335290907465
 20
0.2068621777458102
 11
1.435921119470633
 21
0.2066756096795552
 72
     1
 10
1.435921119470633
 20
0.206675609679555
 11
1.437413664000673
 21
0.2063957575801723
 72
     1
 10
1.437413664000674
 20
0.2063957575801723
 11
1.438906208530714
 21
0.2061159054807895
 72
     1
 10
1.438906208530714
 20
0.2061159054807898
 11
1.440398753060756
 21
0.2056494853151523
 72
     1
 10
1.440398753060756
 20
0.2056494853151521
 11
1.441704729524542
 21
0.2050897811163865
 72
     1
 10
1.441704729524542
 20
0.2050897811163866
 11
1.443010705988328
 21
0.204530076917621
 72
     1
 10
1.443010705988329
 20
0.204530076917621
 11
1.444223398418986
 21
0.2036905206194736
 72
     1
 10
1.444223398418985
 20
0.2036905206194736
 11
1.445436090849643
 21
0.2028509643213252
 72
     1
 10
1.445436090849643
 20
0.2028509643213252
 11
1.446555499247174
 21
0.2018248399569224
 72
     1
 10
1.446555499247173
 20
0.2018248399569223
 11
1.447581623611576
 21
0.2007054315593917
 72
     1
 10
1.447581623611578
 20
0.2007054315593915
 11
1.448607747975981
 21
0.1993061710624781
 72
     1
 10
1.448607747975981
 20
0.1993061710624781
 11
1.449540588307258
 21
0.1978136265324374
 72
     1
 10
1.449540588307256
 20
0.1978136265324373
 11
1.450380144605403
 21
0.1961345139361415
 72
     1
 10
1.450380144605404
 20
0.1961345139361415
 11
1.451126416870426
 21
0.1944554013398453
 72
     1
 10
1.451126416870426
 20
0.1944554013398454
 11
1.451592837036063
 21
0.1929628568098046
 72
     1
 10
1.451592837036062
 20
0.1929628568098046
 11
1.451965973168573
 21
0.1913770282466361
 72
     1
 10
1.451965973168574
 20
0.1913770282466361
 11
1.452245825267955
 21
0.1899777677497231
 72
     1
 10
1.452245825267954
 20
0.1899777677497231
 11
1.452432393334211
 21
0.188671791285937
 72
     1
 10
1.452432393334211
 20
0.1886717912859369
 11
1.452432393334211
 21
0.1874590988552789
 72
     1
 10
1.452432393334211
 20
0.1874590988552789
 11
1.452525677367338
 21
0.1863396904577482
 72
     1
 10
1.452525677367337
 20
0.1863396904577481
 11
1.452432393334211
 21
0.1844740097951972
 72
     1
 10
1.452432393334211
 20
0.1844740097951974
 11
1.452245825267955
 21
0.1827948971989012
 72
     1
 10
1.452245825267954
 20
0.1827948971989009
 11
1.451872689135445
 21
0.1810225005694773
 72
     1
 10
1.451872689135446
 20
0.1810225005694774
 11
1.451406268969809
 21
0.1794366720063093
 72
     1
 10
1.451406268969809
 20
0.1794366720063094
 11
1.450846564771043
 21
0.1779441274762682
 72
     1
 10
1.450846564771041
 20
0.1779441274762681
 11
1.450100292506021
 21
0.1764515829462274
 72
     1
 10
1.450100292506023
 20
0.1764515829462275
 11
1.449260736207875
 21
0.1750523224493141
 72
     1
 10
1.449260736207873
 20
0.1750523224493139
 11
1.448327895876597
 21
0.1737463459855283
 72
     1
 10
1.448327895876596
 20
0.1737463459855281
 11
1.44702191941281
 21
0.1723470854886151
 72
     1
 10
1.447021919412811
 20
0.1723470854886151
 11
1.445715942949025
 21
0.1711343930579568
 72
     1
 10
1.445715942949026
 20
0.1711343930579568
 11
1.444316682452114
 21
0.1700149846604262
 72
     1
 10
1.444316682452114
 20
0.1700149846604259
 11
1.442824137922072
 21
0.168988860296023
 72
     1
 10
1.442824137922072
 20
0.168988860296023
 11
1.441238309358904
 21
0.1682425880310024
 72
     1
 10
1.441238309358902
 20
0.1682425880310024
 11
1.439559196762608
 21
0.1674963157659821
 72
     1
 10
1.439559196762608
 20
0.1674963157659822
 11
1.437880084166311
 21
0.1669366115672166
 72
     1
 10
1.437880084166311
 20
0.1669366115672167
 11
1.436107687536888
 21
0.1664701914015788
 72
     1
 10
1.436107687536888
 20
0.1664701914015789
 11
1.434242006874337
 21
0.166003771235941
 72
     1
 10
1.434242006874337
 20
0.1660037712359412
 11
1.432376326211786
 21
0.1657239191365588
 72
     1
 10
1.432376326211785
 20
0.1657239191365585
 11
1.430417361516107
 21
0.1655373510703035
 72
     1
 10
1.430417361516108
 20
0.1655373510703037
 11
1.428458396820429
 21
0.1653507830040482
 72
     1
 10
1.428458396820428
 20
0.1653507830040482
 11
1.424353899362817
 21
0.1651642149377932
 72
     1
 10
1.424353899362817
 20
0.1651642149377932
 11
1.420156117872077
 21
0.1650709309046658
 72
     1
 10
1.420156117872076
 20
0.1650709309046659
 11
1.41773073301076
 21
0.1650709309046659
 72
     1
 10
1.417730733010761
 20
0.1650709309046659
 11
1.411107566658704
 21
0.1650709309046659
 72
     1
 10
1.411107566658702
 20
0.1650709309046659
 11
1.401779163345947
 21
0.1650709309046659
 72
     1
 10
1.401779163345949
 20
0.1650709309046659
 11
1.390958215503152
 21
0.1650709309046659
 72
     1
 10
1.390958215503152
 20
0.1650709309046659
 11
1.379950699594101
 21
0.1650709309046659
 72
     1
 10
1.379950699594099
 20
0.1650709309046659
 11
1.369969308049451
 21
0.1650709309046659
 72
     1
 10
1.369969308049451
 20
0.1650709309046659
 11
1.362320017332992
 21
0.1650709309046659
 72
     1
 10
1.362320017332992
 20
0.1650709309046659
 11
1.358402087941635
 21
0.1650709309046659
 97
        0
 92
        1
 93
      107
 72
     1
 10
1.443756978253348
 20
0.1485596570410883
 11
1.446928635379685
 21
0.1492126452729816
 72
     1
 10
1.446928635379685
 20
0.1492126452729817
 11
1.449540588307256
 21
0.1498656335048746
 72
     1
 10
1.449540588307256
 20
0.1498656335048745
 11
1.451872689135445
 21
0.1506119057698948
 72
     1
 10
1.451872689135446
 20
0.1506119057698946
 11
1.45401822189738
 21
0.1514514620680426
 72
     1
 10
1.45401822189738
 20
0.1514514620680425
 11
1.455883902559929
 21
0.1521977343330632
 72
     1
 10
1.455883902559929
 20
0.1521977343330631
 11
1.457563015156225
 21
0.1530372906312111
 72
     1
 10
1.457563015156225
 20
0.1530372906312111
 11
1.459148843719394
 21
0.1539701309624869
 72
     1
 10
1.459148843719394
 20
0.1539701309624866
 11
1.460641388249434
 21
0.1549029712937624
 72
     1
 10
1.460641388249434
 20
0.1549029712937622
 11
1.462133932779476
 21
0.155835811625038
 72
     1
 10
1.462133932779476
 20
0.155835811625038
 11
1.463439909243262
 21
0.1568619359894408
 72
     1
 10
1.463439909243262
 20
0.1568619359894408
 11
1.464745885707048
 21
0.1579813443869714
 72
     1
 10
1.464745885707047
 20
0.1579813443869716
 11
1.465865294104579
 21
0.1591007527845022
 72
     1
 10
1.465865294104579
 20
0.1591007527845025
 11
1.466984702502109
 21
0.1602201611820331
 72
     1
 10
1.466984702502108
 20
0.1602201611820328
 11
1.468010826866511
 21
0.1613395695795634
 72
     1
 10
1.468010826866511
 20
0.1613395695795637
 11
1.468943667197788
 21
0.1625522620102216
 72
     1
 10
1.468943667197788
 20
0.1625522620102216
 11
1.469876507529063
 21
0.1636716704077522
 72
     1
 10
1.469876507529063
 20
0.1636716704077524
 11
1.470622779794084
 21
0.1648843628384107
 72
     1
 10
1.470622779794084
 20
0.1648843628384107
 11
1.471462336092232
 21
0.1661903393021964
 72
     1
 10
1.471462336092232
 20
0.1661903393021967
 11
1.472115324324125
 21
0.1674030317328546
 72
     1
 10
1.472115324324124
 20
0.1674030317328546
 11
1.472768312556016
 21
0.1686157241635125
 72
     1
 10
1.472768312556017
 20
0.1686157241635125
 11
1.473328016754783
 21
0.1699217006272986
 72
     1
 10
1.473328016754782
 20
0.1699217006272989
 11
1.47379443692042
 21
0.1711343930579568
 72
     1
 10
1.47379443692042
 20
0.1711343930579568
 11
1.474260857086057
 21
0.1724403695217425
 72
     1
 10
1.474260857086058
 20
0.1724403695217424
 11
1.474727277251697
 21
0.1736530619524008
 72
     1
 10
1.474727277251697
 20
0.173653061952401
 11
1.475380265483589
 21
0.1760784468137175
 72
     1
 10
1.475380265483588
 20
0.1760784468137173
 11
1.475846685649225
 21
0.1785038316750338
 72
     1
 10
1.475846685649226
 20
0.1785038316750335
 11
1.476219821781737
 21
0.1808359325032223
 72
     1
 10
1.476219821781738
 20
0.1808359325032223
 11
1.47649967388112
 21
0.1830747492982838
 72
     1
 10
1.47649967388112
 20
0.1830747492982838
 11
1.476592957914248
 21
0.1851269980270901
 72
     1
 10
1.476592957914248
 20
0.1851269980270902
 11
1.476686241947374
 21
0.1870859627227688
 72
     1
 10
1.476686241947375
 20
0.1870859627227687
 11
1.476592957914249
 21
0.1888583593521923
 72
     1
 10
1.476592957914248
 20
0.1888583593521922
 11
1.476499673881119
 21
0.1906307559816158
 72
     1
 10
1.47649967388112
 20
0.1906307559816159
 11
1.476406389847991
 21
0.1924031526110394
 72
     1
 10
1.476406389847991
 20
0.1924031526110394
 11
1.476126537748608
 21
0.1940822652073352
 72
     1
 10
1.476126537748608
 20
0.1940822652073352
 11
1.475846685649226
 21
0.195761377803631
 72
     1
 10
1.475846685649226
 20
0.1957613778036309
 11
1.475566833549843
 21
0.1974404903999272
 72
     1
 10
1.475566833549843
 20
0.1974404903999272
 11
1.475100413384206
 21
0.1990263189630953
 72
     1
 10
1.475100413384205
 20
0.1990263189630952
 11
1.474633993218568
 21
0.2006121475262637
 72
     1
 10
1.474633993218568
 20
0.2006121475262639
 11
1.47416757305293
 21
0.2021046920563051
 72
     1
 10
1.474167573052932
 20
0.2021046920563049
 11
1.473514584821038
 21
0.2035972365863457
 72
     1
 10
1.473514584821037
 20
0.2035972365863459
 11
1.472954880622271
 21
0.2050897811163867
 72
     1
 10
1.472954880622272
 20
0.2050897811163866
 11
1.472208608357252
 21
0.2064890416133
 72
     1
 10
1.472208608357252
 20
0.2064890416133001
 11
1.471462336092232
 21
0.2078883021102135
 72
     1
 10
1.471462336092232
 20
0.2078883021102136
 11
1.470622779794083
 21
0.2091942785739993
 72
     1
 10
1.470622779794084
 20
0.2091942785739991
 11
1.469783223495935
 21
0.2105002550377848
 72
     1
 10
1.469783223495934
 20
0.2105002550377851
 11
1.468850383164659
 21
0.2118062315015707
 72
     1
 10
1.468850383164661
 20
0.2118062315015709
 11
1.467917542833386
 21
0.2130189239322288
 72
     1
 10
1.467917542833385
 20
0.2130189239322289
 11
1.466891418468982
 21
0.2141383323297595
 72
     1
 10
1.466891418468982
 20
0.2141383323297595
 11
1.465772010071451
 21
0.2153510247604178
 72
     1
 10
1.46577201007145
 20
0.215351024760418
 11
1.464652601673919
 21
0.2163771491248209
 72
     1
 10
1.46465260167392
 20
0.2163771491248209
 11
1.463533193276389
 21
0.2174032734892238
 72
     1
 10
1.463533193276389
 20
0.2174032734892238
 11
1.462227216812603
 21
0.2184293978536266
 72
     1
 10
1.462227216812602
 20
0.2184293978536266
 11
1.461014524381945
 21
0.2193622381849024
 72
     1
 10
1.461014524381946
 20
0.2193622381849023
 11
1.459615263885032
 21
0.2202950785161781
 72
     1
 10
1.459615263885031
 20
0.2202950785161782
 11
1.458309287421245
 21
0.2211346348143262
 72
     1
 10
1.458309287421246
 20
0.221134634814326
 11
1.456816742891206
 21
0.221974191112474
 72
     1
 10
1.456816742891206
 20
0.2219741911124738
 11
1.455417482394292
 21
0.2227204633774945
 72
     1
 10
1.455417482394291
 20
0.2227204633774944
 11
1.453831653831122
 21
0.2233734516093874
 72
     1
 10
1.453831653831123
 20
0.2233734516093873
 11
1.452339109301082
 21
0.2240264398412803
 72
     1
 10
1.452339109301082
 20
0.2240264398412803
 11
1.450659996704785
 21
0.2245861440400459
 72
     1
 10
1.450659996704787
 20
0.2245861440400457
 11
1.44907416814162
 21
0.2251458482388108
 72
     1
 10
1.449074168141619
 20
0.2251458482388109
 11
1.447301771512194
 21
0.2256122684044489
 72
     1
 10
1.447301771512194
 20
0.2256122684044488
 11
1.445249522783388
 21
0.2261719726032139
 72
     1
 10
1.445249522783388
 20
0.226171972603214
 11
1.44329055808771
 21
0.2265451087357246
 72
     1
 10
1.443290558087712
 20
0.2265451087357244
 11
1.441145025325778
 21
0.2269182448682345
 72
     1
 10
1.441145025325776
 20
0.2269182448682345
 11
1.438906208530714
 21
0.2271980969676173
 72
     1
 10
1.438906208530714
 20
0.2271980969676173
 11
1.436387539636271
 21
0.2273846650338724
 72
     1
 10
1.436387539636271
 20
0.2273846650338724
 11
1.433495734609316
 21
0.2275712331001274
 72
     1
 10
1.433495734609317
 20
0.2275712331001274
 11
1.430044225383597
 21
0.2276645171332552
 72
     1
 10
1.430044225383597
 20
0.2276645171332549
 11
1.42612629599224
 21
0.2277578011663822
 72
     1
 10
1.42612629599224
 20
0.2277578011663825
 11
1.426033011959112
 21
0.2277578011663825
 72
     1
 10
1.426033011959111
 20
0.2277578011663825
 11
1.33489451159349
 21
0.2277578011663825
 72
     1
 10
1.334894511593491
 20
0.2277578011663825
 11
1.334894511593491
 21
0.0926825211976832
 72
     1
 10
1.334894511593491
 20
0.0926825211976832
 11
1.358588656007891
 21
0.0926825211976832
 72
     1
 10
1.358588656007891
 20
0.0926825211976832
 11
1.358588656007891
 21
0.0947347699264896
 72
     1
 10
1.358588656007891
 20
0.0947347699264896
 11
1.358588656007891
 21
0.1001452438478876
 72
     1
 10
1.358588656007891
 20
0.1001452438478875
 11
1.358588656007891
 21
0.1079811026306024
 72
     1
 10
1.358588656007891
 20
0.1079811026306024
 11
1.358588656007891
 21
0.1170296538439752
 72
     1
 10
1.358588656007891
 20
0.1170296538439753
 11
1.358588656007891
 21
0.1262647731236032
 72
     1
 10
1.358588656007891
 20
0.1262647731236031
 11
1.358588656007891
 21
0.1347536201382103
 72
     1
 10
1.358588656007891
 20
0.1347536201382104
 11
1.358588656007891
 21
0.1412835024571394
 72
     1
 10
1.358588656007891
 20
0.1412835024571393
 11
1.358588656007891
 21
0.1448282957159864
 72
     1
 10
1.358588656007891
 20
0.1448282957159865
 11
1.362320017332992
 21
0.1448282957159865
 72
     1
 10
1.362320017332992
 20
0.1448282957159865
 11
1.369409603850688
 21
0.1448282957159865
 72
     1
 10
1.369409603850688
 20
0.1448282957159865
 11
1.378738007163443
 21
0.1448282957159865
 72
     1
 10
1.378738007163443
 20
0.1448282957159865
 11
1.388999250807475
 21
0.1448282957159865
 72
     1
 10
1.388999250807473
 20
0.1448282957159865
 11
1.399260494451505
 21
0.1448282957159865
 72
     1
 10
1.399260494451506
 20
0.1448282957159865
 11
1.408215761631749
 21
0.1448282957159865
 72
     1
 10
1.408215761631748
 20
0.1448282957159865
 11
1.414745643950677
 21
0.1448282957159865
 72
     1
 10
1.414745643950678
 20
0.1448282957159865
 11
1.41773073301076
 21
0.1448282957159865
 72
     1
 10
1.417730733010761
 20
0.1448282957159865
 11
1.420062833838949
 21
0.1420297747221594
 72
     1
 10
1.420062833838949
 20
0.1420297747221597
 11
1.425193455660966
 21
0.1359663125688683
 72
     1
 10
1.425193455660965
 20
0.1359663125688683
 11
1.432283042178659
 21
0.1275707495873888
 72
     1
 10
1.432283042178659
 20
0.1275707495873886
 11
1.440305469027628
 21
0.1180557782083779
 72
     1
 10
1.440305469027629
 20
0.1180557782083781
 11
1.448234611843471
 21
0.1087273748956225
 72
     1
 10
1.448234611843471
 20
0.1087273748956225
 11
1.455044346261782
 21
0.1006116640135252
 72
     1
 10
1.455044346261782
 20
0.1006116640135252
 11
1.459895115984414
 21
0.0948280539596167
 72
     1
 10
1.459895115984414
 20
0.0948280539596169
 11
1.461760796646965
 21
0.0926825211976832
 72
     1
 10
1.461760796646967
 20
0.0926825211976832
 11
1.49254452757906
 21
0.0926825211976832
 72
     1
 10
1.492544527579059
 20
0.0926825211976832
 11
1.490678846916508
 21
0.0948280539596169
 72
     1
 10
1.490678846916508
 20
0.0948280539596169
 11
1.48564150912762
 21
0.100518379980398
 72
     1
 10
1.48564150912762
 20
0.1005183799803981
 11
1.478458638576797
 21
0.1088206589287502
 72
     1
 10
1.478458638576798
 20
0.1088206589287502
 11
1.470063075595318
 21
0.1183356303077609
 72
     1
 10
1.470063075595317
 20
0.118335630307761
 11
1.461480944547582
 21
0.1282237378192818
 72
     1
 10
1.461480944547582
 20
0.1282237378192818
 11
1.453551801731739
 21
0.1372722890326546
 72
     1
 10
1.45355180173174
 20
0.1372722890326546
 11
1.447395055545323
 21
0.1444551595834761
 72
     1
 10
1.447395055545323
 20
0.1444551595834759
 11
1.443756978253349
 21
0.1485596570410882
 97
        0
 75
     0
 76
     1
 98
        1
 10
-0.3743130907707726
 20
-0.2500502867693841
1001
ACAD
1010
0.0
1020
0.0
1030
0.0
  0
HATCH
  5
67CC
330
67C7
100
AcDbEntity
  8
Kawneer Logo-English
100
AcDbHatch
 10
0.0
 20
0.0
 30
0.0
210
0.0
220
0.0
230
1.0
  2
SOLID
 70
     1
 71
     0
 91
        1
 92
        1
 93
       87
 72
     1
 10
1.205602841678699
 20
0.1525708704655737
 11
1.207468522341251
 21
0.1525708704655737
 72
     1
 10
1.207468522341252
 20
0.1525708704655737
 11
1.211199883666355
 21
0.1525708704655737
 72
     1
 10
1.211199883666355
 20
0.1525708704655737
 11
1.216517073554626
 21
0.1525708704655737
 72
     1
 10
1.216517073554626
 20
0.1525708704655737
 11
1.223046955873555
 21
0.1525708704655737
 72
     1
 10
1.223046955873553
 20
0.1525708704655737
 11
1.230602962556885
 21
0.1525708704655737
 72
     1
 10
1.230602962556885
 20
0.1525708704655737
 11
1.238998525538365
 21
0.1525708704655737
 72
     1
 10
1.238998525538365
 20
0.1525708704655737
 11
1.247767224652354
 21
0.1525708704655737
 72
     1
 10
1.247767224652355
 20
0.1525708704655737
 11
1.256815775865728
 21
0.1525708704655737
 72
     1
 10
1.256815775865729
 20
0.1525708704655737
 11
1.265771043045974
 21
0.1525708704655737
 72
     1
 10
1.265771043045973
 20
0.1525708704655737
 11
1.274446458126836
 21
0.1525708704655737
 72
     1
 10
1.274446458126837
 20
0.1525708704655737
 11
1.282562169008935
 21
0.1525708704655737
 72
     1
 10
1.282562169008935
 20
0.1525708704655737
 11
1.289745039559756
 21
0.1525708704655737
 72
     1
 10
1.289745039559755
 20
0.1525708704655737
 11
1.295808501713046
 21
0.1525708704655737
 72
     1
 10
1.295808501713046
 20
0.1525708704655737
 11
1.300472703369423
 21
0.1525708704655737
 72
     1
 10
1.300472703369423
 20
0.1525708704655737
 11
1.303457792429505
 21
0.1525708704655737
 72
     1
 10
1.303457792429505
 20
0.1525708704655737
 11
1.304483916793908
 21
0.1525708704655737
 72
     1
 10
1.304483916793908
 20
0.1525708704655737
 11
1.304483916793908
 21
0.1730000737205081
 72
     1
 10
1.304483916793908
 20
0.1730000737205078
 11
1.303457792429505
 21
0.1730000737205078
 72
     1
 10
1.303457792429505
 20
0.1730000737205078
 11
1.300472703369423
 21
0.1730000737205078
 72
     1
 10
1.300472703369423
 20
0.1730000737205078
 11
1.295808501713045
 21
0.1730000737205078
 72
     1
 10
1.295808501713046
 20
0.1730000737205078
 11
1.289745039559754
 21
0.1730000737205078
 72
     1
 10
1.289745039559755
 20
0.1730000737205078
 11
1.282562169008934
 21
0.1730000737205078
 72
     1
 10
1.282562169008935
 20
0.1730000737205078
 11
1.274446458126837
 21
0.1730000737205078
 72
     1
 10
1.274446458126837
 20
0.1730000737205078
 11
1.265771043045975
 21
0.1730000737205078
 72
     1
 10
1.265771043045973
 20
0.1730000737205078
 11
1.256815775865728
 21
0.1730000737205078
 72
     1
 10
1.256815775865729
 20
0.1730000737205078
 11
1.247767224652355
 21
0.1730000737205078
 72
     1
 10
1.247767224652355
 20
0.1730000737205078
 11
1.238998525538365
 21
0.1730000737205078
 72
     1
 10
1.238998525538365
 20
0.1730000737205078
 11
1.230602962556885
 21
0.1730000737205078
 72
     1
 10
1.230602962556885
 20
0.1730000737205078
 11
1.223046955873553
 21
0.1730000737205078
 72
     1
 10
1.223046955873553
 20
0.1730000737205078
 11
1.216517073554625
 21
0.1730000737205078
 72
     1
 10
1.216517073554626
 20
0.1730000737205078
 11
1.211199883666355
 21
0.1730000737205078
 72
     1
 10
1.211199883666355
 20
0.1730000737205078
 11
1.207468522341252
 21
0.1730000737205078
 72
     1
 10
1.207468522341252
 20
0.1730000737205078
 11
1.205602841678701
 21
0.1730000737205078
 72
     1
 10
1.205602841678699
 20
0.1730000737205078
 11
1.205602841678699
 21
0.1754254585818243
 72
     1
 10
1.205602841678699
 20
0.1754254585818245
 11
1.205602841678699
 21
0.1794366720063095
 72
     1
 10
1.205602841678699
 20
0.1794366720063094
 11
1.205602841678699
 21
0.1843807257620694
 72
     1
 10
1.205602841678699
 20
0.1843807257620694
 11
1.205602841678699
 21
0.1898844837165951
 72
     1
 10
1.205602841678699
 20
0.1898844837165951
 11
1.205602841678699
 21
0.1952949576379935
 72
     1
 10
1.205602841678699
 20
0.1952949576379937
 11
1.205602841678699
 21
0.2003322954268815
 72
     1
 10
1.205602841678699
 20
0.2003322954268814
 11
1.205602841678699
 21
0.2042502248182386
 72
     1
 10
1.205602841678699
 20
0.2042502248182386
 11
1.205602841678699
 21
0.206675609679555
 72
     1
 10
1.205602841678699
 20
0.206675609679555
 11
1.207468522341251
 21
0.206675609679555
 72
     1
 10
1.207468522341252
 20
0.206675609679555
 11
1.211293167699483
 21
0.206675609679555
 72
     1
 10
1.211293167699483
 20
0.206675609679555
 11
1.21670364162088
 21
0.206675609679555
 72
     1
 10
1.216703641620879
 20
0.206675609679555
 11
1.223420092006063
 21
0.206675609679555
 72
     1
 10
1.223420092006064
 20
0.206675609679555
 11
1.231255950788778
 21
0.206675609679555
 72
     1
 10
1.231255950788778
 20
0.206675609679555
 11
1.239744797803386
 21
0.206675609679555
 72
     1
 10
1.239744797803385
 20
0.206675609679555
 11
1.248886633049885
 21
0.206675609679555
 72
     1
 10
1.248886633049885
 20
0.206675609679555
 11
1.258121752329513
 21
0.206675609679555
 72
     1
 10
1.258121752329514
 20
0.206675609679555
 11
1.267356871609143
 21
0.206675609679555
 72
     1
 10
1.267356871609142
 20
0.206675609679555
 11
1.276218854756259
 21
0.206675609679555
 72
     1
 10
1.276218854756259
 20
0.206675609679555
 11
1.284521133704611
 21
0.206675609679555
 72
     1
 10
1.284521133704611
 20
0.206675609679555
 11
1.291890572321688
 21
0.206675609679555
 72
     1
 10
1.291890572321688
 20
0.206675609679555
 11
1.298140602541234
 21
0.206675609679555
 72
     1
 10
1.298140602541234
 20
0.206675609679555
 11
1.30289808823074
 21
0.206675609679555
 72
     1
 10
1.30289808823074
 20
0.206675609679555
 11
1.305976461323949
 21
0.206675609679555
 72
     1
 10
1.305976461323949
 20
0.206675609679555
 11
1.30709586972148
 21
0.206675609679555
 72
     1
 10
1.307095869721479
 20
0.206675609679555
 11
1.307095869721479
 21
0.2277578011663822
 72
     1
 10
1.307095869721479
 20
0.2277578011663825
 11
1.304577200827036
 21
0.2277578011663825
 72
     1
 10
1.304577200827037
 20
0.2277578011663825
 11
1.182188549363684
 21
0.2277578011663825
 72
     1
 10
1.182188549363684
 20
0.2277578011663825
 11
1.182188549363684
 21
0.0926825211976832
 72
     1
 10
1.182188549363684
 20
0.0926825211976832
 11
1.311853355410986
 21
0.0926825211976832
 72
     1
 10
1.311853355410985
 20
0.0926825211976832
 11
1.311853355410985
 21
0.113671428651383
 72
     1
 10
1.311853355410985
 20
0.1136714286513832
 11
1.310733947013454
 21
0.1136714286513832
 72
     1
 10
1.310733947013455
 20
0.1136714286513832
 11
1.307469005853991
 21
0.1136714286513832
 72
     1
 10
1.307469005853991
 20
0.1136714286513832
 11
1.302431668065102
 21
0.1136714286513832
 72
     1
 10
1.302431668065103
 20
0.1136714286513832
 11
1.295901785746174
 21
0.1136714286513832
 72
     1
 10
1.295901785746174
 20
0.1136714286513832
 11
1.288159210996586
 21
0.1136714286513832
 72
     1
 10
1.288159210996587
 20
0.1136714286513832
 11
1.279483795915724
 21
0.1136714286513832
 72
     1
 10
1.279483795915723
 20
0.1136714286513832
 11
1.270155392602968
 21
0.1136714286513832
 72
     1
 10
1.270155392602969
 20
0.1136714286513832
 11
1.260547137190832
 21
0.1136714286513832
 72
     1
 10
1.260547137190831
 20
0.1136714286513832
 11
1.250752313712437
 21
0.1136714286513832
 72
     1
 10
1.250752313712437
 20
0.1136714286513832
 11
1.241330626366554
 21
0.1136714286513832
 72
     1
 10
1.241330626366555
 20
0.1136714286513832
 11
1.23237535918631
 21
0.1136714286513832
 72
     1
 10
1.232375359186308
 20
0.1136714286513832
 11
1.224166364271082
 21
0.1136714286513832
 72
     1
 10
1.224166364271083
 20
0.1136714286513832
 11
1.217170061786517
 21
0.1136714286513832
 72
     1
 10
1.217170061786517
 20
0.1136714286513832
 11
1.211479735765737
 21
0.1136714286513832
 72
     1
 10
1.211479735765737
 20
0.1136714286513832
 11
1.20756180637438
 21
0.1136714286513832
 72
     1
 10
1.207561806374379
 20
0.1136714286513832
 11
1.2056028416787
 21
0.1136714286513832
 72
     1
 10
1.205602841678699
 20
0.1136714286513832
 11
1.205602841678699
 21
0.1163766656120825
 72
     1
 10
1.205602841678699
 20
0.1163766656120823
 11
1.205602841678699
 21
0.1209475832353323
 72
     1
 10
1.205602841678699
 20
0.1209475832353325
 11
1.205602841678699
 21
0.1267311932892411
 72
     1
 10
1.205602841678699
 20
0.1267311932892408
 11
1.205602841678699
 21
0.1330745075419143
 72
     1
 10
1.205602841678699
 20
0.1330745075419144
 11
1.205602841678699
 21
0.1395111058277156
 72
     1
 10
1.205602841678699
 20
0.1395111058277158
 11
1.205602841678699
 21
0.1452947158816239
 72
     1
 10
1.205602841678699
 20
0.145294715881624
 11
1.205602841678699
 21
0.1498656335048746
 72
     1
 10
1.205602841678699
 20
0.1498656335048745
 11
1.205602841678699
 21
0.1525708704655738
 97
        0
 75
     0
 76
     1
 98
        1
 10
-0.3743130907707726
 20
-0.2500502867693841
1001
ACAD
1010
0.0
1020
0.0
1030
0.0
  0
HATCH
  5
67CD
330
67C7
100
AcDbEntity
  8
Kawneer Logo-English
100
AcDbHatch
 10
0.0
 20
0.0
 30
0.0
210
0.0
220
0.0
230
1.0
  2
SOLID
 70
     1
 71
     0
 91
        1
 92
        1
 93
       87
 72
     1
 10
1.049352086190046
 20
0.1525708704655737
 11
1.051217766852597
 21
0.1525708704655737
 72
     1
 10
1.051217766852596
 20
0.1525708704655737
 11
1.054949128177699
 21
0.1525708704655737
 72
     1
 10
1.0549491281777
 20
0.1525708704655737
 11
1.060173034032843
 21
0.1525708704655737
 72
     1
 10
1.060173034032843
 20
0.1525708704655737
 11
1.0667962003849
 21
0.1525708704655737
 72
     1
 10
1.0667962003849
 20
0.1525708704655737
 11
1.074352207068231
 21
0.1525708704655737
 72
     1
 10
1.074352207068232
 20
0.1525708704655737
 11
1.082747770049711
 21
0.1525708704655737
 72
     1
 10
1.082747770049711
 20
0.1525708704655737
 11
1.0915164691637
 21
0.1525708704655737
 72
     1
 10
1.091516469163701
 20
0.1525708704655737
 11
1.100565020377075
 21
0.1525708704655737
 72
     1
 10
1.100565020377073
 20
0.1525708704655737
 11
1.109520287557319
 21
0.1525708704655737
 72
     1
 10
1.10952028755732
 20
0.1525708704655737
 11
1.118195702638183
 21
0.1525708704655737
 72
     1
 10
1.118195702638182
 20
0.1525708704655737
 11
1.126218129487151
 21
0.1525708704655737
 72
     1
 10
1.126218129487152
 20
0.1525708704655737
 11
1.133401000037974
 21
0.1525708704655737
 72
     1
 10
1.133401000037974
 20
0.1525708704655737
 11
1.139557746224391
 21
0.1525708704655737
 72
     1
 10
1.139557746224392
 20
0.1525708704655737
 11
1.14422194788077
 21
0.1525708704655737
 72
     1
 10
1.144221947880769
 20
0.1525708704655737
 11
1.147207036940851
 21
0.1525708704655737
 72
     1
 10
1.147207036940852
 20
0.1525708704655737
 11
1.148233161305255
 21
0.1525708704655737
 72
     1
 10
1.148233161305255
 20
0.1525708704655737
 11
1.148233161305255
 21
0.1730000737205081
 72
     1
 10
1.148233161305255
 20
0.1730000737205078
 11
1.147207036940852
 21
0.1730000737205078
 72
     1
 10
1.147207036940852
 20
0.1730000737205078
 11
1.14422194788077
 21
0.1730000737205078
 72
     1
 10
1.144221947880769
 20
0.1730000737205078
 11
1.139557746224391
 21
0.1730000737205078
 72
     1
 10
1.139557746224392
 20
0.1730000737205078
 11
1.133494284071101
 21
0.1730000737205078
 72
     1
 10
1.133494284071101
 20
0.1730000737205078
 11
1.126218129487152
 21
0.1730000737205078
 72
     1
 10
1.126218129487152
 20
0.1730000737205078
 11
1.118195702638183
 21
0.1730000737205078
 72
     1
 10
1.118195702638182
 20
0.1730000737205078
 11
1.10952028755732
 21
0.1730000737205078
 72
     1
 10
1.10952028755732
 20
0.1730000737205078
 11
1.100565020377074
 21
0.1730000737205078
 72
     1
 10
1.100565020377073
 20
0.1730000737205078
 11
1.0915164691637
 21
0.1730000737205078
 72
     1
 10
1.091516469163701
 20
0.1730000737205078
 11
1.082747770049712
 21
0.1730000737205078
 72
     1
 10
1.082747770049711
 20
0.1730000737205078
 11
1.074352207068231
 21
0.1730000737205078
 72
     1
 10
1.074352207068232
 20
0.1730000737205078
 11
1.0667962003849
 21
0.1730000737205078
 72
     1
 10
1.0667962003849
 20
0.1730000737205078
 11
1.060173034032843
 21
0.1730000737205078
 72
     1
 10
1.060173034032843
 20
0.1730000737205078
 11
1.054949128177701
 21
0.1730000737205078
 72
     1
 10
1.0549491281777
 20
0.1730000737205078
 11
1.051217766852597
 21
0.1730000737205078
 72
     1
 10
1.051217766852596
 20
0.1730000737205078
 11
1.049352086190045
 21
0.1730000737205078
 72
     1
 10
1.049352086190046
 20
0.1730000737205078
 11
1.049352086190046
 21
0.1754254585818243
 72
     1
 10
1.049352086190046
 20
0.1754254585818245
 11
1.049352086190046
 21
0.1794366720063095
 72
     1
 10
1.049352086190046
 20
0.1794366720063094
 11
1.049352086190046
 21
0.1843807257620694
 72
     1
 10
1.049352086190046
 20
0.1843807257620694
 11
1.049352086190046
 21
0.1898844837165951
 72
     1
 10
1.049352086190046
 20
0.1898844837165951
 11
1.049352086190046
 21
0.1952949576379935
 72
     1
 10
1.049352086190046
 20
0.1952949576379937
 11
1.049352086190046
 21
0.2003322954268815
 72
     1
 10
1.049352086190046
 20
0.2003322954268814
 11
1.049352086190046
 21
0.2042502248182386
 72
     1
 10
1.049352086190046
 20
0.2042502248182386
 11
1.049352086190046
 21
0.206675609679555
 72
     1
 10
1.049352086190046
 20
0.206675609679555
 11
1.051217766852597
 21
0.206675609679555
 72
     1
 10
1.051217766852596
 20
0.206675609679555
 11
1.055042412210825
 21
0.206675609679555
 72
     1
 10
1.055042412210827
 20
0.206675609679555
 11
1.060452886132226
 21
0.206675609679555
 72
     1
 10
1.060452886132225
 20
0.206675609679555
 11
1.067169336517409
 21
0.206675609679555
 72
     1
 10
1.06716933651741
 20
0.206675609679555
 11
1.075005195300124
 21
0.206675609679555
 72
     1
 10
1.075005195300123
 20
0.206675609679555
 11
1.083494042314731
 21
0.206675609679555
 72
     1
 10
1.083494042314732
 20
0.206675609679555
 11
1.092542593528105
 21
0.206675609679555
 72
     1
 10
1.092542593528106
 20
0.206675609679555
 11
1.10187099684086
 21
0.206675609679555
 72
     1
 10
1.101870996840861
 20
0.206675609679555
 11
1.111106116120489
 21
0.206675609679555
 72
     1
 10
1.111106116120488
 20
0.206675609679555
 11
1.119968099267605
 21
0.206675609679555
 72
     1
 10
1.119968099267605
 20
0.206675609679555
 11
1.128270378215957
 21
0.206675609679555
 72
     1
 10
1.128270378215957
 20
0.206675609679555
 11
1.135639816833034
 21
0.206675609679555
 72
     1
 10
1.135639816833034
 20
0.206675609679555
 11
1.14188984705258
 21
0.206675609679555
 72
     1
 10
1.141889847052581
 20
0.206675609679555
 11
1.146647332742086
 21
0.206675609679555
 72
     1
 10
1.146647332742086
 20
0.206675609679555
 11
1.149725705835295
 21
0.206675609679555
 72
     1
 10
1.149725705835296
 20
0.206675609679555
 11
1.150845114232827
 21
0.206675609679555
 72
     1
 10
1.150845114232826
 20
0.206675609679555
 11
1.150845114232826
 21
0.2277578011663822
 72
     1
 10
1.150845114232826
 20
0.2277578011663825
 11
1.148326445338383
 21
0.2277578011663825
 72
     1
 10
1.148326445338383
 20
0.2277578011663825
 11
1.025937793875031
 21
0.2277578011663825
 72
     1
 10
1.025937793875032
 20
0.2277578011663825
 11
1.025937793875032
 21
0.0926825211976832
 72
     1
 10
1.025937793875032
 20
0.0926825211976832
 11
1.155602599922332
 21
0.0926825211976832
 72
     1
 10
1.155602599922332
 20
0.0926825211976832
 11
1.155602599922332
 21
0.113671428651383
 72
     1
 10
1.155602599922332
 20
0.1136714286513832
 11
1.154483191524801
 21
0.1136714286513832
 72
     1
 10
1.154483191524799
 20
0.1136714286513832
 11
1.151218250365336
 21
0.1136714286513832
 72
     1
 10
1.151218250365338
 20
0.1136714286513832
 11
1.146180912576449
 21
0.1136714286513832
 72
     1
 10
1.146180912576449
 20
0.1136714286513832
 11
1.13965103025752
 21
0.1136714286513832
 72
     1
 10
1.13965103025752
 20
0.1136714286513832
 11
1.131908455507932
 21
0.1136714286513832
 72
     1
 10
1.131908455507931
 20
0.1136714286513832
 11
1.12323304042707
 21
0.1136714286513832
 72
     1
 10
1.123233040427071
 20
0.1136714286513832
 11
1.113904637114314
 21
0.1136714286513832
 72
     1
 10
1.113904637114314
 20
0.1136714286513832
 11
1.104296381702177
 21
0.1136714286513832
 72
     1
 10
1.104296381702177
 20
0.1136714286513832
 11
1.094501558223783
 21
0.1136714286513832
 72
     1
 10
1.094501558223784
 20
0.1136714286513832
 11
1.085079870877901
 21
0.1136714286513832
 72
     1
 10
1.085079870877899
 20
0.1136714286513832
 11
1.076124603697654
 21
0.1136714286513832
 72
     1
 10
1.076124603697655
 20
0.1136714286513832
 11
1.067915608782429
 21
0.1136714286513832
 72
     1
 10
1.067915608782429
 20
0.1136714286513832
 11
1.060919306297863
 21
0.1136714286513832
 72
     1
 10
1.060919306297863
 20
0.1136714286513832
 11
1.055228980277083
 21
0.1136714286513832
 72
     1
 10
1.055228980277082
 20
0.1136714286513832
 11
1.051311050885725
 21
0.1136714286513832
 72
     1
 10
1.051311050885726
 20
0.1136714286513832
 11
1.049352086190046
 21
0.1136714286513832
 72
     1
 10
1.049352086190046
 20
0.1136714286513832
 11
1.049352086190046
 21
0.1163766656120825
 72
     1
 10
1.049352086190046
 20
0.1163766656120823
 11
1.049352086190046
 21
0.1209475832353323
 72
     1
 10
1.049352086190046
 20
0.1209475832353325
 11
1.049352086190046
 21
0.1267311932892411
 72
     1
 10
1.049352086190046
 20
0.1267311932892408
 11
1.049352086190046
 21
0.1330745075419143
 72
     1
 10
1.049352086190046
 20
0.1330745075419144
 11
1.049352086190046
 21
0.1395111058277156
 72
     1
 10
1.049352086190046
 20
0.1395111058277158
 11
1.049352086190046
 21
0.1452947158816239
 72
     1
 10
1.049352086190046
 20
0.145294715881624
 11
1.049352086190046
 21
0.1498656335048746
 72
     1
 10
1.049352086190046
 20
0.1498656335048745
 11
1.049352086190046
 21
0.1525708704655738
 97
        0
 75
     0
 76
     1
 98
        1
 10
-0.3743130907707726
 20
-0.2500502867693841
1001
ACAD
1010
0.0
1020
0.0
1030
0.0
  0
HATCH
  5
67CE
330
67C7
100
AcDbEntity
  8
Kawneer Logo-English
100
AcDbHatch
 10
0.0
 20
0.0
 30
0.0
210
0.0
220
0.0
230
1.0
  2
SOLID
 70
     1
 71
     0
 91
        1
 92
        1
 93
       42
 72
     1
 10
0.9725793269260698
 20
0.2277578011663825
 11
0.9725793269260698
 21
0.1354998924032311
 72
     1
 10
0.9725793269260698
 20
0.1354998924032311
 11
0.9729524630585808
 21
0.1264513411898582
 72
     1
 10
0.9729524630585796
 20
0.1264513411898583
 11
0.9729524630585796
 21
0.1255185008585825
 72
     1
 10
0.9729524630585796
 20
0.1255185008585824
 11
0.9731390311248343
 21
0.1238393882622866
 72
     1
 10
0.9731390311248349
 20
0.1238393882622866
 11
0.9717397706279211
 21
0.1254252168254551
 72
     1
 10
0.97173977062792
 20
0.1254252168254551
 11
0.9710867823960281
 21
0.1262647731236031
 72
     1
 10
0.9710867823960294
 20
0.1262647731236031
 11
0.9641837639445897
 21
0.1339140638400625
 72
     1
 10
0.9641837639445899
 20
0.1339140638400624
 11
0.8755639324734129
 21
0.2277578011663823
 72
     1
 10
0.8755639324734115
 20
0.2277578011663825
 11
0.8529891964565429
 21
0.2277578011663825
 72
     1
 10
0.8529891964565434
 20
0.2277578011663825
 11
0.8529891964565434
 21
0.0926825211976832
 72
     1
 10
0.8529891964565434
 20
0.0926825211976832
 11
0.8756572165065401
 21
0.0926825211976832
 72
     1
 10
0.875657216506541
 20
0.0926825211976832
 11
0.875657216506541
 21
0.1927762887435495
 72
     1
 10
0.875657216506541
 20
0.1927762887435495
 11
0.875657216506541
 21
0.1931494248760597
 72
     1
 10
0.875657216506541
 20
0.1931494248760596
 11
0.8755639324734129
 21
0.193988981174208
 72
     1
 10
0.8755639324734115
 20
0.1939889811742079
 11
0.8754706484402849
 21
0.1952949576379935
 72
     1
 10
0.8754706484402859
 20
0.1952949576379937
 11
0.8753773644071577
 21
0.1967875021680344
 72
     1
 10
0.875377364407158
 20
0.1967875021680343
 11
0.8755639324734126
 21
0.1965076500686515
 72
     1
 10
0.8755639324734115
 20
0.1965076500686517
 11
0.8756572165065396
 21
0.1963210820023967
 72
     1
 10
0.875657216506541
 20
0.1963210820023967
 11
0.8764967728046894
 21
0.1954815257042487
 72
     1
 10
0.8764967728046887
 20
0.1954815257042488
 11
0.8781758854009835
 21
0.1936158450416976
 72
     1
 10
0.8781758854009842
 20
0.1936158450416973
 11
0.8797617139641527
 21
0.1917501643791464
 72
     1
 10
0.879761713964152
 20
0.1917501643791466
 11
0.8805079862291723
 21
0.1909106080809982
 72
     1
 10
0.8805079862291727
 20
0.190910608080998
 11
0.8816273946267036
 21
0.1897911996834678
 72
     1
 10
0.8816273946267028
 20
0.1897911996834681
 11
0.884519199653657
 21
0.1867128265902584
 72
     1
 10
0.8845191996536581
 20
0.1867128265902582
 11
0.8891834013100353
 21
0.1818620568676254
 72
     1
 10
0.889183401310035
 20
0.1818620568676252
 11
0.8951535794301982
 21
0.1756120266480794
 72
     1
 10
0.8951535794301985
 20
0.1756120266480794
 11
0.9021498819147662
 21
0.1681493039978751
 72
     1
 10
0.9021498819147669
 20
0.1681493039978752
 11
0.9099857406974814
 21
0.1598470250495227
 72
     1
 10
0.9099857406974813
 20
0.1598470250495225
 11
0.9183813036789613
 21
0.1509850419024051
 72
     1
 10
0.9183813036789612
 20
0.1509850419024052
 11
0.9271500027929521
 21
0.1418432066559046
 72
     1
 10
0.9271500027929509
 20
0.1418432066559046
 11
0.9358254178738118
 21
0.1326080873762767
 72
     1
 10
0.9358254178738132
 20
0.1326080873762767
 11
0.9442209808552931
 21
0.1237461042291589
 72
     1
 10
0.9442209808552931
 20
0.1237461042291589
 11
0.9520568396380092
 21
0.1154438252808068
 72
     1
 10
0.9520568396380092
 20
0.1154438252808068
 11
0.9590531421225751
 21
0.1079811026306025
 72
     1
 10
0.959053142122574
 20
0.1079811026306024
 11
0.9650233202427372
 21
0.101731072411056
 72
     1
 10
0.9650233202427376
 20
0.101731072411056
 11
0.9695942378659868
 21
0.0968803026884232
 72
     1
 10
0.9695942378659871
 20
0.096880302688423
 11
0.9725793269260696
 21
0.0938019295952138
 72
     1
 10
0.9725793269260698
 20
0.093801929595214
 11
0.9736054512904727
 21
0.0926825211976834
 72
     1
 10
0.9736054512904726
 20
0.0926825211976832
 11
0.9952473469760661
 21
0.0926825211976832
 72
     1
 10
0.9952473469760651
 20
0.0926825211976832
 11
0.9952473469760651
 21
0.2277578011663825
 72
     1
 10
0.9952473469760651
 20
0.2277578011663825
 11
0.9927286780816201
 21
0.2277578011663825
 72
     1
 10
0.9927286780816203
 20
0.2277578011663825
 11
0.9725793269260686
 21
0.2277578011663825
 97
        0
 75
     0
 76
     1
 98
        1
 10
-0.3743130907707726
 20
-0.2500502867693841
1001
ACAD
1010
0.0
1020
0.0
1030
0.0
  0
HATCH
  5
67CF
330
67C7
100
AcDbEntity
  8
Kawneer Logo-English
100
AcDbHatch
 10
0.0
 20
0.0
 30
0.0
210
0.0
220
0.0
230
1.0
  2
SOLID
 70
     1
 71
     0
 91
        2
 92
       16
 93
       32
 72
     1
 10
0.5269615006757409
 20
0.144641727649731
 11
0.5290137494045469
 21
0.148652941074216
 72
     1
 10
0.5290137494045464
 20
0.1486529410742159
 11
0.5322786905640116
 21
0.1551828233931449
 72
     1
 10
0.532278690564012
 20
0.1551828233931452
 11
0.5364764720547521
 21
0.1633918183083696
 72
     1
 10
0.5364764720547526
 20
0.1633918183083696
 11
0.5409541056448736
 21
0.1722538014554874
 72
     1
 10
0.5409541056448726
 20
0.1722538014554873
 11
0.545338455201869
 21
0.1808359325032223
 72
     1
 10
0.5453384552018701
 20
0.1808359325032223
 11
0.5490698165269726
 21
0.1882053711202994
 72
     1
 10
0.549069816526973
 20
0.1882053711202996
 11
0.5515884854214162
 21
0.1932427089091875
 72
     1
 10
0.5515884854214148
 20
0.1932427089091872
 11
0.5526146097858177
 21
0.1952016736048658
 72
     1
 10
0.5526146097858194
 20
0.1952016736048658
 11
0.552801177852074
 21
0.195761377803631
 72
     1
 10
0.5528011778520723
 20
0.1957613778036309
 11
0.5533608820508379
 21
0.1970673542674166
 72
     1
 10
0.5533608820508378
 20
0.1970673542674169
 11
0.5542004383489863
 21
0.1990263189630955
 72
     1
 10
0.5542004383489872
 20
0.1990263189630952
 11
0.5550399946471356
 21
0.2012651357581567
 72
     1
 10
0.5550399946471352
 20
0.2012651357581567
 11
0.5555064148127727
 21
0.2001457273606265
 72
     1
 10
0.5555064148127729
 20
0.2001457273606264
 11
0.5560661190115385
 21
0.198933034929968
 72
     1
 10
0.5560661190115379
 20
0.198933034929968
 11
0.5567191072434298
 21
0.197533774433055
 72
     1
 10
0.5567191072434304
 20
0.197533774433055
 11
0.5574653795084506
 21
0.1959479458698865
 72
     1
 10
0.557465379508451
 20
0.1959479458698865
 11
0.5583049358065995
 21
0.1942688332735902
 72
     1
 10
0.5583049358065986
 20
0.1942688332735903
 11
0.5606370366347874
 21
0.1896046316172126
 72
     1
 10
0.5606370366347871
 20
0.1896046316172126
 11
0.5639952618273804
 21
0.1828881812320289
 72
     1
 10
0.5639952618273814
 20
0.1828881812320287
 11
0.5680064752518651
 21
0.1748657543830587
 72
     1
 10
0.5680064752518637
 20
0.1748657543830589
 11
0.57239082480886
 21
0.1661903393021966
 72
     1
 10
0.5723908248088612
 20
0.1661903393021967
 11
0.5765886062996012
 21
0.1577947763207168
 72
     1
 10
0.5765886062996
 20
0.1577947763207165
 11
0.5803199676247008
 21
0.1503320536705122
 72
     1
 10
0.5803199676247015
 20
0.1503320536705122
 11
0.5831184886185295
 21
0.144641727649731
 72
     1
 10
0.5831184886185295
 20
0.144641727649731
 11
0.5791072751940441
 21
0.144641727649731
 72
     1
 10
0.5791072751940436
 20
0.144641727649731
 11
0.5724841088419869
 21
0.144641727649731
 72
     1
 10
0.5724841088419872
 20
0.144641727649731
 11
0.5641818298936356
 21
0.144641727649731
 72
     1
 10
0.5641818298936352
 20
0.144641727649731
 11
0.5550399946471351
 21
0.144641727649731
 72
     1
 10
0.5550399946471352
 20
0.144641727649731
 11
0.5458981594006351
 21
0.144641727649731
 72
     1
 10
0.5458981594006352
 20
0.144641727649731
 11
0.5375958804522815
 21
0.144641727649731
 72
     1
 10
0.5375958804522814
 20
0.144641727649731
 11
0.5310659981333528
 21
0.144641727649731
 72
     1
 10
0.5310659981333524
 20
0.144641727649731
 11
0.5269615006757405
 21
0.144641727649731
 97
        0
 92
        1
 93
      141
 72
     1
 10
0.5656743744236757
 20
0.2277578011663825
 11
0.544405614870593
 21
0.2277578011663825
 72
     1
 10
0.544405614870593
 20
0.2277578011663825
 11
0.4748157261574382
 21
0.0934287934627039
 72
     1
 10
0.4748157261574378
 20
0.0934287934627039
 11
0.4729500454948865
 21
0.0955743262246376
 72
     1
 10
0.4729500454948874
 20
0.0955743262246376
 11
0.4699649564348049
 21
0.0991191194834847
 72
     1
 10
0.4699649564348043
 20
0.0991191194834847
 11
0.4661403110765752
 21
0.1036900371067346
 72
     1
 10
0.4661403110765754
 20
0.1036900371067347
 11
0.4615693934533244
 21
0.1091005110281331
 72
     1
 10
0.461569393453325
 20
0.109100511028133
 11
0.456345487598182
 21
0.1152572572145517
 72
     1
 10
0.4563454875981812
 20
0.1152572572145516
 11
0.4506551615774008
 21
0.1219737075997353
 72
     1
 10
0.4506551615774015
 20
0.1219737075997354
 11
0.4447782674903648
 21
0.1290632941174296
 72
     1
 10
0.4447782674903636
 20
0.1290632941174296
 11
0.4387148053370722
 21
0.1362461646682511
 72
     1
 10
0.4387148053370727
 20
0.1362461646682512
 11
0.4326513431837832
 21
0.1433357511859454
 72
     1
 10
0.4326513431837844
 20
0.1433357511859453
 11
0.4268677331298759
 21
0.1502387696373844
 72
     1
 10
0.4268677331298756
 20
0.1502387696373844
 11
0.4214572592084763
 21
0.1566753679231857
 72
     1
 10
0.4214572592084754
 20
0.1566753679231858
 11
0.4165132054527153
 21
0.1625522620102216
 72
     1
 10
0.4165132054527163
 20
0.1625522620102216
 11
0.4123154239619763
 21
0.1674963157659821
 72
     1
 10
0.4123154239619753
 20
0.1674963157659822
 11
0.4088639147362555
 21
0.1715075291904667
 72
     1
 10
0.4088639147362568
 20
0.1715075291904669
 11
0.4065318139080681
 21
0.1743993342174211
 72
     1
 10
0.4065318139080665
 20
0.1743993342174211
 11
0.405319121477409
 21
0.1757985947143345
 72
     1
 10
0.4053191214774104
 20
0.1757985947143345
 11
0.4067183819743243
 21
0.1769180031118651
 72
     1
 10
0.4067183819743235
 20
0.1769180031118651
 11
0.4094236189350213
 21
0.1788769678075437
 72
     1
 10
0.4094236189350218
 20
0.1788769678075437
 11
0.4132482642932526
 21
0.1816754888013702
 72
     1
 10
0.4132482642932525
 20
0.1816754888013703
 11
0.4179124659496298
 21
0.1852202820602174
 72
     1
 10
0.417912465949629
 20
0.1852202820602174
 11
0.4232296558379
 21
0.189138211451575
 72
     1
 10
0.4232296558379001
 20
0.1891382114515751
 11
0.4291065499249351
 21
0.1935225610085696
 72
     1
 10
0.4291065499249367
 20
0.1935225610085698
 11
0.4352632961113562
 21
0.1981867626649482
 72
     1
 10
0.4352632961113554
 20
0.1981867626649479
 11
0.4416066103640296
 21
0.2028509643213252
 72
     1
 10
0.4416066103640293
 20
0.2028509643213252
 11
0.4479499246167016
 21
0.2076084500108307
 72
     1
 10
0.4479499246167018
 20
0.2076084500108307
 11
0.4540133867699932
 21
0.2120860836009535
 72
     1
 10
0.4540133867699927
 20
0.2120860836009535
 11
0.4596104287576467
 21
0.2162838650916932
 72
     1
 10
0.4596104287576468
 20
0.216283865091693
 11
0.4646477665465351
 21
0.2200152264167952
 72
     1
 10
0.464647766546535
 20
0.2200152264167951
 11
0.4689388320704013
 21
0.223186883543132
 72
     1
 10
0.4689388320704016
 20
0.2231868835431323
 11
0.4721104891967386
 21
0.2256122684044488
 72
     1
 10
0.4721104891967376
 20
0.2256122684044488
 11
0.4742560219586717
 21
0.2271980969676172
 72
     1
 10
0.4742560219586727
 20
0.2271980969676173
 11
0.475002294223693
 21
0.2277578011663825
 72
     1
 10
0.4750022942236929
 20
0.2277578011663825
 11
0.4674462875403612
 21
0.2277578011663825
 72
     1
 10
0.4674462875403611
 20
0.2277578011663825
 11
0.4395543616352215
 21
0.2277578011663825
 72
     1
 10
0.439554361635222
 20
0.2277578011663825
 11
0.4386215213039473
 21
0.2270115289013622
 72
     1
 10
0.4386215213039466
 20
0.2270115289013622
 11
0.4359162843432469
 21
0.2250525642056836
 72
     1
 10
0.4359162843432465
 20
0.2250525642056836
 11
0.4318117868856346
 21
0.2220674751456017
 72
     1
 10
0.4318117868856351
 20
0.2220674751456017
 11
0.4264013129642376
 21
0.2180562617211167
 72
     1
 10
0.4264013129642379
 20
0.2180562617211168
 11
0.4200579987115638
 21
0.2132987760316117
 72
     1
 10
0.4200579987115641
 20
0.2132987760316114
 11
0.4128751281607416
 21
0.2079815861433408
 72
     1
 10
0.4128751281607408
 20
0.2079815861433408
 11
0.4051325534111546
 21
0.20229126012256
 72
     1
 10
0.4051325534111552
 20
0.20229126012256
 11
0.397016842529058
 21
0.1963210820023964
 72
     1
 10
0.3970168425290583
 20
0.1963210820023967
 11
0.3889011316469611
 21
0.1903509038822331
 72
     1
 10
0.3889011316469611
 20
0.190350903882233
 11
0.3808787047979902
 21
0.1844740097951972
 72
     1
 10
0.3808787047979898
 20
0.1844740097951974
 11
0.3733226981146581
 21
0.1787836837744166
 72
     1
 10
0.373322698114658
 20
0.1787836837744166
 11
0.3663263956300919
 21
0.173653061952401
 72
     1
 10
0.3663263956300931
 20
0.173653061952401
 11
0.3601696494436735
 21
0.169082144329151
 72
     1
 10
0.3601696494436726
 20
0.1690821443291508
 11
0.3550390276216579
 21
0.1653507830040483
 72
     1
 10
0.3550390276216584
 20
0.1653507830040482
 11
0.3513076662965558
 21
0.1625522620102218
 72
     1
 10
0.3513076662965551
 20
0.1625522620102216
 11
0.3490688495014928
 21
0.1609664334470531
 72
     1
 10
0.3490688495014926
 20
0.1609664334470531
 11
0.3490688495014926
 21
0.1631119662089868
 72
     1
 10
0.3490688495014926
 20
0.1631119662089868
 11
0.3490688495014926
 21
0.1662836233353237
 72
     1
 10
0.3490688495014926
 20
0.1662836233353238
 11
0.3490688495014926
 21
0.1702948367598088
 72
     1
 10
0.3490688495014926
 20
0.1702948367598088
 11
0.3490688495014926
 21
0.1749590384161865
 72
     1
 10
0.3490688495014926
 20
0.1749590384161865
 11
0.3490688495014926
 21
0.1801829442713294
 72
     1
 10
0.3490688495014926
 20
0.1801829442713296
 11
0.3490688495014926
 21
0.185779986258983
 72
     1
 10
0.3490688495014926
 20
0.1857799862589829
 11
0.3490688495014926
 21
0.1916568803460187
 72
     1
 10
0.3490688495014926
 20
0.1916568803460186
 11
0.3490688495014926
 21
0.1975337744330549
 72
     1
 10
0.3490688495014926
 20
0.197533774433055
 11
0.3490688495014926
 21
0.2033173844869632
 72
     1
 10
0.3490688495014926
 20
0.2033173844869631
 11
0.3490688495014926
 21
0.2088211424414888
 72
     1
 10
0.3490688495014926
 20
0.2088211424414888
 11
0.3490688495014926
 21
0.2139517642635044
 72
     1
 10
0.3490688495014926
 20
0.2139517642635044
 11
0.3490688495014926
 21
0.2185226818867544
 72
     1
 10
0.3490688495014926
 20
0.2185226818867545
 11
0.3490688495014926
 21
0.2222540432118567
 72
     1
 10
0.3490688495014926
 20
0.2222540432118567
 11
0.3490688495014926
 21
0.2252391322719387
 72
     1
 10
0.3490688495014926
 20
0.2252391322719387
 11
0.3490688495014926
 21
0.2271048129344895
 72
     1
 10
0.3490688495014926
 20
0.2271048129344895
 11
0.3490688495014926
 21
0.2277578011663825
 72
     1
 10
0.3490688495014926
 20
0.2277578011663825
 11
0.3258411252527322
 21
0.2277578011663825
 72
     1
 10
0.3258411252527336
 20
0.2277578011663825
 11
0.3258411252527336
 21
0.0926825211976832
 72
     1
 10
0.3258411252527336
 20
0.0926825211976832
 11
0.3486957133689848
 21
0.0926825211976832
 72
     1
 10
0.3486957133689845
 20
0.0926825211976832
 11
0.3486957133689845
 21
0.0943616337939795
 72
     1
 10
0.3486957133689845
 20
0.0943616337939795
 11
0.3486957133689845
 21
0.0988392673841017
 72
     1
 10
0.3486957133689845
 20
0.0988392673841017
 11
0.3486957133689845
 21
0.1051825816367752
 72
     1
 10
0.3486957133689845
 20
0.1051825816367753
 11
0.3486957133689845
 21
0.1125520202538523
 72
     1
 10
0.3486957133689845
 20
0.1125520202538524
 11
0.3486957133689845
 21
0.1200147429040567
 72
     1
 10
0.3486957133689845
 20
0.1200147429040567
 11
0.3486957133689845
 21
0.1267311932892408
 72
     1
 10
0.3486957133689845
 20
0.1267311932892408
 11
0.3486957133689845
 21
0.1317685310781287
 72
     1
 10
0.3486957133689845
 20
0.1317685310781289
 11
0.3486957133689845
 21
0.1342871999725727
 72
     1
 10
0.3486957133689845
 20
0.1342871999725725
 11
0.3507479620977905
 21
0.1356864604694859
 72
     1
 10
0.35074796209779
 20
0.1356864604694859
 11
0.3548524595554018
 21
0.1387648335626952
 72
     1
 10
0.3548524595554015
 20
0.1387648335626952
 11
0.3605427855761835
 21
0.1428693310203079
 72
     1
 10
0.3605427855761842
 20
0.1428693310203079
 11
0.3668860998288565
 21
0.1476268167098129
 72
     1
 10
0.3668860998288568
 20
0.1476268167098129
 11
0.373322698114659
 21
0.1522910183661906
 72
     1
 10
0.373322698114658
 20
0.1522910183661908
 11
0.3791995922016947
 21
0.1565820838900582
 72
     1
 10
0.3791995922016946
 20
0.1565820838900582
 11
0.3836772257918156
 21
0.1599403090826502
 72
     1
 10
0.3836772257918159
 20
0.1599403090826503
 11
0.386195894686261
 21
0.1618059897452011
 72
     1
 10
0.3861958946862609
 20
0.1618059897452011
 11
0.3873153030837921
 21
0.1604067292482882
 72
     1
 10
0.3873153030837915
 20
0.1604067292482878
 11
0.3894608358457238
 21
0.1577947763207163
 72
     1
 10
0.3894608358457248
 20
0.1577947763207165
 11
0.3925392089389353
 21
0.1541566990287417
 72
     1
 10
0.3925392089389348
 20
0.1541566990287417
 11
0.396457138330292
 21
0.149492497372364
 72
     1
 10
0.3964571383302933
 20
0.149492497372364
 11
0.4009347719204161
 21
0.1442685915172211
 72
     1
 10
0.4009347719204146
 20
0.1442685915172209
 11
0.4057855416430466
 21
0.138391697430185
 72
     1
 10
0.4057855416430463
 20
0.1383916974301853
 11
0.4109161634650628
 21
0.1322349512437666
 72
     1
 10
0.410916163465064
 20
0.1322349512437666
 11
0.4162333533533335
 21
0.1259849210242201
 72
     1
 10
0.4162333533533334
 20
0.1259849210242201
 11
0.4215505432416044
 21
0.1196416067715466
 72
     1
 10
0.4215505432416045
 20
0.1196416067715466
 11
0.4265878810304927
 21
0.113671428651383
 72
     1
 10
0.4265878810304931
 20
0.1136714286513832
 11
0.4312520826868704
 21
0.1079811026306024
 72
     1
 10
0.4312520826868696
 20
0.1079811026306024
 11
0.4355431482107378
 21
0.1029437648417141
 72
     1
 10
0.435543148210738
 20
0.1029437648417139
 11
0.4390879414695842
 21
0.0987459833509739
 72
     1
 10
0.4390879414695843
 20
0.0987459833509741
 11
0.4417931784302841
 21
0.0954810421915098
 72
     1
 10
0.4417931784302845
 20
0.0954810421915096
 11
0.4435655750597076
 21
0.0934287934627037
 72
     1
 10
0.4435655750597074
 20
0.0934287934627039
 11
0.4442185632915993
 21
0.0926825211976832
 72
     1
 10
0.4442185632915985
 20
0.0926825211976832
 11
0.4743493059918004
 21
0.0926825211976832
 72
     1
 10
0.4743493059918001
 20
0.0926825211976832
 11
0.4753754303562029
 21
0.0926825211976832
 72
     1
 10
0.4753754303562033
 20
0.0926825211976832
 11
0.5008419714000258
 21
0.0926825211976832
 72
     1
 10
0.5008419714000265
 20
0.0926825211976832
 11
0.5014949596319184
 21
0.0939884976614689
 72
     1
 10
0.501494959631919
 20
0.0939884976614688
 11
0.5031740722282155
 21
0.0973467228540609
 72
     1
 10
0.503174072228215
 20
0.0973467228540612
 11
0.5055061730564038
 21
0.1021042085435666
 72
     1
 10
0.505506173056403
 20
0.1021042085435665
 11
0.5083046940502291
 21
0.1077012505312196
 72
     1
 10
0.5083046940502292
 20
0.1077012505312194
 11
0.5111032150440553
 21
0.1134848605851279
 72
     1
 10
0.5111032150440549
 20
0.1134848605851281
 11
0.5137151679716264
 21
0.1186154824071433
 72
     1
 10
0.5137151679716277
 20
0.1186154824071433
 11
0.5156741326673071
 21
0.1226266958316283
 72
     1
 10
0.5156741326673076
 20
0.122626695831628
 11
0.5167002570317104
 21
0.1247722285935621
 72
     1
 10
0.5167002570317103
 20
0.1247722285935622
 11
0.5180062334954961
 21
0.1247722285935622
 72
     1
 10
0.5180062334954961
 20
0.1247722285935622
 11
0.5207114704561957
 21
0.1247722285935622
 72
     1
 10
0.5207114704561944
 20
0.1247722285935622
 11
0.5246293998475517
 21
0.1247722285935622
 72
     1
 10
0.5246293998475525
 20
0.1247722285935622
 11
0.5295734536033125
 21
0.1247722285935622
 72
     1
 10
0.5295734536033115
 20
0.1247722285935622
 11
0.5352637796240919
 21
0.1247722285935622
 72
     1
 10
0.5352637796240929
 20
0.1247722285935622
 11
0.5415138098436386
 21
0.1247722285935622
 72
     1
 10
0.5415138098436394
 20
0.1247722285935622
 11
0.5482302602288245
 21
0.1247722285935622
 72
     1
 10
0.5482302602288236
 20
0.1247722285935622
 11
0.5551332786802616
 21
0.1247722285935622
 72
     1
 10
0.5551332786802608
 20
0.1247722285935622
 11
0.5620362971317004
 21
0.1247722285935622
 72
     1
 10
0.5620362971317015
 20
0.1247722285935622
 11
0.5687527475168847
 21
0.1247722285935622
 72
     1
 10
0.5687527475168839
 20
0.1247722285935622
 11
0.5750027777364317
 21
0.1247722285935622
 72
     1
 10
0.5750027777364322
 20
0.1247722285935622
 11
0.5806931037572126
 21
0.1247722285935622
 72
     1
 10
0.5806931037572119
 20
0.1247722285935622
 11
0.585637157512972
 21
0.1247722285935622
 72
     1
 10
0.5856371575129727
 20
0.1247722285935622
 11
0.5895550869043299
 21
0.1247722285935622
 72
     1
 10
0.5895550869043289
 20
0.1247722285935622
 11
0.5922603238650286
 21
0.1247722285935622
 72
     1
 10
0.5922603238650291
 20
0.1247722285935622
 11
0.5935663003288148
 21
0.1247722285935622
 72
     1
 10
0.5935663003288148
 20
0.1247722285935622
 11
0.5945924246932176
 21
0.1226266958316281
 72
     1
 10
0.5945924246932175
 20
0.122626695831628
 11
0.5965513893888953
 21
0.1186154824071431
 72
     1
 10
0.5965513893888957
 20
0.1186154824071433
 11
0.5991633423164672
 21
0.1134848605851281
 72
     1
 10
0.5991633423164667
 20
0.1134848605851281
 11
0.6019618633102946
 21
0.1077012505312196
 72
     1
 10
0.6019618633102959
 20
0.1077012505312194
 11
0.604760384304122
 21
0.1021042085435664
 72
     1
 10
0.6047603843041221
 20
0.1021042085435665
 11
0.6070924851323109
 21
0.0973467228540611
 72
     1
 10
0.6070924851323101
 20
0.0973467228540612
 11
0.6087715977286067
 21
0.0939884976614691
 72
     1
 10
0.6087715977286062
 20
0.0939884976614688
 11
0.609424585960498
 21
0.0926825211976832
 72
     1
 10
0.6094245859604986
 20
0.0926825211976832
 11
0.6363836715343633
 21
0.0926825211976832
 72
     1
 10
0.6363836715343641
 20
0.0926825211976832
 11
0.5671669189537184
 21
0.2277578011663825
 72
     1
 10
0.5671669189537179
 20
0.2277578011663825
 11
0.5656743744236758
 21
0.2277578011663825
 97
        0
 75
     0
 76
     1
 98
        1
 10
-0.3743130907707726
 20
-0.2500502867693841
1001
ACAD
1010
0.0
1020
0.0
1030
0.0
  0
HATCH
  5
67D0
330
67C7
100
AcDbEntity
  8
Kawneer Logo-English
100
AcDbHatch
 10
0.0
 20
0.0
 30
0.0
210
0.0
220
0.0
230
1.0
  2
SOLID
 70
     1
 71
     0
 91
        1
 92
        1
 93
       69
 72
     1
 10
0.8092389849197205
 20
0.2277578011663825
 11
0.778921674153266
 21
0.1309289747799811
 72
     1
 10
0.778921674153267
 20
0.1309289747799809
 11
0.7781754018882468
 21
0.1287834420180468
 72
     1
 10
0.7781754018882468
 20
0.1287834420180467
 11
0.7776156976894812
 21
0.1270110453886236
 72
     1
 10
0.7776156976894813
 20
0.1270110453886237
 11
0.7771492775238438
 21
0.1253319327923275
 72
     1
 10
0.7771492775238436
 20
0.1253319327923274
 11
0.7766828573582045
 21
0.1238393882622867
 72
     1
 10
0.7766828573582046
 20
0.1238393882622866
 11
0.7764030052588217
 21
0.1248655126266895
 72
     1
 10
0.776403005258822
 20
0.1248655126266896
 11
0.7761231531594392
 21
0.1259849210242202
 72
     1
 10
0.7761231531594391
 20
0.1259849210242201
 11
0.7759365850931844
 21
0.1268244773223681
 72
     1
 10
0.7759365850931843
 20
0.1268244773223682
 11
0.7758433010600562
 21
0.1271976134548783
 72
     1
 10
0.7758433010600552
 20
0.1271976134548783
 11
0.7755634489606744
 21
0.1280371697530267
 72
     1
 10
0.775563448960674
 20
0.1280371697530267
 11
0.7750970287950349
 21
0.1291565781505569
 72
     1
 10
0.7750970287950363
 20
0.1291565781505568
 11
0.773977620397507
 21
0.1323282352768938
 72
     1
 10
0.7739776203975062
 20
0.1323282352768939
 11
0.7721119397349549
 21
0.1372722890326544
 72
     1
 10
0.7721119397349554
 20
0.1372722890326546
 11
0.7697798389067666
 21
0.1436156032853281
 72
     1
 10
0.769779838906767
 20
0.1436156032853281
 11
0.7670746019460673
 21
0.1511716099686602
 72
     1
 10
0.7670746019460668
 20
0.15117160996866
 11
0.7639962288528581
 21
0.1595671729501399
 72
     1
 10
0.7639962288528582
 20
0.15956717295014
 11
0.7606380036602665
 21
0.1686157241635125
 72
     1
 10
0.7606380036602652
 20
0.1686157241635125
 11
0.7572797784676718
 21
0.1778508434431408
 72
     1
 10
0.7572797784676726
 20
0.1778508434431408
 11
0.753921553275081
 21
0.187179246755896
 72
     1
 10
0.7539215532750814
 20
0.1871792467558961
 11
0.7505633280824898
 21
0.1962277979692689
 72
     1
 10
0.7505633280824902
 20
0.1962277979692689
 11
0.7474849549892814
 21
0.2046233609507488
 72
     1
 10
0.7474849549892797
 20
0.2046233609507488
 11
0.74477971802858
 21
0.2121793676340809
 72
     1
 10
0.7447797180285814
 20
0.2121793676340809
 11
0.7424476172003926
 21
0.2185226818867544
 72
     1
 10
0.7424476172003929
 20
0.2185226818867545
 11
0.7405819365378416
 21
0.2234667356425151
 72
     1
 10
0.7405819365378408
 20
0.2234667356425151
 11
0.7394625281403098
 21
0.2266383927688516
 72
     1
 10
0.7394625281403103
 20
0.2266383927688516
 11
0.7390893920078009
 21
0.2277578011663822
 72
     1
 10
0.7390893920078004
 20
0.2277578011663825
 11
0.7191266089185034
 21
0.2277578011663825
 72
     1
 10
0.7191266089185029
 20
0.2277578011663825
 11
0.6843316645619254
 21
0.1336342117406798
 72
     1
 10
0.6843316645619267
 20
0.1336342117406795
 11
0.6832122561643957
 21
0.130649122680598
 72
     1
 10
0.6832122561643961
 20
0.1306491226805981
 11
0.6823726998662476
 21
0.1282237378192816
 72
     1
 10
0.6823726998662468
 20
0.1282237378192818
 11
0.6817197116343549
 21
0.1260782050573481
 72
     1
 10
0.6817197116343552
 20
0.1260782050573481
 11
0.6811600074355896
 21
0.1241192403616695
 72
     1
 10
0.6811600074355884
 20
0.1241192403616695
 11
0.6808801553362055
 21
0.1250520806929446
 72
     1
 10
0.6808801553362059
 20
0.1250520806929445
 11
0.6805070192036949
 21
0.1261714890904751
 72
     1
 10
0.680507019203696
 20
0.1261714890904752
 11
0.6802271671043131
 21
0.1272908974880058
 72
     1
 10
0.680227167104313
 20
0.1272908974880061
 11
0.6798540309718037
 21
0.1286901579849195
 72
     1
 10
0.6798540309718031
 20
0.1286901579849194
 11
0.6794808948392922
 21
0.12980956638245
 72
     1
 10
0.6794808948392932
 20
0.1298095663824503
 11
0.6784547704748904
 21
0.1328879394756595
 72
     1
 10
0.67845477047489
 20
0.1328879394756595
 11
0.6769622259448497
 21
0.1378319932314196
 72
     1
 10
0.6769622259448496
 20
0.1378319932314196
 11
0.6750032612491701
 21
0.1441753074840938
 72
     1
 10
0.6750032612491697
 20
0.1441753074840937
 11
0.6725778763878547
 21
0.1516380301342981
 72
     1
 10
0.6725778763878556
 20
0.1516380301342981
 11
0.6699659234602841
 21
0.160033593115778
 72
     1
 10
0.6699659234602829
 20
0.160033593115778
 11
0.6671674024664549
 21
0.168988860296023
 72
     1
 10
0.6671674024664554
 20
0.168988860296023
 11
0.6642755974395012
 21
0.1782239795756509
 72
     1
 10
0.6642755974395019
 20
0.178223979575651
 11
0.6613837924125477
 21
0.1874590988552789
 72
     1
 10
0.6613837924125466
 20
0.1874590988552789
 11
0.6585852714187205
 21
0.1964143660355239
 72
     1
 10
0.6585852714187204
 20
0.1964143660355237
 11
0.6559733184911489
 21
0.2047166449838762
 72
     1
 10
0.6559733184911494
 20
0.2047166449838765
 11
0.6536412176629606
 21
0.2122726516672082
 72
     1
 10
0.6536412176629614
 20
0.2122726516672082
 11
0.6515889689341538
 21
0.2186159659198823
 72
     1
 10
0.6515889689341537
 20
0.2186159659198821
 11
0.6500964244041133
 21
0.2234667356425149
 72
     1
 10
0.6500964244041132
 20
0.2234667356425151
 11
0.6490703000397104
 21
0.2266383927688516
 72
     1
 10
0.6490703000397105
 20
0.2266383927688516
 11
0.6487904479403276
 21
0.2277578011663822
 72
     1
 10
0.648790447940328
 20
0.2277578011663825
 11
0.6237903270621445
 21
0.2277578011663825
 72
     1
 10
0.6237903270621437
 20
0.2277578011663825
 11
0.6676338226320932
 21
0.0926825211976832
 72
     1
 10
0.6676338226320926
 20
0.0926825211976832
 11
0.6922608073777669
 21
0.0926825211976832
 72
     1
 10
0.6922608073777666
 20
0.0926825211976832
 11
0.726029627369941
 21
0.1855001341596003
 72
     1
 10
0.7260296273699423
 20
0.1855001341596003
 11
0.7269624677012189
 21
0.1882986551534267
 72
     1
 10
0.7269624677012177
 20
0.1882986551534266
 11
0.7278020239993661
 21
0.1906307559816158
 72
     1
 10
0.727802023999367
 20
0.1906307559816159
 11
0.7284550122312589
 21
0.1927762887435496
 72
     1
 10
0.7284550122312581
 20
0.1927762887435495
 11
0.7290147164300237
 21
0.1947352534392281
 72
     1
 10
0.7290147164300232
 20
0.1947352534392282
 11
0.7298542727281716
 21
0.192216584544784
 72
     1
 10
0.729854272728173
 20
0.1922165845447839
 11
0.7306938290263214
 21
0.1894180635509575
 72
     1
 10
0.7306938290263206
 20
0.1894180635509575
 11
0.7318132374238499
 21
0.1863396904577483
 72
     1
 10
0.7318132374238511
 20
0.1863396904577481
 11
0.7331192138876387
 21
0.1827016131657736
 72
     1
 10
0.7331192138876382
 20
0.1827016131657737
 11
0.7654887733828987
 21
0.0926825211976834
 72
     1
 10
0.7654887733828986
 20
0.0926825211976832
 11
0.7895560539298075
 21
0.0926825211976832
 72
     1
 10
0.7895560539298075
 20
0.0926825211976832
 11
0.8341458217647785
 21
0.2277578011663825
 72
     1
 10
0.8341458217647783
 20
0.2277578011663825
 11
0.830601028505932
 21
0.2277578011663825
 72
     1
 10
0.8306010285059324
 20
0.2277578011663825
 11
0.8092389849197216
 21
0.2277578011663825
 97
        0
 75
     0
 76
     1
 98
        1
 10
-0.3743130907707726
 20
-0.2500502867693841
1001
ACAD
1010
0.0
1020
0.0
1030
0.0
  0
ENDBLK
  5
67D4
330
67C7
100
AcDbEntity
  8
0
100
AcDbBlockEnd
  0
ENDSEC
  0
SECTION
  2
ENTITIES
  0
MTEXT
  5
20C5
330
17
100
AcDbEntity
  8
0
 62
     2
100
AcDbMText
 10
38.08118103097366
 20
1.318828437080469
 30
0.0
 40
0.375
 41
9.6875
 71
     2
 72
     5
  1
DETAIL SCALE: 1" = 1"
 73
     1
 44
1.0
1001
ACAD
1000
MTEXTBEGIN
1070
    73
1070
     1
1070
    44
1040
1.0
1070
    74
1070
     0
1000
MTEXTEND
  0
LINE
  5
20CE
330
17
100
AcDbEntity
  8
0
100
AcDbLine
 10
0.0
 20
0.0
 30
0.0
 11
0.0
 21
45.537672443373
 31
0.0
  0
LINE
  5
20CF
330
17
100
AcDbEntity
  8
0
100
AcDbLine
 10
0.0
 20
0.0
 30
0.0
 11
77.16079421047038
 21
0.0
 31
0.0
  0
MTEXT
  5
2E0C
102
{ACAD_XDICTIONARY
360
689F
102
}
330
17
100
AcDbEntity
  8
0
 62
     2
100
AcDbMText
 10
38.43392692229179
 20
4.252187954495227
 30
0.0
 40
0.5
 41
26.39104772671578
 71
     2
 72
     5
  1
1600 WALL SYSTEM™2 CURTAIN WALL\P5-1/4" DEEP (1/4" INFILL)\PSSG WITH GLASSvent™ WINDOWS FOR CURTAIN WALL DETILS
 73
     1
 44
1.0
1001
ACAD
1000
MTEXTBEGIN
1070
    73
1070
     1
1070
    44
1040
1.0
1070
    74
1070
     0
1000
MTEXTEND
  0
LINE
  5
476F
330
17
100
AcDbEntity
  8
R-SWTS-DET1
100
AcDbLine
 10
28.26701833962466
 20
26.88036204265948
 30
0.0
 11
28.26701833962466
 21
28.69501874956855
 31
0.0
  0
LINE
  5
4777
330
17
100
AcDbEntity
  8
R-ANNO-DIMS
  6
ByBlock
100
AcDbLine
 10
21.26701833962465
 20
25.06266826530228
 30
0.0
 11
21.26701833962465
 21
28.47728376256088
 31
0.0
  0
TEXT
  5
4778
330
17
100
AcDbEntity
  8
R-ANNO-DIMS
  6
ByBlock
100
AcDbText
 10
21.14201833962466
 20
25.45570516119073
 30
0.0
 40
0.25
  1
VENT OPENING
 50
90.0
 72
     1
 11
21.01701833962466
 21
26.77528224168187
 31
0.0
100
AcDbText
 73
     2
  0
LWPOLYLINE
  5
477A
330
17
100
AcDbEntity
  8
R-SWTS-DET2
100
AcDbPolyline
 90
       46
 70
     1
 43
0.0
 10
24.95201833962466
 20
23.53266826530227
 10
25.093187283675
 20
23.53266826530227
 42
-0.2909872012781223
 10
25.14752020293855
 20
23.49812281075687
 42
0.5639031077483408
 10
25.60701833962467
 20
23.44934343559167
 10
25.60701833962466
 20
23.49766826530227
 42
0.4142135623731037
 10
25.54701833962466
 20
23.55766826530227
 10
25.48728113404095
 20
23.55766826530227
 42
-3.73205080756965
 10
25.48728113404097
 20
23.66766826530225
 10
25.54701833962466
 20
23.66766826530227
 42
0.4142135623731037
 10
25.60701833962466
 20
23.72766826530227
 10
25.60701833962465
 20
23.77599309501289
 42
0.5639031077483051
 10
25.14752020293855
 20
23.72721371984774
 42
-0.2909872012781288
 10
25.09318728367496
 20
23.69266826530227
 10
24.95201833962466
 20
23.69266826530227
 42
-0.4142135623731038
 10
24.89201833962466
 20
23.75266826530227
 10
24.89201833962466
 20
23.90266826530227
 10
24.92701833962466
 20
23.93766826530228
 10
24.92701833962466
 20
24.46766826530229
 10
25.02701833962468
 20
24.46766826530229
 42
0.1989123673796632
 10
25.11540668727299
 20
24.50427991765398
 10
25.2037950349213
 20
24.59266826530229
 10
25.61701833962465
 20
24.59266826530229
 10
26.02540668727299
 20
24.18427991765397
 42
0.1989123673796512
 10
26.11379503492131
 20
24.14766826530229
 10
27.53701833962463
 20
24.14766826530229
 10
27.53701833962463
 20
23.84766826530229
 10
27.29701833962462
 20
23.84766826530229
 42
0.4142135623730951
 10
27.23701833962463
 20
23.78766826530229
 10
27.23701833962463
 20
23.66766826530227
 10
27.29675554520833
 20
23.66766826530227
 42
-3.73205080756965
 10
27.29675554520833
 20
23.55766826530227
 10
27.23701833962463
 20
23.55766826530227
 10
27.23701833962463
 20
23.43766826530225
 42
0.4142135623730951
 10
27.29701833962463
 20
23.37766826530225
 10
27.53701833962463
 20
23.37766826530225
 10
27.53701833962463
 20
23.07766826530225
 10
26.11379503492131
 20
23.07766826530225
 42
0.1989123673796512
 10
26.02540668727299
 20
23.04105661295057
 10
25.61701833962465
 20
22.63266826530224
 10
25.2037950349213
 20
22.63266826530224
 10
25.11540668727299
 20
22.72105661295056
 42
0.1989123673796592
 10
25.02701833962468
 20
22.75766826530224
 10
24.92701833962466
 20
22.75766826530224
 10
24.92701833962466
 20
23.28766826530227
 10
24.89201833962466
 20
23.32266826530227
 10
24.89201833962466
 20
23.47266826530228
 42
-0.4142135623731037
  0
LWPOLYLINE
  5
477B
330
17
100
AcDbEntity
  8
R-SWTS-DET2
100
AcDbPolyline
 90
       66
 70
     1
 43
0.0
 10
24.64201833962466
 20
22.76266826530227
 42
0.4142135623731124
 10
24.67201833962466
 20
22.73266826530226
 10
24.76701833962466
 20
22.73266826530226
 10
24.76701833962466
 20
22.66266826530225
 42
0.4142135623731124
 10
24.79701833962466
 20
22.63266826530224
 10
25.02701833962466
 20
22.63266826530224
 10
25.17323154306027
 20
22.48645506186665
 42
0.1989123673796534
 10
25.19444474649586
 20
22.47766826530225
 10
25.26701833962466
 20
22.47766826530225
 10
25.29701833962466
 20
22.50766826530224
 10
25.48701833962466
 20
22.50766826530224
 10
25.51701833962466
 20
22.47766826530225
 10
25.6263686280501
 20
22.47766826530225
 42
0.1989123673796428
 10
25.64758183148569
 20
22.48645506186665
 10
26.11379503492131
 20
22.95266826530225
 10
27.53701833962463
 20
22.95266826530225
 10
27.53701833962463
 20
22.63266826530224
 10
27.10201833962464
 20
22.63266826530224
 42
0.4142135623731049
 10
27.04201833962465
 20
22.57266826530224
 10
27.04201833962465
 20
22.50766826530225
 42
0.4142135623730807
 10
27.07201833962465
 20
22.47766826530225
 10
27.26701833962463
 20
22.47766826530225
 10
27.29701833962463
 20
22.50766826530224
 10
27.48701833962463
 20
22.50766826530225
 10
27.51701833962463
 20
22.47766826530224
 10
27.60201833962462
 20
22.47766826530224
 42
0.4142135623730948
 10
27.66201833962462
 20
22.53766826530224
 10
27.66201833962462
 20
24.6876682653023
 42
0.4142135623730956
 10
27.60201833962462
 20
24.7476682653023
 10
27.51701833962463
 20
24.7476682653023
 10
27.48701833962463
 20
24.7176682653023
 10
27.29701833962463
 20
24.7176682653023
 10
27.26701833962463
 20
24.7476682653023
 10
27.07201833962465
 20
24.74766826530229
 42
0.4142135623730807
 10
27.04201833962465
 20
24.7176682653023
 10
27.04201833962465
 20
24.6526682653023
 42
0.4142135623731049
 10
27.10201833962464
 20
24.59266826530229
 10
27.53701833962463
 20
24.59266826530229
 10
27.53701833962463
 20
24.27266826530229
 10
26.11379503492131
 20
24.27266826530229
 10
25.64758183148569
 20
24.73888146873789
 42
0.1989123673796517
 10
25.62636862805009
 20
24.74766826530229
 10
25.51701833962466
 20
24.74766826530229
 10
25.48701833962466
 20
24.7176682653023
 10
25.29701833962466
 20
24.7176682653023
 10
25.26701833962466
 20
24.7476682653023
 10
25.19444474649586
 20
24.74766826530229
 42
0.1989123673796471
 10
25.17323154306027
 20
24.73888146873789
 10
25.02701833962466
 20
24.59266826530229
 10
24.79701833962466
 20
24.59266826530229
 42
0.4142135623731124
 10
24.76701833962466
 20
24.56266826530229
 10
24.76701833962466
 20
24.49266826530227
 10
24.67201833962466
 20
24.49266826530227
 42
0.4142135623731124
 10
24.64201833962466
 20
24.46266826530227
 10
24.64201833962466
 20
24.39766826530227
 42
0.4142135623730951
 10
24.67201833962466
 20
24.36766826530227
 10
24.76701833962466
 20
24.36766826530227
 10
24.76701833962466
 20
24.25266826530227
 10
24.78201833962466
 20
24.23766826530227
 10
24.76701833962466
 20
24.22266826530228
 10
24.76701833962466
 20
23.00266826530226
 10
24.78201833962466
 20
22.98766826530226
 10
24.76701833962466
 20
22.97266826530226
 10
24.76701833962466
 20
22.85766826530227
 10
24.67201833962466
 20
22.85766826530227
 42
0.4142135623731125
 10
24.64201833962466
 20
22.82766826530227
  0
LWPOLYLINE
  5
477C
330
17
100
AcDbEntity
  8
R-SWTS-DET1
100
AcDbPolyline
 90
       30
 70
     1
 43
0.0
 10
24.64201833962466
 20
22.71766826530226
 10
24.74701833962465
 20
22.71766826530227
 42
-0.4142135623730859
 10
24.76701833962464
 20
22.69766826530227
 10
24.76701833962466
 20
22.49266826530227
 42
0.4142135623731124
 10
24.79701833962466
 20
22.46266826530227
 10
28.16701833962465
 20
22.46266826530227
 10
28.16701833962465
 20
22.62266826530227
 42
0.4142135623730951
 10
28.10701833962465
 20
22.68266826530227
 10
28.04701833962466
 20
22.68266826530227
 10
28.04701833962466
 20
22.91766826530227
 10
28.10701833962466
 20
22.91766826530227
 42
0.4142135623730971
 10
28.16701833962466
 20
22.97766826530226
 10
28.16701833962466
 20
24.24766826530228
 42
0.4142135623730927
 10
28.10701833962466
 20
24.30766826530228
 10
28.04701833962466
 20
24.30766826530228
 10
28.04701833962466
 20
24.54266826530228
 10
28.10701833962466
 20
24.54266826530228
 42
0.4142135623730951
 10
28.16701833962465
 20
24.60266826530228
 10
28.16701833962465
 20
24.76266826530227
 10
24.79701833962466
 20
24.76266826530228
 42
0.4142135623730951
 10
24.76701833962466
 20
24.73266826530228
 10
24.76701833962464
 20
24.52766826530228
 42
-0.4142135623730829
 10
24.74701833962465
 20
24.50766826530227
 10
24.64201833962466
 20
24.50766826530227
 10
24.64201833962466
 20
23.78982769532946
 10
24.69290024413491
 20
23.77619393010658
 42
-0.339454258863379
 10
24.76701833962464
 20
23.67960134747767
 10
24.76701833962464
 20
23.54573518312688
 42
-0.3394542588633669
 10
24.69290024413491
 20
23.44914260049796
 10
24.64201833962466
 20
23.43550883527509
  0
LWPOLYLINE
  5
477D
330
17
100
AcDbEntity
  8
R-SWTS-DET1
100
AcDbPolyline
 90
       66
 70
     1
 43
0.0
 10
24.53701833962465
 20
22.36266826530227
 42
-0.4142135623730951
 10
24.51701833962466
 20
22.38266826530227
 10
24.51701833962464
 20
22.46466826530227
 42
-0.6693764950687339
 10
24.54265999823407
 20
22.4752396938737
 42
0.1997729274168762
 10
24.60650994989052
 20
22.44866826530227
 10
24.61701833962465
 20
22.44866826530227
 42
0.4142135623730847
 10
24.66701833962465
 20
22.49866826530227
 10
24.66701833962465
 20
22.58666826530227
 42
0.4142135623730847
 10
24.61701833962465
 20
22.63666826530227
 10
24.60650994989052
 20
22.63666826530227
 42
0.1997729274168803
 10
24.54265999823406
 20
22.61009683673085
 42
-0.6693764950687373
 10
24.51701833962466
 20
22.62066826530227
 10
24.51701833962466
 20
22.97266826530227
 10
24.53201833962466
 20
22.98766826530227
 10
24.51701833962466
 20
23.00266826530227
 10
24.51701833962466
 20
23.34966826530227
 42
0.4142135623730951
 10
24.50701833962467
 20
23.35966826530226
 10
24.45101833962464
 20
23.35966826530226
 42
0.4142135623730951
 10
24.44101833962465
 20
23.34966826530227
 10
24.44101833962465
 20
23.30966826530227
 42
-0.4142135623730951
 10
24.43101833962464
 20
23.29966826530228
 10
24.01701833962463
 20
23.29966826530228
 10
24.01701833962466
 20
23.33966826530227
 10
24.00201833962467
 20
23.35466826530227
 10
24.01701833962466
 20
23.36966826524264
 10
24.01701833962466
 20
23.44266826524284
 10
24.00201833962475
 20
23.45766826530236
 10
24.01701833962466
 20
23.47266826530226
 10
24.01701833962466
 20
23.51266826530227
 10
24.44701833962464
 20
23.51266826530227
 10
24.64478291097773
 20
23.56565912248783
 42
0.3394542588633729
 10
24.66701833962465
 20
23.5946368972765
 10
24.66701833962465
 20
23.63069963332805
 42
0.339454258863373
 10
24.64478291097773
 20
23.65967740811672
 10
24.44701833962462
 20
23.71266826530227
 10
24.01701833962466
 20
23.71266826530228
 10
24.01701833962466
 20
23.75266826530229
 10
24.00201833962475
 20
23.76766826530219
 10
24.01701833962466
 20
23.78266826536171
 10
24.01701833962466
 20
23.85566826536191
 10
24.00201833962467
 20
23.87066826530229
 10
24.01701833962466
 20
23.88566826530228
 10
24.01701833962463
 20
23.92566826530228
 10
24.43101833962464
 20
23.92566826530228
 42
-0.4142135623730951
 10
24.44101833962465
 20
23.91566826530227
 10
24.44101833962465
 20
23.87566826530228
 42
0.4142135623730951
 10
24.45101833962464
 20
23.86566826530228
 10
24.50701833962467
 20
23.86566826530229
 42
0.4142135623730951
 10
24.51701833962466
 20
23.87566826530228
 10
24.51701833962466
 20
24.22266826530228
 10
24.53201833962466
 20
24.23766826530228
 10
24.51701833962466
 20
24.25266826530228
 10
24.51701833962466
 20
24.60466826530228
 42
-0.6693764950687069
 10
24.54265999823406
 20
24.6152396938737
 42
0.1997729274168789
 10
24.60650994989052
 20
24.58866826530228
 10
24.61701833962465
 20
24.58866826530228
 42
0.4142135623730743
 10
24.66701833962465
 20
24.63866826530227
 10
24.66701833962465
 20
24.72666826530228
 42
0.4142135623730951
 10
24.61701833962465
 20
24.77666826530228
 10
24.60650994989052
 20
24.77666826530227
 42
0.1997729274168747
 10
24.54265999823406
 20
24.75009683673083
 42
-0.6693764950686888
 10
24.51701833962464
 20
24.76066826530227
 10
24.51701833962466
 20
24.84266826530227
 42
-0.4142135623730951
 10
24.53701833962465
 20
24.86266826530228
 10
28.26701833962464
 20
24.86266826530228
 10
28.26701833962469
 20
22.36266826530227
  0
ARC
  5
477F
330
17
100
AcDbEntity
  8
R-SWTS-DET2
100
AcDbCircle
 10
27.47376831962464
 20
23.53091834530227
 30
0.0
 40
0.06474996
100
AcDbArc
 50
90.00000000000003
 51
180.0
  0
ARC
  5
4780
330
17
100
AcDbEntity
  8
R-SWTS-DET2
100
AcDbCircle
 10
27.47376831962464
 20
23.69441818530227
 30
0.0
 40
0.06474996
100
AcDbArc
 50
180.0
 51
270.0000300000001
  0
CIRCLE
  5
4781
330
17
100
AcDbEntity
  8
R-SWTS-DET2
100
AcDbCircle
 10
27.39201833962464
 20
23.61266826530227
 30
0.0
 40
0.2125
  0
LWPOLYLINE
  5
4782
330
17
100
AcDbEntity
  8
R-SWTS-DET1
100
AcDbPolyline
 90
        6
 70
     0
 43
0.0
 10
22.76701833962466
 20
20.36266826530228
 10
25.53613759318702
 20
20.36266826530228
 10
25.58905800784946
 20
20.1504160751794
 10
25.69497867139985
 20
20.57524065301482
 10
25.74797892028783
 20
20.36266826530228
 10
28.51701833962465
 20
20.36266826530228
  0
LWPOLYLINE
  5
4785
330
17
100
AcDbEntity
  8
R-SWTS-DET3
100
AcDbPolyline
 90
        4
 70
     0
 43
0.0
 10
24.26701833962466
 20
20.36266826530228
 10
24.26701833962466
 20
22.86266826530228
 10
24.01701833962466
 20
22.86266826530228
 10
24.01701833962466
 20
20.36266826530228
  0
LINE
  5
4786
330
17
100
AcDbEntity
  8
R-SWTS-DET2
100
AcDbLine
 10
24.8067732616485
 20
22.31964787715745
 30
0.0
 11
24.8067732616485
 21
20.36266826530228
 31
0.0
  0
LINE
  5
4787
330
17
100
AcDbEntity
  8
R-ANNO-DIMS
  6
ByBlock
100
AcDbLine
 10
21.26701833962465
 20
22.16266826530227
 30
0.0
 11
21.26701833962465
 21
20.56266826530228
 31
0.0
  0
SOLID
  5
4788
330
17
100
AcDbEntity
  8
R-ANNO-DIMS
  6
ByBlock
100
AcDbTrace
 10
21.23368500629132
 20
20.56266826530228
 30
0.0
 11
21.30035167295799
 21
20.56266826530228
 31
0.0
 12
21.26701833962465
 22
20.36266826530228
 32
0.0
 13
21.26701833962465
 23
20.36266826530228
 33
0.0
  0
TEXT
  5
4789
330
17
100
AcDbEntity
  8
R-ANNO-DIMS
  6
ByBlock
100
AcDbText
 10
21.14201833962466
 20
21.03352633485437
 30
0.0
 40
0.25
  1
DLO
 50
90.0
 72
     1
 11
21.01701833962466
 21
21.39258158724182
 31
0.0
100
AcDbText
 73
     2
  0
LINE
  5
478A
330
17
100
AcDbEntity
  8
R-ANNO-DIMS
  6
ByBlock
100
AcDbLine
 10
22.89201833962466
 20
22.36266826530227
 30
0.0
 11
21.14201833962466
 21
22.36266826530227
 31
0.0
  0
LINE
  5
478B
330
17
100
AcDbEntity
  8
R-ANNO-DIMS
  6
ByBlock
100
AcDbLine
 10
22.89201833962466
 20
22.36266826530227
 30
0.0
 11
21.14201833962466
 21
22.36266826530227
 31
0.0
  0
LINE
  5
478C
330
17
100
AcDbEntity
  8
R-ANNO-DIMS
  6
ByBlock
100
AcDbLine
 10
22.89201833962466
 20
24.86266826530228
 30
0.0
 11
21.14201833962466
 21
24.86266826530228
 31
0.0
  0
LINE
  5
478D
330
17
100
AcDbEntity
  8
R-ANNO-DIMS
  6
ByBlock
100
AcDbLine
 10
22.89201833962466
 20
24.86266826530228
 30
0.0
 11
21.14201833962466
 21
24.86266826530228
 31
0.0
  0
SOLID
  5
478E
330
17
100
AcDbEntity
  8
R-ANNO-DIMS
  6
ByBlock
100
AcDbTrace
 10
21.23368500629132
 20
24.66266826530227
 30
0.0
 11
21.30035167295799
 21
24.66266826530227
 31
0.0
 12
21.26701833962465
 22
24.86266826530228
 32
0.0
 13
21.26701833962465
 23
24.86266826530228
 33
0.0
  0
LINE
  5
478F
330
17
100
AcDbEntity
  8
R-ANNO-DIMS
  6
ByBlock
100
AcDbLine
 10
21.26701833962465
 20
24.66266826530227
 30
0.0
 11
21.26701833962465
 21
22.56266826530228
 31
0.0
  0
TEXT
  5
4790
330
17
100
AcDbEntity
  8
R-ANNO-DIMS
  6
ByBlock
100
AcDbText
 10
21.14201833962466
 20
23.20136465297439
 30
0.0
 40
0.25
  1
2 1/2"
 50
90.0
 72
     1
 11
21.01701833962466
 21
23.65173982350645
 31
0.0
100
AcDbText
 73
     2
  0
SOLID
  5
4791
330
17
100
AcDbEntity
  8
R-ANNO-DIMS
  6
ByBlock
100
AcDbTrace
 10
21.23368500629132
 20
22.16266826530227
 30
0.0
 11
21.30035167295799
 21
22.16266826530227
 31
0.0
 12
21.26701833962465
 22
22.36266826530227
 32
0.0
 13
21.26701833962465
 23
22.36266826530227
 33
0.0
  0
SOLID
  5
4792
330
17
100
AcDbEntity
  8
R-ANNO-DIMS
  6
ByBlock
100
AcDbTrace
 10
21.23368500629132
 20
22.56266826530228
 30
0.0
 11
21.30035167295799
 21
22.56266826530228
 31
0.0
 12
21.26701833962465
 22
22.36266826530227
 32
0.0
 13
21.26701833962465
 23
22.36266826530227
 33
0.0
  0
SOLID
  5
4793
330
17
100
AcDbEntity
  8
R-ANNO-DIMS
  6
ByBlock
100
AcDbTrace
 10
21.23368500629132
 20
25.06266826530228
 30
0.0
 11
21.30035167295799
 21
25.06266826530228
 31
0.0
 12
21.26701833962465
 22
24.86266826530228
 32
0.0
 13
21.26701833962465
 23
24.86266826530228
 33
0.0
  0
LWPOLYLINE
  5
4796
330
17
100
AcDbEntity
  8
R-SWTS-DET1
100
AcDbPolyline
 90
       59
 70
     1
 43
0.0
 10
23.53101833962467
 20
24.54866826530229
 10
23.53101833962467
 20
24.66266826530225
 10
23.39619367043251
 20
24.66266826530225
 10
23.29101833962466
 20
24.60194525974824
 42
-1.000000000000009
 10
23.25101833962467
 20
24.67122729205099
 10
23.43364746249537
 20
24.77666826530225
 42
0.849090458656993
 10
23.53101833962465
 20
24.79266826530226
 10
23.53101833962465
 20
24.83266826530228
 42
-0.4142135623731122
 10
23.56101833962465
 20
24.86266826530228
 10
23.74701833962466
 20
24.86266826530228
 42
-0.4142135623730951
 10
23.76701833962465
 20
24.84266826530228
 10
23.76701833962465
 20
24.76066826530228
 42
-0.6693764950686889
 10
23.74137668101524
 20
24.75009683673084
 42
0.1997729274168814
 10
23.67752672935879
 20
24.77666826530228
 10
23.66701833962466
 20
24.77666826530228
 42
0.4142135623731054
 10
23.61701833962465
 20
24.72666826530228
 10
23.61701833962467
 20
24.63866826530228
 42
0.4142135623730951
 10
23.66701833962466
 20
24.58866826530228
 10
23.67752672935879
 20
24.58866826530228
 42
0.1997729274168702
 10
23.74137668101525
 20
24.6152396938737
 42
-0.6693764950687497
 10
23.76701833962465
 20
24.60466826530228
 10
23.76701833962465
 20
23.83766826530227
 10
23.78201833962465
 20
23.82266826530228
 10
23.76701833962465
 20
23.80766826530228
 10
23.76701833962465
 20
23.41766826530228
 10
23.78201833962465
 20
23.40266826530227
 10
23.76701833962465
 20
23.38766826530228
 10
23.76701833962465
 20
22.62066826530227
 42
-0.6693764950687072
 10
23.74137668101525
 20
22.61009683673085
 42
0.1997729274168761
 10
23.67752672935879
 20
22.63666826530227
 10
23.66701833962466
 20
22.63666826530227
 42
0.4142135623730951
 10
23.61701833962467
 20
22.58666826530227
 10
23.61701833962465
 20
22.49866826530227
 42
0.4142135623731054
 10
23.66701833962466
 20
22.44866826530227
 10
23.67752672935879
 20
22.44866826530227
 42
0.1997729274168748
 10
23.74137668101524
 20
22.47523969387371
 42
-0.6693764950686886
 10
23.76701833962465
 20
22.46466826530227
 10
23.76701833962465
 20
22.38266826530227
 42
-0.4142135623730951
 10
23.74701833962466
 20
22.36266826530227
 10
23.56101833962465
 20
22.36266826530227
 42
-0.4142135623731039
 10
23.53101833962465
 20
22.39266826530227
 10
23.53101833962467
 20
22.4326682653023
 42
0.8490904586570017
 10
23.43364746249534
 20
22.4486682653023
 10
23.25101833962467
 20
22.55410923855357
 42
-1.000000000000009
 10
23.29101833962466
 20
22.62339127085632
 10
23.39619367043251
 20
22.5626682653023
 10
23.53101833962467
 20
22.5626682653023
 10
23.53101833962467
 20
22.67666826530225
 42
-0.4142135623730516
 10
23.59101833962464
 20
22.73666826530226
 10
23.66701833962466
 20
22.73666826530227
 10
23.66701833962466
 20
23.28766826530227
 10
23.64201833962466
 20
23.31266826530228
 10
23.64201833962466
 20
23.59766826530227
 10
23.65701833962466
 20
23.61266826530227
 10
23.64201833962466
 20
23.62766826530227
 10
23.64201833962466
 20
23.91266826530228
 10
23.66701833962466
 20
23.93766826530228
 10
23.66701833962466
 20
24.48866826530228
 10
23.59101833962464
 20
24.4886682653023
 42
-0.4142135623730518
  0
LWPOLYLINE
  5
4797
330
17
100
AcDbEntity
  8
R-SWTS-DET1
100
AcDbPolyline
 90
       14
 70
     1
 43
0.0
 10
23.07701833962466
 20
22.41266826530227
 10
23.44101833962465
 20
22.41266826530227
 10
23.44101833962465
 20
22.4426682653023
 42
-1.0
 10
23.52101833962465
 20
22.4426682653023
 10
23.52101833962465
 20
22.42266826530228
 42
-0.4142135623730908
 10
23.46101833962466
 20
22.36266826530227
 10
23.01701833962466
 20
22.36266826530227
 10
23.01701833962466
 20
24.86266826530228
 10
23.46101833962464
 20
24.86266826530228
 42
-0.4142135623730907
 10
23.52101833962465
 20
24.80266826530228
 10
23.52101833962465
 20
24.78266826530225
 42
-1.0
 10
23.44101833962465
 20
24.78266826530225
 10
23.44101833962465
 20
24.81266826530228
 10
23.07701833962466
 20
24.81266826530227
  0
LINE
  5
4798
330
17
100
AcDbEntity
  8
R-SWTS-DET2
100
AcDbLine
 10
25.17967705278095
 20
24.3456682653016
 30
0.0
 11
24.64901833962466
 21
24.3456682653016
 31
0.0
  0
LINE
  5
4799
330
17
100
AcDbEntity
  8
R-SWTS-DET2
100
AcDbLine
 10
24.64901833962466
 20
24.12966826530161
 30
0.0
 11
25.17967705278095
 21
24.12966826530161
 31
0.0
  0
LWPOLYLINE
  5
479A
330
17
100
AcDbEntity
  8
R-SWTS-DET2
100
AcDbPolyline
 90
        8
 70
     1
 43
0.0
 10
24.64901833962466
 20
22.87966826530295
 10
24.51701833962466
 20
22.76866826530294
 10
24.51701833962466
 20
23.20666826530294
 10
24.64901833962466
 20
23.09566826530294
 10
25.17967705278095
 20
23.09566826530294
 10
25.37349884259561
 20
23.01538465127828
 42
-0.6681786379193252
 10
25.37349884259561
 20
22.9599518793276
 10
25.17967705278095
 20
22.87966826530295
  0
LINE
  5
479B
330
17
100
AcDbEntity
  8
R-SWTS-DET1
100
AcDbLine
 10
23.64201833962467
 20
23.36266826530227
 30
0.0
 11
23.64201833962467
 21
23.86266826530228
 31
0.0
  0
LINE
  5
479C
330
17
100
AcDbEntity
  8
R-SWTS-DET2
100
AcDbLine
 10
23.60201833962468
 20
23.36266826530227
 30
0.0
 11
23.60201833962468
 21
23.86266826530228
 31
0.0
  0
LINE
  5
479D
330
17
100
AcDbEntity
  8
R-SWTS-DET2
100
AcDbLine
 10
23.45841333962467
 20
23.42607826530227
 30
0.0
 11
23.45841333962467
 21
23.79926826530228
 31
0.0
  0
ARC
  5
479E
330
17
100
AcDbEntity
  8
R-SWTS-DET2
100
AcDbCircle
 10
23.48172333962468
 20
23.46048826530227
 30
0.0
 40
0.0543126
100
AcDbArc
 50
110.9107
 51
249.0893
  0
LINE
  5
479F
330
17
100
AcDbEntity
  8
R-SWTS-DET3
100
AcDbLine
 10
23.23301833962465
 20
22.34014540918749
 30
0.0
 11
23.23301833962465
 21
24.08166826530227
 31
0.0
  0
LINE
  5
47A0
330
17
100
AcDbEntity
  8
R-SWTS-DET2
100
AcDbLine
 10
24.01701833962466
 20
23.29966826530228
 30
0.0
 11
23.76701833962465
 21
23.29966826530228
 31
0.0
  0
LINE
  5
47A1
330
17
100
AcDbEntity
  8
R-SWTS-DET2
100
AcDbLine
 10
24.0172634176008
 20
22.22574720817032
 30
0.0
 11
23.47726341760081
 21
22.30228264124119
 31
0.0
  0
LINE
  5
47A2
330
17
100
AcDbEntity
  8
R-SWTS-DET2
100
AcDbLine
 10
23.7672634176008
 20
22.84228264124118
 30
0.0
 11
24.0172634176008
 21
22.84228264124118
 31
0.0
  0
LINE
  5
47A3
330
17
100
AcDbEntity
  8
R-SWTS-DET1
100
AcDbLine
 10
23.76701833962465
 20
23.36216826530228
 30
0.0
 11
23.76701833962465
 21
23.29966826530228
 31
0.0
  0
LINE
  5
47A4
330
17
100
AcDbEntity
  8
R-SWTS-DET1
100
AcDbLine
 10
23.60201833962468
 20
23.36266826530227
 30
0.0
 11
23.64201833962467
 21
23.36266826530227
 31
0.0
  0
LINE
  5
47A5
330
17
100
AcDbEntity
  8
R-SWTS-DET2
100
AcDbLine
 10
23.43970833962467
 20
23.42607826530227
 30
0.0
 11
23.45841333962467
 21
23.42607826530227
 31
0.0
  0
LINE
  5
47A6
330
17
100
AcDbEntity
  8
R-SWTS-DET2
100
AcDbLine
 10
23.46233833962468
 20
23.40975826530227
 30
0.0
 11
23.60201833962468
 21
23.40975826530227
 31
0.0
  0
LINE
  5
47A7
330
17
100
AcDbEntity
  8
R-SWTS-DET2
100
AcDbLine
 10
23.47726341760081
 20
22.30228264124119
 30
0.0
 11
23.47726341760079
 21
22.3622826412412
 31
0.0
  0
SOLID
  5
47A8
330
17
100
AcDbEntity
  8
R-SWTS-DET3
100
AcDbTrace
 10
23.26635167295799
 20
22.34014540918749
 30
0.0
 11
23.19968500629132
 21
22.34014540918749
 31
0.0
 12
23.23301833962465
 22
22.14014540918748
 32
0.0
 13
23.23301833962465
 23
22.14014540918748
 33
0.0
  0
LINE
  5
47A9
330
17
100
AcDbEntity
  8
R-SWTS-DET2
100
AcDbLine
 10
23.47726341760079
 20
22.3622826412412
 30
0.0
 11
23.59289427531415
 21
22.3622826412412
 31
0.0
  0
LWPOLYLINE
  5
47AA
330
17
100
AcDbEntity
  8
R-SWTS-DET3
100
AcDbPolyline
 90
        4
 70
     1
 43
0.0
 10
23.38901833962466
 20
22.36266826530227
 10
23.07701833962466
 20
22.41266826530227
 10
23.07701833962466
 20
22.36266826530227
 10
23.38901833962466
 20
22.41266826530227
  0
LINE
  5
47AB
330
17
100
AcDbEntity
  8
R-SWTS-DET1
100
AcDbLine
 10
24.01701833962466
 20
23.36216826530228
 30
0.0
 11
24.01701833962466
 21
23.29966826530228
 31
0.0
  0
LINE
  5
47AC
330
17
100
AcDbEntity
  8
R-SWTS-DET2
100
AcDbLine
 10
24.76701833962464
 20
23.07866826530236
 30
0.0
 11
24.92701833962464
 21
23.07866826530236
 31
0.0
  0
LINE
  5
47AD
330
17
100
AcDbEntity
  8
R-SWTS-DET2
100
AcDbLine
 10
24.8067732616485
 20
22.30228264124119
 30
0.0
 11
24.80677326164852
 21
22.3622826412412
 31
0.0
  0
LINE
  5
47AE
330
17
100
AcDbEntity
  8
R-SWTS-DET2
100
AcDbLine
 10
24.26677326164851
 20
22.22574720817032
 30
0.0
 11
24.8067732616485
 21
22.30228264124119
 31
0.0
  0
LINE
  5
47AF
330
17
100
AcDbEntity
  8
R-SWTS-DET2
100
AcDbLine
 10
24.51677326164851
 20
22.84228264124118
 30
0.0
 11
24.26677326164851
 21
22.84228264124118
 31
0.0
  0
LINE
  5
47B0
330
17
100
AcDbEntity
  8
R-SWTS-DET2
100
AcDbLine
 10
24.76701833962464
 20
22.89666826530236
 30
0.0
 11
24.92701833962464
 21
22.89666826530236
 31
0.0
  0
LINE
  5
47B1
330
17
100
AcDbEntity
  8
R-SWTS-DET2
100
AcDbLine
 10
24.80677326164852
 20
22.3622826412412
 30
0.0
 11
24.69114240393516
 21
22.3622826412412
 31
0.0
  0
LINE
  5
47B2
330
17
100
AcDbEntity
  8
R-SWTS-DET2
100
AcDbLine
 10
23.77104296006046
 20
24.38305388936337
 30
0.0
 11
24.01011824961543
 21
24.38305388936337
 31
0.0
  0
LINE
  5
47B3
330
17
100
AcDbEntity
  8
R-SWTS-DET2
100
AcDbLine
 10
23.64201833962467
 20
23.48728826530228
 30
0.0
 11
24.30701833962468
 21
23.48728826530228
 31
0.0
  0
LINE
  5
47B4
330
17
100
AcDbEntity
  8
R-SWTS-DET3
100
AcDbLine
 10
23.23301833962465
 20
24.08166826530227
 30
0.0
 11
24.10249463435537
 21
24.08166826530227
 31
0.0
  0
LINE
  5
47B5
330
17
100
AcDbEntity
  8
R-SWTS-DET2
100
AcDbLine
 10
23.76701833962465
 20
23.92566826530228
 30
0.0
 11
24.01701833962466
 21
23.92566826530228
 31
0.0
  0
LINE
  5
47B6
330
17
100
AcDbEntity
  8
R-SWTS-DET2
100
AcDbLine
 10
23.64201833962467
 20
23.73805826530227
 30
0.0
 11
24.30701833962468
 21
23.73805826530227
 31
0.0
  0
ARC
  5
47B7
330
17
100
AcDbEntity
  8
R-SWTS-DET2
100
AcDbCircle
 10
23.59226333962468
 20
23.61266826530227
 30
0.0
 40
0.16484915
100
AcDbArc
 50
142.0123
 51
217.9877
  0
LINE
  5
47B8
330
17
100
AcDbEntity
  8
R-SWTS-DET2
100
AcDbLine
 10
23.42741333962468
 20
23.46048826530227
 30
0.0
 11
23.42741333962468
 21
23.76486326530228
 31
0.0
  0
LINE
  5
47B9
330
17
100
AcDbEntity
  8
R-SWTS-DET2
100
AcDbLine
 10
23.46233833962468
 20
23.51121326530227
 30
0.0
 11
23.60201833962468
 21
23.51121326530227
 31
0.0
  0
LINE
  5
47BA
330
17
100
AcDbEntity
  8
R-SWTS-DET1
100
AcDbLine
 10
23.76701833962465
 20
23.47966826530228
 30
0.0
 11
23.64201833962466
 21
23.47966826530228
 31
0.0
  0
LINE
  5
47BB
330
17
100
AcDbEntity
  8
R-SWTS-DET1
100
AcDbLine
 10
23.76701833962465
 20
23.92566826530228
 30
0.0
 11
23.76701833962465
 21
23.86316826530228
 31
0.0
  0
LINE
  5
47BC
330
17
100
AcDbEntity
  8
R-SWTS-DET1
100
AcDbLine
 10
23.60201833962468
 20
23.86266826530228
 30
0.0
 11
23.64201833962467
 21
23.86266826530228
 31
0.0
  0
LINE
  5
47BD
330
17
100
AcDbEntity
  8
R-SWTS-DET2
100
AcDbLine
 10
23.43970833962467
 20
23.79926826530228
 30
0.0
 11
23.45841333962467
 21
23.79926826530228
 31
0.0
  0
ARC
  5
47BE
330
17
100
AcDbEntity
  8
R-SWTS-DET2
100
AcDbCircle
 10
23.48172333962468
 20
23.76486326530228
 30
0.0
 40
0.0543126
100
AcDbArc
 50
110.9107
 51
249.0893
  0
LINE
  5
47BF
330
17
100
AcDbEntity
  8
R-SWTS-DET2
100
AcDbLine
 10
23.46233833962468
 20
23.71413326530227
 30
0.0
 11
23.60201833962468
 21
23.71413326530227
 31
0.0
  0
LINE
  5
47C0
330
17
100
AcDbEntity
  8
R-SWTS-DET2
100
AcDbLine
 10
23.46233833962468
 20
23.81558826530227
 30
0.0
 11
23.60201833962468
 21
23.81558826530227
 31
0.0
  0
LINE
  5
47C1
330
17
100
AcDbEntity
  8
R-SWTS-DET1
100
AcDbLine
 10
23.76701833962465
 20
23.74566826530228
 30
0.0
 11
23.64201833962466
 21
23.74566826530228
 31
0.0
  0
LWPOLYLINE
  5
47C2
330
17
100
AcDbEntity
  8
R-SWTS-DET3
100
AcDbPolyline
 90
        5
 70
     0
 43
0.0
 10
23.66701833962466
 20
23.93766826530228
 10
23.76701833962465
 20
24.23766826530227
 10
23.66701833962466
 20
24.23766826530227
 10
23.76701833962465
 20
23.92566826530227
 10
23.65501833962465
 20
23.92566826530227
  0
LINE
  5
47C3
330
17
100
AcDbEntity
  8
R-SWTS-DET2
100
AcDbLine
 10
24.76701833962464
 20
24.32866826530237
 30
0.0
 11
24.92701833962464
 21
24.32866826530237
 31
0.0
  0
LINE
  5
47C4
330
17
100
AcDbEntity
  8
R-SWTS-DET2
100
AcDbLine
 10
24.64901833962466
 20
24.3456682653016
 30
0.0
 11
24.51701833962466
 21
24.45666826530161
 31
0.0
  0
LINE
  5
47C6
330
17
100
AcDbEntity
  8
R-SWTS-DET2
100
AcDbLine
 10
24.30701833962468
 20
23.73805826530227
 30
0.0
 11
24.64201833962467
 21
23.61266826530227
 31
0.0
  0
LINE
  5
47C7
330
17
100
AcDbEntity
  8
R-SWTS-DET2
100
AcDbLine
 10
24.64201833962467
 20
23.61266826530227
 30
0.0
 11
24.30701833962468
 21
23.48728826530228
 31
0.0
  0
LINE
  5
47C8
330
17
100
AcDbEntity
  8
R-SWTS-DET2
100
AcDbLine
 10
24.76701833962464
 20
24.14666826530237
 30
0.0
 11
24.92701833962464
 21
24.14666826530237
 31
0.0
  0
LINE
  5
47C9
330
17
100
AcDbEntity
  8
R-SWTS-DET2
100
AcDbLine
 10
24.51701833962466
 20
24.01866826530161
 30
0.0
 11
24.64901833962466
 21
24.12966826530161
 31
0.0
  0
LINE
  5
47CA
330
17
100
AcDbEntity
  8
R-SWTS-DET1
100
AcDbLine
 10
24.01701833962466
 20
23.92566826530228
 30
0.0
 11
24.01701833962466
 21
23.86316826530228
 31
0.0
  0
LINE
  5
47CB
330
17
100
AcDbEntity
  8
R-SWTS-DET2
100
AcDbLine
 10
24.51701833962466
 20
24.45666826530161
 30
0.0
 11
24.51701833962466
 21
24.01866826530161
 31
0.0
  0
CIRCLE
  5
47CC
330
17
100
AcDbEntity
  8
R-SWTS-DET2
100
AcDbCircle
 10
25.39201833962467
 20
23.61266826530227
 30
0.0
 40
0.2125
  0
LINE
  5
47CD
330
17
100
AcDbEntity
  8
R-SWTS-DET2
100
AcDbLine
 10
25.37349884259561
 20
24.26538465127695
 30
0.0
 11
25.17967705278095
 21
24.3456682653016
 31
0.0
  0
LINE
  5
47CE
330
17
100
AcDbEntity
  8
R-SWTS-DET2
100
AcDbLine
 10
25.40901835962467
 20
23.69441818530228
 30
0.0
 11
25.40901835962467
 21
23.74216826530228
 31
0.0
  0
LINE
  5
47CF
330
17
100
AcDbEntity
  8
R-SWTS-DET2
100
AcDbLine
 10
25.37501837962466
 20
23.69441818530228
 30
0.0
 11
25.37501837962466
 21
23.74216826530228
 31
0.0
  0
ARC
  5
47D0
330
17
100
AcDbEntity
  8
R-SWTS-DET2
100
AcDbCircle
 10
25.47376831962467
 20
23.53091834530228
 30
0.0
 40
0.06474996
100
AcDbArc
 50
90.00000000000003
 51
180.0
  0
ARC
  5
47D1
330
17
100
AcDbEntity
  8
R-SWTS-DET2
100
AcDbCircle
 10
25.31026841962467
 20
23.53091834530228
 30
0.0
 40
0.06474996
100
AcDbArc
 50
0.0
 51
90.00000000000003
  0
ARC
  5
47D2
330
17
100
AcDbEntity
  8
R-SWTS-DET2
100
AcDbCircle
 10
25.31026841962467
 20
23.69441818530228
 30
0.0
 40
0.06474996
100
AcDbArc
 50
270.00009
 51
0.0
  0
ARC
  5
47D3
330
17
100
AcDbEntity
  8
R-SWTS-DET2
100
AcDbCircle
 10
25.47376831962467
 20
23.69441818530228
 30
0.0
 40
0.06474996
100
AcDbArc
 50
180.0
 51
270.0000300000001
  0
LINE
  5
47D4
330
17
100
AcDbEntity
  8
R-SWTS-DET2
100
AcDbLine
 10
25.26251833962466
 20
23.59566826530228
 30
0.0
 11
25.26251833962466
 21
23.62966826530228
 31
0.0
  0
LINE
  5
47D5
330
17
100
AcDbEntity
  8
R-SWTS-DET2
100
AcDbLine
 10
25.52151833962466
 20
23.59566826530228
 30
0.0
 11
25.52151833962466
 21
23.62966826530228
 31
0.0
  0
LINE
  5
47D6
330
17
100
AcDbEntity
  8
R-SWTS-DET2
100
AcDbLine
 10
25.47376831962467
 20
23.62966826530228
 30
0.0
 11
25.52151833962466
 21
23.62966826530228
 31
0.0
  0
LINE
  5
47D7
330
17
100
AcDbEntity
  8
R-SWTS-DET2
100
AcDbLine
 10
25.47376831962467
 20
23.59566826530228
 30
0.0
 11
25.52151833962466
 21
23.59566826530228
 31
0.0
  0
LINE
  5
47D8
330
17
100
AcDbEntity
  8
R-SWTS-DET2
100
AcDbLine
 10
25.26251833962466
 20
23.62966826530228
 30
0.0
 11
25.31026841962467
 21
23.62966826530228
 31
0.0
  0
LINE
  5
47D9
330
17
100
AcDbEntity
  8
R-SWTS-DET2
100
AcDbLine
 10
25.26251833962466
 20
23.59566826530228
 30
0.0
 11
25.31026841962467
 21
23.59566826530228
 31
0.0
  0
LINE
  5
47DA
330
17
100
AcDbEntity
  8
R-SWTS-DET2
100
AcDbLine
 10
25.37501837962466
 20
23.48316826530228
 30
0.0
 11
25.40901835962467
 21
23.48316826530228
 31
0.0
  0
LINE
  5
47DB
330
17
100
AcDbEntity
  8
R-SWTS-DET2
100
AcDbLine
 10
25.40901835962467
 20
23.48316826530228
 30
0.0
 11
25.40901835962467
 21
23.53091834530228
 31
0.0
  0
LINE
  5
47DC
330
17
100
AcDbEntity
  8
R-SWTS-DET2
100
AcDbLine
 10
25.37501837962466
 20
23.48316826530228
 30
0.0
 11
25.37501837962466
 21
23.53091834530228
 31
0.0
  0
LINE
  5
47DD
330
17
100
AcDbEntity
  8
R-SWTS-DET2
100
AcDbLine
 10
25.37501837962466
 20
23.74216826530228
 30
0.0
 11
25.40901835962467
 21
23.74216826530228
 31
0.0
  0
LINE
  5
47DE
330
17
100
AcDbEntity
  8
R-SWTS-DET2
100
AcDbLine
 10
25.17967705278095
 20
24.12966826530161
 30
0.0
 11
25.37349884259561
 21
24.20995187932627
 31
0.0
  0
ARC
  5
47DF
330
17
100
AcDbEntity
  8
R-SWTS-DET2
100
AcDbCircle
 10
25.36201833962465
 20
24.23766826530161
 30
0.0
 40
0.0299999999999996
100
AcDbArc
 50
292.4999999999979
 51
67.50000000000217
  0
LINE
  5
47E0
330
17
100
AcDbEntity
  8
R-SWTS-DET2
100
AcDbLine
 10
27.40901835962464
 20
23.69441818530227
 30
0.0
 11
27.40901835962464
 21
23.74216826530227
 31
0.0
  0
LINE
  5
47E1
330
17
100
AcDbEntity
  8
R-SWTS-DET2
100
AcDbLine
 10
27.37501837962464
 20
23.69441818530227
 30
0.0
 11
27.37501837962464
 21
23.74216826530227
 31
0.0
  0
ARC
  5
47E2
330
17
100
AcDbEntity
  8
R-SWTS-DET2
100
AcDbCircle
 10
27.31026841962464
 20
23.53091834530227
 30
0.0
 40
0.06474996
100
AcDbArc
 50
0.0
 51
90.00000000000003
  0
ARC
  5
47E3
330
17
100
AcDbEntity
  8
R-SWTS-DET2
100
AcDbCircle
 10
27.31026841962464
 20
23.69441818530227
 30
0.0
 40
0.06474996
100
AcDbArc
 50
270.00009
 51
0.0
  0
LINE
  5
47E4
330
17
100
AcDbEntity
  8
R-SWTS-DET2
100
AcDbLine
 10
27.37501837962464
 20
23.48316826530227
 30
0.0
 11
27.40901835962464
 21
23.48316826530227
 31
0.0
  0
LINE
  5
47E5
330
17
100
AcDbEntity
  8
R-SWTS-DET2
100
AcDbLine
 10
27.40901835962464
 20
23.48316826530227
 30
0.0
 11
27.40901835962464
 21
23.53091834530227
 31
0.0
  0
LINE
  5
47E6
330
17
100
AcDbEntity
  8
R-SWTS-DET2
100
AcDbLine
 10
27.37501837962464
 20
23.48316826530227
 30
0.0
 11
27.37501837962464
 21
23.53091834530227
 31
0.0
  0
LINE
  5
47E7
330
17
100
AcDbEntity
  8
R-SWTS-DET2
100
AcDbLine
 10
27.26251833962463
 20
23.59566826530227
 30
0.0
 11
27.26251833962463
 21
23.62966826530227
 31
0.0
  0
LINE
  5
47E8
330
17
100
AcDbEntity
  8
R-SWTS-DET2
100
AcDbLine
 10
27.26251833962463
 20
23.62966826530227
 30
0.0
 11
27.31026841962464
 21
23.62966826530227
 31
0.0
  0
LINE
  5
47E9
330
17
100
AcDbEntity
  8
R-SWTS-DET2
100
AcDbLine
 10
27.26251833962463
 20
23.59566826530227
 30
0.0
 11
27.31026841962464
 21
23.59566826530227
 31
0.0
  0
LINE
  5
47EA
330
17
100
AcDbEntity
  8
R-SWTS-DET2
100
AcDbLine
 10
27.37501837962464
 20
23.74216826530227
 30
0.0
 11
27.40901835962464
 21
23.74216826530227
 31
0.0
  0
LINE
  5
47EB
330
17
100
AcDbEntity
  8
R-SWTS-DET2
100
AcDbLine
 10
24.01011824961543
 20
24.98737221730748
 30
0.0
 11
23.48104296006046
 21
24.92305388936336
 31
0.0
  0
LINE
  5
47EC
330
17
100
AcDbEntity
  8
R-SWTS-DET2
100
AcDbLine
 10
23.47726341760081
 20
24.92305388936336
 30
0.0
 11
23.47726341760079
 21
24.86305388936336
 31
0.0
  0
LINE
  5
47ED
330
17
100
AcDbEntity
  8
R-SWTS-DET2
100
AcDbLine
 10
23.48104296006045
 20
24.86305388936336
 30
0.0
 11
23.59667381777381
 21
24.86305388936336
 31
0.0
  0
LINE
  5
47EE
330
17
100
AcDbEntity
  8
R-SWTS-DET2
100
AcDbLine
 10
23.48104296006046
 20
24.92305388936336
 30
0.0
 11
23.48104296006045
 21
24.86305388936336
 31
0.0
  0
LINE
  5
47F8
330
17
100
AcDbEntity
  8
R-SWTS-DET1
100
AcDbLine
 10
28.26701833962466
 20
22.36266826530227
 30
0.0
 11
28.26701833962466
 21
20.36266826530228
 31
0.0
  0
TEXT
  5
47F9
330
17
100
AcDbEntity
  8
PART_NUMBERS
100
AcDbText
 10
28.84467744346776
 20
24.05772653239603
 30
0.0
 40
0.25
  1
162377 SHEAR BLOCK
100
AcDbText
  0
TEXT
  5
47FA
330
17
100
AcDbEntity
  8
PART_NUMBERS
100
AcDbText
 10
28.84467744346776
 20
23.03529183980344
 30
0.0
 40
0.25
  1
162335 PRESSURE PLATE
100
AcDbText
  0
TEXT
  5
47FB
330
17
100
AcDbEntity
  8
PART_NUMBERS
100
AcDbText
 10
28.84467744346776
 20
22.53529183980344
 30
0.0
 40
0.25
  1
162013 HORIZONTAL
100
AcDbText
  0
TEXT
  5
47FC
330
17
100
AcDbEntity
  8
PART_NUMBERS
100
AcDbText
 10
28.84467744346776
 20
23.53529183980344
 30
0.0
 40
0.25
  1
162006 COVER
100
AcDbText
  0
LINE
  5
47FD
330
17
100
AcDbEntity
  8
R-SWTS-DET2
100
AcDbLine
 10
27.52151833962463
 20
23.59566826530227
 30
0.0
 11
27.52151833962463
 21
23.62966826530227
 31
0.0
  0
LINE
  5
47FE
330
17
100
AcDbEntity
  8
R-SWTS-DET2
100
AcDbLine
 10
27.47376831962464
 20
23.62966826530227
 30
0.0
 11
27.52151833962463
 21
23.62966826530227
 31
0.0
  0
LINE
  5
47FF
330
17
100
AcDbEntity
  8
R-SWTS-DET2
100
AcDbLine
 10
27.47376831962464
 20
23.59566826530227
 30
0.0
 11
27.52151833962463
 21
23.59566826530227
 31
0.0
  0
LINE
  5
4800
330
17
100
AcDbEntity
  8
R-SWTS-DET1
100
AcDbLine
 10
28.26701833962466
 20
24.86266826530228
 30
0.0
 11
28.26701833962466
 21
25.83836815131393
 31
0.0
  0
LINE
  5
4803
330
17
100
AcDbEntity
  8
R-SWTS-DET1
100
AcDbLine
 10
28.26701833962466
 20
36.85403504867843
 30
0.0
 11
28.26701833962466
 21
38.85403504867843
 31
0.0
  0
LINE
  5
4804
330
17
100
AcDbEntity
  8
R-SWTS-DET2
100
AcDbLine
 10
24.8067732616485
 20
36.89705543682325
 30
0.0
 11
24.8067732616485
 21
38.85403504867843
 31
0.0
  0
LWPOLYLINE
  5
4805
330
17
100
AcDbEntity
  8
R-SWTS-DET3
100
AcDbPolyline
 90
        4
 70
     0
 43
0.0
 10
24.26701833962466
 20
38.85403504867843
 10
24.26701833962466
 20
36.35403504867843
 10
24.01701833962466
 20
36.35403504867843
 10
24.01701833962466
 20
38.85403504867843
  0
LINE
  5
4808
330
17
100
AcDbEntity
  8
R-ANNO-DIMS
  6
ByBlock
100
AcDbLine
 10
21.26701833962465
 20
37.05403504867843
 30
0.0
 11
21.26701833962465
 21
38.65403504867842
 31
0.0
  0
TEXT
  5
4809
330
17
100
AcDbEntity
  8
R-ANNO-DIMS
  6
ByBlock
100
AcDbText
 10
21.14201833962466
 20
37.49497979629098
 30
0.0
 40
0.25
  1
DLO
 50
90.0
 72
     1
 11
21.01701833962466
 21
37.85403504867843
 31
0.0
100
AcDbText
 73
     2
  0
LWPOLYLINE
  5
480A
330
17
100
AcDbEntity
  8
R-SWTS-DET1
100
AcDbPolyline
 90
       66
 70
     1
 43
0.0
 10
24.53701833962465
 20
36.85403504867843
 42
0.4142135623730951
 10
24.51701833962466
 20
36.83403504867843
 10
24.51701833962464
 20
36.75203504867844
 42
0.6693764950687339
 10
24.54265999823407
 20
36.741463620107
 42
-0.1997729274168762
 10
24.60650994989052
 20
36.76803504867843
 10
24.61701833962465
 20
36.76803504867843
 42
-0.4142135623730847
 10
24.66701833962465
 20
36.71803504867843
 10
24.66701833962465
 20
36.63003504867843
 42
-0.4142135623730847
 10
24.61701833962465
 20
36.58003504867843
 10
24.60650994989052
 20
36.58003504867843
 42
-0.1997729274168803
 10
24.54265999823406
 20
36.60660647724986
 42
0.6693764950687373
 10
24.51701833962466
 20
36.59603504867843
 10
24.51701833962466
 20
36.24403504867843
 10
24.53201833962466
 20
36.22903504867843
 10
24.51701833962466
 20
36.21403504867843
 10
24.51701833962466
 20
35.86703504867844
 42
-0.4142135623730951
 10
24.50701833962467
 20
35.85703504867844
 10
24.45101833962464
 20
35.85703504867844
 42
-0.4142135623730951
 10
24.44101833962465
 20
35.86703504867844
 10
24.44101833962465
 20
35.90703504867843
 42
0.4142135623730951
 10
24.43101833962464
 20
35.91703504867843
 10
24.01701833962463
 20
35.91703504867843
 10
24.01701833962466
 20
35.87703504867843
 10
24.00201833962467
 20
35.86203504867844
 10
24.01701833962466
 20
35.84703504873806
 10
24.01701833962466
 20
35.77403504873786
 10
24.00201833962475
 20
35.75903504867834
 10
24.01701833962466
 20
35.74403504867844
 10
24.01701833962466
 20
35.70403504867844
 10
24.44701833962464
 20
35.70403504867844
 10
24.64478291097773
 20
35.65104419149287
 42
-0.3394542588633729
 10
24.66701833962465
 20
35.6220664167042
 10
24.66701833962465
 20
35.58600368065266
 42
-0.339454258863373
 10
24.64478291097773
 20
35.55702590586398
 10
24.44701833962462
 20
35.50403504867843
 10
24.01701833962466
 20
35.50403504867843
 10
24.01701833962466
 20
35.46403504867842
 10
24.00201833962475
 20
35.44903504867851
 10
24.01701833962466
 20
35.43403504861899
 10
24.01701833962466
 20
35.36103504861879
 10
24.00201833962467
 20
35.34603504867842
 10
24.01701833962466
 20
35.33103504867842
 10
24.01701833962463
 20
35.29103504867843
 10
24.43101833962464
 20
35.29103504867843
 42
0.4142135623730951
 10
24.44101833962465
 20
35.30103504867843
 10
24.44101833962465
 20
35.34103504867842
 42
-0.4142135623730951
 10
24.45101833962464
 20
35.35103504867842
 10
24.50701833962467
 20
35.35103504867841
 42
-0.4142135623730951
 10
24.51701833962466
 20
35.34103504867842
 10
24.51701833962466
 20
34.99403504867843
 10
24.53201833962466
 20
34.97903504867843
 10
24.51701833962466
 20
34.96403504867843
 10
24.51701833962466
 20
34.61203504867843
 42
0.6693764950687069
 10
24.54265999823406
 20
34.601463620107
 42
-0.1997729274168789
 10
24.60650994989052
 20
34.62803504867843
 10
24.61701833962465
 20
34.62803504867843
 42
-0.4142135623730743
 10
24.66701833962465
 20
34.57803504867843
 10
24.66701833962465
 20
34.49003504867843
 42
-0.4142135623730951
 10
24.61701833962465
 20
34.44003504867843
 10
24.60650994989052
 20
34.44003504867843
 42
-0.1997729274168747
 10
24.54265999823406
 20
34.46660647724987
 42
0.6693764950686888
 10
24.51701833962464
 20
34.45603504867843
 10
24.51701833962466
 20
34.37403504867843
 42
0.4142135623730951
 10
24.53701833962465
 20
34.35403504867843
 10
28.26701833962464
 20
34.35403504867843
 10
28.26701833962469
 20
36.85403504867843
  0
LWPOLYLINE
  5
480B
330
17
100
AcDbEntity
  8
R-SWTS-DET1
100
AcDbPolyline
 90
       30
 70
     1
 43
0.0
 10
24.64201833962466
 20
36.49903504867844
 10
24.74701833962465
 20
36.49903504867843
 42
0.4142135623730859
 10
24.76701833962464
 20
36.51903504867843
 10
24.76701833962466
 20
36.72403504867843
 42
-0.4142135623731124
 10
24.79701833962466
 20
36.75403504867843
 10
28.16701833962465
 20
36.75403504867843
 10
28.16701833962465
 20
36.59403504867844
 42
-0.4142135623730951
 10
28.10701833962465
 20
36.53403504867843
 10
28.04701833962466
 20
36.53403504867843
 10
28.04701833962466
 20
36.29903504867844
 10
28.10701833962466
 20
36.29903504867844
 42
-0.4142135623730971
 10
28.16701833962466
 20
36.23903504867844
 10
28.16701833962466
 20
34.96903504867842
 42
-0.4142135623730927
 10
28.10701833962466
 20
34.90903504867842
 10
28.04701833962466
 20
34.90903504867842
 10
28.04701833962466
 20
34.67403504867842
 10
28.10701833962466
 20
34.67403504867842
 42
-0.4142135623730951
 10
28.16701833962465
 20
34.61403504867842
 10
28.16701833962465
 20
34.45403504867844
 10
24.79701833962466
 20
34.45403504867842
 42
-0.4142135623730951
 10
24.76701833962466
 20
34.48403504867842
 10
24.76701833962464
 20
34.68903504867843
 42
0.4142135623730829
 10
24.74701833962465
 20
34.70903504867843
 10
24.64201833962466
 20
34.70903504867843
 10
24.64201833962466
 20
35.42687561865124
 10
24.69290024413491
 20
35.44050938387413
 42
0.339454258863379
 10
24.76701833962464
 20
35.53710196650303
 10
24.76701833962464
 20
35.67096813085382
 42
0.3394542588633669
 10
24.69290024413491
 20
35.76756071348274
 10
24.64201833962466
 20
35.78119447870562
  0
LWPOLYLINE
  5
480C
330
17
100
AcDbEntity
  8
R-SWTS-DET2
100
AcDbPolyline
 90
       66
 70
     1
 43
0.0
 10
24.64201833962466
 20
36.45403504867843
 42
-0.4142135623731124
 10
24.67201833962466
 20
36.48403504867844
 10
24.76701833962466
 20
36.48403504867844
 10
24.76701833962466
 20
36.55403504867846
 42
-0.4142135623731124
 10
24.79701833962466
 20
36.58403504867846
 10
25.02701833962466
 20
36.58403504867846
 10
25.17323154306027
 20
36.73024825211405
 42
-0.1989123673796534
 10
25.19444474649586
 20
36.73903504867845
 10
25.26701833962466
 20
36.73903504867845
 10
25.29701833962466
 20
36.70903504867846
 10
25.48701833962466
 20
36.70903504867846
 10
25.51701833962466
 20
36.73903504867845
 10
25.6263686280501
 20
36.73903504867845
 42
-0.1989123673796428
 10
25.64758183148569
 20
36.73024825211405
 10
26.11379503492131
 20
36.26403504867845
 10
27.53701833962463
 20
36.26403504867845
 10
27.53701833962463
 20
36.58403504867846
 10
27.10201833962464
 20
36.58403504867846
 42
-0.4142135623731049
 10
27.04201833962465
 20
36.64403504867846
 10
27.04201833962465
 20
36.70903504867845
 42
-0.4142135623730807
 10
27.07201833962465
 20
36.73903504867845
 10
27.26701833962463
 20
36.73903504867845
 10
27.29701833962463
 20
36.70903504867846
 10
27.48701833962463
 20
36.70903504867845
 10
27.51701833962463
 20
36.73903504867846
 10
27.60201833962462
 20
36.73903504867846
 42
-0.4142135623730948
 10
27.66201833962462
 20
36.67903504867846
 10
27.66201833962462
 20
34.52903504867841
 42
-0.4142135623730956
 10
27.60201833962462
 20
34.46903504867841
 10
27.51701833962463
 20
34.46903504867841
 10
27.48701833962463
 20
34.49903504867841
 10
27.29701833962463
 20
34.49903504867841
 10
27.26701833962463
 20
34.46903504867841
 10
27.07201833962465
 20
34.46903504867842
 42
-0.4142135623730807
 10
27.04201833962465
 20
34.49903504867841
 10
27.04201833962465
 20
34.56403504867841
 42
-0.4142135623731049
 10
27.10201833962464
 20
34.62403504867841
 10
27.53701833962463
 20
34.62403504867841
 10
27.53701833962463
 20
34.94403504867842
 10
26.11379503492131
 20
34.94403504867842
 10
25.64758183148569
 20
34.47782184524282
 42
-0.1989123673796517
 10
25.62636862805009
 20
34.46903504867842
 10
25.51701833962466
 20
34.46903504867842
 10
25.48701833962466
 20
34.49903504867841
 10
25.29701833962466
 20
34.49903504867841
 10
25.26701833962466
 20
34.46903504867841
 10
25.19444474649586
 20
34.46903504867842
 42
-0.1989123673796471
 10
25.17323154306027
 20
34.47782184524282
 10
25.02701833962466
 20
34.62403504867841
 10
24.79701833962466
 20
34.62403504867841
 42
-0.4142135623731124
 10
24.76701833962466
 20
34.65403504867841
 10
24.76701833962466
 20
34.72403504867843
 10
24.67201833962466
 20
34.72403504867843
 42
-0.4142135623731124
 10
24.64201833962466
 20
34.75403504867843
 10
24.64201833962466
 20
34.81903504867843
 42
-0.4142135623730951
 10
24.67201833962466
 20
34.84903504867843
 10
24.76701833962466
 20
34.84903504867843
 10
24.76701833962466
 20
34.96403504867843
 10
24.78201833962466
 20
34.97903504867843
 10
24.76701833962466
 20
34.99403504867843
 10
24.76701833962466
 20
36.21403504867844
 10
24.78201833962466
 20
36.22903504867844
 10
24.76701833962466
 20
36.24403504867844
 10
24.76701833962466
 20
36.35903504867844
 10
24.67201833962466
 20
36.35903504867844
 42
-0.4142135623731125
 10
24.64201833962466
 20
36.38903504867843
  0
LWPOLYLINE
  5
480D
330
17
100
AcDbEntity
  8
R-SWTS-DET2
100
AcDbPolyline
 90
       46
 70
     1
 43
0.0
 10
24.95201833962466
 20
35.68403504867843
 10
25.093187283675
 20
35.68403504867843
 42
0.2909872012781223
 10
25.14752020293855
 20
35.71858050322383
 42
-0.5639031077483408
 10
25.60701833962467
 20
35.76735987838903
 10
25.60701833962466
 20
35.71903504867844
 42
-0.4142135623731037
 10
25.54701833962466
 20
35.65903504867844
 10
25.48728113404095
 20
35.65903504867844
 42
3.73205080756965
 10
25.48728113404097
 20
35.54903504867846
 10
25.54701833962466
 20
35.54903504867843
 42
-0.4142135623731037
 10
25.60701833962466
 20
35.48903504867843
 10
25.60701833962465
 20
35.44071021896781
 42
-0.5639031077483051
 10
25.14752020293855
 20
35.48948959413297
 42
0.2909872012781288
 10
25.09318728367496
 20
35.52403504867843
 10
24.95201833962466
 20
35.52403504867843
 42
0.4142135623731038
 10
24.89201833962466
 20
35.46403504867843
 10
24.89201833962466
 20
35.31403504867844
 10
24.92701833962466
 20
35.27903504867842
 10
24.92701833962466
 20
34.74903504867841
 10
25.02701833962468
 20
34.74903504867841
 42
-0.1989123673796632
 10
25.11540668727299
 20
34.71242339632673
 10
25.2037950349213
 20
34.62403504867841
 10
25.61701833962465
 20
34.62403504867841
 10
26.02540668727299
 20
35.03242339632674
 42
-0.1989123673796512
 10
26.11379503492131
 20
35.06903504867841
 10
27.53701833962463
 20
35.06903504867841
 10
27.53701833962463
 20
35.36903504867841
 10
27.29701833962462
 20
35.36903504867841
 42
-0.4142135623730951
 10
27.23701833962463
 20
35.42903504867842
 10
27.23701833962463
 20
35.54903504867843
 10
27.29675554520833
 20
35.54903504867843
 42
3.73205080756965
 10
27.29675554520833
 20
35.65903504867844
 10
27.23701833962463
 20
35.65903504867844
 10
27.23701833962463
 20
35.77903504867845
 42
-0.4142135623730951
 10
27.29701833962463
 20
35.83903504867846
 10
27.53701833962463
 20
35.83903504867846
 10
27.53701833962463
 20
36.13903504867845
 10
26.11379503492131
 20
36.13903504867845
 42
-0.1989123673796512
 10
26.02540668727299
 20
36.17564670103013
 10
25.61701833962465
 20
36.58403504867846
 10
25.2037950349213
 20
36.58403504867846
 10
25.11540668727299
 20
36.49564670103014
 42
-0.1989123673796592
 10
25.02701833962468
 20
36.45903504867846
 10
24.92701833962466
 20
36.45903504867846
 10
24.92701833962466
 20
35.92903504867844
 10
24.89201833962466
 20
35.89403504867843
 10
24.89201833962466
 20
35.74403504867843
 42
0.4142135623731037
  0
ARC
  5
480F
330
17
100
AcDbEntity
  8
R-SWTS-DET2
100
AcDbCircle
 10
27.47376831962464
 20
35.52228512867844
 30
0.0
 40
0.06474996
100
AcDbArc
 50
89.99996999999998
 51
180.0
  0
ARC
  5
4810
330
17
100
AcDbEntity
  8
R-SWTS-DET2
100
AcDbCircle
 10
27.47376831962464
 20
35.68578496867843
 30
0.0
 40
0.06474996
100
AcDbArc
 50
180.0
 51
270.0
  0
CIRCLE
  5
4811
330
17
100
AcDbEntity
  8
R-SWTS-DET2
100
AcDbCircle
 10
27.39201833962464
 20
35.60403504867843
 30
0.0
 40
0.2125
  0
LWPOLYLINE
  5
4812
330
17
100
AcDbEntity
  8
R-SWTS-DET1
100
AcDbPolyline
 90
        6
 70
     0
 43
0.0
 10
22.76701833962466
 20
28.69501874956855
 10
25.53613759318702
 20
28.69501874956855
 10
25.58905800784946
 20
28.48276655944567
 10
25.69497867139985
 20
28.90759113728109
 10
25.74797892028783
 20
28.69501874956855
 10
28.51701833962465
 20
28.69501874956855
  0
LWPOLYLINE
  5
4813
330
17
100
AcDbEntity
  8
R-SWTS-DET1
100
AcDbPolyline
 90
        6
 70
     0
 43
0.0
 10
22.76701833962466
 20
30.52168456441215
 10
25.53613759318702
 20
30.52168456441215
 10
25.58905800784946
 20
30.73393675453503
 10
25.69497867139985
 20
30.30911217669962
 10
25.74797892028783
 20
30.52168456441215
 10
28.51701833962465
 20
30.52168456441215
  0
TEXT
  5
4816
330
17
100
AcDbEntity
  8
R-ANNO-DIMS
  6
ByBlock
100
AcDbText
 10
21.14201833962466
 20
31.03116735837881
 30
0.0
 40
0.25
  1
VENT OPENING
 50
90.0
 72
     1
 11
21.01701833962466
 21
32.35074443886994
 31
0.0
100
AcDbText
 73
     2
  0
LINE
  5
4817
330
17
100
AcDbEntity
  8
R-ANNO-DIMS
  6
ByBlock
100
AcDbLine
 10
21.26701833962465
 20
34.15403504867843
 30
0.0
 11
21.26701833962465
 21
30.73941955141983
 31
0.0
  0
SOLID
  5
481B
330
17
100
AcDbEntity
  8
R-ANNO-DIMS
  6
ByBlock
100
AcDbTrace
 10
21.23368500629132
 20
28.45736157321685
 30
0.0
 11
21.30035167295799
 21
28.45736157321685
 31
0.0
 12
21.26701833962465
 22
28.65736157321684
 32
0.0
 13
21.26701833962465
 23
28.65736157321684
 33
0.0
  0
SOLID
  5
481C
330
17
100
AcDbEntity
  8
R-ANNO-DIMS
  6
ByBlock
100
AcDbTrace
 10
21.23368500629132
 20
30.75934174076386
 30
0.0
 11
21.30035167295799
 21
30.75934174076386
 31
0.0
 12
21.26701833962465
 22
30.55934174076386
 32
0.0
 13
21.26701833962465
 23
30.55934174076386
 33
0.0
  0
LINE
  5
482E
330
17
100
AcDbEntity
  8
R-ANNO-DIMS
  6
ByBlock
100
AcDbLine
 10
22.89201833962466
 20
34.35403504867843
 30
0.0
 11
21.14201833962466
 21
34.35403504867843
 31
0.0
  0
LINE
  5
482F
330
17
100
AcDbEntity
  8
R-ANNO-DIMS
  6
ByBlock
100
AcDbLine
 10
22.89201833962466
 20
34.35403504867843
 30
0.0
 11
21.14201833962466
 21
34.35403504867843
 31
0.0
  0
LINE
  5
4830
330
17
100
AcDbEntity
  8
R-ANNO-DIMS
  6
ByBlock
100
AcDbLine
 10
22.89201833962466
 20
36.85403504867843
 30
0.0
 11
21.14201833962466
 21
36.85403504867843
 31
0.0
  0
LINE
  5
4831
330
17
100
AcDbEntity
  8
R-ANNO-DIMS
  6
ByBlock
100
AcDbLine
 10
22.89201833962466
 20
36.85403504867843
 30
0.0
 11
21.14201833962466
 21
36.85403504867843
 31
0.0
  0
LINE
  5
4832
330
17
100
AcDbEntity
  8
R-ANNO-DIMS
  6
ByBlock
100
AcDbLine
 10
21.26701833962465
 20
34.55403504867843
 30
0.0
 11
21.26701833962465
 21
36.65403504867843
 31
0.0
  0
TEXT
  5
4833
330
17
100
AcDbEntity
  8
R-ANNO-DIMS
  6
ByBlock
100
AcDbText
 10
21.14201833962466
 20
35.15365987814636
 30
0.0
 40
0.25
  1
2 1/2"
 50
90.0
 72
     1
 11
21.01701833962466
 21
35.60403504867843
 31
0.0
100
AcDbText
 73
     2
  0
SOLID
  5
4834
330
17
100
AcDbEntity
  8
R-ANNO-DIMS
  6
ByBlock
100
AcDbTrace
 10
21.23368500629132
 20
34.15403504867843
 30
0.0
 11
21.30035167295799
 21
34.15403504867843
 31
0.0
 12
21.26701833962465
 22
34.35403504867843
 32
0.0
 13
21.26701833962465
 23
34.35403504867843
 33
0.0
  0
SOLID
  5
4835
330
17
100
AcDbEntity
  8
R-ANNO-DIMS
  6
ByBlock
100
AcDbTrace
 10
21.23368500629132
 20
34.55403504867843
 30
0.0
 11
21.30035167295799
 21
34.55403504867843
 31
0.0
 12
21.26701833962465
 22
34.35403504867843
 32
0.0
 13
21.26701833962465
 23
34.35403504867843
 33
0.0
  0
SOLID
  5
4836
330
17
100
AcDbEntity
  8
R-ANNO-DIMS
  6
ByBlock
100
AcDbTrace
 10
21.23368500629132
 20
36.65403504867843
 30
0.0
 11
21.30035167295799
 21
36.65403504867843
 31
0.0
 12
21.26701833962465
 22
36.85403504867843
 32
0.0
 13
21.26701833962465
 23
36.85403504867843
 33
0.0
  0
SOLID
  5
4837
330
17
100
AcDbEntity
  8
R-ANNO-DIMS
  6
ByBlock
100
AcDbTrace
 10
21.23368500629132
 20
37.05403504867843
 30
0.0
 11
21.30035167295799
 21
37.05403504867843
 31
0.0
 12
21.26701833962465
 22
36.85403504867843
 32
0.0
 13
21.26701833962465
 23
36.85403504867843
 33
0.0
  0
LINE
  5
4838
330
17
100
AcDbEntity
  8
R-SWTS-DET2
100
AcDbLine
 10
27.37501837962464
 20
35.52228512867844
 30
0.0
 11
27.37501837962464
 21
35.47453504867843
 31
0.0
  0
LINE
  5
4839
330
17
100
AcDbEntity
  8
R-SWTS-DET2
100
AcDbLine
 10
27.40901835962464
 20
35.52228512867844
 30
0.0
 11
27.40901835962464
 21
35.47453504867843
 31
0.0
  0
LINE
  5
483A
330
17
100
AcDbEntity
  8
R-SWTS-DET2
100
AcDbLine
 10
25.37501837962466
 20
35.52228512867842
 30
0.0
 11
25.37501837962466
 21
35.47453504867842
 31
0.0
  0
LINE
  5
483B
330
17
100
AcDbEntity
  8
R-SWTS-DET2
100
AcDbLine
 10
25.40901835962467
 20
35.52228512867842
 30
0.0
 11
25.40901835962467
 21
35.47453504867842
 31
0.0
  0
CIRCLE
  5
483C
330
17
100
AcDbEntity
  8
R-SWTS-DET2
100
AcDbCircle
 10
25.39201833962467
 20
35.60403504867843
 30
0.0
 40
0.2125
  0
LINE
  5
483D
330
17
100
AcDbEntity
  8
R-SWTS-DET2
100
AcDbLine
 10
24.30701833962468
 20
35.47864504867843
 30
0.0
 11
24.64201833962467
 21
35.60403504867843
 31
0.0
  0
LINE
  5
483E
330
17
100
AcDbEntity
  8
R-SWTS-DET2
100
AcDbLine
 10
23.45841333962467
 20
35.79062504867843
 30
0.0
 11
23.45841333962467
 21
35.41743504867843
 31
0.0
  0
LINE
  5
483F
330
17
100
AcDbEntity
  8
R-SWTS-DET2
100
AcDbLine
 10
23.60201833962468
 20
35.85403504867843
 30
0.0
 11
23.60201833962468
 21
35.35403504867843
 31
0.0
  0
LINE
  5
4840
330
17
100
AcDbEntity
  8
R-SWTS-DET1
100
AcDbLine
 10
23.64201833962467
 20
35.85403504867843
 30
0.0
 11
23.64201833962467
 21
35.35403504867843
 31
0.0
  0
LINE
  5
4841
330
17
100
AcDbEntity
  8
R-SWTS-DET2
100
AcDbLine
 10
23.42741333962468
 20
35.75621504867843
 30
0.0
 11
23.42741333962468
 21
35.45184004867843
 31
0.0
  0
ARC
  5
4842
330
17
100
AcDbEntity
  8
R-SWTS-DET2
100
AcDbCircle
 10
23.59226333962468
 20
35.60403504867843
 30
0.0
 40
0.16484915
100
AcDbArc
 50
142.0123
 51
217.9877
  0
LINE
  5
4843
330
17
100
AcDbEntity
  8
R-SWTS-DET3
100
AcDbLine
 10
23.23301833962465
 20
34.33151219256364
 30
0.0
 11
23.23301833962465
 21
36.07303504867842
 31
0.0
  0
LWPOLYLINE
  5
4844
330
17
100
AcDbEntity
  8
R-SWTS-DET1
100
AcDbPolyline
 90
       14
 70
     1
 43
0.0
 10
23.07701833962466
 20
36.80403504867843
 10
23.44101833962465
 20
36.80403504867843
 10
23.44101833962465
 20
36.7740350486784
 42
1.0
 10
23.52101833962465
 20
36.7740350486784
 10
23.52101833962465
 20
36.79403504867842
 42
0.4142135623730908
 10
23.46101833962466
 20
36.85403504867843
 10
23.01701833962466
 20
36.85403504867843
 10
23.01701833962466
 20
34.35403504867843
 10
23.46101833962464
 20
34.35403504867843
 42
0.4142135623730907
 10
23.52101833962465
 20
34.41403504867843
 10
23.52101833962465
 20
34.43403504867845
 42
1.0
 10
23.44101833962465
 20
34.43403504867845
 10
23.44101833962465
 20
34.40403504867842
 10
23.07701833962466
 20
34.40403504867843
  0
LWPOLYLINE
  5
4845
330
17
100
AcDbEntity
  8
R-SWTS-DET1
100
AcDbPolyline
 90
       59
 70
     1
 43
0.0
 10
23.53101833962467
 20
34.66803504867841
 10
23.53101833962467
 20
34.55403504867845
 10
23.39619367043251
 20
34.55403504867845
 10
23.29101833962466
 20
34.61475805423247
 42
1.000000000000009
 10
23.25101833962467
 20
34.54547602192972
 10
23.43364746249537
 20
34.44003504867846
 42
-0.849090458656993
 10
23.53101833962465
 20
34.42403504867845
 10
23.53101833962465
 20
34.38403504867843
 42
0.4142135623731122
 10
23.56101833962465
 20
34.35403504867843
 10
23.74701833962466
 20
34.35403504867843
 42
0.4142135623730951
 10
23.76701833962465
 20
34.37403504867842
 10
23.76701833962465
 20
34.45603504867842
 42
0.6693764950686889
 10
23.74137668101524
 20
34.46660647724986
 42
-0.1997729274168814
 10
23.67752672935879
 20
34.44003504867843
 10
23.66701833962466
 20
34.44003504867843
 42
-0.4142135623731054
 10
23.61701833962465
 20
34.49003504867842
 10
23.61701833962467
 20
34.57803504867842
 42
-0.4142135623730951
 10
23.66701833962466
 20
34.62803504867842
 10
23.67752672935879
 20
34.62803504867843
 42
-0.1997729274168702
 10
23.74137668101525
 20
34.601463620107
 42
0.6693764950687497
 10
23.76701833962465
 20
34.61203504867843
 10
23.76701833962465
 20
35.37903504867843
 10
23.78201833962465
 20
35.39403504867843
 10
23.76701833962465
 20
35.40903504867843
 10
23.76701833962465
 20
35.79903504867843
 10
23.78201833962465
 20
35.81403504867843
 10
23.76701833962465
 20
35.82903504867842
 10
23.76701833962465
 20
36.59603504867843
 42
0.6693764950687072
 10
23.74137668101525
 20
36.60660647724986
 42
-0.1997729274168761
 10
23.67752672935879
 20
36.58003504867842
 10
23.66701833962466
 20
36.58003504867843
 42
-0.4142135623730951
 10
23.61701833962467
 20
36.63003504867843
 10
23.61701833962465
 20
36.71803504867843
 42
-0.4142135623731054
 10
23.66701833962466
 20
36.76803504867843
 10
23.67752672935879
 20
36.76803504867843
 42
-0.1997729274168748
 10
23.74137668101524
 20
36.74146362010699
 42
0.6693764950686886
 10
23.76701833962465
 20
36.75203504867843
 10
23.76701833962465
 20
36.83403504867843
 42
0.4142135623730951
 10
23.74701833962466
 20
36.85403504867843
 10
23.56101833962465
 20
36.85403504867843
 42
0.4142135623731039
 10
23.53101833962465
 20
36.82403504867843
 10
23.53101833962467
 20
36.78403504867841
 42
-0.8490904586570017
 10
23.43364746249534
 20
36.7680350486784
 10
23.25101833962467
 20
36.66259407542714
 42
1.000000000000009
 10
23.29101833962466
 20
36.59331204312439
 10
23.39619367043251
 20
36.6540350486784
 10
23.53101833962467
 20
36.6540350486784
 10
23.53101833962467
 20
36.54003504867845
 42
0.4142135623730516
 10
23.59101833962464
 20
36.48003504867844
 10
23.66701833962466
 20
36.48003504867843
 10
23.66701833962466
 20
35.92903504867843
 10
23.64201833962466
 20
35.90403504867842
 10
23.64201833962466
 20
35.61903504867843
 10
23.65701833962466
 20
35.60403504867843
 10
23.64201833962466
 20
35.58903504867843
 10
23.64201833962466
 20
35.30403504867842
 10
23.66701833962466
 20
35.27903504867842
 10
23.66701833962466
 20
34.72803504867842
 10
23.59101833962464
 20
34.72803504867841
 42
0.4142135623730518
  0
LINE
  5
4846
330
17
100
AcDbEntity
  8
R-SWTS-DET2
100
AcDbLine
 10
24.64901833962466
 20
35.08703504867909
 30
0.0
 11
25.17967705278095
 21
35.08703504867909
 31
0.0
  0
LINE
  5
4847
330
17
100
AcDbEntity
  8
R-SWTS-DET2
100
AcDbLine
 10
25.17967705278095
 20
34.8710350486791
 30
0.0
 11
24.64901833962466
 21
34.8710350486791
 31
0.0
  0
SOLID
  5
484D
330
17
100
AcDbEntity
  8
R-SWTS-DET3
100
AcDbTrace
 10
23.26635167295799
 20
34.33151219256364
 30
0.0
 11
23.19968500629132
 21
34.33151219256364
 31
0.0
 12
23.23301833962465
 22
34.13151219256363
 32
0.0
 13
23.23301833962465
 23
34.13151219256363
 33
0.0
  0
LINE
  5
4862
330
17
100
AcDbEntity
  8
R-SWTS-DET2
100
AcDbLine
 10
23.64201833962467
 20
35.47864504867843
 30
0.0
 11
24.30701833962468
 21
35.47864504867843
 31
0.0
  0
LINE
  5
4863
330
17
100
AcDbEntity
  8
R-SWTS-DET2
100
AcDbLine
 10
23.76701833962465
 20
35.29103504867843
 30
0.0
 11
24.01701833962466
 21
35.29103504867843
 31
0.0
  0
LINE
  5
4864
330
17
100
AcDbEntity
  8
R-SWTS-DET2
100
AcDbLine
 10
24.01535970060294
 20
34.24258431343803
 30
0.0
 11
23.48104296006046
 21
34.29364942461734
 31
0.0
  0
LINE
  5
4865
330
17
100
AcDbEntity
  8
R-SWTS-DET2
100
AcDbLine
 10
23.77104296006046
 20
34.83364942461733
 30
0.0
 11
24.01535970060294
 21
34.83497139776945
 31
0.0
  0
LINE
  5
4866
330
17
100
AcDbEntity
  8
R-SWTS-DET2
100
AcDbLine
 10
23.46233833962468
 20
35.40111504867843
 30
0.0
 11
23.60201833962468
 21
35.40111504867843
 31
0.0
  0
LINE
  5
4867
330
17
100
AcDbEntity
  8
R-SWTS-DET2
100
AcDbLine
 10
23.46233833962468
 20
35.50257004867843
 30
0.0
 11
23.60201833962468
 21
35.50257004867843
 31
0.0
  0
ARC
  5
4868
330
17
100
AcDbEntity
  8
R-SWTS-DET2
100
AcDbCircle
 10
23.48172333962468
 20
35.45184004867843
 30
0.0
 40
0.0543126
100
AcDbArc
 50
110.9107
 51
249.0893
  0
LINE
  5
4869
330
17
100
AcDbEntity
  8
R-SWTS-DET2
100
AcDbLine
 10
23.43970833962467
 20
35.41743504867843
 30
0.0
 11
23.45841333962467
 21
35.41743504867843
 31
0.0
  0
LINE
  5
486A
330
17
100
AcDbEntity
  8
R-SWTS-DET1
100
AcDbLine
 10
23.60201833962468
 20
35.35403504867843
 30
0.0
 11
23.64201833962467
 21
35.35403504867843
 31
0.0
  0
LINE
  5
486B
330
17
100
AcDbEntity
  8
R-SWTS-DET1
100
AcDbLine
 10
23.76701833962465
 20
35.47103504867842
 30
0.0
 11
23.64201833962466
 21
35.47103504867842
 31
0.0
  0
LINE
  5
486C
330
17
100
AcDbEntity
  8
R-SWTS-DET1
100
AcDbLine
 10
23.76701833962465
 20
35.29103504867843
 30
0.0
 11
23.76701833962465
 21
35.35353504867842
 31
0.0
  0
LINE
  5
486D
330
17
100
AcDbEntity
  8
R-SWTS-DET2
100
AcDbLine
 10
23.48104296006046
 20
34.29364942461734
 30
0.0
 11
23.48104296006045
 21
34.35364942461735
 31
0.0
  0
LINE
  5
486E
330
17
100
AcDbEntity
  8
R-SWTS-DET2
100
AcDbLine
 10
23.48104296006045
 20
34.35364942461735
 30
0.0
 11
23.59667381777381
 21
34.35364942461735
 31
0.0
  0
LWPOLYLINE
  5
486F
330
17
100
AcDbEntity
  8
R-SWTS-DET3
100
AcDbPolyline
 90
        4
 70
     1
 43
0.0
 10
23.38901833962466
 20
34.35403504867843
 10
23.07701833962466
 20
34.40403504867842
 10
23.07701833962466
 20
34.35403504867843
 10
23.38901833962466
 20
34.40403504867842
  0
LINE
  5
4870
330
17
100
AcDbEntity
  8
R-SWTS-DET2
100
AcDbLine
 10
23.47726341760081
 20
34.29364942461734
 30
0.0
 11
23.47726341760079
 21
34.35364942461735
 31
0.0
  0
LINE
  5
4871
330
17
100
AcDbEntity
  8
R-SWTS-DET2
100
AcDbLine
 10
24.51701833962466
 20
35.1980350486791
 30
0.0
 11
24.64901833962466
 21
35.08703504867909
 31
0.0
  0
LINE
  5
4872
330
17
100
AcDbEntity
  8
R-SWTS-DET2
100
AcDbLine
 10
24.76701833962464
 20
35.07003504867834
 30
0.0
 11
24.92701833962464
 21
35.07003504867834
 31
0.0
  0
LINE
  5
4873
330
17
100
AcDbEntity
  8
R-SWTS-DET1
100
AcDbLine
 10
24.01701833962466
 20
35.29103504867843
 30
0.0
 11
24.01701833962466
 21
35.35353504867842
 31
0.0
  0
LINE
  5
4876
330
17
100
AcDbEntity
  8
R-SWTS-DET2
100
AcDbLine
 10
24.64901833962466
 20
34.8710350486791
 30
0.0
 11
24.51701833962466
 21
34.7600350486791
 31
0.0
  0
LINE
  5
4877
330
17
100
AcDbEntity
  8
R-SWTS-DET2
100
AcDbLine
 10
24.76701833962464
 20
34.88803504867834
 30
0.0
 11
24.92701833962464
 21
34.88803504867834
 31
0.0
  0
LINE
  5
4885
330
17
100
AcDbEntity
  8
R-SWTS-DET2
100
AcDbLine
 10
24.51701833962466
 20
34.7600350486791
 30
0.0
 11
24.51701833962466
 21
35.1980350486791
 31
0.0
  0
LINE
  5
48A2
330
17
100
AcDbEntity
  8
R-SWTS-DET1
100
AcDbLine
 10
26.24625312521988
 20
34.35056673323794
 30
0.0
 11
26.33625312521989
 21
34.35056673323794
 31
0.0
  0
LINE
  5
48A3
330
17
100
AcDbEntity
  8
R-SWTS-DET2
100
AcDbLine
 10
25.37501837962466
 20
35.47453504867842
 30
0.0
 11
25.40901835962467
 21
35.47453504867842
 31
0.0
  0
LINE
  5
48A4
330
17
100
AcDbEntity
  8
R-SWTS-DET2
100
AcDbLine
 10
25.17967705278095
 20
35.08703504867909
 30
0.0
 11
25.37349884259561
 21
35.00675143465443
 31
0.0
  0
LINE
  5
48AE
330
17
100
AcDbEntity
  8
R-SWTS-DET2
100
AcDbLine
 10
25.37349884259561
 20
34.95131866270376
 30
0.0
 11
25.17967705278095
 21
34.8710350486791
 31
0.0
  0
ARC
  5
48AF
330
17
100
AcDbEntity
  8
R-SWTS-DET2
100
AcDbCircle
 10
25.36201833962465
 20
34.9790350486791
 30
0.0
 40
0.0299999999999996
100
AcDbArc
 50
292.4999999999979
 51
67.50000000000217
  0
LINE
  5
48B0
330
17
100
AcDbEntity
  8
R-SWTS-DET2
100
AcDbLine
 10
27.37501837962464
 20
35.47453504867843
 30
0.0
 11
27.40901835962464
 21
35.47453504867843
 31
0.0
  0
LWPOLYLINE
  5
48B1
330
17
100
AcDbEntity
  8
R-SWTS-DET2
100
AcDbPolyline
 90
        8
 70
     1
 43
0.0
 10
24.64901833962466
 20
36.33703504867776
 10
24.51701833962466
 20
36.44803504867776
 10
24.51701833962466
 20
36.01003504867776
 10
24.64901833962466
 20
36.12103504867776
 10
25.17967705278095
 20
36.12103504867776
 10
25.37349884259561
 20
36.20131866270242
 42
0.6681786379193252
 10
25.37349884259561
 20
36.2567514346531
 10
25.17967705278095
 20
36.33703504867776
  0
LINE
  5
48B2
330
17
100
AcDbEntity
  8
R-SWTS-DET2
100
AcDbLine
 10
23.7672634176008
 20
36.37442067273952
 30
0.0
 11
24.0172634176008
 21
36.37442067273952
 31
0.0
  0
LINE
  5
48B3
330
17
100
AcDbEntity
  8
R-SWTS-DET2
100
AcDbLine
 10
23.64201833962467
 20
35.72941504867843
 30
0.0
 11
24.30701833962468
 21
35.72941504867843
 31
0.0
  0
LINE
  5
48B4
330
17
100
AcDbEntity
  8
R-SWTS-DET3
100
AcDbLine
 10
23.23301833962465
 20
36.07303504867842
 30
0.0
 11
24.10249463435537
 21
36.07303504867842
 31
0.0
  0
LINE
  5
48B5
330
17
100
AcDbEntity
  8
R-SWTS-DET2
100
AcDbLine
 10
24.01701833962466
 20
35.91703504867842
 30
0.0
 11
23.76701833962465
 21
35.91703504867842
 31
0.0
  0
ARC
  5
48B6
330
17
100
AcDbEntity
  8
R-SWTS-DET2
100
AcDbCircle
 10
23.95451833962466
 20
36.29153504867843
 30
0.0
 40
0.0625
100
AcDbArc
 50
90.0
 51
270.0
  0
ARC
  5
48B7
330
17
100
AcDbEntity
  8
R-SWTS-DET2
100
AcDbCircle
 10
23.48172333962468
 20
35.75621504867843
 30
0.0
 40
0.0543126
100
AcDbArc
 50
110.9107
 51
249.0893
  0
LINE
  5
48B8
330
17
100
AcDbEntity
  8
R-SWTS-DET2
100
AcDbLine
 10
23.46233833962468
 20
35.70549004867843
 30
0.0
 11
23.60201833962468
 21
35.70549004867843
 31
0.0
  0
LINE
  5
48B9
330
17
100
AcDbEntity
  8
R-SWTS-DET1
100
AcDbLine
 10
23.76701833962465
 20
35.73703504867842
 30
0.0
 11
23.64201833962466
 21
35.73703504867842
 31
0.0
  0
LINE
  5
48BA
330
17
100
AcDbEntity
  8
R-SWTS-DET2
100
AcDbLine
 10
23.46233833962468
 20
35.80694504867843
 30
0.0
 11
23.60201833962468
 21
35.80694504867843
 31
0.0
  0
LINE
  5
48BB
330
17
100
AcDbEntity
  8
R-SWTS-DET2
100
AcDbLine
 10
23.43970833962467
 20
35.79062504867843
 30
0.0
 11
23.45841333962467
 21
35.79062504867843
 31
0.0
  0
LINE
  5
48BC
330
17
100
AcDbEntity
  8
R-SWTS-DET1
100
AcDbLine
 10
23.60201833962468
 20
35.85403504867843
 30
0.0
 11
23.64201833962467
 21
35.85403504867843
 31
0.0
  0
LINE
  5
48BD
330
17
100
AcDbEntity
  8
R-SWTS-DET1
100
AcDbLine
 10
23.76701833962465
 20
35.85453504867842
 30
0.0
 11
23.76701833962465
 21
35.91703504867842
 31
0.0
  0
LWPOLYLINE
  5
48BE
330
17
100
AcDbEntity
  8
R-SWTS-DET3
100
AcDbPolyline
 90
        5
 70
     0
 43
0.0
 10
23.66701833962466
 20
35.92903504867843
 10
23.76701833962465
 20
36.22903504867842
 10
23.66701833962466
 20
36.22903504867842
 10
23.76701833962465
 20
35.91703504867842
 10
23.65501833962465
 20
35.91703504867842
  0
LINE
  5
48BF
330
17
100
AcDbEntity
  8
R-SWTS-DET2
100
AcDbLine
 10
24.76701833962464
 20
36.32003504867834
 30
0.0
 11
24.92701833962464
 21
36.32003504867834
 31
0.0
  0
LINE
  5
48C0
330
17
100
AcDbEntity
  8
R-SWTS-DET1
100
AcDbLine
 10
24.26751833962466
 20
36.35403504867843
 30
0.0
 11
24.01751833962466
 21
36.35403504867843
 31
0.0
  0
LINE
  5
48C1
330
17
100
AcDbEntity
  8
R-SWTS-DET2
100
AcDbLine
 10
24.51677326164851
 20
36.37442067273952
 30
0.0
 11
24.26677326164851
 21
36.37442067273952
 31
0.0
  0
LINE
  5
48C2
330
17
100
AcDbEntity
  8
R-SWTS-DET2
100
AcDbLine
 10
23.95451833962466
 20
36.35403504867843
 30
0.0
 11
24.45451833962466
 21
36.35403504867843
 31
0.0
  0
LINE
  5
48C3
330
17
100
AcDbEntity
  8
R-SWTS-DET2
100
AcDbLine
 10
24.64201833962467
 20
35.60403504867843
 30
0.0
 11
24.30701833962468
 21
35.72941504867843
 31
0.0
  0
LINE
  5
48C4
330
17
100
AcDbEntity
  8
R-SWTS-DET2
100
AcDbLine
 10
24.76701833962464
 20
36.13803504867834
 30
0.0
 11
24.92701833962464
 21
36.13803504867834
 31
0.0
  0
LINE
  5
48C5
330
17
100
AcDbEntity
  8
R-SWTS-DET2
100
AcDbLine
 10
24.45451833962466
 20
36.22903504867843
 30
0.0
 11
24.39201833962466
 21
36.22903504867843
 31
0.0
  0
LINE
  5
48C6
330
17
100
AcDbEntity
  8
R-SWTS-DET1
100
AcDbLine
 10
24.39201833962466
 20
35.91703504867842
 30
0.0
 11
24.01701833962466
 21
35.91703504867842
 31
0.0
  0
LINE
  5
48C7
330
17
100
AcDbEntity
  8
R-SWTS-DET1
100
AcDbLine
 10
24.01701833962466
 20
35.85453504867842
 30
0.0
 11
24.01701833962466
 21
35.91703504867842
 31
0.0
  0
LINE
  5
48C8
330
17
100
AcDbEntity
  8
R-SWTS-DET2
100
AcDbLine
 10
24.01701833962466
 20
35.91703504867842
 30
0.0
 11
24.01701833962466
 21
36.22903504867843
 31
0.0
  0
LINE
  5
48C9
330
17
100
AcDbEntity
  8
R-SWTS-DET2
100
AcDbLine
 10
24.39201833962466
 20
36.22903504867843
 30
0.0
 11
24.39201833962466
 21
35.91703504867842
 31
0.0
  0
LINE
  5
48CA
330
17
100
AcDbEntity
  8
R-SWTS-DET2
100
AcDbLine
 10
24.01701833962466
 20
36.22903504867843
 30
0.0
 11
23.95451833962466
 21
36.22903504867843
 31
0.0
  0
ARC
  5
48CB
330
17
100
AcDbEntity
  8
R-SWTS-DET2
100
AcDbCircle
 10
24.45451833962466
 20
36.29153504867843
 30
0.0
 40
0.0625
100
AcDbArc
 50
270.0
 51
90.0
  0
LINE
  5
48CC
330
17
100
AcDbEntity
  8
R-SWTS-DET2
100
AcDbLine
 10
24.0172634176008
 20
36.99095610581038
 30
0.0
 11
23.47726341760081
 21
36.91442067273951
 31
0.0
  0
LINE
  5
48CD
330
17
100
AcDbEntity
  8
R-SWTS-DET2
100
AcDbLine
 10
23.47726341760081
 20
36.91442067273951
 30
0.0
 11
23.47726341760079
 21
36.85442067273951
 31
0.0
  0
LINE
  5
48CE
330
17
100
AcDbEntity
  8
R-SWTS-DET2
100
AcDbLine
 10
23.47726341760079
 20
36.85442067273951
 30
0.0
 11
23.59289427531415
 21
36.85442067273951
 31
0.0
  0
LINE
  5
48CF
330
17
100
AcDbEntity
  8
R-SWTS-DET2
100
AcDbLine
 10
24.26677326164851
 20
36.99095610581038
 30
0.0
 11
24.8067732616485
 21
36.91442067273951
 31
0.0
  0
LINE
  5
48D0
330
17
100
AcDbEntity
  8
R-SWTS-DET2
100
AcDbLine
 10
24.8067732616485
 20
36.91442067273951
 30
0.0
 11
24.80677326164852
 21
36.85442067273951
 31
0.0
  0
LINE
  5
48D1
330
17
100
AcDbEntity
  8
R-SWTS-DET2
100
AcDbLine
 10
24.80677326164852
 20
36.85442067273951
 30
0.0
 11
24.69114240393516
 21
36.85442067273951
 31
0.0
  0
LINE
  5
48D2
330
17
100
AcDbEntity
  8
R-SWTS-DET2
100
AcDbLine
 10
25.37501837962466
 20
35.73353504867842
 30
0.0
 11
25.37501837962466
 21
35.68578496867842
 31
0.0
  0
LINE
  5
48D3
330
17
100
AcDbEntity
  8
R-SWTS-DET2
100
AcDbLine
 10
25.40901835962467
 20
35.73353504867842
 30
0.0
 11
25.40901835962467
 21
35.68578496867842
 31
0.0
  0
LINE
  5
48D4
330
17
100
AcDbEntity
  8
R-SWTS-DET2
100
AcDbLine
 10
25.37501837962466
 20
35.73353504867842
 30
0.0
 11
25.40901835962467
 21
35.73353504867842
 31
0.0
  0
LINE
  5
48D5
330
17
100
AcDbEntity
  8
R-SWTS-DET2
100
AcDbLine
 10
25.26251833962466
 20
35.62103504867842
 30
0.0
 11
25.31026841962467
 21
35.62103504867842
 31
0.0
  0
LINE
  5
48D6
330
17
100
AcDbEntity
  8
R-SWTS-DET2
100
AcDbLine
 10
25.26251833962466
 20
35.58703504867843
 30
0.0
 11
25.31026841962467
 21
35.58703504867843
 31
0.0
  0
LINE
  5
48D7
330
17
100
AcDbEntity
  8
R-SWTS-DET2
100
AcDbLine
 10
25.47376831962467
 20
35.62103504867842
 30
0.0
 11
25.52151833962466
 21
35.62103504867842
 31
0.0
  0
LINE
  5
48D8
330
17
100
AcDbEntity
  8
R-SWTS-DET2
100
AcDbLine
 10
25.47376831962467
 20
35.58703504867843
 30
0.0
 11
25.52151833962466
 21
35.58703504867843
 31
0.0
  0
LINE
  5
48D9
330
17
100
AcDbEntity
  8
R-SWTS-DET2
100
AcDbLine
 10
25.52151833962466
 20
35.62103504867842
 30
0.0
 11
25.52151833962466
 21
35.58703504867843
 31
0.0
  0
LINE
  5
48DA
330
17
100
AcDbEntity
  8
R-SWTS-DET2
100
AcDbLine
 10
25.26251833962466
 20
35.62103504867842
 30
0.0
 11
25.26251833962466
 21
35.58703504867843
 31
0.0
  0
ARC
  5
48DB
330
17
100
AcDbEntity
  8
R-SWTS-DET2
100
AcDbCircle
 10
25.47376831962467
 20
35.52228512867842
 30
0.0
 40
0.06474996
100
AcDbArc
 50
89.99996999999998
 51
180.0
  0
ARC
  5
48DC
330
17
100
AcDbEntity
  8
R-SWTS-DET2
100
AcDbCircle
 10
25.31026841962467
 20
35.52228512867842
 30
0.0
 40
0.06474996
100
AcDbArc
 50
0.0
 51
89.99990999999999
  0
ARC
  5
48DD
330
17
100
AcDbEntity
  8
R-SWTS-DET2
100
AcDbCircle
 10
25.31026841962467
 20
35.68578496867842
 30
0.0
 40
0.06474996
100
AcDbArc
 50
270.0
 51
0.0
  0
ARC
  5
48DE
330
17
100
AcDbEntity
  8
R-SWTS-DET2
100
AcDbCircle
 10
25.47376831962467
 20
35.68578496867842
 30
0.0
 40
0.06474996
100
AcDbArc
 50
180.0
 51
270.0
  0
LINE
  5
48DF
330
17
100
AcDbEntity
  8
R-SWTS-DET2
100
AcDbLine
 10
27.37501837962464
 20
35.73353504867843
 30
0.0
 11
27.37501837962464
 21
35.68578496867843
 31
0.0
  0
LINE
  5
48E0
330
17
100
AcDbEntity
  8
R-SWTS-DET2
100
AcDbLine
 10
27.40901835962464
 20
35.73353504867843
 30
0.0
 11
27.40901835962464
 21
35.68578496867843
 31
0.0
  0
LINE
  5
48E1
330
17
100
AcDbEntity
  8
R-SWTS-DET2
100
AcDbLine
 10
27.37501837962464
 20
35.73353504867843
 30
0.0
 11
27.40901835962464
 21
35.73353504867843
 31
0.0
  0
LINE
  5
48E2
330
17
100
AcDbEntity
  8
R-SWTS-DET2
100
AcDbLine
 10
27.26251833962463
 20
35.62103504867843
 30
0.0
 11
27.31026841962464
 21
35.62103504867843
 31
0.0
  0
LINE
  5
48E3
330
17
100
AcDbEntity
  8
R-SWTS-DET2
100
AcDbLine
 10
27.26251833962463
 20
35.58703504867843
 30
0.0
 11
27.31026841962464
 21
35.58703504867843
 31
0.0
  0
LINE
  5
48E4
330
17
100
AcDbEntity
  8
R-SWTS-DET2
100
AcDbLine
 10
27.26251833962463
 20
35.62103504867843
 30
0.0
 11
27.26251833962463
 21
35.58703504867843
 31
0.0
  0
ARC
  5
48E5
330
17
100
AcDbEntity
  8
R-SWTS-DET2
100
AcDbCircle
 10
27.31026841962464
 20
35.52228512867844
 30
0.0
 40
0.06474996
100
AcDbArc
 50
0.0
 51
89.99990999999999
  0
ARC
  5
48E6
330
17
100
AcDbEntity
  8
R-SWTS-DET2
100
AcDbCircle
 10
27.31026841962464
 20
35.68578496867843
 30
0.0
 40
0.06474996
100
AcDbArc
 50
270.0
 51
0.0
  0
LINE
  5
48E7
330
17
100
AcDbEntity
  8
R-SWTS-DET1
100
AcDbLine
 10
28.26701833962466
 20
32.33634127132122
 30
0.0
 11
28.26701833962466
 21
30.52168456441215
 31
0.0
  0
TEXT
  5
48E8
330
17
100
AcDbEntity
  8
PART_NUMBERS
100
AcDbText
 10
28.84467744346776
 20
35.32876973585777
 30
0.0
 40
0.25
  1
162335 PRESSURE PLATE
100
AcDbText
  0
TEXT
  5
48E9
330
17
100
AcDbEntity
  8
PART_NUMBERS
100
AcDbText
 10
28.84467744346776
 20
34.82876973585777
 30
0.0
 40
0.25
  1
162013 HORIZONTAL
100
AcDbText
  0
TEXT
  5
48EA
330
17
100
AcDbEntity
  8
PART_NUMBERS
100
AcDbText
 10
28.84467744346776
 20
36.35120442845035
 30
0.0
 40
0.25
  1
162377 SHEAR BLOCK
100
AcDbText
  0
LINE
  5
48EB
330
17
100
AcDbEntity
  8
R-SWTS-DET1
100
AcDbLine
 10
28.26701833962466
 20
34.35403504867843
 30
0.0
 11
28.26701833962466
 21
33.37833516266677
 31
0.0
  0
TEXT
  5
48EC
330
17
100
AcDbEntity
  8
PART_NUMBERS
100
AcDbText
 10
28.84467744346776
 20
35.82876973585777
 30
0.0
 40
0.25
  1
162006 COVER
100
AcDbText
  0
LINE
  5
48ED
330
17
100
AcDbEntity
  8
R-SWTS-DET2
100
AcDbLine
 10
27.47376831962464
 20
35.62103504867843
 30
0.0
 11
27.52151833962463
 21
35.62103504867843
 31
0.0
  0
LINE
  5
48EE
330
17
100
AcDbEntity
  8
R-SWTS-DET2
100
AcDbLine
 10
27.47376831962464
 20
35.58703504867843
 30
0.0
 11
27.52151833962463
 21
35.58703504867843
 31
0.0
  0
LINE
  5
48EF
330
17
100
AcDbEntity
  8
R-SWTS-DET2
100
AcDbLine
 10
27.52151833962463
 20
35.62103504867843
 30
0.0
 11
27.52151833962463
 21
35.58703504867843
 31
0.0
  0
LWPOLYLINE
  5
48F4
330
17
100
AcDbEntity
  8
R-SWTS-DET1
100
AcDbPolyline
 90
        6
 70
     0
 43
0.0
 10
22.76701833962466
 20
38.85403504867843
 10
25.53613759318702
 20
38.85403504867843
 10
25.58905800784946
 20
39.0662872388013
 10
25.69497867139985
 20
38.64146266096589
 10
25.74797892028783
 20
38.85403504867843
 10
28.51701833962465
 20
38.85403504867843
  0
LINE
  5
48F5
330
17
100
AcDbEntity
  8
R-ANNO-DIMS
  6
ByBlock
100
AcDbLine
 10
23.21701833962466
 20
40.60403504867842
 30
0.0
 11
28.06701833962465
 21
40.60403504867842
 31
0.0
  0
SOLID
  5
48F6
330
17
100
AcDbEntity
  8
R-ANNO-DIMS
  6
ByBlock
100
AcDbTrace
 10
21.23368500629132
 20
38.65403504867842
 30
0.0
 11
21.30035167295799
 21
38.65403504867842
 31
0.0
 12
21.26701833962465
 22
38.85403504867843
 32
0.0
 13
21.26701833962465
 23
38.85403504867843
 33
0.0
  0
TEXT
  5
48F7
330
17
100
AcDbEntity
  8
R-ANNO-DIMS
  6
ByBlock
100
AcDbText
 10
25.1916431690926
 20
40.72903504867842
 30
0.0
 40
0.25
  1
5 1/4"
 72
     1
 11
25.64201833962466
 21
40.85403504867842
 31
0.0
100
AcDbText
 73
     2
  0
LINE
  5
48F8
330
17
100
AcDbEntity
  8
R-ANNO-DIMS
  6
ByBlock
100
AcDbLine
 10
23.01701833962466
 20
38.97903504867843
 30
0.0
 11
23.01701833962466
 21
40.72903504867842
 31
0.0
  0
SOLID
  5
48F9
330
17
100
AcDbEntity
  8
R-ANNO-DIMS
  6
ByBlock
100
AcDbTrace
 10
23.21701833962466
 20
40.63736838201175
 30
0.0
 11
23.21701833962466
 21
40.57070171534509
 31
0.0
 12
23.01701833962466
 22
40.60403504867842
 32
0.0
 13
23.01701833962466
 23
40.60403504867842
 33
0.0
  0
LINE
  5
494F
330
17
100
AcDbEntity
  8
R-ANNO-DIMS
  6
ByBlock
100
AcDbLine
 10
28.26701833962466
 20
38.97903504867843
 30
0.0
 11
28.26701833962466
 21
40.72903504867842
 31
0.0
  0
SOLID
  5
4950
330
17
100
AcDbEntity
  8
R-ANNO-DIMS
  6
ByBlock
100
AcDbTrace
 10
28.06701833962465
 20
40.63736838201175
 30
0.0
 11
28.06701833962465
 21
40.57070171534509
 31
0.0
 12
28.26701833962466
 22
40.60403504867842
 32
0.0
 13
28.26701833962466
 23
40.60403504867842
 33
0.0
  0
LWPOLYLINE
  5
4CC7
330
17
100
AcDbEntity
  8
R-SWTS-DET2
100
AcDbPolyline
 90
       19
 70
     1
 43
0.0
 10
24.24977910177783
 20
24.90429367282571
 42
0.7807764064043922
 10
24.2450732194249
 20
24.92311720223747
 10
24.23507321942489
 20
24.92311720223747
 10
24.23507321942489
 20
24.99311720223747
 10
24.29157321942489
 20
24.99311720223746
 42
0.4142135623731242
 10
24.2515732194249
 20
25.03311720223747
 10
24.22857321942489
 20
25.03311720223747
 42
-0.3976588195991941
 10
24.2036136080965
 20
25.05669670854322
 10
24.18754898622194
 20
25.291969498454
 42
0.9447064698048286
 10
24.15759745262786
 20
25.291969498454
 10
24.14153283075329
 20
25.05669670854322
 42
-0.3976588195991942
 10
24.11657321942489
 20
25.03311720223747
 10
24.09357321942489
 20
25.03311720223747
 42
0.4142135623731244
 10
24.05357321942489
 20
24.99311720223746
 10
24.11007321942489
 20
24.99311720223747
 10
24.11007321942489
 20
24.92311720223747
 10
24.1000732194249
 20
24.92311720223747
 42
0.7807764064043922
 10
24.09536733707195
 20
24.90429367282571
 10
24.17257321942489
 20
24.86311720223747
  0
LWPOLYLINE
  5
4CDC
330
17
100
AcDbEntity
  8
R-SWTS-DET2
100
AcDbPolyline
 90
        4
 70
     1
 43
0.0
 10
24.15457321942489
 20
24.92711720223747
 42
1.0
 10
24.19057321942489
 20
24.92711720223747
 10
24.19057321942489
 20
24.97511720223747
 42
1.0
 10
24.15457321942489
 20
24.97511720223747
  0
LINE
  5
4D5D
330
17
100
AcDbEntity
  8
R-SWTS-DET2
100
AcDbLine
 10
25.78958431616299
 20
34.10507425867355
 30
0.0
 11
26.214584316163
 21
34.10507425867355
 31
0.0
  0
LINE
  5
4D5E
330
17
100
AcDbEntity
  8
R-SWTS-DET2
100
AcDbLine
 10
25.78958431616299
 20
34.04175123867355
 30
0.0
 11
25.78958431616299
 21
34.10507425867355
 31
0.0
  0
LINE
  5
4D5F
330
17
100
AcDbEntity
  8
R-SWTS-DET2
100
AcDbLine
 10
26.214584316163
 20
34.04175123867355
 30
0.0
 11
26.214584316163
 21
34.10507425867355
 31
0.0
  0
LINE
  5
4D60
330
17
100
AcDbEntity
  8
R-SWTS-DET2
100
AcDbLine
 10
25.89408431616299
 20
34.10507425867355
 30
0.0
 11
25.89408431616299
 21
34.71207465867355
 31
0.0
  0
LINE
  5
4D61
330
17
100
AcDbEntity
  8
R-SWTS-DET2
100
AcDbLine
 10
26.110084316163
 20
34.10507425867355
 30
0.0
 11
26.110084316163
 21
34.71207555867355
 31
0.0
  0
LINE
  5
4D62
330
17
100
AcDbEntity
  8
R-SWTS-DET2
100
AcDbLine
 10
25.92608439616299
 20
34.85507425867355
 30
0.0
 11
26.078084236163
 21
34.85507425867355
 31
0.0
  0
LINE
  5
4D63
330
17
100
AcDbEntity
  8
R-SWTS-DET2
100
AcDbLine
 10
25.89408471616299
 20
34.71207635867354
 30
0.0
 11
25.926084936163
 21
34.85507785867355
 31
0.0
  0
LINE
  5
4D64
330
17
100
AcDbEntity
  8
R-SWTS-DET2
100
AcDbLine
 10
26.11008391616299
 20
34.71207635867354
 30
0.0
 11
26.07808369616299
 21
34.85507785867355
 31
0.0
  0
ARC
  5
4D66
330
17
100
AcDbEntity
  8
R-SWTS-DET2
100
AcDbCircle
 10
25.81458441616299
 20
34.04175123867355
 30
0.0
 40
0.02500004
100
AcDbArc
 50
179.9998
 51
233.033
  0
ARC
  5
4D67
330
17
100
AcDbEntity
  8
R-SWTS-DET2
100
AcDbCircle
 10
26.189584216163
 20
34.04175123867355
 30
0.0
 40
0.02500004
100
AcDbArc
 50
306.967
 51
0.0
  0
ARC
  5
4D68
330
17
100
AcDbEntity
  8
R-SWTS-DET2
100
AcDbCircle
 10
26.00208431616299
 20
34.29087285867355
 30
0.0
 40
0.3367977
100
AcDbArc
 50
233.0333
 51
306.9668
  0
LINE
  5
4D69
330
17
100
AcDbEntity
  8
R-SWTS-DET1
100
AcDbLine
 10
26.69508431616309
 20
33.29207425867355
 30
0.0
 11
26.69508431616309
 21
30.54381505283963
 31
0.0
  0
LINE
  5
4D6C
330
17
100
AcDbEntity
  8
R-SWTS-DET2
100
AcDbLine
 10
26.52004228165848
 20
33.47598814362384
 30
0.0
 11
26.56839413056312
 21
33.47598814362384
 31
0.0
  0
LINE
  5
4D6D
330
17
100
AcDbEntity
  8
R-SWTS-DET2
100
AcDbLine
 10
26.52150736941834
 20
33.29295916710031
 30
0.0
 11
26.56839413056312
 21
33.29295916710031
 31
0.0
  0
LINE
  5
4D74
330
17
100
AcDbEntity
  8
R-SWTS-DET2
100
AcDbLine
 10
26.21157321942488
 20
25.1181172022374
 30
0.0
 11
25.78657321942487
 21
25.1181172022374
 31
0.0
  0
LINE
  5
4D75
330
17
100
AcDbEntity
  8
R-SWTS-DET2
100
AcDbLine
 10
26.21157321942488
 20
25.1814402222374
 30
0.0
 11
26.21157321942488
 21
25.1181172022374
 31
0.0
  0
LINE
  5
4D76
330
17
100
AcDbEntity
  8
R-SWTS-DET2
100
AcDbLine
 10
25.78657321942487
 20
25.1814402222374
 30
0.0
 11
25.78657321942487
 21
25.1181172022374
 31
0.0
  0
LINE
  5
4D77
330
17
100
AcDbEntity
  8
R-SWTS-DET2
100
AcDbLine
 10
26.10707321942488
 20
25.1181172022374
 30
0.0
 11
26.10707321942488
 21
24.5111168022374
 31
0.0
  0
LINE
  5
4D78
330
17
100
AcDbEntity
  8
R-SWTS-DET2
100
AcDbLine
 10
25.89107321942487
 20
25.1181172022374
 30
0.0
 11
25.89107321942487
 21
24.5111159022374
 31
0.0
  0
LINE
  5
4D79
330
17
100
AcDbEntity
  8
R-SWTS-DET2
100
AcDbLine
 10
26.07507313942488
 20
24.3681172022374
 30
0.0
 11
25.92307329942487
 21
24.3681172022374
 31
0.0
  0
LINE
  5
4D7A
330
17
100
AcDbEntity
  8
R-SWTS-DET2
100
AcDbLine
 10
26.10707281942487
 20
24.5111151022374
 30
0.0
 11
26.07507259942487
 21
24.3681136022374
 31
0.0
  0
LINE
  5
4D7B
330
17
100
AcDbEntity
  8
R-SWTS-DET2
100
AcDbLine
 10
25.89107361942487
 20
24.5111151022374
 30
0.0
 11
25.92307383942487
 21
24.3681136022374
 31
0.0
  0
ARC
  5
4D7D
330
17
100
AcDbEntity
  8
R-SWTS-DET2
100
AcDbCircle
 10
26.18657311942488
 20
25.1814402222374
 30
0.0
 40
0.02500004
100
AcDbArc
 50
359.9998
 51
53.03299999999997
  0
ARC
  5
4D7E
330
17
100
AcDbEntity
  8
R-SWTS-DET2
100
AcDbCircle
 10
25.81157331942487
 20
25.1814402222374
 30
0.0
 40
0.02500004
100
AcDbArc
 50
126.967
 51
180.0
  0
ARC
  5
4D7F
330
17
100
AcDbEntity
  8
R-SWTS-DET2
100
AcDbCircle
 10
25.99907321942487
 20
24.9323186022374
 30
0.0
 40
0.3367977
100
AcDbArc
 50
53.03329999999998
 51
126.9668
  0
LINE
  5
4D80
330
17
100
AcDbEntity
  8
R-SWTS-DET2
100
AcDbLine
 10
26.56650970265238
 20
25.92796788876059
 30
0.0
 11
26.51793706002482
 21
25.92796788876059
 31
0.0
  0
LINE
  5
4D81
330
17
100
AcDbEntity
  8
R-SWTS-DET2
100
AcDbLine
 10
26.51793706002482
 20
25.75033096020233
 30
0.0
 11
26.56650970265238
 21
25.75033096020233
 31
0.0
  0
LINE
  5
4D82
330
17
100
AcDbEntity
  8
R-SWTS-DET3
100
AcDbLine
 10
24.65410616680161
 20
24.87085731195252
 30
0.0
 11
24.77022544830284
 21
24.98697659345375
 31
0.0
  0
LINE
  5
4D83
330
17
100
AcDbEntity
  8
R-SWTS-DET3
100
AcDbLine
 10
24.68976597804594
 20
24.87116178413752
 30
0.0
 11
24.80599206133069
 21
24.98738786742227
 31
0.0
  0
LINE
  5
4D84
330
17
100
AcDbEntity
  8
R-SWTS-DET3
100
AcDbLine
 10
24.72542578929027
 20
24.87146625632252
 30
0.0
 11
24.84175867435853
 21
24.98779914139079
 31
0.0
  0
LINE
  5
4D85
330
17
100
AcDbEntity
  8
R-SWTS-DET3
100
AcDbLine
 10
24.76108560053459
 20
24.87177072850752
 30
0.0
 11
24.87752528738638
 21
24.98821041535931
 31
0.0
  0
LINE
  5
4D86
330
17
100
AcDbEntity
  8
R-SWTS-DET3
100
AcDbLine
 10
24.79674541177891
 20
24.87207520069252
 30
0.0
 11
24.88943502975265
 21
24.96476481866625
 31
0.0
  0
LINE
  5
4D87
330
17
100
AcDbEntity
  8
R-SWTS-DET3
100
AcDbLine
 10
24.83240522302324
 20
24.87237967287752
 30
0.0
 11
24.88861695195677
 21
24.92859140181104
 31
0.0
  0
LINE
  5
4D88
330
17
100
AcDbEntity
  8
R-SWTS-DET3
100
AcDbLine
 10
24.86806503426758
 20
24.87268414506252
 30
0.0
 11
24.88779887416088
 21
24.89241798495584
 31
0.0
  0
LINE
  5
4D89
330
17
100
AcDbEntity
  8
R-SWTS-DET3
100
AcDbLine
 10
24.61844635555728
 20
24.87055283976753
 30
0.0
 11
24.73445883527499
 21
24.98656531948523
 31
0.0
  0
LINE
  5
4D8A
330
17
100
AcDbEntity
  8
R-SWTS-DET3
100
AcDbLine
 10
24.58278654431297
 20
24.87024836758253
 30
0.0
 11
24.69869222224715
 21
24.98615404551671
 31
0.0
  0
LINE
  5
4D8B
330
17
100
AcDbEntity
  8
R-SWTS-DET3
100
AcDbLine
 10
24.54712673306864
 20
24.86994389539753
 30
0.0
 11
24.6629256092193
 21
24.9857427715482
 31
0.0
  0
LINE
  5
4D8C
330
17
100
AcDbEntity
  8
R-SWTS-DET3
100
AcDbLine
 10
24.52343274021122
 20
24.88160524159945
 30
0.0
 11
24.62715899619146
 21
24.98533149757968
 31
0.0
  0
LINE
  5
4D8D
330
17
100
AcDbEntity
  8
R-SWTS-DET3
100
AcDbLine
 10
24.54184703631439
 20
24.93537487676195
 30
0.0
 11
24.57397816406291
 21
24.96750600451046
 31
0.0
  0
LWPOLYLINE
  5
4D8E
330
17
100
AcDbEntity
  8
R-SWTS-DET1
100
AcDbPolyline
 90
       43
 70
     1
 43
0.0
 10
24.51207321942476
 20
24.57111720223745
 10
24.51207321942476
 20
24.67111720223746
 10
24.61207321942476
 20
24.67111720223746
 42
0.6951432498197395
 10
24.63166817157148
 20
24.72383366874016
 10
24.58687069549812
 20
24.7624754354888
 42
0.6418694421003077
 10
24.56207321942476
 20
24.75111720223746
 10
24.56207321942476
 20
24.73111720223746
 10
24.33307321942471
 20
24.73111720223746
 10
24.33307321942471
 20
24.99311720223747
 10
24.2600732194247
 20
24.99311720223747
 42
0.4142135623731368
 10
24.23507321942471
 20
24.96811720223747
 10
24.23507321942471
 20
24.94311720223747
 10
24.2730732194247
 20
24.94311720223747
 10
24.2730732194247
 20
24.86811720223747
 42
-0.4142135623731054
 10
24.2480732194247
 20
24.84311720223747
 10
24.0970732194247
 20
24.84311720223747
 42
-0.4142135623731054
 10
24.07207321942471
 20
24.86811720223747
 10
24.07207321942471
 20
24.94311720223747
 10
24.11007321942471
 20
24.94311720223747
 10
24.11007321942471
 20
24.96811720223746
 42
0.4142135623731158
 10
24.08507321942471
 20
24.99311720223747
 10
24.01207321942471
 20
24.99311720223747
 10
24.01207321942471
 20
24.18611720223747
 42
0.4142135623730951
 10
24.07207321942471
 20
24.12611720223747
 10
24.31907321942467
 20
24.12611720223747
 10
24.44407321942471
 20
24.00111720223742
 10
24.44407321942471
 20
23.89111720223742
 42
0.4142135623730951
 10
24.46407321942471
 20
23.87111720223742
 10
24.48407321942472
 20
23.87111720223742
 42
0.4142135623730951
 10
24.50407321942471
 20
23.89111720223742
 10
24.50407321942471
 20
24.00111720223742
 42
0.1989123673796617
 10
24.48649962629591
 20
24.04354360910861
 10
24.36149962629585
 20
24.16854360910866
 42
0.198912367379658
 10
24.31907321942465
 20
24.18611720223747
 10
24.07207321942471
 20
24.18611720223747
 10
24.07207321942471
 20
24.77111720223746
 10
24.2730732194247
 20
24.77111720223746
 10
24.2730732194247
 20
24.73111720223746
 42
0.4142135623730951
 10
24.33307321942471
 20
24.67111720223746
 10
24.45207321942476
 20
24.67111720223746
 10
24.45207321942476
 20
24.57111720223745
 42
0.4142135623730951
 10
24.47207321942477
 20
24.55111720223745
 10
24.49207321942477
 20
24.55111720223745
 42
0.4142135623730951
  0
LINE
  5
4DBC
330
17
100
AcDbEntity
  8
R-SWTS-DET1
100
AcDbLine
 10
26.69207321942497
 20
25.9311172022374
 30
0.0
 11
26.69207321942497
 21
28.68082415702439
 31
0.0
  0
LINE
  5
4DD6
330
17
100
AcDbEntity
  8
R-SWTS-DET3
100
AcDbLine
 10
24.65017214333983
 20
34.35233414895842
 30
0.0
 11
24.76629142484106
 21
34.23621486745719
 31
0.0
  0
LINE
  5
4DD7
330
17
100
AcDbEntity
  8
R-SWTS-DET3
100
AcDbLine
 10
24.68583195458414
 20
34.35202967677342
 30
0.0
 11
24.80205803786891
 21
34.23580359348867
 31
0.0
  0
LINE
  5
4DD8
330
17
100
AcDbEntity
  8
R-SWTS-DET3
100
AcDbLine
 10
24.72149176582848
 20
34.35172520458842
 30
0.0
 11
24.83782465089675
 21
34.23539231952015
 31
0.0
  0
LINE
  5
4DD9
330
17
100
AcDbEntity
  8
R-SWTS-DET3
100
AcDbLine
 10
24.75715157707281
 20
34.35142073240342
 30
0.0
 11
24.8735912639246
 21
34.23498104555164
 31
0.0
  0
LINE
  5
4DDA
330
17
100
AcDbEntity
  8
R-SWTS-DET3
100
AcDbLine
 10
24.79281138831713
 20
34.35111626021842
 30
0.0
 11
24.88550100629085
 21
34.25842664224469
 31
0.0
  0
LINE
  5
4DDB
330
17
100
AcDbEntity
  8
R-SWTS-DET3
100
AcDbLine
 10
24.82847119956145
 20
34.35081178803343
 30
0.0
 11
24.88468292849498
 21
34.2946000590999
 31
0.0
  0
LINE
  5
4DDC
330
17
100
AcDbEntity
  8
R-SWTS-DET3
100
AcDbLine
 10
24.86413101080578
 20
34.35050731584843
 30
0.0
 11
24.8838648506991
 21
34.3307734759551
 31
0.0
  0
LINE
  5
4DDD
330
17
100
AcDbEntity
  8
R-SWTS-DET3
100
AcDbLine
 10
24.6145123320955
 20
34.35263862114342
 30
0.0
 11
24.73052481181321
 21
34.23662614142571
 31
0.0
  0
LINE
  5
4DDE
330
17
100
AcDbEntity
  8
R-SWTS-DET3
100
AcDbLine
 10
24.57885252085117
 20
34.35294309332841
 30
0.0
 11
24.69475819878537
 21
34.23703741539423
 31
0.0
  0
LINE
  5
4DDF
330
17
100
AcDbEntity
  8
R-SWTS-DET3
100
AcDbLine
 10
24.54319270960684
 20
34.35324756551342
 30
0.0
 11
24.65899158575752
 21
34.23744868936275
 31
0.0
  0
LINE
  5
4DE0
330
17
100
AcDbEntity
  8
R-SWTS-DET3
100
AcDbLine
 10
24.51949871674944
 20
34.3415862193115
 30
0.0
 11
24.62322497272968
 21
34.23785996333126
 31
0.0
  0
LINE
  5
4DE1
330
17
100
AcDbEntity
  8
R-SWTS-DET3
100
AcDbLine
 10
24.53791301285261
 20
34.28781658414899
 30
0.0
 11
24.57004414060113
 21
34.25568545640048
 31
0.0
  0
LWPOLYLINE
  5
4E34
330
17
100
AcDbEntity
  8
R-SWTS-DET1
100
AcDbPolyline
 90
       30
 70
     1
 43
0.0
 10
25.30208431616309
 20
34.11507425867355
 10
25.2920843161631
 20
34.10507425867355
 10
24.56620351703994
 20
34.10507425867355
 10
24.45708431616309
 20
34.16807425867355
 10
24.45708431616309
 20
34.42507425867355
 42
-0.4142135623731125
 10
24.48708431616309
 20
34.45507425867355
 10
24.52008431616309
 20
34.45507425867355
 10
24.52008431616309
 20
34.33007425867355
 42
0.4142135623731002
 10
24.62008431616309
 20
34.23007425867355
 10
24.8950843161631
 20
34.23007425867354
 10
24.8950843161631
 20
34.35507425867355
 10
24.99508431616309
 20
34.35507425867355
 10
24.99508431616309
 20
34.23007425867355
 10
25.79708431616309
 20
34.23007425867355
 10
25.79708431616309
 20
34.35507425867355
 10
25.89708431616309
 20
34.35507425867355
 10
25.89708431616309
 20
34.23007425867355
 10
26.57008431616309
 20
34.23007425867355
 10
26.57008431616309
 20
34.35507425867355
 10
26.69508431616309
 20
34.35507425867355
 10
26.69508431616309
 20
33.29207425867355
 10
26.57008431616309
 20
33.29207425867355
 10
26.57008431616309
 20
34.10507425867355
 10
26.01708431616309
 20
34.10507425867355
 10
26.00708431616309
 20
34.11507425867355
 10
25.9970843161631
 20
34.10507425867355
 10
25.7050843161631
 20
34.10507425867355
 10
25.69508431616309
 20
34.11507425867355
 10
25.68508431616308
 20
34.10507425867355
 10
25.3120843161631
 20
34.10507425867355
  0
LINE
  5
4E70
330
17
100
AcDbEntity
  8
R-SWTS-DET1
100
AcDbLine
 10
25.29907321942497
 20
25.1081172022374
 30
0.0
 11
25.28907321942498
 21
25.1181172022374
 31
0.0
  0
LINE
  5
4E71
330
17
100
AcDbEntity
  8
R-SWTS-DET1
100
AcDbLine
 10
25.28907321942498
 20
25.1181172022374
 30
0.0
 11
24.56319242030182
 21
25.1181172022374
 31
0.0
  0
LINE
  5
4E72
330
17
100
AcDbEntity
  8
R-SWTS-DET1
100
AcDbLine
 10
24.56319242030182
 20
25.1181172022374
 30
0.0
 11
24.45407321942497
 21
25.0551172022374
 31
0.0
  0
LINE
  5
4E73
330
17
100
AcDbEntity
  8
R-SWTS-DET1
100
AcDbLine
 10
24.45407321942497
 20
25.0551172022374
 30
0.0
 11
24.45407321942497
 21
24.7981172022374
 31
0.0
  0
ARC
  5
4E74
330
17
100
AcDbEntity
  8
R-SWTS-DET1
100
AcDbCircle
 10
24.48407321942497
 20
24.7981172022374
 30
0.0
 40
0.0300000000000011
100
AcDbArc
 50
180.0
 51
270.0
  0
LINE
  5
4E75
330
17
100
AcDbEntity
  8
R-SWTS-DET1
100
AcDbLine
 10
24.48407321942497
 20
24.7681172022374
 30
0.0
 11
24.51707321942497
 21
24.7681172022374
 31
0.0
  0
LINE
  5
4E76
330
17
100
AcDbEntity
  8
R-SWTS-DET1
100
AcDbLine
 10
24.51707321942497
 20
24.7681172022374
 30
0.0
 11
24.51707321942497
 21
24.8931172022374
 31
0.0
  0
ARC
  5
4E77
330
17
100
AcDbEntity
  8
R-SWTS-DET1
100
AcDbCircle
 10
24.61707321942497
 20
24.8931172022374
 30
0.0
 40
0.0999999999999997
100
AcDbArc
 50
90.0
 51
180.000000000001
  0
LINE
  5
4E78
330
17
100
AcDbEntity
  8
R-SWTS-DET1
100
AcDbLine
 10
24.61707321942497
 20
24.9931172022374
 30
0.0
 11
24.89207321942497
 21
24.99311720223741
 31
0.0
  0
LINE
  5
4E79
330
17
100
AcDbEntity
  8
R-SWTS-DET1
100
AcDbLine
 10
24.89207321942497
 20
24.99311720223741
 30
0.0
 11
24.89207321942497
 21
24.8681172022374
 31
0.0
  0
LINE
  5
4E7A
330
17
100
AcDbEntity
  8
R-SWTS-DET1
100
AcDbLine
 10
24.89207321942497
 20
24.8681172022374
 30
0.0
 11
24.99207321942498
 21
24.8681172022374
 31
0.0
  0
LINE
  5
4E7B
330
17
100
AcDbEntity
  8
R-SWTS-DET1
100
AcDbLine
 10
24.99207321942498
 20
24.8681172022374
 30
0.0
 11
24.99207321942498
 21
24.9931172022374
 31
0.0
  0
LINE
  5
4E7C
330
17
100
AcDbEntity
  8
R-SWTS-DET1
100
AcDbLine
 10
24.99207321942498
 20
24.9931172022374
 30
0.0
 11
25.79407321942497
 21
24.9931172022374
 31
0.0
  0
LINE
  5
4E7D
330
17
100
AcDbEntity
  8
R-SWTS-DET1
100
AcDbLine
 10
25.79407321942497
 20
24.9931172022374
 30
0.0
 11
25.79407321942497
 21
24.8681172022374
 31
0.0
  0
LINE
  5
4E7E
330
17
100
AcDbEntity
  8
R-SWTS-DET1
100
AcDbLine
 10
25.79407321942497
 20
24.8681172022374
 30
0.0
 11
25.89407321942497
 21
24.8681172022374
 31
0.0
  0
LINE
  5
4E7F
330
17
100
AcDbEntity
  8
R-SWTS-DET1
100
AcDbLine
 10
25.89407321942497
 20
24.8681172022374
 30
0.0
 11
25.89407321942497
 21
24.9931172022374
 31
0.0
  0
LINE
  5
4E80
330
17
100
AcDbEntity
  8
R-SWTS-DET1
100
AcDbLine
 10
25.89407321942497
 20
24.9931172022374
 30
0.0
 11
26.56707321942497
 21
24.9931172022374
 31
0.0
  0
LINE
  5
4E81
330
17
100
AcDbEntity
  8
R-SWTS-DET1
100
AcDbLine
 10
26.56707321942497
 20
24.9931172022374
 30
0.0
 11
26.56707321942497
 21
24.8681172022374
 31
0.0
  0
LINE
  5
4E82
330
17
100
AcDbEntity
  8
R-SWTS-DET1
100
AcDbLine
 10
26.56707321942497
 20
24.8681172022374
 30
0.0
 11
26.69207321942497
 21
24.8681172022374
 31
0.0
  0
LINE
  5
4E83
330
17
100
AcDbEntity
  8
R-SWTS-DET1
100
AcDbLine
 10
26.69207321942497
 20
24.8681172022374
 30
0.0
 11
26.69207321942497
 21
25.9311172022374
 31
0.0
  0
LINE
  5
4E84
330
17
100
AcDbEntity
  8
R-SWTS-DET1
100
AcDbLine
 10
26.69207321942497
 20
25.9311172022374
 30
0.0
 11
26.56707321942497
 21
25.9311172022374
 31
0.0
  0
LINE
  5
4E85
330
17
100
AcDbEntity
  8
R-SWTS-DET1
100
AcDbLine
 10
26.56707321942497
 20
25.9311172022374
 30
0.0
 11
26.56707321942497
 21
25.1181172022374
 31
0.0
  0
LINE
  5
4E86
330
17
100
AcDbEntity
  8
R-SWTS-DET1
100
AcDbLine
 10
26.56707321942497
 20
25.1181172022374
 30
0.0
 11
26.01407321942498
 21
25.1181172022374
 31
0.0
  0
LINE
  5
4E87
330
17
100
AcDbEntity
  8
R-SWTS-DET1
100
AcDbLine
 10
26.01407321942498
 20
25.1181172022374
 30
0.0
 11
26.00407321942497
 21
25.1081172022374
 31
0.0
  0
LINE
  5
4E88
330
17
100
AcDbEntity
  8
R-SWTS-DET1
100
AcDbLine
 10
26.00407321942497
 20
25.1081172022374
 30
0.0
 11
25.99407321942496
 21
25.1181172022374
 31
0.0
  0
LINE
  5
4E89
330
17
100
AcDbEntity
  8
R-SWTS-DET1
100
AcDbLine
 10
25.99407321942496
 20
25.1181172022374
 30
0.0
 11
25.70207321942496
 21
25.1181172022374
 31
0.0
  0
LINE
  5
4E8A
330
17
100
AcDbEntity
  8
R-SWTS-DET1
100
AcDbLine
 10
25.70207321942496
 20
25.1181172022374
 30
0.0
 11
25.69207321942497
 21
25.1081172022374
 31
0.0
  0
LINE
  5
4E8B
330
17
100
AcDbEntity
  8
R-SWTS-DET1
100
AcDbLine
 10
25.69207321942497
 20
25.1081172022374
 30
0.0
 11
25.68207321942497
 21
25.1181172022374
 31
0.0
  0
LINE
  5
4E8C
330
17
100
AcDbEntity
  8
R-SWTS-DET1
100
AcDbLine
 10
25.68207321942497
 20
25.1181172022374
 30
0.0
 11
25.30907321942498
 21
25.1181172022374
 31
0.0
  0
LINE
  5
4E8D
330
17
100
AcDbEntity
  8
R-SWTS-DET1
100
AcDbLine
 10
25.30907321942498
 20
25.1181172022374
 30
0.0
 11
25.29907321942497
 21
25.1081172022374
 31
0.0
  0
LINE
  5
4F4B
330
17
100
AcDbEntity
  8
R-SWTS-DET1
100
AcDbLine
 10
24.51508431616288
 20
34.6520742586735
 30
0.0
 11
24.51508431616288
 21
34.55207425867349
 31
0.0
  0
LINE
  5
4F4C
330
17
100
AcDbEntity
  8
R-SWTS-DET1
100
AcDbLine
 10
24.51508431616288
 20
34.55207425867349
 30
0.0
 11
24.61508431616288
 21
34.55207425867349
 31
0.0
  0
ARC
  5
4F4D
330
17
100
AcDbEntity
  8
R-SWTS-DET1
100
AcDbCircle
 10
24.61508431616288
 20
34.52207425867348
 30
0.0
 40
0.0299999999999998
100
AcDbArc
 50
310.7806619637362
 51
90.0
  0
LINE
  5
4F4E
330
17
100
AcDbEntity
  8
R-SWTS-DET1
100
AcDbLine
 10
24.6346792683096
 20
34.49935779217079
 30
0.0
 11
24.58988179223624
 21
34.46071602542215
 31
0.0
  0
ARC
  5
4F4F
330
17
100
AcDbEntity
  8
R-SWTS-DET1
100
AcDbCircle
 10
24.58008431616288
 20
34.47207425867349
 30
0.0
 40
0.0149999999999999
100
AcDbArc
 50
180.0000000000136
 51
310.7806619637197
  0
LINE
  5
4F50
330
17
100
AcDbEntity
  8
R-SWTS-DET1
100
AcDbLine
 10
24.56508431616288
 20
34.47207425867349
 30
0.0
 11
24.56508431616288
 21
34.49207425867349
 31
0.0
  0
LINE
  5
4F51
330
17
100
AcDbEntity
  8
R-SWTS-DET1
100
AcDbLine
 10
24.56508431616288
 20
34.49207425867349
 30
0.0
 11
24.33608431616283
 21
34.49207425867349
 31
0.0
  0
LINE
  5
4F52
330
17
100
AcDbEntity
  8
R-SWTS-DET1
100
AcDbLine
 10
24.33608431616283
 20
34.49207425867349
 30
0.0
 11
24.33608431616283
 21
34.23007425867348
 31
0.0
  0
LINE
  5
4F53
330
17
100
AcDbEntity
  8
R-SWTS-DET1
100
AcDbLine
 10
24.33608431616283
 20
34.23007425867348
 30
0.0
 11
24.26308431616282
 21
34.23007425867348
 31
0.0
  0
ARC
  5
4F54
330
17
100
AcDbEntity
  8
R-SWTS-DET1
100
AcDbCircle
 10
24.26308431616282
 20
34.25507425867348
 30
0.0
 40
0.0249999999999986
100
AcDbArc
 50
179.9999999999918
 51
270.0
  0
LINE
  5
4F55
330
17
100
AcDbEntity
  8
R-SWTS-DET1
100
AcDbLine
 10
24.23808431616283
 20
34.25507425867348
 30
0.0
 11
24.23808431616283
 21
34.28007425867348
 31
0.0
  0
LINE
  5
4F56
330
17
100
AcDbEntity
  8
R-SWTS-DET1
100
AcDbLine
 10
24.23808431616283
 20
34.28007425867348
 30
0.0
 11
24.27608431616282
 21
34.28007425867348
 31
0.0
  0
LINE
  5
4F57
330
17
100
AcDbEntity
  8
R-SWTS-DET1
100
AcDbLine
 10
24.27608431616282
 20
34.28007425867348
 30
0.0
 11
24.27608431616282
 21
34.35507425867348
 31
0.0
  0
ARC
  5
4F58
330
17
100
AcDbEntity
  8
R-SWTS-DET1
100
AcDbCircle
 10
24.25108431616283
 20
34.35507425867348
 30
0.0
 40
0.0250000000000004
100
AcDbArc
 50
0.0
 51
90.0
  0
LINE
  5
4F59
330
17
100
AcDbEntity
  8
R-SWTS-DET1
100
AcDbLine
 10
24.25108431616282
 20
34.38007425867348
 30
0.0
 11
24.10008431616282
 21
34.38007425867348
 31
0.0
  0
ARC
  5
4F5A
330
17
100
AcDbEntity
  8
R-SWTS-DET1
100
AcDbCircle
 10
24.10008431616283
 20
34.35507425867348
 30
0.0
 40
0.0250000000000017
100
AcDbArc
 50
90.0
 51
180.000000000005
  0
LINE
  5
4F5B
330
17
100
AcDbEntity
  8
R-SWTS-DET1
100
AcDbLine
 10
24.07508431616283
 20
34.35507425867348
 30
0.0
 11
24.07508431616283
 21
34.28007425867348
 31
0.0
  0
LINE
  5
4F5C
330
17
100
AcDbEntity
  8
R-SWTS-DET1
100
AcDbLine
 10
24.07508431616283
 20
34.28007425867348
 30
0.0
 11
24.11308431616283
 21
34.28007425867348
 31
0.0
  0
LINE
  5
4F5D
330
17
100
AcDbEntity
  8
R-SWTS-DET1
100
AcDbLine
 10
24.11308431616283
 20
34.28007425867348
 30
0.0
 11
24.11308431616283
 21
34.25507425867348
 31
0.0
  0
ARC
  5
4F5E
330
17
100
AcDbEntity
  8
R-SWTS-DET1
100
AcDbCircle
 10
24.08808431616282
 20
34.25507425867348
 30
0.0
 40
0.0249999999999986
100
AcDbArc
 50
270.0
 51
0.0000000000081549
  0
LINE
  5
4F5F
330
17
100
AcDbEntity
  8
R-SWTS-DET1
100
AcDbLine
 10
24.08808431616284
 20
34.23007425867348
 30
0.0
 11
24.01508431616283
 21
34.23007425867348
 31
0.0
  0
LINE
  5
4F60
330
17
100
AcDbEntity
  8
R-SWTS-DET1
100
AcDbLine
 10
24.01508431616283
 20
34.23007425867348
 30
0.0
 11
24.01508431616283
 21
35.03707425867348
 31
0.0
  0
ARC
  5
4F61
330
17
100
AcDbEntity
  8
R-SWTS-DET1
100
AcDbCircle
 10
24.07508431616283
 20
35.03707425867348
 30
0.0
 40
0.0600000000000001
100
AcDbArc
 50
90.0
 51
180.0000000000004
  0
LINE
  5
4F62
330
17
100
AcDbEntity
  8
R-SWTS-DET1
100
AcDbLine
 10
24.07508431616283
 20
35.09707425867348
 30
0.0
 11
24.32208431616279
 21
35.09707425867348
 31
0.0
  0
LINE
  5
4F63
330
17
100
AcDbEntity
  8
R-SWTS-DET1
100
AcDbLine
 10
24.32208431616279
 20
35.09707425867348
 30
0.0
 11
24.44708431616283
 21
35.22207425867353
 31
0.0
  0
LINE
  5
4F64
330
17
100
AcDbEntity
  8
R-SWTS-DET1
100
AcDbLine
 10
24.44708431616283
 20
35.22207425867353
 30
0.0
 11
24.44708431616283
 21
35.33207425867353
 31
0.0
  0
ARC
  5
4F65
330
17
100
AcDbEntity
  8
R-SWTS-DET1
100
AcDbCircle
 10
24.46708431616283
 20
35.33207425867353
 30
0.0
 40
0.0199999999999996
100
AcDbArc
 50
90.0
 51
180.0
  0
LINE
  5
4F66
330
17
100
AcDbEntity
  8
R-SWTS-DET1
100
AcDbLine
 10
24.46708431616283
 20
35.35207425867353
 30
0.0
 11
24.48708431616284
 21
35.35207425867353
 31
0.0
  0
ARC
  5
4F67
330
17
100
AcDbEntity
  8
R-SWTS-DET1
100
AcDbCircle
 10
24.48708431616284
 20
35.33207425867353
 30
0.0
 40
0.0199999999999996
100
AcDbArc
 50
0.0
 51
90.0
  0
LINE
  5
4F68
330
17
100
AcDbEntity
  8
R-SWTS-DET1
100
AcDbLine
 10
24.50708431616283
 20
35.33207425867353
 30
0.0
 11
24.50708431616283
 21
35.22207425867353
 31
0.0
  0
ARC
  5
4F69
330
17
100
AcDbEntity
  8
R-SWTS-DET1
100
AcDbCircle
 10
24.44708431616284
 20
35.22207425867353
 30
0.0
 40
0.0599999999999963
100
AcDbArc
 50
314.9999999999963
 51
359.9999999999972
  0
LINE
  5
4F6A
330
17
100
AcDbEntity
  8
R-SWTS-DET1
100
AcDbLine
 10
24.48951072303403
 20
35.17964785180234
 30
0.0
 11
24.36451072303397
 21
35.05464785180229
 31
0.0
  0
ARC
  5
4F6B
330
17
100
AcDbEntity
  8
R-SWTS-DET1
100
AcDbCircle
 10
24.32208431616277
 20
35.09707425867348
 30
0.0
 40
0.0600000000000059
100
AcDbArc
 50
270.0
 51
314.9999999999999
  0
LINE
  5
4F6C
330
17
100
AcDbEntity
  8
R-SWTS-DET1
100
AcDbLine
 10
24.32208431616277
 20
35.03707425867348
 30
0.0
 11
24.07508431616283
 21
35.03707425867348
 31
0.0
  0
LINE
  5
4F6D
330
17
100
AcDbEntity
  8
R-SWTS-DET1
100
AcDbLine
 10
24.07508431616283
 20
35.03707425867348
 30
0.0
 11
24.07508431616283
 21
34.45207425867348
 31
0.0
  0
LINE
  5
4F6E
330
17
100
AcDbEntity
  8
R-SWTS-DET1
100
AcDbLine
 10
24.07508431616283
 20
34.45207425867348
 30
0.0
 11
24.27608431616282
 21
34.45207425867348
 31
0.0
  0
LINE
  5
4F6F
330
17
100
AcDbEntity
  8
R-SWTS-DET1
100
AcDbLine
 10
24.27608431616282
 20
34.45207425867348
 30
0.0
 11
24.27608431616282
 21
34.49207425867348
 31
0.0
  0
ARC
  5
4F70
330
17
100
AcDbEntity
  8
R-SWTS-DET1
100
AcDbCircle
 10
24.33608431616283
 20
34.49207425867348
 30
0.0
 40
0.0600000000000001
100
AcDbArc
 50
90.0
 51
180.0000000000004
  0
LINE
  5
4F71
330
17
100
AcDbEntity
  8
R-SWTS-DET1
100
AcDbLine
 10
24.33608431616283
 20
34.55207425867349
 30
0.0
 11
24.45508431616288
 21
34.55207425867349
 31
0.0
  0
LINE
  5
4F72
330
17
100
AcDbEntity
  8
R-SWTS-DET1
100
AcDbLine
 10
24.45508431616288
 20
34.55207425867349
 30
0.0
 11
24.45508431616288
 21
34.6520742586735
 31
0.0
  0
ARC
  5
4F73
330
17
100
AcDbEntity
  8
R-SWTS-DET1
100
AcDbCircle
 10
24.47508431616289
 20
34.6520742586735
 30
0.0
 40
0.0199999999999996
100
AcDbArc
 50
90.0
 51
180.0
  0
LINE
  5
4F74
330
17
100
AcDbEntity
  8
R-SWTS-DET1
100
AcDbLine
 10
24.47508431616289
 20
34.6720742586735
 30
0.0
 11
24.49508431616289
 21
34.6720742586735
 31
0.0
  0
ARC
  5
4F75
330
17
100
AcDbEntity
  8
R-SWTS-DET1
100
AcDbCircle
 10
24.49508431616289
 20
34.6520742586735
 30
0.0
 40
0.0199999999999996
100
AcDbArc
 50
0.0
 51
90.0
  0
LINE
  5
4FE7
330
17
100
AcDbEntity
  8
0
  6
DASHED
100
AcDbLine
 10
7.38700212681752
 20
36.57819004159949
 30
0.0
 11
7.38700212681752
 21
31.32089312742327
 31
0.0
  0
LINE
  5
4FE8
330
17
100
AcDbEntity
  8
0
  6
DASHED
100
AcDbLine
 10
7.07450212681752
 20
36.57819004159949
 30
0.0
 11
7.07450212681752
 21
31.32089312742326
 31
0.0
  0
LINE
  5
4FEB
330
17
100
AcDbEntity
  8
0
  6
DASHED
100
AcDbLine
 10
13.07450212681752
 20
36.57819004159949
 30
0.0
 11
13.07450212681752
 21
31.32089312742327
 31
0.0
  0
LINE
  5
4FEC
330
17
100
AcDbEntity
  8
0
  6
DASHED
100
AcDbLine
 10
13.38700212681752
 20
36.57819004159949
 30
0.0
 11
13.38700212681752
 21
31.32089312742327
 31
0.0
  0
LINE
  5
4FF9
330
17
100
AcDbEntity
  8
0
100
AcDbLine
 10
15.57284663354312
 20
28.00839312742324
 30
0.0
 11
5.029987385557603
 21
28.00839312742324
 31
0.0
  0
LINE
  5
4FFA
330
17
100
AcDbEntity
  8
0
100
AcDbLine
 10
15.57284663354312
 20
28.32089312742325
 30
0.0
 11
5.029987385557603
 21
28.32089312742325
 31
0.0
  0
LINE
  5
4FFB
330
17
100
AcDbEntity
  8
0
100
AcDbLine
 10
15.57284663354312
 20
31.32089312742326
 30
0.0
 11
5.029987385557603
 21
31.32089312742325
 31
0.0
  0
LINE
  5
4FFC
330
17
100
AcDbEntity
  8
0
100
AcDbLine
 10
15.57284663354312
 20
31.00839312742325
 30
0.0
 11
5.029987385557603
 21
31.00839312742325
 31
0.0
  0
LINE
  5
500B
330
17
100
AcDbEntity
  8
R-SWTS-DET1
  6
DASHED
100
AcDbLine
 10
7.38700212681752
 20
28.32089312742325
 30
0.0
 11
10.23075212681752
 21
31.00839312742325
 31
0.0
  0
LINE
  5
500D
330
17
100
AcDbEntity
  8
R-SWTS-DET1
  6
DASHED
100
AcDbLine
 10
10.23075212681752
 20
31.00839312742325
 30
0.0
 11
13.07450212681752
 21
28.32089312742325
 31
0.0
  0
TEXT
  5
5010
330
17
100
AcDbEntity
  8
0
  6
Continuous
 62
     2
100
AcDbText
 10
6.114212567811021
 20
21.76599301647084
 30
0.0
 40
0.5
  1
GLASSvent™ WINDOWS
 72
     1
 11
10.15070642865686
 21
21.76599301647084
 31
0.0
100
AcDbText
  0
TEXT
  5
5011
330
17
100
AcDbEntity
  8
0
  6
Continuous
 62
     2
100
AcDbText
 10
7.823690871069779
 20
21.09353298826502
 30
0.0
 40
0.5
  1
PROJECT-OUT
 72
     1
 11
10.30714926124713
 21
21.09353298826502
 31
0.0
100
AcDbText
  0
TEXT
  5
501A
330
17
100
AcDbEntity
  8
0
  6
Continuous
 62
     2
100
AcDbText
 10
6.743043002252088
 20
20.12653813976083
 30
0.0
 40
0.5
  1
TYPICAL ELEVATION
 72
     1
 11
10.25600343881416
 21
20.12653813976083
 31
0.0
100
AcDbText
  0
LINE
  5
5374
330
17
100
AcDbEntity
  8
0
  6
Continuous
100
AcDbLine
 10
7.238574151030121
 20
36.57819004159949
 30
0.0
 11
7.238574151030121
 21
31.32089312742326
 31
0.0
  0
LINE
  5
5375
330
17
100
AcDbEntity
  8
0
  6
Continuous
100
AcDbLine
 10
13.23857415103012
 20
36.57819004159949
 30
0.0
 11
13.23857415103011
 21
31.32089312742327
 31
0.0
  0
LINE
  5
5377
330
17
100
AcDbEntity
  8
0
  6
Continuous
100
AcDbLine
 10
7.238574151030121
 20
28.00839312742324
 30
0.0
 11
7.238574151030121
 21
22.83685893615815
 31
0.0
  0
LINE
  5
5378
330
17
100
AcDbEntity
  8
0
  6
Continuous
100
AcDbLine
 10
7.238574151030121
 20
31.00839312742325
 30
0.0
 11
7.238574151030121
 21
28.32089312742325
 31
0.0
  0
LINE
  5
5379
330
17
100
AcDbEntity
  8
0
  6
Continuous
100
AcDbLine
 10
13.23857415103011
 20
31.00839312742324
 30
0.0
 11
13.23857415103011
 21
28.32089312742326
 31
0.0
  0
LINE
  5
537A
330
17
100
AcDbEntity
  8
0
  6
Continuous
100
AcDbLine
 10
13.23857415103011
 20
28.00839312742325
 30
0.0
 11
13.23857415103012
 21
22.83685893615815
 31
0.0
  0
LINE
  5
537B
330
17
100
AcDbEntity
  8
0
  6
DASHED
100
AcDbLine
 10
7.074502126817513
 20
28.00839312742324
 30
0.0
 11
7.07450212681752
 21
22.83685893615815
 31
0.0
  0
LINE
  5
537C
330
17
100
AcDbEntity
  8
0
  6
DASHED
100
AcDbLine
 10
7.38700212681752
 20
28.00839312742325
 30
0.0
 11
7.38700212681752
 21
22.83685893615815
 31
0.0
  0
LINE
  5
537D
330
17
100
AcDbEntity
  8
0
  6
DASHED
100
AcDbLine
 10
7.38700212681752
 20
31.00839312742324
 30
0.0
 11
7.38700212681752
 21
28.32089312742325
 31
0.0
  0
LINE
  5
537E
330
17
100
AcDbEntity
  8
0
  6
DASHED
100
AcDbLine
 10
7.07450212681752
 20
31.00839312742325
 30
0.0
 11
7.074502126817513
 21
28.32089312742325
 31
0.0
  0
LINE
  5
537F
330
17
100
AcDbEntity
  8
0
  6
DASHED
100
AcDbLine
 10
13.07450212681752
 20
31.00839312742324
 30
0.0
 11
13.07450212681752
 21
28.32089312742326
 31
0.0
  0
LINE
  5
5380
330
17
100
AcDbEntity
  8
0
  6
DASHED
100
AcDbLine
 10
13.38700212681752
 20
31.00839312742324
 30
0.0
 11
13.38700212681752
 21
28.32089312742326
 31
0.0
  0
LINE
  5
5381
330
17
100
AcDbEntity
  8
0
  6
DASHED
100
AcDbLine
 10
13.07450212681752
 20
28.00839312742325
 30
0.0
 11
13.07450212681752
 21
22.83685893615815
 31
0.0
  0
LINE
  5
5382
330
17
100
AcDbEntity
  8
0
  6
DASHED
100
AcDbLine
 10
13.38700212681752
 20
28.00839312742325
 30
0.0
 11
13.38700212681752
 21
22.83685893615815
 31
0.0
  0
TEXT
  5
53EC
330
17
100
AcDbEntity
  8
0
 62
     2
100
AcDbText
 10
26.97266348808667
 20
32.62878853217819
 30
0.0
 40
0.187
  1
PROJECT-OUT HEAD
100
AcDbText
  0
TEXT
  5
53ED
330
17
100
AcDbEntity
  8
0
 62
     2
100
AcDbText
 10
26.9017765372292
 20
26.09484955741302
 30
0.0
 40
0.187
  1
PROJECT-OUT SILL
100
AcDbText
  0
LWPOLYLINE
  5
5463
330
17
100
AcDbEntity
  8
R-SWTS-DET3
100
AcDbPolyline
 90
        4
 70
     0
 43
0.0
 10
24.27008431616298
 20
30.52168456441215
 10
24.27008431616298
 20
33.54207425867353
 10
24.0200843161629
 20
33.54207425867353
 10
24.0200843161629
 20
30.52168456441215
  0
LINE
  5
5464
330
17
100
AcDbEntity
  8
R-SWTS-DET1
100
AcDbLine
 10
24.52008431616309
 20
32.66707425867356
 30
0.0
 11
24.52008431616309
 21
30.54381505283963
 31
0.0
  0
ARC
  5
5465
330
17
100
AcDbEntity
  8
R-SWTS-DET3
100
AcDbCircle
 10
24.39508431616298
 20
32.45056790772743
 30
0.0
 40
0.25
100
AcDbArc
 50
60.00000000000007
 51
119.9999999999999
  0
ARC
  5
5466
330
17
100
AcDbEntity
  8
R-SWTS-DET3
100
AcDbCircle
 10
24.39508431616298
 20
32.51035461181128
 30
0.0
 40
0.25
100
AcDbArc
 50
60.00000000000007
 51
119.9999999999999
  0
ARC
  5
5467
330
17
100
AcDbEntity
  8
R-SWTS-DET3
100
AcDbCircle
 10
24.39508431616298
 20
32.57371829819074
 30
0.0
 40
0.25
100
AcDbArc
 50
60.00000000000007
 51
119.9999999999999
  0
ARC
  5
5468
330
17
100
AcDbEntity
  8
R-SWTS-DET3
100
AcDbCircle
 10
23.55502799070035
 20
33.72571143940542
 30
0.0
 40
0.7500000000000002
100
AcDbArc
 50
345.8270557847263
 51
5.076384855441388
  0
ARC
  5
5469
330
17
100
AcDbEntity
  8
R-SWTS-DET3
100
AcDbCircle
 10
24.39508431616298
 20
32.86703084643115
 30
0.0
 40
0.25
100
AcDbArc
 50
60.00000000000007
 51
119.9999999999999
  0
ARC
  5
546A
330
17
100
AcDbEntity
  8
R-SWTS-DET3
100
AcDbCircle
 10
24.39508431616298
 20
32.63043901744977
 30
0.0
 40
0.25
100
AcDbArc
 50
60.00000000000007
 51
119.9999999999999
  0
ARC
  5
546B
330
17
100
AcDbEntity
  8
R-SWTS-DET3
100
AcDbCircle
 10
24.39508431616298
 20
32.68000577211758
 30
0.0
 40
0.25
100
AcDbArc
 50
60.00000000000007
 51
119.9999999999999
  0
ARC
  5
546C
330
17
100
AcDbEntity
  8
R-SWTS-DET3
100
AcDbCircle
 10
24.39508431616298
 20
32.74694644079266
 30
0.0
 40
0.25
100
AcDbArc
 50
60.00000000000007
 51
119.9999999999999
  0
ARC
  5
546D
330
17
100
AcDbEntity
  8
R-SWTS-DET3
100
AcDbCircle
 10
24.39508431616298
 20
32.81031012717212
 30
0.0
 40
0.25
100
AcDbArc
 50
60.00000000000007
 51
119.9999999999999
  0
ARC
  5
546E
330
17
100
AcDbEntity
  8
R-SWTS-DET3
100
AcDbCircle
 10
24.39508431616298
 20
32.92017458339457
 30
0.0
 40
0.25
100
AcDbArc
 50
60.00000000000007
 51
119.9999999999999
  0
LWPOLYLINE
  5
546F
330
17
100
AcDbEntity
  8
R-SWTS-DET2
100
AcDbPolyline
 90
        4
 70
     1
 43
0.02
 10
24.27008431616298
 20
33.54207425867354
 10
24.27008431616298
 20
33.23007425867354
 10
24.52008431616298
 20
33.23007425867354
 10
24.52008431616298
 20
33.54207425867354
  0
ARC
  5
5470
330
17
100
AcDbEntity
  8
R-SWTS-DET3
100
AcDbCircle
 10
23.55502799070035
 20
33.72571143940542
 30
0.0
 40
0.6000000000000001
100
AcDbArc
 50
342.1779341572691
 51
6.350174967176934
  0
ARC
  5
5471
330
17
100
AcDbEntity
  8
R-SWTS-DET3
100
AcDbCircle
 10
23.55502799070035
 20
33.72571143940542
 30
0.0
 40
0.55
100
AcDbArc
 50
340.4952027633748
 51
3.686434369238776
  0
ARC
  5
5472
330
17
100
AcDbEntity
  8
R-SWTS-DET3
100
AcDbCircle
 10
23.55502799070035
 20
33.72571143940542
 30
0.0
 40
0.5
100
AcDbArc
 50
338.4523820096334
 51
19.07132453529038
  0
ARC
  5
5473
330
17
100
AcDbEntity
  8
R-SWTS-DET3
100
AcDbCircle
 10
23.55502799070035
 20
33.72571143940542
 30
0.0
 40
0.6500000000000002
100
AcDbArc
 50
343.5894113610055
 51
5.859917452535009
  0
ARC
  5
5474
330
17
100
AcDbEntity
  8
R-SWTS-DET3
100
AcDbCircle
 10
23.55502799070035
 20
33.72571143940542
 30
0.0
 40
0.7000000000000002
100
AcDbArc
 50
344.7911146078246
 51
5.440040508929888
  0
ARC
  5
5475
330
17
100
AcDbEntity
  8
R-SWTS-DET3
100
AcDbCircle
 10
23.6554827905007
 20
33.72571143940542
 30
0.0
 40
0.7000000000000002
100
AcDbArc
 50
344.7911146078246
 51
5.440040508929888
  0
ARC
  5
5476
330
17
100
AcDbEntity
  8
R-SWTS-DET3
100
AcDbCircle
 10
23.65548279050068
 20
33.72571143940542
 30
0.0
 40
0.7500000000000031
100
AcDbArc
 50
345.8270557847263
 51
2.449590583872386
  0
ARC
  5
5477
330
17
100
AcDbEntity
  8
R-SWTS-DET3
100
AcDbCircle
 10
23.70572654403563
 20
33.72571143940542
 30
0.0
 40
0.7500000000000182
100
AcDbArc
 50
345.8270557847265
 51
359.5169127211881
  0
LINE
  5
5478
330
17
100
AcDbEntity
  8
R-SWTS-DET1
100
AcDbLine
 10
26.52008431616309
 20
32.66707425867356
 30
0.0
 11
26.52008431616309
 21
30.54381505283963
 31
0.0
  0
LINE
  5
547A
330
17
100
AcDbEntity
  8
R-SWTS-DET1
100
AcDbLine
 10
24.51707321942489
 20
26.55611720223741
 30
0.0
 11
24.51707321942489
 21
28.69501874956855
 31
0.0
  0
LWPOLYLINE
  5
547B
330
17
100
AcDbEntity
  8
R-SWTS-DET3
100
AcDbPolyline
 90
        4
 70
     0
 43
0.0
 10
24.26707321942486
 20
28.69501874956855
 10
24.26707321942486
 20
25.68061720223741
 10
24.01707321942486
 20
25.68061720223741
 10
24.01707321942486
 20
28.69501874956855
  0
LWPOLYLINE
  5
547C
330
17
100
AcDbEntity
  8
R-SWTS-DET2
100
AcDbPolyline
 90
        4
 70
     1
 43
0.02
 10
24.26707321942489
 20
25.6811172022374
 10
24.26707321942489
 20
25.9931172022374
 10
24.51707321942489
 20
25.9931172022374
 10
24.51707321942489
 20
25.6811172022374
  0
LWPOLYLINE
  5
547D
330
17
100
AcDbEntity
  8
R-SWTS-DET2
100
AcDbPolyline
 90
        4
 70
     1
 43
0.0
 10
24.111206433601
 20
25.68061720223741
 10
24.36120643360101
 20
25.68061720223741
 10
24.36120643360101
 20
25.43061720223741
 10
24.111206433601
 20
25.43061720223741
  0
ARC
  5
547E
330
17
100
AcDbEntity
  8
R-SWTS-DET2
100
AcDbCircle
 10
23.55201689396221
 20
25.49748002150554
 30
0.0
 40
0.5
100
AcDbArc
 50
340.9286754647094
 51
21.54761799036662
  0
ARC
  5
547F
330
17
100
AcDbEntity
  8
R-SWTS-DET2
100
AcDbCircle
 10
23.55201689396221
 20
25.49748002150554
 30
0.0
 40
0.55
100
AcDbArc
 50
356.3135656307612
 51
19.50479723662537
  0
ARC
  5
5480
330
17
100
AcDbEntity
  8
R-SWTS-DET3
100
AcDbCircle
 10
24.39207321942489
 20
26.41288133373882
 30
0.0
 40
0.25
100
AcDbArc
 50
239.9999999999999
 51
300.0
  0
ARC
  5
5481
330
17
100
AcDbEntity
  8
R-SWTS-DET3
100
AcDbCircle
 10
24.39207321942489
 20
26.30301687751637
 30
0.0
 40
0.25
100
AcDbArc
 50
239.9999999999999
 51
300.0
  0
ARC
  5
5482
330
17
100
AcDbEntity
  8
R-SWTS-DET3
100
AcDbCircle
 10
24.39207321942489
 20
26.35616061447979
 30
0.0
 40
0.25
100
AcDbArc
 50
239.9999999999999
 51
300.0
  0
ARC
  5
5483
330
17
100
AcDbEntity
  8
R-SWTS-DET3
100
AcDbCircle
 10
24.39207321942489
 20
26.47624502011828
 30
0.0
 40
0.25
100
AcDbArc
 50
239.9999999999999
 51
300.0
  0
ARC
  5
5484
330
17
100
AcDbEntity
  8
R-SWTS-DET3
100
AcDbCircle
 10
24.39207321942489
 20
26.54318568879336
 30
0.0
 40
0.25
100
AcDbArc
 50
239.9999999999999
 51
300.0
  0
ARC
  5
5485
330
17
100
AcDbEntity
  8
R-SWTS-DET3
100
AcDbCircle
 10
24.39207321942489
 20
26.59275244346117
 30
0.0
 40
0.25
100
AcDbArc
 50
239.9999999999999
 51
300.0
  0
ARC
  5
5486
330
17
100
AcDbEntity
  8
R-SWTS-DET3
100
AcDbCircle
 10
24.39207321942489
 20
26.6494731627202
 30
0.0
 40
0.25
100
AcDbArc
 50
239.9999999999999
 51
300.0
  0
ARC
  5
5487
330
17
100
AcDbEntity
  8
R-SWTS-DET3
100
AcDbCircle
 10
24.39207321942489
 20
26.71283684909966
 30
0.0
 40
0.25
100
AcDbArc
 50
239.9999999999999
 51
300.0
  0
ARC
  5
5488
330
17
100
AcDbEntity
  8
R-SWTS-DET3
100
AcDbCircle
 10
24.39207321942489
 20
26.77262355318351
 30
0.0
 40
0.25
100
AcDbArc
 50
239.9999999999999
 51
300.0
  0
LINE
  5
5489
330
17
100
AcDbEntity
  8
R-SWTS-DET1
100
AcDbLine
 10
26.51707321942496
 20
26.55611720223739
 30
0.0
 11
26.51707321942496
 21
28.69501874956855
 31
0.0
  0
LWPOLYLINE
  5
559B
330
17
100
AcDbEntity
  8
R-SWTS-DET1
100
AcDbPolyline
 90
       43
 70
     1
 43
0.0
 10
31.93632030483544
 20
11.83361923873854
 42
0.6693764950687389
 10
31.94689173340687
 20
11.80797758012911
 10
32.36889173340687
 20
11.80797758012914
 10
32.36889173340687
 20
15.55797758012914
 10
29.86889173340687
 20
15.55797758012917
 10
29.86889173340687
 20
11.80797758012914
 10
30.29089173340687
 20
11.80797758012911
 42
0.6693764950687386
 10
30.30146316197831
 20
11.83361923873854
 42
-0.1997729274168749
 10
30.27489173340688
 20
11.89746919039501
 10
30.27489173340688
 20
11.90797758012914
 42
-0.4142135623730951
 10
30.32489173340688
 20
11.95797758012913
 10
30.41289173340687
 20
11.95797758012913
 42
-0.4142135623730743
 10
30.46289173340686
 20
11.90797758012914
 10
30.46289173340686
 20
11.89746919039501
 42
-0.1997729274170188
 10
30.43632030483536
 20
11.83361923873856
 42
0.669376495068904
 10
30.44689173340679
 20
11.80797758012914
 10
30.57389173340687
 20
11.80797758012914
 42
0.4142135623730951
 10
30.60389173340687
 20
11.83797758012914
 10
30.60389173340687
 20
11.92797758012909
 42
-0.4142135623731471
 10
30.63389173340688
 20
11.95797758012909
 10
30.88789173340688
 20
11.95797758012906
 42
-0.4142135623730516
 10
30.91789173340686
 20
11.92797758012906
 10
30.91789173340686
 20
11.83797758012914
 42
0.4142135623731038
 10
30.94789173340686
 20
11.80797758012914
 10
31.08889173340687
 20
11.80797758012914
 10
31.11889173340687
 20
11.83797758012914
 10
31.14889173340687
 20
11.80797758012914
 10
31.28989173340688
 20
11.80797758012914
 42
0.4142135623730951
 10
31.31989173340688
 20
11.83797758012914
 10
31.31989173340688
 20
11.92797758012898
 42
-0.4142135623731471
 10
31.34989173340688
 20
11.95797758012898
 10
31.60389173340688
 20
11.95797758012895
 42
-0.4142135623730516
 10
31.63389173340687
 20
11.92797758012895
 10
31.63389173340687
 20
11.83797758012914
 42
0.4142135623730863
 10
31.66389173340687
 20
11.80797758012914
 10
31.79089173340697
 20
11.80797758012914
 42
0.6693764950688821
 10
31.80146316197833
 20
11.83361923873851
 42
-0.1997729274170196
 10
31.77489173340688
 20
11.89746919039501
 10
31.77489173340688
 20
11.90797758012914
 42
-0.4142135623730743
 10
31.82489173340687
 20
11.95797758012913
 10
31.91289173340687
 20
11.95797758012913
 42
-0.4142135623730951
 10
31.96289173340688
 20
11.90797758012914
 10
31.96289173340686
 20
11.89746919039501
 42
-0.1997729274168747
  0
LWPOLYLINE
  5
559C
330
17
100
AcDbEntity
  8
R-SWTS-DET1
100
AcDbPolyline
 90
       28
 70
     1
 43
0.0
 10
31.21989173340687
 20
11.997977580129
 10
31.21989173340687
 20
11.93797758012915
 10
31.01789173340687
 20
11.93797758012915
 10
31.01789173340687
 20
11.99797758012904
 42
0.4142135623730474
 10
30.95789173340688
 20
12.05797758012904
 10
30.20489173340684
 20
12.05797758012917
 42
0.4142135623732339
 10
30.17489173340684
 20
12.02797758012916
 10
30.17489173340687
 20
11.90797758012911
 10
29.96889173340687
 20
11.90797758012914
 10
29.96889173340687
 20
15.45797758012915
 10
30.12889173340686
 20
15.45797758012915
 42
-0.4142135623730951
 10
30.18889173340686
 20
15.39797758012914
 10
30.18889173340686
 20
15.33797758012914
 10
30.42389173340686
 20
15.33797758012914
 10
30.42389173340686
 20
15.39797758012914
 42
-0.4142135623730974
 10
30.48389173340686
 20
15.45797758012915
 10
31.75389173340688
 20
15.45797758012915
 42
-0.4142135623731013
 10
31.81389173340688
 20
15.39797758012914
 10
31.81389173340688
 20
15.33797758012914
 10
32.04889173340688
 20
15.33797758012914
 10
32.04889173340688
 20
15.39797758012914
 42
-0.4142135623730951
 10
32.10889173340688
 20
15.45797758012915
 10
32.26889173340687
 20
15.45797758012915
 10
32.26889173340687
 20
11.90797758012914
 10
32.06289173340687
 20
11.90797758012911
 10
32.06289173340691
 20
12.02797758012886
 42
0.4142135623731471
 10
32.03289173340691
 20
12.05797758012887
 10
31.27989173340689
 20
12.057977580129
 42
0.4142135623731341
  0
LINE
  5
559D
330
17
100
AcDbEntity
  8
R-SWTS-DET2
100
AcDbLine
 10
34.36889173340687
 20
10.7682226581053
 30
0.0
 11
26.0365412491406
 21
10.7682226581053
 31
0.0
  0
LINE
  5
559E
330
17
100
AcDbEntity
  8
R-SWTS-DET1
100
AcDbLine
 10
34.3688917334062
 20
10.30797758012916
 30
0.0
 11
26.0365412491406
 21
10.30797758012916
 31
0.0
  0
TEXT
  5
559F
330
17
100
AcDbEntity
  8
PART_NUMBERS
100
AcDbText
 10
28.93714780215896
 20
16.05844490382781
 30
0.0
 40
0.25
  1
162025 SSG MULLION
100
AcDbText
  0
LINE
  5
55A0
330
17
100
AcDbEntity
  8
R-SWTS-DET2
100
AcDbLine
 10
29.37175023340687
 20
13.29497758012915
 30
0.0
 11
30.48514013340688
 21
13.29497758012915
 31
0.0
  0
LWPOLYLINE
  5
55A1
330
17
100
AcDbEntity
  8
R-SWTS-DET2
100
AcDbPolyline
 90
       41
 70
     1
 43
0.0
 10
30.79089173340688
 20
11.90302192366555
 10
30.83452708582054
 20
11.89132986622486
 42
0.9999999999999909
 10
30.84125638099322
 20
11.91644393770838
 10
30.76089173340688
 20
11.93797758012915
 10
30.68052708582055
 20
11.91644393770838
 42
0.9999999999999909
 10
30.68725638099321
 20
11.89132986622486
 10
30.73089173340688
 20
11.90302192366555
 10
30.71089173340687
 20
11.80797758012914
 10
30.41889173340682
 20
11.80797758012914
 10
30.39889173340683
 20
11.90302192366555
 10
30.4425270858205
 20
11.89132986622486
 42
0.9999999999999909
 10
30.44925638099317
 20
11.91644393770838
 10
30.36889173340683
 20
11.93797758012915
 10
30.28852708582049
 20
11.91644393770838
 42
0.9999999999999909
 10
30.29525638099317
 20
11.89132986622486
 10
30.33889173340682
 20
11.90302192366555
 10
30.31889173340683
 20
11.80797758012914
 10
30.29189173340683
 20
11.80797758012914
 10
30.29189173340683
 20
11.55797758012917
 10
31.11889173340687
 20
11.50797758012917
 10
31.94589173340691
 20
11.55797758012917
 10
31.94589173340693
 20
11.80797758012914
 10
31.91889173340691
 20
11.80797758012914
 10
31.89889173340691
 20
11.90302192366555
 10
31.94252708582059
 20
11.89132986622486
 42
0.9999999999999909
 10
31.94925638099325
 20
11.91644393770838
 10
31.86889173340691
 20
11.93797758012915
 10
31.78852708582058
 20
11.91644393770838
 42
0.9999999999999909
 10
31.79525638099324
 20
11.89132986622486
 10
31.83889173340691
 20
11.90302192366555
 10
31.81889173340691
 20
11.80797758012914
 10
31.52689173340687
 20
11.80797758012914
 10
31.50689173340686
 20
11.90302192366555
 10
31.55052708582053
 20
11.89132986622486
 42
0.9999999999999909
 10
31.55725638099319
 20
11.91644393770838
 10
31.47689173340687
 20
11.93797758012915
 10
31.39652708582054
 20
11.91644393770838
 42
0.9999999999999909
 10
31.4032563809932
 20
11.89132986622486
 10
31.44689173340687
 20
11.90302192366555
 10
31.42689173340686
 20
11.80797758012914
 10
30.81089173340688
 20
11.80797758012914
  0
LWPOLYLINE
  5
55A2
330
17
100
AcDbEntity
  8
R-SWTS-DET2
100
AcDbPolyline
 90
        8
 70
     1
 43
0.0
 10
30.39189173340683
 20
11.73797758012915
 42
0.4142135623730944
 10
30.36189173340682
 20
11.70797758012915
 10
30.36189173340682
 20
11.65211423170938
 42
0.3966354997270777
 10
30.39008125459131
 20
11.62216891210083
 10
31.05208125459136
 20
11.58214472830397
 42
0.4320128626193652
 10
31.08389173340687
 20
11.61209004791253
 10
31.08389173340687
 20
11.70797758012915
 42
0.4142135623730956
 10
31.05389173340687
 20
11.73797758012915
  0
LINE
  5
55A5
330
17
100
AcDbEntity
  8
R-SWTS-DET3
100
AcDbLine
 10
26.03654124914061
 20
11.30797758012913
 30
0.0
 11
30.86889173340687
 21
11.30797758012914
 31
0.0
  0
LINE
  5
55A6
330
17
100
AcDbEntity
  8
R-ANNO-DIMS
  6
ByBlock
100
AcDbLine
 10
30.06889173340689
 20
8.481653551939
 30
0.0
 11
32.16889173340688
 21
8.481653551939
 31
0.0
  0
LINE
  5
55A7
330
17
100
AcDbEntity
  8
R-SWTS-DET1
100
AcDbLine
 10
29.61889173340687
 20
12.97297758012914
 30
0.0
 11
29.61889173340687
 21
12.59997758012914
 31
0.0
  0
LINE
  5
55A8
330
17
100
AcDbEntity
  8
R-SWTS-DET1
100
AcDbLine
 10
29.74389173340687
 20
12.28297758012914
 30
0.0
 11
29.74389173340687
 21
13.08497758012914
 31
0.0
  0
LINE
  5
55AD
330
17
100
AcDbEntity
  8
R-SWTS-DET1
100
AcDbLine
 10
26.0365412491406
 20
12.28893816079232
 30
0.0
 11
26.0365412491406
 21
15.76593250674017
 31
0.0
  0
LINE
  5
55AE
330
17
100
AcDbEntity
  8
R-SWTS-DET1
100
AcDbLine
 10
26.03654124914061
 20
9.72124820410363
 30
0.0
 11
26.0365412491406
 21
12.07709683369151
 31
0.0
  0
LINE
  5
55AF
330
17
100
AcDbEntity
  8
R-ANNO-DIMS
  6
ByBlock
100
AcDbLine
 10
29.66889173340688
 20
8.481653551939
 30
0.0
 11
26.25427623614827
 21
8.481653551939
 31
0.0
  0
TEXT
  5
55B0
330
17
100
AcDbEntity
  8
R-ANNO-DIMS
  6
ByBlock
100
AcDbText
 10
26.58987126630174
 20
8.589588998158472
 30
0.0
 40
0.25
  1
VENT OPENING
 72
     1
 11
27.90944834679287
 21
8.714588998158472
 31
0.0
100
AcDbText
 73
     2
  0
SOLID
  5
55B1
330
17
100
AcDbEntity
  8
R-ANNO-DIMS
  6
ByBlock
100
AcDbTrace
 10
26.2741984254923
 20
8.448320218605669
 30
0.0
 11
26.2741984254923
 21
8.514986885272332
 31
0.0
 12
26.0741984254923
 22
8.481653551939
 32
0.0
 13
26.0741984254923
 23
8.481653551939
 33
0.0
  0
LINE
  5
55B2
330
17
100
AcDbEntity
  8
R-ANNO-DIMS
  6
ByBlock
100
AcDbLine
 10
29.86889173340687
 20
10.106653551939
 30
0.0
 11
29.86889173340687
 21
8.356653551939
 31
0.0
  0
LINE
  5
55B3
330
17
100
AcDbEntity
  8
R-ANNO-DIMS
  6
ByBlock
100
AcDbLine
 10
29.86889173340687
 20
10.106653551939
 30
0.0
 11
29.86889173340687
 21
8.356653551939
 31
0.0
  0
SOLID
  5
55B4
330
17
100
AcDbEntity
  8
R-ANNO-DIMS
  6
ByBlock
100
AcDbTrace
 10
29.66889173340687
 20
8.448320218605669
 30
0.0
 11
29.66889173340687
 21
8.514986885272332
 31
0.0
 12
29.86889173340687
 22
8.481653551939
 32
0.0
 13
29.86889173340687
 23
8.481653551939
 33
0.0
  0
SOLID
  5
55B5
330
17
100
AcDbEntity
  8
R-ANNO-DIMS
  6
ByBlock
100
AcDbTrace
 10
30.06889173340687
 20
8.448320218605669
 30
0.0
 11
30.06889173340687
 21
8.514986885272332
 31
0.0
 12
29.86889173340687
 22
8.481653551939
 32
0.0
 13
29.86889173340687
 23
8.481653551939
 33
0.0
  0
LINE
  5
55B6
330
17
100
AcDbEntity
  8
R-SWTS-DET1
100
AcDbLine
 10
28.18089173340688
 20
11.80797758012913
 30
0.0
 11
26.0365412491406
 21
11.80797758012913
 31
0.0
  0
LINE
  5
55B7
330
17
100
AcDbEntity
  8
R-SWTS-DET1
100
AcDbLine
 10
26.0365412491406
 20
12.07709683369151
 30
0.0
 11
26.24879343926348
 21
12.13001724835395
 31
0.0
  0
LINE
  5
55B8
330
17
100
AcDbEntity
  8
R-SWTS-DET1
100
AcDbLine
 10
26.24879343926348
 20
12.13001724835395
 30
0.0
 11
25.82396886142807
 21
12.23593791190434
 31
0.0
  0
LINE
  5
55B9
330
17
100
AcDbEntity
  8
R-SWTS-DET1
100
AcDbLine
 10
25.82396886142807
 20
12.23593791190434
 30
0.0
 11
26.0365412491406
 21
12.28893816079232
 31
0.0
  0
ARC
  5
55BC
330
17
100
AcDbEntity
  8
R-SWTS-DET2
100
AcDbCircle
 10
29.43023706638463
 20
11.78989706790724
 30
0.0
 40
0.33
100
AcDbArc
 50
187.6481511365875
 51
224.6509810497503
  0
ARC
  5
55BD
330
17
100
AcDbEntity
  8
R-SWTS-DET2
100
AcDbCircle
 10
29.43023706638463
 20
11.78989706790724
 30
0.0
 40
0.29
100
AcDbArc
 50
176.4254850005557
 51
233.1035989716691
  0
ARC
  5
55BE
330
17
100
AcDbEntity
  8
R-SWTS-DET2
100
AcDbCircle
 10
29.43023706638463
 20
11.78989706790724
 30
0.0
 40
0.25
100
AcDbArc
 50
175.8526310063232
 51
248.0756954535235
  0
ARC
  5
55C1
330
17
100
AcDbEntity
  8
R-SWTS-DET2
100
AcDbCircle
 10
28.08753577292407
 20
11.68297758012913
 30
0.0
 40
0.25
100
AcDbArc
 50
329.9999999999997
 51
29.99999999999993
  0
ARC
  5
55C2
330
17
100
AcDbEntity
  8
R-SWTS-DET2
100
AcDbCircle
 10
28.14425649218311
 20
11.68297758012913
 30
0.0
 40
0.25
100
AcDbArc
 50
329.9999999999997
 51
29.99999999999993
  0
ARC
  5
55C3
330
17
100
AcDbEntity
  8
R-SWTS-DET2
100
AcDbCircle
 10
27.96438538246076
 20
11.68297758012913
 30
0.0
 40
0.25
100
AcDbArc
 50
329.9999999999997
 51
29.99999999999993
  0
ARC
  5
55C4
330
17
100
AcDbEntity
  8
R-SWTS-DET2
100
AcDbCircle
 10
28.02417208654461
 20
11.68297758012913
 30
0.0
 40
0.25
100
AcDbArc
 50
329.9999999999997
 51
29.99999999999993
  0
ARC
  5
55C5
330
17
100
AcDbEntity
  8
R-SWTS-DET2
100
AcDbCircle
 10
28.26076391552599
 20
11.68297758012913
 30
0.0
 40
0.25
100
AcDbArc
 50
329.9999999999997
 51
29.99999999999993
  0
ARC
  5
55C6
330
17
100
AcDbEntity
  8
R-SWTS-DET2
100
AcDbCircle
 10
28.19808897097209
 20
11.68297758012913
 30
0.0
 40
0.25
100
AcDbArc
 50
329.9999999999997
 51
29.99999999999993
  0
ARC
  5
55CD
330
17
100
AcDbEntity
  8
R-SWTS-DET2
100
AcDbCircle
 10
29.43023706638463
 20
11.78989706790724
 30
0.0
 40
0.41
100
AcDbArc
 50
204.0714688220948
 51
214.4479469667785
  0
ARC
  5
55CE
330
17
100
AcDbEntity
  8
R-SWTS-DET2
100
AcDbCircle
 10
29.43023706638463
 20
11.78989706790724
 30
0.0
 40
0.3699999999999999
100
AcDbArc
 50
186.8171579023332
 51
218.8151181204554
  0
ARC
  5
55CF
330
17
100
AcDbEntity
  8
R-SWTS-DET2
100
AcDbCircle
 10
28.4339920581279
 20
11.68297758012913
 30
0.0
 40
0.25
100
AcDbArc
 50
329.9999999999997
 51
29.99999999999993
  0
ARC
  5
55D0
330
17
100
AcDbEntity
  8
R-SWTS-DET2
100
AcDbCircle
 10
28.38084832116448
 20
11.68297758012913
 30
0.0
 40
0.25
100
AcDbArc
 50
329.9999999999997
 51
29.99999999999993
  0
LWPOLYLINE
  5
55D1
330
17
100
AcDbEntity
  8
R-SWTS-DET2
100
AcDbPolyline
 90
        4
 70
     1
 43
0.02
 10
29.05589173340687
 20
11.55797758012914
 10
28.74389173340687
 20
11.55797758012914
 10
28.74389173340687
 20
11.80797758012913
 10
29.05589173340687
 20
11.80797758012913
  0
ARC
  5
55D2
330
17
100
AcDbEntity
  8
R-SWTS-DET2
100
AcDbCircle
 10
28.32412760190545
 20
11.68297758012913
 30
0.0
 40
0.25
100
AcDbArc
 50
329.9999999999997
 51
29.99999999999993
  0
LINE
  5
55D3
330
17
100
AcDbEntity
  8
R-SWTS-DET1
100
AcDbLine
 10
29.74389173340687
 20
11.90797758012914
 30
0.0
 11
29.74389173340687
 21
12.18297758012914
 31
0.0
  0
LINE
  5
55D4
330
17
100
AcDbEntity
  8
R-SWTS-DET1
100
AcDbLine
 10
29.61889173340687
 20
12.57997758012914
 30
0.0
 11
29.61889173340687
 21
11.85409678100598
 31
0.0
  0
LINE
  5
55D5
330
17
100
AcDbEntity
  8
R-SWTS-DET2
100
AcDbLine
 10
29.86493373495175
 20
12.08570465228329
 30
0.0
 11
29.77224411697802
 21
12.17839427025702
 31
0.0
  0
LINE
  5
55D6
330
17
100
AcDbEntity
  8
R-SWTS-DET2
100
AcDbLine
 10
29.86523820713674
 20
12.05004484103897
 30
0.0
 11
29.74879852028495
 21
12.16648452789075
 31
0.0
  0
LINE
  5
55D7
330
17
100
AcDbEntity
  8
R-SWTS-DET2
100
AcDbLine
 10
29.86554267932175
 20
12.01438502979464
 30
0.0
 11
29.74920979425347
 21
12.13071791486291
 31
0.0
  0
ARC
  5
55D8
330
17
100
AcDbEntity
  8
R-SWTS-DET1
100
AcDbCircle
 10
29.84389173340686
 20
11.90797758012914
 30
0.0
 40
0.0999999999999997
100
AcDbArc
 50
180.0
 51
270.0
  0
LINE
  5
55D9
330
17
100
AcDbEntity
  8
R-SWTS-DET1
100
AcDbLine
 10
29.68189173340687
 20
11.74497758012914
 30
0.0
 11
29.93889173340688
 21
11.74497758012914
 31
0.0
  0
LINE
  5
55DA
330
17
100
AcDbEntity
  8
R-SWTS-DET2
100
AcDbLine
 10
29.80163405888232
 20
11.83080627681878
 30
0.0
 11
29.7695029311338
 21
11.86293740456729
 31
0.0
  0
LINE
  5
55DB
330
17
100
AcDbEntity
  8
R-SWTS-DET2
100
AcDbLine
 10
29.85540369404481
 20
11.8123919807156
 30
0.0
 11
29.75167743806459
 21
11.91611823669583
 31
0.0
  0
LINE
  5
55DC
330
17
100
AcDbEntity
  8
R-SWTS-DET2
100
AcDbLine
 10
29.86706504024673
 20
11.83608597357301
 30
0.0
 11
29.75126616409607
 21
11.95188484972368
 31
0.0
  0
LINE
  5
55DD
330
17
100
AcDbEntity
  8
R-SWTS-DET2
100
AcDbLine
 10
29.86676056806174
 20
11.87174578481734
 30
0.0
 11
29.75085489012755
 21
11.98765146275152
 31
0.0
  0
LINE
  5
55DE
330
17
100
AcDbEntity
  8
R-SWTS-DET2
100
AcDbLine
 10
29.86645609587674
 20
11.90740559606167
 30
0.0
 11
29.75044361615903
 21
12.02341807577937
 31
0.0
  0
LINE
  5
55DF
330
17
100
AcDbEntity
  8
R-SWTS-DET2
100
AcDbLine
 10
29.86584715150674
 20
11.97872521855031
 30
0.0
 11
29.749621068222
 21
12.09495130183506
 31
0.0
  0
LINE
  5
55E0
330
17
100
AcDbEntity
  8
R-SWTS-DET2
100
AcDbLine
 10
29.86615162369174
 20
11.94306540730599
 30
0.0
 11
29.75003234219051
 21
12.05918468880722
 31
0.0
  0
LINE
  5
55E1
330
17
100
AcDbEntity
  8
R-SWTS-DET1
100
AcDbLine
 10
29.61889173340687
 20
11.85409678100598
 30
0.0
 11
29.68189173340687
 21
11.74497758012914
 31
0.0
  0
LINE
  5
55E4
330
17
100
AcDbEntity
  8
R-SWTS-DET1
100
AcDbLine
 10
29.96889173340687
 20
11.80797758012914
 30
0.0
 11
29.84389173340686
 21
11.80797758012914
 31
0.0
  0
LINE
  5
55E5
330
17
100
AcDbEntity
  8
R-SWTS-DET1
100
AcDbLine
 10
29.96889173340688
 20
11.77497758012914
 30
0.0
 11
29.96889173340687
 21
11.80797758012914
 31
0.0
  0
ARC
  5
55E6
330
17
100
AcDbEntity
  8
R-SWTS-DET1
100
AcDbCircle
 10
29.93889173340688
 20
11.77497758012914
 30
0.0
 40
0.0300000000000011
100
AcDbArc
 50
270.0
 51
0.0000000000034604
  0
LINE
  5
55E7
330
17
100
AcDbEntity
  8
R-SWTS-DET1
100
AcDbLine
 10
29.86889173340687
 20
12.28297758012914
 30
0.0
 11
29.74389173340687
 21
12.28297758012914
 31
0.0
  0
LINE
  5
55E8
330
17
100
AcDbEntity
  8
R-SWTS-DET1
100
AcDbLine
 10
29.74389173340687
 20
12.18297758012914
 30
0.0
 11
29.86889173340687
 21
12.18297758012914
 31
0.0
  0
LINE
  5
55E9
330
17
100
AcDbEntity
  8
R-SWTS-DET1
100
AcDbLine
 10
29.61889173340687
 20
12.59997758012914
 30
0.0
 11
29.62889173340688
 21
12.58997758012914
 31
0.0
  0
LINE
  5
55EA
330
17
100
AcDbEntity
  8
R-SWTS-DET1
100
AcDbLine
 10
29.62889173340688
 20
12.58997758012914
 30
0.0
 11
29.61889173340687
 21
12.57997758012914
 31
0.0
  0
LINE
  5
55EB
330
17
100
AcDbEntity
  8
R-SWTS-DET1
100
AcDbLine
 10
29.86889173340687
 20
12.18297758012914
 30
0.0
 11
29.86889173340687
 21
12.28297758012914
 31
0.0
  0
LINE
  5
55EC
330
17
100
AcDbEntity
  8
R-SWTS-DET2
100
AcDbLine
 10
29.86432479058175
 20
12.15702427477194
 30
0.0
 11
29.84459095068843
 21
12.17675811466526
 31
0.0
  0
LINE
  5
55ED
330
17
100
AcDbEntity
  8
R-SWTS-DET2
100
AcDbLine
 10
29.86462926276674
 20
12.12136446352762
 30
0.0
 11
29.80841753383322
 21
12.17757619246114
 31
0.0
  0
LINE
  5
55EE
330
17
100
AcDbEntity
  8
R-SWTS-DET1
100
AcDbLine
 10
28.80589173340687
 20
13.98297758012914
 30
0.0
 11
26.0365412491406
 21
13.98297758012914
 31
0.0
  0
LINE
  5
55EF
330
17
100
AcDbEntity
  8
R-SWTS-DET1
100
AcDbLine
 10
28.18089173340688
 20
13.80797758012914
 30
0.0
 11
26.0365412491406
 21
13.80797758012914
 31
0.0
  0
LINE
  5
55F1
330
17
100
AcDbEntity
  8
R-SWTS-DET1
100
AcDbLine
 10
29.86889173340754
 20
15.55797758012914
 30
0.0
 11
26.03654124914127
 21
15.55797758012914
 31
0.0
  0
TEXT
  5
55F2
330
17
100
AcDbEntity
  8
0
 62
     2
100
AcDbText
 10
26.38131902402492
 20
14.24729043177438
 30
0.0
 40
0.187
  1
PROJECT-OUT JAMB
100
AcDbText
  0
LINE
  5
55F3
330
17
100
AcDbEntity
  8
R-SWTS-DET1
100
AcDbLine
 10
28.80589173340687
 20
13.85797758012914
 30
0.0
 11
29.61889173340687
 21
13.85797758012914
 31
0.0
  0
LINE
  5
55F4
330
17
100
AcDbEntity
  8
R-SWTS-DET1
100
AcDbLine
 10
29.86889173340687
 20
13.98297758012914
 30
0.0
 11
28.80589173340687
 21
13.98297758012914
 31
0.0
  0
LINE
  5
55F9
330
17
100
AcDbEntity
  8
R-SWTS-DET1
100
AcDbLine
 10
28.80589173340687
 20
13.98297758012914
 30
0.0
 11
28.80589173340687
 21
13.85797758012914
 31
0.0
  0
ARC
  5
5602
330
17
100
AcDbEntity
  8
R-SWTS-DET2
100
AcDbCircle
 10
28.98754007757997
 20
13.83047758012912
 30
0.0
 40
0.0224999999999795
100
AcDbArc
 50
270.0
 51
90.0
  0
ARC
  5
5603
330
17
100
AcDbEntity
  8
R-SWTS-DET2
100
AcDbCircle
 10
28.81124338923377
 20
13.83047758012912
 30
0.0
 40
0.0224999999999795
100
AcDbArc
 50
90.0
 51
270.0
  0
LINE
  5
5604
330
17
100
AcDbEntity
  8
R-SWTS-DET1
100
AcDbLine
 10
29.61889173340687
 20
13.85797758012914
 30
0.0
 11
29.61889173340687
 21
13.30497758012914
 31
0.0
  0
LINE
  5
5605
330
17
100
AcDbEntity
  8
R-SWTS-DET1
100
AcDbLine
 10
29.74389173340687
 20
13.18497758012914
 30
0.0
 11
29.74389173340687
 21
13.85797758012914
 31
0.0
  0
LINE
  5
5606
330
17
100
AcDbEntity
  8
R-SWTS-DET1
100
AcDbLine
 10
29.86889173340687
 20
13.18497758012914
 30
0.0
 11
29.74389173340687
 21
13.18497758012914
 31
0.0
  0
LINE
  5
5607
330
17
100
AcDbEntity
  8
R-SWTS-DET1
100
AcDbLine
 10
29.74389173340687
 20
13.08497758012914
 30
0.0
 11
29.86889173340687
 21
13.08497758012914
 31
0.0
  0
LINE
  5
5608
330
17
100
AcDbEntity
  8
R-SWTS-DET2
100
AcDbLine
 10
29.61889173340687
 20
13.18697758012915
 30
0.0
 11
30.22589303340686
 21
13.18697758012915
 31
0.0
  0
LINE
  5
5609
330
17
100
AcDbEntity
  8
R-SWTS-DET2
100
AcDbLine
 10
29.61889173340687
 20
13.40297758012915
 30
0.0
 11
30.22589213340687
 21
13.40297758012915
 31
0.0
  0
LINE
  5
560A
330
17
100
AcDbEntity
  8
R-SWTS-DET1
100
AcDbLine
 10
29.62889173340688
 20
12.98297758012914
 30
0.0
 11
29.61889173340687
 21
12.97297758012914
 31
0.0
  0
LINE
  5
560B
330
17
100
AcDbEntity
  8
R-SWTS-DET1
100
AcDbLine
 10
29.61889173340687
 20
12.99297758012914
 30
0.0
 11
29.62889173340688
 21
12.98297758012914
 31
0.0
  0
LINE
  5
560C
330
17
100
AcDbEntity
  8
R-SWTS-DET1
100
AcDbLine
 10
29.61889173340687
 20
13.28497758012914
 30
0.0
 11
29.61889173340687
 21
12.99297758012914
 31
0.0
  0
LINE
  5
560D
330
17
100
AcDbEntity
  8
R-SWTS-DET1
100
AcDbLine
 10
29.62889173340688
 20
13.29497758012914
 30
0.0
 11
29.61889173340687
 21
13.28497758012914
 31
0.0
  0
LINE
  5
560E
330
17
100
AcDbEntity
  8
R-SWTS-DET1
100
AcDbLine
 10
29.61889173340687
 20
13.30497758012914
 30
0.0
 11
29.62889173340688
 21
13.29497758012914
 31
0.0
  0
ARC
  5
560F
330
17
100
AcDbEntity
  8
R-SWTS-DET2
100
AcDbCircle
 10
29.80469033340687
 20
13.29497758012915
 30
0.0
 40
0.3367977
100
AcDbArc
 50
143.0332999999999
 51
216.9667999999998
  0
ARC
  5
5610
330
17
100
AcDbEntity
  8
R-SWTS-DET2
100
AcDbCircle
 10
29.55556871340687
 20
13.10747768012915
 30
0.0
 40
0.02500004
100
AcDbArc
 50
216.9670000000002
 51
270.0
  0
ARC
  5
5611
330
17
100
AcDbEntity
  8
R-SWTS-DET2
100
AcDbCircle
 10
29.55556871340687
 20
13.48247748012915
 30
0.0
 40
0.02500004
100
AcDbArc
 50
89.99980000000022
 51
143.0329999999998
  0
LINE
  5
5612
330
17
100
AcDbEntity
  8
R-SWTS-DET2
100
AcDbLine
 10
29.55556871340687
 20
13.08247758012915
 30
0.0
 11
29.61889173340687
 21
13.08247758012915
 31
0.0
  0
LINE
  5
5613
330
17
100
AcDbEntity
  8
R-SWTS-DET2
100
AcDbLine
 10
29.55556871340687
 20
13.50747758012915
 30
0.0
 11
29.61889173340687
 21
13.50747758012915
 31
0.0
  0
LINE
  5
5614
330
17
100
AcDbEntity
  8
R-SWTS-DET1
100
AcDbLine
 10
29.61889173340687
 20
13.50747758012915
 30
0.0
 11
29.61889173340687
 21
13.08247758012915
 31
0.0
  0
LINE
  5
5615
330
17
100
AcDbEntity
  8
R-SWTS-DET1
100
AcDbLine
 10
29.86889173340687
 20
13.08497758012914
 30
0.0
 11
29.86889173340687
 21
13.18497758012914
 31
0.0
  0
LINE
  5
5616
330
17
100
AcDbEntity
  8
R-SWTS-DET2
100
AcDbLine
 10
30.22589383340687
 20
13.18697798012915
 30
0.0
 11
30.36889533340687
 21
13.21897820012915
 31
0.0
  0
LINE
  5
5617
330
17
100
AcDbEntity
  8
R-SWTS-DET2
100
AcDbLine
 10
30.22589383340687
 20
13.40297718012915
 30
0.0
 11
30.36889533340687
 21
13.37097696012915
 31
0.0
  0
LINE
  5
5618
330
17
100
AcDbEntity
  8
R-SWTS-DET2
100
AcDbLine
 10
30.36889173340687
 20
13.37097750012915
 30
0.0
 11
30.36889173340687
 21
13.21897766012915
 31
0.0
  0
LINE
  5
5619
330
17
100
AcDbEntity
  8
R-SWTS-DET1
100
AcDbLine
 10
29.74389173340687
 20
13.85797758012914
 30
0.0
 11
29.86889173340687
 21
13.85797758012914
 31
0.0
  0
LINE
  5
561A
330
17
100
AcDbEntity
  8
R-SWTS-DET1
100
AcDbLine
 10
29.86889173340687
 20
13.85797758012914
 30
0.0
 11
29.86889173340687
 21
13.98297758012914
 31
0.0
  0
LWPOLYLINE
  5
561C
330
17
100
AcDbEntity
  8
R-SWTS-DET1
100
AcDbPolyline
 90
        6
 70
     0
 43
0.0
 10
34.36889173340687
 20
9.72124820410363
 10
34.36889173340687
 20
12.45209683369151
 10
34.156639543284
 20
12.50501724835394
 10
34.58146412111941
 20
12.61093791190434
 10
34.36921193099654
 20
12.66385832656677
 10
34.36889173340687
 20
15.80797758012914
  0
LINE
  5
561E
330
17
100
AcDbEntity
  8
R-ANNO-DIMS
  6
ByBlock
100
AcDbLine
 10
32.56889173340689
 20
8.481653551939
 30
0.0
 11
34.16889173340688
 21
8.481653551939
 31
0.0
  0
TEXT
  5
561F
330
17
100
AcDbEntity
  8
R-ANNO-DIMS
  6
ByBlock
100
AcDbText
 10
32.8932169414299
 20
8.589588998158472
 30
0.0
 40
0.25
  1
DLO
 72
     1
 11
33.25227219381735
 21
8.714588998158472
 31
0.0
100
AcDbText
 73
     2
  0
LINE
  5
5620
330
17
100
AcDbEntity
  8
R-ANNO-DIMS
  6
ByBlock
100
AcDbLine
 10
32.36889173340687
 20
10.106653551939
 30
0.0
 11
32.36889173340687
 21
8.356653551939
 31
0.0
  0
LINE
  5
5621
330
17
100
AcDbEntity
  8
R-ANNO-DIMS
  6
ByBlock
100
AcDbLine
 10
32.36889173340687
 20
10.106653551939
 30
0.0
 11
32.36889173340687
 21
8.356653551939
 31
0.0
  0
TEXT
  5
5622
330
17
100
AcDbEntity
  8
R-ANNO-DIMS
  6
ByBlock
100
AcDbText
 10
30.67107299712076
 20
8.589588998158472
 30
0.0
 40
0.25
  1
2 1/2"
 72
     1
 11
31.12144816765282
 21
8.714588998158472
 31
0.0
100
AcDbText
 73
     2
  0
SOLID
  5
5623
330
17
100
AcDbEntity
  8
R-ANNO-DIMS
  6
ByBlock
100
AcDbTrace
 10
32.16889173340687
 20
8.448320218605669
 30
0.0
 11
32.16889173340687
 21
8.514986885272332
 31
0.0
 12
32.36889173340687
 22
8.481653551939
 32
0.0
 13
32.36889173340687
 23
8.481653551939
 33
0.0
  0
SOLID
  5
5624
330
17
100
AcDbEntity
  8
R-ANNO-DIMS
  6
ByBlock
100
AcDbTrace
 10
32.56889173340687
 20
8.448320218605669
 30
0.0
 11
32.56889173340687
 21
8.514986885272332
 31
0.0
 12
32.36889173340687
 22
8.481653551939
 32
0.0
 13
32.36889173340687
 23
8.481653551939
 33
0.0
  0
SOLID
  5
5625
330
17
100
AcDbEntity
  8
R-ANNO-DIMS
  6
ByBlock
100
AcDbTrace
 10
34.16889173340687
 20
8.448320218605669
 30
0.0
 11
34.16889173340687
 21
8.514986885272332
 31
0.0
 12
34.36889173340687
 22
8.481653551939
 32
0.0
 13
34.36889173340687
 23
8.481653551939
 33
0.0
  0
LINE
  5
5626
330
17
100
AcDbEntity
  8
R-SWTS-DET3
100
AcDbLine
 10
34.36889173340687
 20
11.30797758012914
 30
0.0
 11
31.36889173340687
 21
11.30797758012914
 31
0.0
  0
LWPOLYLINE
  5
562B
330
17
100
AcDbEntity
  8
R-SWTS-DET2
100
AcDbPolyline
 90
        8
 70
     1
 43
0.0
 10
31.87589173340692
 20
11.65211423170938
 42
-0.3966354997270823
 10
31.84770221222243
 20
11.62216891210083
 10
31.18570221222238
 20
11.58214472830397
 42
-0.4320128626193695
 10
31.15389173340687
 20
11.61209004791253
 10
31.15389173340687
 20
11.70797758012915
 42
-0.4142135623730941
 10
31.18389173340687
 20
11.73797758012915
 10
31.84589173340692
 20
11.73797758012915
 42
-0.4142135623730863
 10
31.87589173340692
 20
11.70797758012915
  0
ARC
  5
562C
330
17
100
AcDbEntity
  8
R-SWTS-DET2
100
AcDbCircle
 10
32.52561138026913
 20
11.68297758012913
 30
0.0
 40
0.25
100
AcDbArc
 50
149.9999999999997
 51
210.0000000000003
  0
ARC
  5
562D
330
17
100
AcDbEntity
  8
R-SWTS-DET2
100
AcDbCircle
 10
32.22565586490829
 20
11.68297758012913
 30
0.0
 40
0.25
100
AcDbArc
 50
149.9999999999997
 51
210.0000000000003
  0
ARC
  5
562E
330
17
100
AcDbEntity
  8
R-SWTS-DET2
100
AcDbCircle
 10
32.40552697463063
 20
11.68297758012913
 30
0.0
 40
0.25
100
AcDbArc
 50
149.9999999999997
 51
210.0000000000003
  0
ARC
  5
562F
330
17
100
AcDbEntity
  8
R-SWTS-DET2
100
AcDbCircle
 10
32.28901955128775
 20
11.68297758012913
 30
0.0
 40
0.25
100
AcDbArc
 50
149.9999999999997
 51
210.0000000000003
  0
ARC
  5
5630
330
17
100
AcDbEntity
  8
R-SWTS-DET2
100
AcDbCircle
 10
32.35169449584164
 20
11.68297758012913
 30
0.0
 40
0.25
100
AcDbArc
 50
149.9999999999997
 51
210.0000000000003
  0
ARC
  5
5631
330
17
100
AcDbEntity
  8
R-SWTS-DET2
100
AcDbCircle
 10
32.46224769388966
 20
11.68297758012913
 30
0.0
 40
0.25
100
AcDbArc
 50
149.9999999999997
 51
210.0000000000003
  0
ARC
  5
5632
330
17
100
AcDbEntity
  8
R-SWTS-DET2
100
AcDbCircle
 10
32.58539808435298
 20
11.68297758012913
 30
0.0
 40
0.25
100
AcDbArc
 50
149.9999999999997
 51
210.0000000000003
  0
LINE
  5
5636
330
17
100
AcDbEntity
  8
R-SWTS-DET1
100
AcDbLine
 10
32.36889173340687
 20
15.55797758012914
 30
0.0
 11
34.36889173340687
 21
15.55797758012914
 31
0.0
  0
LINE
  5
568F
330
17
100
AcDbEntity
  8
R-SWTS-DET3
100
AcDbLine
 10
34.36889173340687
 20
11.55797758012913
 30
0.0
 11
31.36889173340687
 21
11.55797758012913
 31
0.0
  0
LINE
  5
5692
330
17
100
AcDbEntity
  8
R-SWTS-DET3
100
AcDbLine
 10
26.0365412491406
 20
11.55797758012913
 30
0.0
 11
30.86889173340687
 21
11.55797758012913
 31
0.0
  0
LINE
  5
5695
330
17
100
AcDbEntity
  8
R-SWTS-DET3
100
AcDbLine
 10
31.36889173340687
 20
11.55797758012913
 30
0.0
 11
31.36889173340687
 21
11.30797758012914
 31
0.0
  0
LINE
  5
5696
330
17
100
AcDbEntity
  8
R-SWTS-DET3
100
AcDbLine
 10
30.86889173340687
 20
11.55797758012913
 30
0.0
 11
30.86889173340687
 21
11.30797758012914
 31
0.0
  0
DIMENSION
  5
575C
330
17
100
AcDbEntity
  8
R-ANNO-DIMS
100
AcDbDimension
  2
*D0
 10
36.47438437617794
 20
10.30797758012916
 30
0.0
 11
36.22438437617794
 21
12.93297758012916
 31
0.0
 70
    32
 71
     5
 42
-1.0
  3
STANDARD
100
AcDbAlignedDimension
 13
34.36889173340687
 23
15.55797758012914
 33
0.0
 14
34.3688917334062
 24
10.30797758012916
 34
0.0
 50
90.0
100
AcDbRotatedDimension
1001
ACAD
1000
DSTYLE
1002
{
1070
   287
1070
     0
1070
   270
1070
     6
1070
   287
1070
     0
1070
   270
1070
     6
1070
   287
1070
     0
1070
   270
1070
     6
1070
   287
1070
     0
1070
   270
1070
     6
1070
   287
1070
     0
1070
   270
1070
     6
1070
   287
1070
     0
1070
   270
1070
     6
1070
    41
1040
0.2
1070
    42
1040
0.125
1070
    43
1040
0.375
1070
    44
1040
0.125
1070
    73
1070
     0
1070
    74
1070
     0
1070
    77
1070
     1
1070
    78
1070
     3
1070
   140
1040
0.25
1070
   141
1040
0.0
1070
   147
1040
0.125
1070
   271
1070
     5
1070
   272
1070
     5
1070
   273
1070
     4
1070
   276
1070
     2
1070
   277
1070
     4
1070
   284
1070
     3
1070
   285
1070
     3
1070
   286
1070
     3
1070
   289
1070
     0
1002
}
  0
TEXT
  5
5A6D
330
17
100
AcDbEntity
  8
PART_NUMBERS
100
AcDbText
 10
28.84467744346776
 20
37.19124152543422
 30
0.0
 40
0.25
  1
WITH 027860 GASKET
100
AcDbText
  0
TEXT
  5
5A6E
330
17
100
AcDbEntity
  8
PART_NUMBERS
100
AcDbText
 10
28.84467744346776
 20
37.7136762180268
 30
0.0
 40
0.25
  1
162084 VENT ADAPTER
100
AcDbText
  0
TEXT
  5
5A6F
330
17
100
AcDbEntity
  8
PART_NUMBERS
100
AcDbText
 10
28.84467744346776
 20
21.23085717452099
 30
0.0
 40
0.25
  1
WITH 027861 GASKET
100
AcDbText
  0
TEXT
  5
5A70
330
17
100
AcDbEntity
  8
PART_NUMBERS
100
AcDbText
 10
28.84467744346776
 20
21.75329186711357
 30
0.0
 40
0.25
  1
162084 VENT ADAPTER
100
AcDbText
  0
LWPOLYLINE
  5
60C2
330
17
100
AcDbEntity
  8
R-SWTS-DET1
100
AcDbPolyline
 90
       31
 70
     1
 43
0.0
 10
26.48507321942496
 20
25.91611720223739
 10
26.48507321942496
 20
25.92211720223739
 42
1.0
 10
26.44107321942496
 20
25.92211720223739
 10
26.44107321942496
 20
25.75311720223739
 42
1.0
 10
26.48507321942496
 20
25.75311720223739
 10
26.48507321942496
 20
25.75911720223739
 42
-1.0
 10
26.51707321942496
 20
25.75911720223739
 10
26.51707321942496
 20
25.68111720223739
 10
26.39207321942496
 20
25.68111720223739
 10
26.39207321942496
 20
25.80611720223739
 10
24.64207321942496
 20
25.80611720223739
 10
24.64207321942496
 20
25.55611720223739
 42
-0.2353990497064308
 10
24.59232646308058
 20
25.45630763696778
 10
24.42653698939635
 20
25.33130763696784
 42
-0.1629281275537786
 10
24.35128374574073
 20
25.30611720223745
 10
24.03207321942496
 20
25.30611720223745
 42
-0.7673269879789578
 10
24.02457321942496
 20
25.33410758329421
 10
24.08007321942496
 20
25.36615052323412
 10
24.08007321942496
 20
25.46211720223738
 10
24.11107321942496
 20
25.46211720223738
 10
24.11107321942496
 20
25.43111720223745
 10
24.39107321942496
 20
25.43111720223745
 10
24.39107321942496
 20
25.46111720223745
 10
24.51707321942496
 20
25.55611720223739
 10
24.51707321942496
 20
25.61811720223739
 10
24.45507321942496
 20
25.61811720223739
 10
24.45507321942496
 20
25.68111720223739
 10
24.51707321942496
 20
25.68111720223739
 10
24.51707321942496
 20
26.55611720223739
 10
26.51707321942496
 20
26.55611720223739
 10
26.51707321942496
 20
25.91611720223739
 42
-1.0
  0
LWPOLYLINE
  5
60C3
330
17
100
AcDbEntity
  8
R-SWTS-DET1
100
AcDbPolyline
 90
        4
 70
     1
 43
0.0
 10
26.39207321942496
 20
25.93111720223739
 10
24.64207321942496
 20
25.93111720223739
 10
24.64207321942496
 20
26.43111720223739
 10
26.39207321942496
 20
26.43111720223739
  0
LWPOLYLINE
  5
60C4
330
17
100
AcDbEntity
  8
R-SWTS-DET1
100
AcDbPolyline
 90
       31
 70
     1
 43
0.0
 10
26.4880843161631
 20
33.30707425867356
 10
26.4880843161631
 20
33.30107425867356
 42
-1.0
 10
26.44408431616309
 20
33.30107425867356
 10
26.44408431616309
 20
33.47007425867356
 42
-1.0
 10
26.4880843161631
 20
33.47007425867356
 10
26.4880843161631
 20
33.46407425867356
 42
1.0
 10
26.52008431616309
 20
33.46407425867356
 10
26.52008431616309
 20
33.54207425867356
 10
26.39508431616309
 20
33.54207425867356
 10
26.39508431616309
 20
33.41707425867355
 10
24.64508431616309
 20
33.41707425867356
 10
24.64508431616309
 20
33.66707425867356
 42
0.2353990497064308
 10
24.59533755981871
 20
33.76688382394317
 10
24.42954808613448
 20
33.89188382394311
 42
0.1629281275537786
 10
24.35429484247886
 20
33.9170742586735
 10
24.03508431616309
 20
33.9170742586735
 42
0.7673269879789578
 10
24.02758431616309
 20
33.88908387761674
 10
24.08308431616309
 20
33.85704093767682
 10
24.08308431616309
 20
33.76107425867357
 10
24.11408431616309
 20
33.76107425867357
 10
24.11408431616309
 20
33.7920742586735
 10
24.39408431616309
 20
33.7920742586735
 10
24.39408431616309
 20
33.7620742586735
 10
24.52008431616309
 20
33.66707425867356
 10
24.52008431616309
 20
33.60507425867356
 10
24.45808431616309
 20
33.60507425867356
 10
24.45808431616309
 20
33.54207425867356
 10
24.52008431616309
 20
33.54207425867356
 10
24.52008431616309
 20
32.66707425867356
 10
26.52008431616309
 20
32.66707425867356
 10
26.52008431616309
 20
33.30707425867356
 42
1.0
  0
LWPOLYLINE
  5
60C5
330
17
100
AcDbEntity
  8
R-SWTS-DET1
100
AcDbPolyline
 90
        4
 70
     1
 43
0.0
 10
26.39508431616309
 20
33.29207425867356
 10
24.64508431616309
 20
33.29207425867356
 10
24.64508431616309
 20
32.79207425867356
 10
26.39508431616309
 20
32.79207425867355
  0
LWPOLYLINE
  5
60C6
330
17
100
AcDbEntity
  8
R-SWTS-DET1
100
AcDbPolyline
 90
        4
 70
     1
 43
0.0
 10
28.30589173340688
 20
11.93297758012914
 10
28.30589173340687
 20
13.68297758012914
 10
28.80589173340688
 20
13.68297758012913
 10
28.80589173340688
 20
11.93297758012914
  0
LWPOLYLINE
  5
60C7
330
17
100
AcDbEntity
  8
R-SWTS-DET1
100
AcDbPolyline
 90
       24
 70
     1
 43
0.0
 10
29.18089173340688
 20
11.80797758012913
 10
29.11889173340687
 20
11.80797758012913
 10
29.11889173340687
 20
11.74597758012913
 10
29.05589173340688
 20
11.74597758012913
 10
29.05589173340688
 20
11.80797758012913
 10
28.18089173340688
 20
11.80797758012913
 10
28.18089173340688
 20
13.80797758012914
 10
28.82089173340688
 20
13.80797758012914
 42
-0.9999999999999998
 10
28.82089173340688
 20
13.77597758012913
 10
28.81489173340687
 20
13.77597758012913
 42
0.9999999999999998
 10
28.81489173340687
 20
13.73197758012913
 10
28.98389173340688
 20
13.73197758012913
 42
0.9999999999999998
 10
28.98389173340688
 20
13.77597758012913
 10
28.97789173340688
 20
13.77597758012913
 42
-0.9999999999999998
 10
28.97789173340688
 20
13.80797758012913
 10
29.05589173340688
 20
13.80797758012914
 10
29.05589173340688
 20
13.68297758012913
 10
28.93089173340687
 20
13.68297758012913
 10
28.93089173340688
 20
11.93297758012914
 10
29.05589173340688
 20
11.93297758012914
 10
29.05589173340688
 20
12.04297758012913
 42
-0.4142135623732343
 10
29.07089173340687
 20
12.05797758012914
 10
29.16589173340687
 20
12.05797758012914
 42
-0.4142135623729567
 10
29.18089173340688
 20
12.04297758012913
  0
LINE
  5
6107
330
17
100
AcDbEntity
  8
R-SWTS-DET1
100
AcDbLine
 10
21.14389284066121
 20
13.98297758012914
 30
0.0
 11
23.91324332492748
 21
13.98297758012914
 31
0.0
  0
LINE
  5
6108
330
17
100
AcDbEntity
  8
R-SWTS-DET1
100
AcDbLine
 10
21.7688928406612
 20
13.80797758012914
 30
0.0
 11
23.91324332492748
 21
13.80797758012914
 31
0.0
  0
LINE
  5
6109
330
17
100
AcDbEntity
  8
R-SWTS-DET1
100
AcDbLine
 10
20.08089284066054
 20
15.55797758012914
 30
0.0
 11
23.91324332492681
 21
15.55797758012914
 31
0.0
  0
LINE
  5
610A
330
17
100
AcDbEntity
  8
R-SWTS-DET1
100
AcDbLine
 10
21.7688928406612
 20
11.80797758012913
 30
0.0
 11
23.91324332492748
 21
11.80797758012913
 31
0.0
  0
LINE
  5
610B
330
17
100
AcDbEntity
  8
R-ANNO-DIMS
  6
ByBlock
100
AcDbLine
 10
20.28089284066119
 20
8.481653551939
 30
0.0
 11
23.69550833791981
 21
8.481653551939
 31
0.0
  0
TEXT
  5
610C
330
17
100
AcDbEntity
  8
R-ANNO-DIMS
  6
ByBlock
100
AcDbText
 10
20.61648787081466
 20
8.589588998158472
 30
0.0
 40
0.25
  1
VENT OPENING
 72
     1
 11
21.9360649513058
 21
8.714588998158472
 31
0.0
100
AcDbText
 73
     2
  0
LINE
  5
610D
330
17
100
AcDbEntity
  8
R-SWTS-DET2
100
AcDbLine
 10
15.5808928406612
 20
10.7682226581053
 30
0.0
 11
23.91324332492748
 21
10.7682226581053
 31
0.0
  0
LINE
  5
610E
330
17
100
AcDbEntity
  8
R-SWTS-DET1
100
AcDbLine
 10
15.58089284066187
 20
10.30797758012916
 30
0.0
 11
23.91324332492748
 21
10.30797758012916
 31
0.0
  0
LINE
  5
610F
330
17
100
AcDbEntity
  8
R-SWTS-DET3
100
AcDbLine
 10
23.91324332492747
 20
11.30797758012913
 30
0.0
 11
19.08089284066121
 21
11.30797758012914
 31
0.0
  0
LINE
  5
6110
330
17
100
AcDbEntity
  8
R-SWTS-DET3
100
AcDbLine
 10
23.91324332492748
 20
11.55797758012913
 30
0.0
 11
19.08089284066121
 21
11.55797758012913
 31
0.0
  0
LINE
  5
6111
330
17
100
AcDbEntity
  8
R-SWTS-DET1
100
AcDbLine
 10
23.91324332492748
 20
12.28893816079232
 30
0.0
 11
23.91324332492748
 21
15.76593250674017
 31
0.0
  0
LINE
  5
6112
330
17
100
AcDbEntity
  8
R-SWTS-DET1
100
AcDbLine
 10
23.91324332492747
 20
9.72124820410363
 30
0.0
 11
23.91324332492748
 21
12.07709683369151
 31
0.0
  0
SOLID
  5
6113
330
17
100
AcDbEntity
  8
R-ANNO-DIMS
  6
ByBlock
100
AcDbTrace
 10
23.67558614857578
 20
8.448320218605669
 30
0.0
 11
23.67558614857578
 21
8.514986885272332
 31
0.0
 12
23.87558614857578
 22
8.481653551939
 32
0.0
 13
23.87558614857578
 23
8.481653551939
 33
0.0
  0
LINE
  5
6116
330
17
100
AcDbEntity
  8
R-SWTS-DET1
100
AcDbLine
 10
24.12581571264001
 20
12.23593791190434
 30
0.0
 11
23.91324332492748
 21
12.28893816079232
 31
0.0
  0
LINE
  5
6117
330
17
100
AcDbEntity
  8
R-SWTS-DET1
100
AcDbLine
 10
23.91324332492748
 20
12.07709683369151
 30
0.0
 11
23.7009911348046
 21
12.13001724835395
 31
0.0
  0
LINE
  5
6118
330
17
100
AcDbEntity
  8
R-SWTS-DET1
100
AcDbLine
 10
23.7009911348046
 20
12.13001724835395
 30
0.0
 11
24.12581571264001
 21
12.23593791190434
 31
0.0
  0
LWPOLYLINE
  5
6119
330
17
100
AcDbEntity
  8
R-SWTS-DET1
100
AcDbPolyline
 90
        6
 70
     0
 43
0.0
 10
15.5808928406612
 20
9.72124820410363
 10
15.5808928406612
 20
12.45209683369151
 10
15.79314503078407
 20
12.50501724835394
 10
15.36832045294866
 20
12.61093791190434
 10
15.58057264307153
 20
12.66385832656677
 10
15.5808928406612
 20
15.80797758012914
  0
LWPOLYLINE
  5
611B
330
17
100
AcDbEntity
  8
R-SWTS-DET1
100
AcDbPolyline
 90
       43
 70
     1
 43
0.0
 10
18.01346426923264
 20
11.83361923873854
 42
-0.6693764950687389
 10
18.0028928406612
 20
11.80797758012911
 10
17.58089284066121
 20
11.80797758012914
 10
17.58089284066121
 20
15.55797758012914
 10
20.08089284066121
 20
15.55797758012917
 10
20.08089284066121
 20
11.80797758012914
 10
19.65889284066121
 20
11.80797758012911
 42
-0.6693764950687386
 10
19.64832141208977
 20
11.83361923873854
 42
0.1997729274168749
 10
19.6748928406612
 20
11.89746919039501
 10
19.6748928406612
 20
11.90797758012914
 42
0.4142135623730951
 10
19.6248928406612
 20
11.95797758012913
 10
19.53689284066121
 20
11.95797758012913
 42
0.4142135623730743
 10
19.48689284066121
 20
11.90797758012914
 10
19.48689284066121
 20
11.89746919039501
 42
0.1997729274170188
 10
19.51346426923271
 20
11.83361923873856
 42
-0.669376495068904
 10
19.50289284066129
 20
11.80797758012914
 10
19.37589284066121
 20
11.80797758012914
 42
-0.4142135623730951
 10
19.3458928406612
 20
11.83797758012914
 10
19.3458928406612
 20
11.92797758012909
 42
0.4142135623731471
 10
19.31589284066119
 20
11.95797758012909
 10
19.0618928406612
 20
11.95797758012906
 42
0.4142135623730516
 10
19.03189284066121
 20
11.92797758012906
 10
19.03189284066121
 20
11.83797758012914
 42
-0.4142135623731038
 10
19.00189284066121
 20
11.80797758012914
 10
18.86089284066121
 20
11.80797758012914
 10
18.83089284066121
 20
11.83797758012914
 10
18.8008928406612
 20
11.80797758012914
 10
18.6598928406612
 20
11.80797758012914
 42
-0.4142135623730951
 10
18.6298928406612
 20
11.83797758012914
 10
18.6298928406612
 20
11.92797758012898
 42
0.4142135623731471
 10
18.5998928406612
 20
11.95797758012898
 10
18.34589284066119
 20
11.95797758012895
 42
0.4142135623730516
 10
18.3158928406612
 20
11.92797758012895
 10
18.3158928406612
 20
11.83797758012914
 42
-0.4142135623730863
 10
18.2858928406612
 20
11.80797758012914
 10
18.15889284066111
 20
11.80797758012914
 42
-0.6693764950688821
 10
18.14832141208974
 20
11.83361923873851
 42
0.1997729274170196
 10
18.1748928406612
 20
11.89746919039501
 10
18.1748928406612
 20
11.90797758012914
 42
0.4142135623730743
 10
18.1248928406612
 20
11.95797758012913
 10
18.03689284066121
 20
11.95797758012913
 42
0.4142135623730951
 10
17.9868928406612
 20
11.90797758012914
 10
17.98689284066121
 20
11.89746919039501
 42
0.1997729274168747
  0
LWPOLYLINE
  5
611C
330
17
100
AcDbEntity
  8
R-SWTS-DET1
100
AcDbPolyline
 90
       28
 70
     1
 43
0.0
 10
18.72989284066121
 20
11.997977580129
 10
18.72989284066121
 20
11.93797758012915
 10
18.9318928406612
 20
11.93797758012915
 10
18.9318928406612
 20
11.99797758012904
 42
-0.4142135623730474
 10
18.99189284066119
 20
12.05797758012904
 10
19.74489284066123
 20
12.05797758012917
 42
-0.4142135623732339
 10
19.77489284066123
 20
12.02797758012916
 10
19.77489284066121
 20
11.90797758012911
 10
19.98089284066121
 20
11.90797758012914
 10
19.98089284066121
 20
15.45797758012915
 10
19.82089284066121
 20
15.45797758012915
 42
0.4142135623730951
 10
19.76089284066121
 20
15.39797758012914
 10
19.76089284066121
 20
15.33797758012914
 10
19.52589284066121
 20
15.33797758012914
 10
19.52589284066121
 20
15.39797758012914
 42
0.4142135623730974
 10
19.46589284066121
 20
15.45797758012915
 10
18.1958928406612
 20
15.45797758012915
 42
0.4142135623731013
 10
18.1358928406612
 20
15.39797758012914
 10
18.1358928406612
 20
15.33797758012914
 10
17.9008928406612
 20
15.33797758012914
 10
17.9008928406612
 20
15.39797758012914
 42
0.4142135623730951
 10
17.84089284066119
 20
15.45797758012915
 10
17.6808928406612
 20
15.45797758012915
 10
17.6808928406612
 20
11.90797758012914
 10
17.8868928406612
 20
11.90797758012911
 10
17.88689284066116
 20
12.02797758012886
 42
-0.4142135623731471
 10
17.91689284066116
 20
12.05797758012887
 10
18.66989284066119
 20
12.057977580129
 42
-0.4142135623731341
  0
LINE
  5
611D
330
17
100
AcDbEntity
  8
R-SWTS-DET3
100
AcDbLine
 10
15.5808928406612
 20
11.30797758012914
 30
0.0
 11
18.58089284066121
 21
11.30797758012914
 31
0.0
  0
LINE
  5
611E
330
17
100
AcDbEntity
  8
R-SWTS-DET3
100
AcDbLine
 10
15.5808928406612
 20
11.55797758012913
 30
0.0
 11
18.58089284066121
 21
11.55797758012913
 31
0.0
  0
SOLID
  5
611F
330
17
100
AcDbEntity
  8
R-ANNO-DIMS
  6
ByBlock
100
AcDbTrace
 10
17.3808928406612
 20
8.448320218605669
 30
0.0
 11
17.3808928406612
 21
8.514986885272332
 31
0.0
 12
17.58089284066121
 22
8.481653551939
 32
0.0
 13
17.58089284066121
 23
8.481653551939
 33
0.0
  0
TEXT
  5
6120
330
17
100
AcDbEntity
  8
R-ANNO-DIMS
  6
ByBlock
100
AcDbText
 10
18.38307410437506
 20
8.589588998158472
 30
0.0
 40
0.25
  1
2 1/2"
 72
     1
 11
18.83344927490712
 21
8.714588998158472
 31
0.0
100
AcDbText
 73
     2
  0
LINE
  5
6121
330
17
100
AcDbEntity
  8
R-ANNO-DIMS
  6
ByBlock
100
AcDbLine
 10
17.58089284066121
 20
10.106653551939
 30
0.0
 11
17.58089284066121
 21
8.356653551939
 31
0.0
  0
LINE
  5
6122
330
17
100
AcDbEntity
  8
R-ANNO-DIMS
  6
ByBlock
100
AcDbLine
 10
17.58089284066121
 20
10.106653551939
 30
0.0
 11
17.58089284066121
 21
8.356653551939
 31
0.0
  0
LINE
  5
6123
330
17
100
AcDbEntity
  8
R-ANNO-DIMS
  6
ByBlock
100
AcDbLine
 10
20.08089284066121
 20
10.106653551939
 30
0.0
 11
20.08089284066121
 21
8.356653551939
 31
0.0
  0
LINE
  5
6124
330
17
100
AcDbEntity
  8
R-ANNO-DIMS
  6
ByBlock
100
AcDbLine
 10
20.08089284066121
 20
10.106653551939
 30
0.0
 11
20.08089284066121
 21
8.356653551939
 31
0.0
  0
LINE
  5
6125
330
17
100
AcDbEntity
  8
R-ANNO-DIMS
  6
ByBlock
100
AcDbLine
 10
19.88089284066119
 20
8.481653551939
 30
0.0
 11
17.78089284066119
 21
8.481653551939
 31
0.0
  0
SOLID
  5
6126
330
17
100
AcDbEntity
  8
R-ANNO-DIMS
  6
ByBlock
100
AcDbTrace
 10
20.28089284066121
 20
8.448320218605669
 30
0.0
 11
20.28089284066121
 21
8.514986885272332
 31
0.0
 12
20.08089284066121
 22
8.481653551939
 32
0.0
 13
20.08089284066121
 23
8.481653551939
 33
0.0
  0
SOLID
  5
6127
330
17
100
AcDbEntity
  8
R-ANNO-DIMS
  6
ByBlock
100
AcDbTrace
 10
19.8808928406612
 20
8.448320218605669
 30
0.0
 11
19.8808928406612
 21
8.514986885272332
 31
0.0
 12
20.08089284066121
 22
8.481653551939
 32
0.0
 13
20.08089284066121
 23
8.481653551939
 33
0.0
  0
SOLID
  5
6128
330
17
100
AcDbEntity
  8
R-ANNO-DIMS
  6
ByBlock
100
AcDbTrace
 10
17.78089284066121
 20
8.448320218605669
 30
0.0
 11
17.78089284066121
 21
8.514986885272332
 31
0.0
 12
17.58089284066121
 22
8.481653551939
 32
0.0
 13
17.58089284066121
 23
8.481653551939
 33
0.0
  0
LINE
  5
6129
330
17
100
AcDbEntity
  8
R-SWTS-DET1
100
AcDbLine
 10
21.14389284066121
 20
13.85797758012914
 30
0.0
 11
20.33089284066121
 21
13.85797758012914
 31
0.0
  0
LINE
  5
612A
330
17
100
AcDbEntity
  8
R-SWTS-DET1
100
AcDbLine
 10
20.08089284066121
 20
13.98297758012914
 30
0.0
 11
21.14389284066121
 21
13.98297758012914
 31
0.0
  0
ARC
  5
612B
330
17
100
AcDbEntity
  8
R-SWTS-DET2
100
AcDbCircle
 10
20.3942158606612
 20
13.10747768012915
 30
0.0
 40
0.02500004
100
AcDbArc
 50
270.0
 51
323.0329999999999
  0
ARC
  5
612C
330
17
100
AcDbEntity
  8
R-SWTS-DET2
100
AcDbCircle
 10
20.3942158606612
 20
13.48247748012915
 30
0.0
 40
0.02500004
100
AcDbArc
 50
36.9670000000002
 51
90.00019999999977
  0
LINE
  5
612D
330
17
100
AcDbEntity
  8
R-SWTS-DET2
100
AcDbLine
 10
20.57803434066121
 20
13.29497758012915
 30
0.0
 11
19.4646444406612
 21
13.29497758012915
 31
0.0
  0
LWPOLYLINE
  5
612E
330
17
100
AcDbEntity
  8
R-SWTS-DET1
100
AcDbPolyline
 90
        4
 70
     1
 43
0.0
 10
21.64389284066119
 20
11.93297758012914
 10
21.64389284066121
 20
13.68297758012914
 10
21.1438928406612
 20
13.68297758012913
 10
21.1438928406612
 20
11.93297758012914
  0
LWPOLYLINE
  5
612F
330
17
100
AcDbEntity
  8
R-SWTS-DET1
100
AcDbPolyline
 90
       24
 70
     1
 43
0.0
 10
20.76889284066119
 20
11.80797758012913
 10
20.83089284066121
 20
11.80797758012913
 10
20.83089284066121
 20
11.74597758012913
 10
20.8938928406612
 20
11.74597758012913
 10
20.8938928406612
 20
11.80797758012913
 10
21.7688928406612
 20
11.80797758012913
 10
21.7688928406612
 20
13.80797758012914
 10
21.12889284066119
 20
13.80797758012914
 42
0.9999999999999998
 10
21.12889284066119
 20
13.77597758012913
 10
21.13489284066121
 20
13.77597758012913
 42
-0.9999999999999998
 10
21.13489284066121
 20
13.73197758012913
 10
20.9658928406612
 20
13.73197758012913
 42
-0.9999999999999998
 10
20.9658928406612
 20
13.77597758012913
 10
20.9718928406612
 20
13.77597758012913
 42
0.9999999999999998
 10
20.9718928406612
 20
13.80797758012913
 10
20.8938928406612
 20
13.80797758012914
 10
20.8938928406612
 20
13.68297758012913
 10
21.01889284066121
 20
13.68297758012913
 10
21.01889284066119
 20
11.93297758012914
 10
20.8938928406612
 20
11.93297758012914
 10
20.8938928406612
 20
12.04297758012913
 42
0.4142135623732343
 10
20.87889284066121
 20
12.05797758012914
 10
20.78389284066121
 20
12.05797758012914
 42
0.4142135623729567
 10
20.7688928406612
 20
12.04297758012913
  0
LWPOLYLINE
  5
6130
330
17
100
AcDbEntity
  8
R-SWTS-DET2
100
AcDbPolyline
 90
        4
 70
     1
 43
0.02
 10
20.89389284066121
 20
11.55797758012914
 10
21.20589284066121
 20
11.55797758012914
 10
21.20589284066121
 20
11.80797758012913
 10
20.89389284066121
 20
11.80797758012913
  0
ARC
  5
6131
330
17
100
AcDbEntity
  8
R-SWTS-DET2
100
AcDbCircle
 10
21.86224880114401
 20
11.68297758012913
 30
0.0
 40
0.25
100
AcDbArc
 50
150.0
 51
210.0000000000003
  0
ARC
  5
6132
330
17
100
AcDbEntity
  8
R-SWTS-DET2
100
AcDbCircle
 10
21.80552808188497
 20
11.68297758012913
 30
0.0
 40
0.25
100
AcDbArc
 50
150.0
 51
210.0000000000003
  0
ARC
  5
6133
330
17
100
AcDbEntity
  8
R-SWTS-DET2
100
AcDbCircle
 10
21.98539919160731
 20
11.68297758012913
 30
0.0
 40
0.25
100
AcDbArc
 50
150.0
 51
210.0000000000003
  0
ARC
  5
6134
330
17
100
AcDbEntity
  8
R-SWTS-DET2
100
AcDbCircle
 10
21.92561248752347
 20
11.68297758012913
 30
0.0
 40
0.25
100
AcDbArc
 50
150.0
 51
210.0000000000003
  0
ARC
  5
6135
330
17
100
AcDbEntity
  8
R-SWTS-DET2
100
AcDbCircle
 10
21.68902065854209
 20
11.68297758012913
 30
0.0
 40
0.25
100
AcDbArc
 50
150.0
 51
210.0000000000003
  0
ARC
  5
6136
330
17
100
AcDbEntity
  8
R-SWTS-DET2
100
AcDbCircle
 10
21.75169560309598
 20
11.68297758012913
 30
0.0
 40
0.25
100
AcDbArc
 50
150.0
 51
210.0000000000003
  0
ARC
  5
6137
330
17
100
AcDbEntity
  8
R-SWTS-DET2
100
AcDbCircle
 10
21.51579251594018
 20
11.68297758012913
 30
0.0
 40
0.25
100
AcDbArc
 50
150.0
 51
210.0000000000003
  0
ARC
  5
6138
330
17
100
AcDbEntity
  8
R-SWTS-DET2
100
AcDbCircle
 10
21.5689362529036
 20
11.68297758012913
 30
0.0
 40
0.25
100
AcDbArc
 50
150.0
 51
210.0000000000003
  0
ARC
  5
6139
330
17
100
AcDbEntity
  8
R-SWTS-DET2
100
AcDbCircle
 10
21.62565697216263
 20
11.68297758012913
 30
0.0
 40
0.25
100
AcDbArc
 50
150.0
 51
210.0000000000003
  0
ARC
  5
613A
330
17
100
AcDbEntity
  8
R-SWTS-DET2
100
AcDbCircle
 10
20.51954750768344
 20
11.78989706790724
 30
0.0
 40
0.33
100
AcDbArc
 50
315.3490189502497
 51
352.3518488634125
  0
ARC
  5
613B
330
17
100
AcDbEntity
  8
R-SWTS-DET2
100
AcDbCircle
 10
20.51954750768344
 20
11.78989706790724
 30
0.0
 40
0.29
100
AcDbArc
 50
306.8964010283309
 51
3.574514999444271
  0
ARC
  5
613C
330
17
100
AcDbEntity
  8
R-SWTS-DET2
100
AcDbCircle
 10
20.51954750768344
 20
11.78989706790724
 30
0.0
 40
0.25
100
AcDbArc
 50
291.9243045464765
 51
4.147368993676758
  0
ARC
  5
613D
330
17
100
AcDbEntity
  8
R-SWTS-DET2
100
AcDbCircle
 10
20.51954750768344
 20
11.78989706790724
 30
0.0
 40
0.41
100
AcDbArc
 50
325.5520530332215
 51
335.9285311779053
  0
ARC
  5
613E
330
17
100
AcDbEntity
  8
R-SWTS-DET2
100
AcDbCircle
 10
20.51954750768344
 20
11.78989706790724
 30
0.0
 40
0.3699999999999999
100
AcDbArc
 50
321.1848818795445
 51
353.1828420976668
  0
ARC
  5
613F
330
17
100
AcDbEntity
  8
R-SWTS-DET2
100
AcDbCircle
 10
20.14509424066121
 20
13.29497758012915
 30
0.0
 40
0.3367977
100
AcDbArc
 50
323.0332000000002
 51
36.96670000000013
  0
ARC
  5
6140
330
17
100
AcDbEntity
  8
R-SWTS-DET2
100
AcDbCircle
 10
20.96224449648811
 20
13.83047758012912
 30
0.0
 40
0.0224999999999795
100
AcDbArc
 50
90.0
 51
270.0
  0
LINE
  5
6141
330
17
100
AcDbEntity
  8
R-SWTS-DET1
100
AcDbLine
 10
21.14389284066121
 20
13.98297758012914
 30
0.0
 11
21.14389284066121
 21
13.85797758012914
 31
0.0
  0
ARC
  5
6142
330
17
100
AcDbEntity
  8
R-SWTS-DET2
100
AcDbCircle
 10
21.13854118483431
 20
13.83047758012912
 30
0.0
 40
0.0224999999999795
100
AcDbArc
 50
270.0
 51
90.0
  0
LINE
  5
6143
330
17
100
AcDbEntity
  8
R-SWTS-DET1
100
AcDbLine
 10
20.08089284066121
 20
12.18297758012914
 30
0.0
 11
20.08089284066121
 21
12.28297758012914
 31
0.0
  0
LINE
  5
6144
330
17
100
AcDbEntity
  8
R-SWTS-DET1
100
AcDbLine
 10
20.33089284066121
 20
12.57997758012914
 30
0.0
 11
20.33089284066121
 21
11.85409678100598
 31
0.0
  0
LWPOLYLINE
  5
6145
330
17
100
AcDbEntity
  8
R-SWTS-DET2
100
AcDbPolyline
 90
       41
 70
     1
 43
0.0
 10
19.15889284066119
 20
11.90302192366555
 10
19.11525748824753
 20
11.89132986622486
 42
-0.9999999999999909
 10
19.10852819307486
 20
11.91644393770838
 10
19.1888928406612
 20
11.93797758012915
 10
19.26925748824753
 20
11.91644393770838
 42
-0.9999999999999909
 10
19.26252819307487
 20
11.89132986622486
 10
19.2188928406612
 20
11.90302192366555
 10
19.2388928406612
 20
11.80797758012914
 10
19.53089284066125
 20
11.80797758012914
 10
19.55089284066125
 20
11.90302192366555
 10
19.50725748824757
 20
11.89132986622486
 42
-0.9999999999999909
 10
19.50052819307491
 20
11.91644393770838
 10
19.58089284066125
 20
11.93797758012915
 10
19.66125748824758
 20
11.91644393770838
 42
-0.9999999999999909
 10
19.65452819307491
 20
11.89132986622486
 10
19.61089284066125
 20
11.90302192366555
 10
19.63089284066125
 20
11.80797758012914
 10
19.65789284066125
 20
11.80797758012914
 10
19.65789284066125
 20
11.55797758012917
 10
18.83089284066121
 20
11.50797758012917
 10
18.00389284066116
 20
11.55797758012917
 10
18.00389284066115
 20
11.80797758012914
 10
18.03089284066117
 20
11.80797758012914
 10
18.05089284066116
 20
11.90302192366555
 10
18.00725748824749
 20
11.89132986622486
 42
-0.9999999999999909
 10
18.00052819307483
 20
11.91644393770838
 10
18.08089284066116
 20
11.93797758012915
 10
18.1612574882475
 20
11.91644393770838
 42
-0.9999999999999909
 10
18.15452819307484
 20
11.89132986622486
 10
18.11089284066116
 20
11.90302192366555
 10
18.13089284066116
 20
11.80797758012914
 10
18.4228928406612
 20
11.80797758012914
 10
18.44289284066121
 20
11.90302192366555
 10
18.39925748824754
 20
11.89132986622486
 42
-0.9999999999999909
 10
18.39252819307488
 20
11.91644393770838
 10
18.4728928406612
 20
11.93797758012915
 10
18.55325748824754
 20
11.91644393770838
 42
-0.9999999999999909
 10
18.54652819307488
 20
11.89132986622486
 10
18.5028928406612
 20
11.90302192366555
 10
18.52289284066121
 20
11.80797758012914
 10
19.1388928406612
 20
11.80797758012914
  0
LWPOLYLINE
  5
6146
330
17
100
AcDbEntity
  8
R-SWTS-DET2
100
AcDbPolyline
 90
        8
 70
     1
 43
0.0
 10
19.55789284066125
 20
11.73797758012915
 42
-0.4142135623730944
 10
19.58789284066125
 20
11.70797758012915
 10
19.58789284066125
 20
11.65211423170938
 42
-0.3966354997270777
 10
19.55970331947677
 20
11.62216891210083
 10
18.89770331947672
 20
11.58214472830397
 42
-0.4320128626193652
 10
18.8658928406612
 20
11.61209004791253
 10
18.8658928406612
 20
11.70797758012915
 42
-0.4142135623730956
 10
18.8958928406612
 20
11.73797758012915
  0
LINE
  5
6147
330
17
100
AcDbEntity
  8
R-SWTS-DET3
100
AcDbLine
 10
19.08089284066121
 20
11.55797758012913
 30
0.0
 11
19.08089284066121
 21
11.30797758012914
 31
0.0
  0
LINE
  5
6148
330
17
100
AcDbEntity
  8
R-SWTS-DET1
100
AcDbLine
 10
20.20589284066121
 20
11.90797758012914
 30
0.0
 11
20.20589284066121
 21
12.18297758012914
 31
0.0
  0
LINE
  5
6149
330
17
100
AcDbEntity
  8
R-SWTS-DET2
100
AcDbLine
 10
20.08485083911633
 20
12.08570465228329
 30
0.0
 11
20.17754045709006
 21
12.17839427025702
 31
0.0
  0
LINE
  5
614A
330
17
100
AcDbEntity
  8
R-SWTS-DET2
100
AcDbLine
 10
20.08454636693134
 20
12.05004484103897
 30
0.0
 11
20.20098605378313
 21
12.16648452789075
 31
0.0
  0
LINE
  5
614B
330
17
100
AcDbEntity
  8
R-SWTS-DET2
100
AcDbLine
 10
20.08424189474633
 20
12.01438502979464
 30
0.0
 11
20.2005747798146
 21
12.13071791486291
 31
0.0
  0
LINE
  5
614C
330
17
100
AcDbEntity
  8
R-SWTS-DET2
100
AcDbLine
 10
20.14815051518576
 20
11.83080627681878
 30
0.0
 11
20.18028164293427
 21
11.86293740456729
 31
0.0
  0
LINE
  5
614D
330
17
100
AcDbEntity
  8
R-SWTS-DET2
100
AcDbLine
 10
20.08271953382135
 20
11.83608597357301
 30
0.0
 11
20.19851840997201
 21
11.95188484972368
 31
0.0
  0
LINE
  5
614E
330
17
100
AcDbEntity
  8
R-SWTS-DET2
100
AcDbLine
 10
20.08302400600634
 20
11.87174578481734
 30
0.0
 11
20.19892968394052
 21
11.98765146275152
 31
0.0
  0
LINE
  5
614F
330
17
100
AcDbEntity
  8
R-SWTS-DET2
100
AcDbLine
 10
20.08332847819133
 20
11.90740559606167
 30
0.0
 11
20.19934095790905
 21
12.02341807577937
 31
0.0
  0
LINE
  5
6150
330
17
100
AcDbEntity
  8
R-SWTS-DET2
100
AcDbLine
 10
20.08393742256133
 20
11.97872521855031
 30
0.0
 11
20.20016350584608
 21
12.09495130183506
 31
0.0
  0
LINE
  5
6151
330
17
100
AcDbEntity
  8
R-SWTS-DET2
100
AcDbLine
 10
20.08363295037634
 20
11.94306540730599
 30
0.0
 11
20.19975223187757
 21
12.05918468880722
 31
0.0
  0
LINE
  5
6152
330
17
100
AcDbEntity
  8
R-SWTS-DET1
100
AcDbLine
 10
20.20589284066121
 20
12.18297758012914
 30
0.0
 11
20.08089284066121
 21
12.18297758012914
 31
0.0
  0
LINE
  5
6153
330
17
100
AcDbEntity
  8
R-SWTS-DET2
100
AcDbLine
 10
20.08545978348633
 20
12.15702427477194
 30
0.0
 11
20.10519362337965
 21
12.17675811466526
 31
0.0
  0
LINE
  5
6154
330
17
100
AcDbEntity
  8
R-SWTS-DET2
100
AcDbLine
 10
20.08515531130134
 20
12.12136446352762
 30
0.0
 11
20.14136704023485
 21
12.17757619246114
 31
0.0
  0
LINE
  5
6155
330
17
100
AcDbEntity
  8
R-SWTS-DET1
100
AcDbLine
 10
20.2678928406612
 20
11.74497758012914
 30
0.0
 11
20.0108928406612
 21
11.74497758012914
 31
0.0
  0
LINE
  5
6156
330
17
100
AcDbEntity
  8
R-SWTS-DET1
100
AcDbLine
 10
19.98089284066121
 20
11.80797758012914
 30
0.0
 11
20.10589284066121
 21
11.80797758012914
 31
0.0
  0
LINE
  5
6157
330
17
100
AcDbEntity
  8
R-SWTS-DET1
100
AcDbLine
 10
19.9808928406612
 20
11.77497758012914
 30
0.0
 11
19.98089284066121
 21
11.80797758012914
 31
0.0
  0
ARC
  5
6158
330
17
100
AcDbEntity
  8
R-SWTS-DET1
100
AcDbCircle
 10
20.0108928406612
 20
11.77497758012914
 30
0.0
 40
0.0300000000000011
100
AcDbArc
 50
179.9999999999965
 51
270.0
  0
ARC
  5
6159
330
17
100
AcDbEntity
  8
R-SWTS-DET1
100
AcDbCircle
 10
20.10589284066121
 20
11.90797758012914
 30
0.0
 40
0.0999999999999997
100
AcDbArc
 50
270.0
 51
0.000000000000007
  0
LINE
  5
615A
330
17
100
AcDbEntity
  8
R-SWTS-DET2
100
AcDbLine
 10
20.09438088002327
 20
11.8123919807156
 30
0.0
 11
20.19810713600349
 21
11.91611823669583
 31
0.0
  0
LINE
  5
615B
330
17
100
AcDbEntity
  8
R-SWTS-DET1
100
AcDbLine
 10
20.33089284066121
 20
11.85409678100598
 30
0.0
 11
20.2678928406612
 21
11.74497758012914
 31
0.0
  0
LINE
  5
615C
330
17
100
AcDbEntity
  8
R-SWTS-DET3
100
AcDbLine
 10
18.58089284066121
 20
11.55797758012913
 30
0.0
 11
18.58089284066121
 21
11.30797758012914
 31
0.0
  0
LWPOLYLINE
  5
615D
330
17
100
AcDbEntity
  8
R-SWTS-DET2
100
AcDbPolyline
 90
        8
 70
     1
 43
0.0
 10
18.07389284066116
 20
11.65211423170938
 42
0.3966354997270823
 10
18.10208236184564
 20
11.62216891210083
 10
18.76408236184569
 20
11.58214472830397
 42
0.4320128626193695
 10
18.79589284066121
 20
11.61209004791253
 10
18.79589284066121
 20
11.70797758012915
 42
0.4142135623730941
 10
18.76589284066121
 20
11.73797758012915
 10
18.10389284066116
 20
11.73797758012915
 42
0.4142135623730863
 10
18.07389284066116
 20
11.70797758012915
  0
ARC
  5
615E
330
17
100
AcDbEntity
  8
R-SWTS-DET2
100
AcDbCircle
 10
17.42417319379895
 20
11.68297758012913
 30
0.0
 40
0.25
100
AcDbArc
 50
329.9999999999997
 51
30.00000000000033
  0
ARC
  5
615F
330
17
100
AcDbEntity
  8
R-SWTS-DET2
100
AcDbCircle
 10
17.72412870915978
 20
11.68297758012913
 30
0.0
 40
0.25
100
AcDbArc
 50
329.9999999999997
 51
30.00000000000033
  0
ARC
  5
6160
330
17
100
AcDbEntity
  8
R-SWTS-DET2
100
AcDbCircle
 10
17.54425759943744
 20
11.68297758012913
 30
0.0
 40
0.25
100
AcDbArc
 50
329.9999999999997
 51
30.00000000000033
  0
ARC
  5
6161
330
17
100
AcDbEntity
  8
R-SWTS-DET2
100
AcDbCircle
 10
17.66076502278032
 20
11.68297758012913
 30
0.0
 40
0.25
100
AcDbArc
 50
329.9999999999997
 51
30.00000000000033
  0
ARC
  5
6162
330
17
100
AcDbEntity
  8
R-SWTS-DET2
100
AcDbCircle
 10
17.59809007822643
 20
11.68297758012913
 30
0.0
 40
0.25
100
AcDbArc
 50
329.9999999999997
 51
30.00000000000033
  0
ARC
  5
6163
330
17
100
AcDbEntity
  8
R-SWTS-DET2
100
AcDbCircle
 10
17.48753688017841
 20
11.68297758012913
 30
0.0
 40
0.25
100
AcDbArc
 50
329.9999999999997
 51
30.00000000000033
  0
ARC
  5
6164
330
17
100
AcDbEntity
  8
R-SWTS-DET2
100
AcDbCircle
 10
17.3643864897151
 20
11.68297758012913
 30
0.0
 40
0.25
100
AcDbArc
 50
329.9999999999997
 51
30.00000000000033
  0
LINE
  5
6165
330
17
100
AcDbEntity
  8
R-SWTS-DET1
100
AcDbLine
 10
20.08089284066121
 20
13.08497758012914
 30
0.0
 11
20.08089284066121
 21
13.18497758012914
 31
0.0
  0
LINE
  5
6166
330
17
100
AcDbEntity
  8
R-SWTS-DET1
100
AcDbLine
 10
20.33089284066121
 20
13.28497758012914
 30
0.0
 11
20.33089284066121
 21
12.99297758012914
 31
0.0
  0
LINE
  5
6167
330
17
100
AcDbEntity
  8
R-SWTS-DET1
100
AcDbLine
 10
20.33089284066121
 20
13.50747758012915
 30
0.0
 11
20.33089284066121
 21
13.08247758012915
 31
0.0
  0
LINE
  5
6168
330
17
100
AcDbEntity
  8
R-SWTS-DET1
100
AcDbLine
 10
20.20589284066121
 20
13.08497758012914
 30
0.0
 11
20.08089284066121
 21
13.08497758012914
 31
0.0
  0
LINE
  5
6169
330
17
100
AcDbEntity
  8
R-SWTS-DET2
100
AcDbLine
 10
20.3942158606612
 20
13.08247758012915
 30
0.0
 11
20.33089284066121
 21
13.08247758012915
 31
0.0
  0
LINE
  5
616A
330
17
100
AcDbEntity
  8
R-SWTS-DET1
100
AcDbLine
 10
20.3208928406612
 20
12.98297758012914
 30
0.0
 11
20.33089284066121
 21
12.97297758012914
 31
0.0
  0
LINE
  5
616B
330
17
100
AcDbEntity
  8
R-SWTS-DET1
100
AcDbLine
 10
20.33089284066121
 20
12.99297758012914
 30
0.0
 11
20.3208928406612
 21
12.98297758012914
 31
0.0
  0
LINE
  5
616C
330
17
100
AcDbEntity
  8
R-SWTS-DET1
100
AcDbLine
 10
20.08089284066121
 20
12.28297758012914
 30
0.0
 11
20.20589284066121
 21
12.28297758012914
 31
0.0
  0
LINE
  5
616D
330
17
100
AcDbEntity
  8
R-SWTS-DET1
100
AcDbLine
 10
20.33089284066121
 20
12.59997758012914
 30
0.0
 11
20.3208928406612
 21
12.58997758012914
 31
0.0
  0
LINE
  5
616E
330
17
100
AcDbEntity
  8
R-SWTS-DET1
100
AcDbLine
 10
20.3208928406612
 20
12.58997758012914
 30
0.0
 11
20.33089284066121
 21
12.57997758012914
 31
0.0
  0
LINE
  5
616F
330
17
100
AcDbEntity
  8
R-SWTS-DET1
100
AcDbLine
 10
20.33089284066121
 20
12.97297758012914
 30
0.0
 11
20.33089284066121
 21
12.59997758012914
 31
0.0
  0
LINE
  5
6170
330
17
100
AcDbEntity
  8
R-SWTS-DET1
100
AcDbLine
 10
20.20589284066121
 20
12.28297758012914
 30
0.0
 11
20.20589284066121
 21
13.08497758012914
 31
0.0
  0
LINE
  5
6171
330
17
100
AcDbEntity
  8
R-SWTS-DET2
100
AcDbLine
 10
19.7238907406612
 20
13.18697798012915
 30
0.0
 11
19.58088924066121
 21
13.21897820012915
 31
0.0
  0
LINE
  5
6172
330
17
100
AcDbEntity
  8
R-SWTS-DET2
100
AcDbLine
 10
19.7238907406612
 20
13.40297718012915
 30
0.0
 11
19.58088924066121
 21
13.37097696012915
 31
0.0
  0
LINE
  5
6173
330
17
100
AcDbEntity
  8
R-SWTS-DET1
100
AcDbLine
 10
20.20589284066121
 20
13.85797758012914
 30
0.0
 11
20.08089284066121
 21
13.85797758012914
 31
0.0
  0
LINE
  5
6174
330
17
100
AcDbEntity
  8
R-SWTS-DET1
100
AcDbLine
 10
20.08089284066121
 20
13.85797758012914
 30
0.0
 11
20.08089284066121
 21
13.98297758012914
 31
0.0
  0
LINE
  5
6175
330
17
100
AcDbEntity
  8
R-SWTS-DET1
100
AcDbLine
 10
20.08089284066121
 20
13.18497758012914
 30
0.0
 11
20.20589284066121
 21
13.18497758012914
 31
0.0
  0
LINE
  5
6176
330
17
100
AcDbEntity
  8
R-SWTS-DET2
100
AcDbLine
 10
20.3942158606612
 20
13.50747758012915
 30
0.0
 11
20.33089284066121
 21
13.50747758012915
 31
0.0
  0
LINE
  5
6177
330
17
100
AcDbEntity
  8
R-SWTS-DET2
100
AcDbLine
 10
20.33089284066121
 20
13.18697758012915
 30
0.0
 11
19.72389154066121
 21
13.18697758012915
 31
0.0
  0
LINE
  5
6178
330
17
100
AcDbEntity
  8
R-SWTS-DET2
100
AcDbLine
 10
20.33089284066121
 20
13.40297758012915
 30
0.0
 11
19.7238924406612
 21
13.40297758012915
 31
0.0
  0
LINE
  5
6179
330
17
100
AcDbEntity
  8
R-SWTS-DET1
100
AcDbLine
 10
20.3208928406612
 20
13.29497758012914
 30
0.0
 11
20.33089284066121
 21
13.28497758012914
 31
0.0
  0
LINE
  5
617A
330
17
100
AcDbEntity
  8
R-SWTS-DET1
100
AcDbLine
 10
20.33089284066121
 20
13.30497758012914
 30
0.0
 11
20.3208928406612
 21
13.29497758012914
 31
0.0
  0
LINE
  5
617B
330
17
100
AcDbEntity
  8
R-SWTS-DET1
100
AcDbLine
 10
20.33089284066121
 20
13.85797758012914
 30
0.0
 11
20.33089284066121
 21
13.30497758012914
 31
0.0
  0
LINE
  5
617C
330
17
100
AcDbEntity
  8
R-SWTS-DET1
100
AcDbLine
 10
20.20589284066121
 20
13.18497758012914
 30
0.0
 11
20.20589284066121
 21
13.85797758012914
 31
0.0
  0
LINE
  5
617D
330
17
100
AcDbEntity
  8
R-SWTS-DET2
100
AcDbLine
 10
19.58089284066121
 20
13.37097750012915
 30
0.0
 11
19.58089284066121
 21
13.21897766012915
 31
0.0
  0
TEXT
  5
617E
330
17
100
AcDbEntity
  8
R-ANNO-DIMS
  6
ByBlock
100
AcDbText
 10
16.10521804868421
 20
8.589588998158472
 30
0.0
 40
0.25
  1
DLO
 72
     1
 11
16.46427330107165
 21
8.714588998158472
 31
0.0
100
AcDbText
 73
     2
  0
LINE
  5
617F
330
17
100
AcDbEntity
  8
R-ANNO-DIMS
  6
ByBlock
100
AcDbLine
 10
17.38089284066119
 20
8.481653551939
 30
0.0
 11
15.78089284066119
 21
8.481653551939
 31
0.0
  0
SOLID
  5
6180
330
17
100
AcDbEntity
  8
R-ANNO-DIMS
  6
ByBlock
100
AcDbTrace
 10
15.78089284066121
 20
8.448320218605669
 30
0.0
 11
15.78089284066121
 21
8.514986885272332
 31
0.0
 12
15.5808928406612
 22
8.481653551939
 32
0.0
 13
15.5808928406612
 23
8.481653551939
 33
0.0
  0
LINE
  5
6181
330
17
100
AcDbEntity
  8
R-SWTS-DET1
100
AcDbLine
 10
17.58089284066121
 20
15.55797758012914
 30
0.0
 11
15.5808928406612
 21
15.55797758012914
 31
0.0
  0
TEXT
  5
6198
330
17
100
AcDbEntity
  8
PART_NUMBERS
100
AcDbText
 10
17.53906540640955
 20
16.05844490382781
 30
0.0
 40
0.25
  1
162025 SSG MULLION
100
AcDbText
  0
TEXT
  5
6199
330
17
100
AcDbEntity
  8
0
 62
     2
100
AcDbText
 10
20.34214777587871
 20
14.24729043177438
 30
0.0
 40
0.187
  1
PROJECT-OUT JAMB
100
AcDbText
  0
LWPOLYLINE
  5
61DC
330
17
100
AcDbEntity
  8
R-SWTS-DET2
100
AcDbPolyline
 90
        4
 70
     1
 43
0.0
 10
24.15457321942489
 20
34.29502787158451
 42
-1.0
 10
24.19057321942489
 20
34.29502787158451
 10
24.19057321942489
 20
34.24702787158451
 42
-1.0
 10
24.15457321942489
 20
34.24702787158451
  0
LWPOLYLINE
  5
61DD
330
17
100
AcDbEntity
  8
R-SWTS-DET2
100
AcDbPolyline
 90
       19
 70
     1
 43
0.0
 10
24.24977910177783
 20
34.31785140099627
 42
-0.7807764064043922
 10
24.2450732194249
 20
34.29902787158451
 10
24.23507321942489
 20
34.29902787158451
 10
24.23507321942489
 20
34.22902787158451
 10
24.29157321942489
 20
34.22902787158452
 42
-0.4142135623731242
 10
24.2515732194249
 20
34.18902787158451
 10
24.22857321942489
 20
34.18902787158451
 42
0.3976588195991941
 10
24.2036136080965
 20
34.16544836527876
 10
24.18754898622194
 20
33.93017557536798
 42
-0.9447064698048286
 10
24.15759745262786
 20
33.93017557536798
 10
24.14153283075329
 20
34.16544836527876
 42
0.3976588195991942
 10
24.11657321942489
 20
34.18902787158451
 10
24.09357321942489
 20
34.18902787158451
 42
-0.4142135623731244
 10
24.05357321942489
 20
34.22902787158452
 10
24.11007321942489
 20
34.22902787158451
 10
24.11007321942489
 20
34.29902787158451
 10
24.1000732194249
 20
34.29902787158451
 42
-0.7807764064043922
 10
24.09536733707195
 20
34.31785140099627
 10
24.17257321942489
 20
34.35902787158451
  0
MTEXT
  5
688A
102
{ACAD_XDICTIONARY
360
688B
102
}
330
17
100
AcDbEntity
  8
TEXT
100
AcDbMText
 10
1.000000084398437
 20
2.0
 30
0.0
 40
0.375
 41
15.4571868900598
 71
     1
 72
     5
  1
ENGINEERING CHANGE:  97910-095 (MARCH 2017)\PFILE NAME:  KCDE072 SHEET 01 OF 05.DWG
 73
     1
 44
1.0
1001
ACAD
1000
ACAD_MTEXT_COLUMN_INFO_BEGIN
1070
    75
1070
     2
1070
    79
1070
     0
1070
    76
1070
     1
1070
    78
1070
     0
1070
    48
1040
15.4571868900598
1070
    49
1040
1.25
1070
    50
1070
     1
1040
0.0
1000
ACAD_MTEXT_COLUMN_INFO_END
1000
MTEXTBEGIN
1070
    73
1070
     1
1070
    44
1040
1.0
1070
    74
1070
     0
1000
MTEXTEND
  0
INSERT
  5
688C
330
17
100
AcDbEntity
  8
0
100
AcDbBlockReference
  2
Kawneer Logo English
 10
1.0
 20
2.5
 30
0.0
 41
5.337
 42
5.337
 43
5.337
  0
ENDSEC
  0
SECTION
  2
OBJECTS
  0
DICTIONARY
  5
C
330
0
100
AcDbDictionary
281
     1
  3
ACAD_CIP_PREVIOUS_PRODUCT_INFO
350
62DE
  3
ACAD_COLOR
350
6244
  3
ACAD_FIELDLIST
350
6302
  3
ACAD_GROUP
350
D
  3
ACAD_LAYOUT
350
5387
  3
ACAD_MATERIAL
350
6212
  3
ACAD_MLEADERSTYLE
350
6259
  3
ACAD_MLINESTYLE
350
1A
  3
ACAD_PLOTSETTINGS
350
5388
  3
ACAD_PLOTSTYLENAME
350
5385
  3
ACAD_SCALELIST
350
6247
  3
ACAD_TABLESTYLE
350
6245
  3
ACAD_VISUALSTYLE
350
622B
  3
ACDB_RECOMPOSE_DATA
350
68A6
  3
ACDBVARIABLEDICTIONARY
350
3E
  3
DWGPROPS
350
68A7
  0
DICTIONARY
  5
6299
330
8
100
AcDbDictionary
280
     1
281
     1
  0
DICTIONARY
  5
6278
330
2
100
AcDbDictionary
280
     1
281
     1
  3
ACAD_LAYERSTATES
360
6279
  0
DICTIONARY
  5
6288
330
E
100
AcDbDictionary
280
     1
281
     1
  3
ADSK_XREC_LAYER_RECONCILED
360
6289
  0
DICTIONARY
  5
628A
330
276
100
AcDbDictionary
280
     1
281
     1
  3
ADSK_XREC_LAYER_RECONCILED
360
628B
  0
DICTIONARY
  5
628C
330
34CC
100
AcDbDictionary
280
     1
281
     1
  3
ADSK_XREC_LAYER_RECONCILED
360
628D
  0
DICTIONARY
  5
628E
330
34CD
100
AcDbDictionary
280
     1
281
     1
  3
ADSK_XREC_LAYER_RECONCILED
360
628F
  0
DICTIONARY
  5
6290
330
34CE
100
AcDbDictionary
280
     1
281
     1
  3
ADSK_XREC_LAYER_RECONCILED
360
6291
  0
DICTIONARY
  5
6292
330
34CF
100
AcDbDictionary
280
     1
281
     1
  3
ADSK_XREC_LAYER_RECONCILED
360
6293
  0
DICTIONARY
  5
62F3
330
62F2
100
AcDbDictionary
280
     1
281
     1
  0
DICTIONARY
  5
53B6
330
17
100
AcDbDictionary
280
     1
281
     1
  3
ACAD_LAYOUTSELFREF
360
6205
  0
DICTIONARY
  5
53B4
330
14
100
AcDbDictionary
280
     1
281
     1
  3
ACAD_LAYOUTSELFREF
360
6204
  0
DICTIONARY
  5
67D1
330
67C7
100
AcDbDictionary
280
     1
281
     1
  3
ACAD_SORTENTS
360
67D2
  0
DICTIONARY
  5
68A4
330
67C8
100
AcDbDictionary
280
     1
281
     1
  3
ACAD_MTEXT_2008_RT
360
68A5
  0
DICTIONARY
  5
689F
330
2E0C
100
AcDbDictionary
280
     1
281
     1
  3
ACAD_MTEXT_2008_RT
360
68A0
  0
DICTIONARY
  5
688B
330
688A
100
AcDbDictionary
280
     1
281
     1
  0
XRECORD
  5
62DE
102
{ACAD_REACTORS
330
C
102
}
330
C
100
AcDbXrecord
280
     1
300
ACD
300
2012
300
85730ACD_2012_0F
  0
DICTIONARY
  5
6244
102
{ACAD_REACTORS
330
C
102
}
330
C
100
AcDbDictionary
281
     1
  0
FIELDLIST
  5
6302
102
{ACAD_REACTORS
330
C
102
}
330
C
100
AcDbIdSet
 90
        0
100
AcDbFieldList
  0
DICTIONARY
  5
D
102
{ACAD_REACTORS
330
C
102
}
330
C
100
AcDbDictionary
281
     1
  0
DICTIONARY
  5
5387
102
{ACAD_REACTORS
330
C
102
}
330
C
100
AcDbDictionary
281
     1
  3
Layout1
350
538A
  3
Model
350
5389
  0
DICTIONARY
  5
6212
102
{ACAD_REACTORS
330
C
102
}
330
C
100
AcDbDictionary
281
     1
  3
ByBlock
350
621B
  3
ByLayer
350
6213
  3
Global
350
6223
  0
DICTIONARY
  5
6259
102
{ACAD_REACTORS
330
C
102
}
330
C
100
AcDbDictionary
281
     1
  3
Standard
350
625A
  0
DICTIONARY
  5
1A
102
{ACAD_REACTORS
330
C
102
}
330
C
100
AcDbDictionary
281
     1
  3
STANDARD
350
1B
  0
DICTIONARY
  5
5388
102
{ACAD_REACTORS
330
C
102
}
330
C
100
AcDbDictionary
281
     1
  0
ACDBDICTIONARYWDFLT
  5
5385
102
{ACAD_REACTORS
330
C
102
}
330
C
100
AcDbDictionary
281
     1
  3
Normal
350
5386
100
AcDbDictionaryWithDefault
340
5386
  0
DICTIONARY
  5
6247
102
{ACAD_REACTORS
330
C
102
}
330
C
100
AcDbDictionary
281
     1
  3
A0
350
6248
  3
A1
350
688E
  3
A2
350
688F
  3
A3
350
6890
  3
A4
350
6891
  3
A5
350
6892
  3
A6
350
6893
  3
A7
350
6894
  3
A8
350
6895
  3
A9
350
6896
  3
B0
350
6897
  3
B1
350
6898
  3
B2
350
6899
  3
B3
350
689A
  3
B4
350
689B
  3
B5
350
689C
  3
B6
350
689D
  0
DICTIONARY
  5
6245
102
{ACAD_REACTORS
330
C
102
}
330
C
100
AcDbDictionary
281
     1
  3
Standard
350
6246
  0
DICTIONARY
  5
622B
102
{ACAD_REACTORS
330
C
102
}
330
C
100
AcDbDictionary
281
     1
  3
2dWireframe
350
6231
  3
3D Hidden
350
67C5
  3
3dWireframe
350
67C6
  3
Basic
350
6230
  3
Brighten
350
6237
  3
ColorChange
350
623B
  3
Conceptual
350
6234
  3
Dim
350
6236
  3
EdgeColorOff
350
6243
  3
Facepattern
350
623A
  3
Flat
350
622C
  3
FlatWithEdges
350
622D
  3
Gouraud
350
622E
  3
GouraudWithEdges
350
622F
  3
Hidden
350
6233
  3
JitterOff
350
6241
  3
Linepattern
350
6239
  3
OverhangOff
350
6242
  3
Realistic
350
6235
  3
Shaded
350
6240
  3
Shaded with edges
350
623F
  3
Shades of Gray
350
623C
  3
Sketchy
350
623D
  3
Thicken
350
6238
  3
Wireframe
350
6232
  3
X-Ray
350
623E
  0
XRECORD
  5
68A6
102
{ACAD_REACTORS
330
C
102
}
330
C
100
AcDbXrecord
280
     1
 90
        1
330
2E0C
330
6246
330
67C8
330
688A
  0
DICTIONARY
  5
3E
102
{ACAD_REACTORS
330
C
102
}
330
C
100
AcDbDictionary
281
     1
  3
CANNOSCALE
350
62D6
  3
CMLEADERSTYLE
350
62D5
  3
CTABLESTYLE
350
62D4
  3
DIMADEC
350
3F
  3
DIMASSOC
350
62D9
  3
INDEXCTL
350
62D8
  3
LAYEREVAL
350
6709
  3
LAYERNOTIFY
350
670A
  3
LIGHTINGUNITS
350
6708
  3
MSLTSCALE
350
6707
  3
SORTENTS
350
62D7
  3
XCLIPFRAME
350
689E
  0
XRECORD
  5
68A7
102
{ACAD_REACTORS
330
C
102
}
330
C
100
AcDbXrecord
280
     1
  1
DWGPROPS COOKIE
  2

  3

  4

  6

  7

  8
cottrmr
  9

300
=
301
=
302
=
303
=
304
=
305
=
306
=
307
=
308
=
309
=
 40
0.6024552199074074
 41
2450777.579237616
 42
2457828.327307628
  1

 90
        0
  0
DICTIONARY
  5
6279
102
{ACAD_REACTORS
330
6278
102
}
330
6278
100
AcDbDictionary
281
     1
  0
XRECORD
  5
6289
102
{ACAD_REACTORS
330
6288
102
}
330
6288
100
AcDbXrecord
280
     1
290
     1
  0
XRECORD
  5
628B
102
{ACAD_REACTORS
330
628A
102
}
330
628A
100
AcDbXrecord
280
     1
290
     1
  0
XRECORD
  5
628D
102
{ACAD_REACTORS
330
628C
102
}
330
628C
100
AcDbXrecord
280
     1
290
     1
  0
XRECORD
  5
628F
102
{ACAD_REACTORS
330
628E
102
}
330
628E
100
AcDbXrecord
280
     1
290
     1
  0
XRECORD
  5
6291
102
{ACAD_REACTORS
330
6290
102
}
330
6290
100
AcDbXrecord
280
     1
290
     1
  0
XRECORD
  5
6293
102
{ACAD_REACTORS
330
6292
102
}
330
6292
100
AcDbXrecord
280
     1
290
     1
  0
XRECORD
  5
6205
102
{ACAD_REACTORS
330
53B6
102
}
330
53B6
100
AcDbXrecord
280
     1
340
17
  0
XRECORD
  5
6204
102
{ACAD_REACTORS
330
53B4
102
}
330
53B4
100
AcDbXrecord
280
     1
340
14
  0
SORTENTSTABLE
  5
67D2
102
{ACAD_REACTORS
330
67D1
102
}
330
67D1
100
AcDbSortentsTable
330
67C7
  0
XRECORD
  5
68A5
102
{ACAD_REACTORS
330
68A4
102
}
330
68A4
100
AcDbXrecord
280
     1
 40
102645.0
  1
\pxqr;{\fArial TUR|b0|i0|c0|p34;\T1.05;AN ARCONIC COMPANY}
  0
XRECORD
  5
68A0
102
{ACAD_REACTORS
330
689F
102
}
330
689F
100
AcDbXrecord
280
     1
 40
1242620.0
  1
1600 WALL SYSTEM™2 CURTAIN WALL\P5-1/4" DEEP (1/4" INFILL)\P\pxsm1.0792;SSG WITH GLASSvent™ WINDOWS FOR CURTAIN WALL DETILS
  0
LAYOUT
  5
538A
102
{ACAD_XDICTIONARY
360
68AA
102
}
102
{ACAD_REACTORS
330
5387
102
}
330
5387
100
AcDbPlotSettings
  1

  2
HP LaserJet 5Si/5Si MX PS
  4

  6

 40
0.0
 41
0.0
 42
0.0
 43
0.0
 44
0.0
 45
0.0
 46
0.0
 47
0.0
 48
0.0
 49
0.0
140
0.0
141
0.0
142
1.0
143
1.0
 70
   688
 72
     0
 73
     0
 74
     5
  7
Default R14 pen assignments.ctb
 75
    16
147
1.0
148
0.0
149
0.0
100
AcDbLayout
  1
Layout1
 70
     1
 71
     1
 10
0.0
 20
0.0
 11
12.0
 21
9.0
 12
0.0
 22
0.0
 32
0.0
 14
1.000000000000000E+20
 24
1.000000000000000E+20
 34
1.000000000000000E+20
 15
-1.000000000000000E+20
 25
-1.000000000000000E+20
 35
-1.000000000000000E+20
146
0.0
 13
0.0
 23
0.0
 33
0.0
 16
1.0
 26
0.0
 36
0.0
 17
0.0
 27
1.0
 37
0.0
 76
     0
330
14
  0
LAYOUT
  5
5389
102
{ACAD_XDICTIONARY
360
68A8
102
}
102
{ACAD_REACTORS
330
5387
102
}
330
5387
100
AcDbPlotSettings
  1

  2
\\NOAKCI-SRV7\Marketing Communications - HP 9000n
  4
User132
  6

 40
4.233333110809326
 41
4.233341693878173
 42
4.23333740234375
 43
4.23333740234375
 44
279.3999938964844
 45
431.7999877929687
 46
0.0
 47
0.0
 48
0.0
 49
0.0
140
0.0
141
0.0
142
1.0
143
4.377794519805595
 70
 11952
 72
     0
 73
     1
 74
     1
  7
Default R14 pen assignments.ctb
 75
     0
147
0.228425522366547
148
0.1413606320393341
149
0.0882324501173969
100
AcDbLayout
  1
Model
 70
     1
 71
     0
 10
0.0
 20
0.0
 11
12.0
 21
9.0
 12
0.0
 22
0.0
 32
0.0
 14
0.0
 24
0.0
 34
0.0
 15
0.0
 25
0.0
 35
0.0
146
0.0
 13
0.0
 23
0.0
 33
0.0
 16
1.0
 26
0.0
 36
0.0
 17
0.0
 27
1.0
 37
0.0
 76
     0
330
17
331
61DE
  0
MATERIAL
  5
621B
102
{ACAD_XDICTIONARY
360
621C
102
}
102
{ACAD_REACTORS
330
6212
102
}
330
6212
100
AcDbMaterial
  1
ByBlock
 72
     0
 43
0.0208333333333333
 43
0.0
 43
0.0
 43
0.0
 43
0.0
 43
0.0208333333333333
 43
0.0
 43
0.0
 43
0.0
 43
0.0
 43
1.0
 43
0.0
 43
0.0
 43
0.0
 43
0.0
 43
1.0
 77
     0
 47
0.0208333333333333
 47
0.0
 47
0.0
 47
0.0
 47
0.0
 47
0.0208333333333333
 47
0.0
 47
0.0
 47
0.0
 47
0.0
 47
1.0
 47
0.0
 47
0.0
 47
0.0
 47
0.0
 47
1.0
171
     0
 49
0.0208333333333333
 49
0.0
 49
0.0
 49
0.0
 49
0.0
 49
0.0208333333333333
 49
0.0
 49
0.0
 49
0.0
 49
0.0
 49
1.0
 49
0.0
 49
0.0
 49
0.0
 49
0.0
 49
1.0
175
     0
142
0.0208333333333333
142
0.0
142
0.0
142
0.0
142
0.0
142
0.0208333333333333
142
0.0
142
0.0
142
0.0
142
0.0
142
1.0
142
0.0
142
0.0
142
0.0
142
0.0
142
1.0
179
     0
144
0.0208333333333333
144
0.0
144
0.0
144
0.0
144
0.0
144
0.0208333333333333
144
0.0
144
0.0
144
0.0
144
0.0
144
1.0
144
0.0
144
0.0
144
0.0
144
0.0
144
1.0
147
0.0208333333333333
147
0.0
147
0.0
147
0.0
147
0.0
147
0.0208333333333333
147
0.0
147
0.0
147
0.0
147
0.0
147
1.0
147
0.0
147
0.0
147
0.0
147
0.0
147
1.0
  0
MATERIAL
  5
6213
102
{ACAD_XDICTIONARY
360
6214
102
}
102
{ACAD_REACTORS
330
6212
102
}
330
6212
100
AcDbMaterial
  1
ByLayer
 72
     0
 43
0.0208333333333333
 43
0.0
 43
0.0
 43
0.0
 43
0.0
 43
0.0208333333333333
 43
0.0
 43
0.0
 43
0.0
 43
0.0
 43
1.0
 43
0.0
 43
0.0
 43
0.0
 43
0.0
 43
1.0
 77
     0
 47
0.0208333333333333
 47
0.0
 47
0.0
 47
0.0
 47
0.0
 47
0.0208333333333333
 47
0.0
 47
0.0
 47
0.0
 47
0.0
 47
1.0
 47
0.0
 47
0.0
 47
0.0
 47
0.0
 47
1.0
171
     0
 49
0.0208333333333333
 49
0.0
 49
0.0
 49
0.0
 49
0.0
 49
0.0208333333333333
 49
0.0
 49
0.0
 49
0.0
 49
0.0
 49
1.0
 49
0.0
 49
0.0
 49
0.0
 49
0.0
 49
1.0
175
     0
142
0.0208333333333333
142
0.0
142
0.0
142
0.0
142
0.0
142
0.0208333333333333
142
0.0
142
0.0
142
0.0
142
0.0
142
1.0
142
0.0
142
0.0
142
0.0
142
0.0
142
1.0
179
     0
144
0.0208333333333333
144
0.0
144
0.0
144
0.0
144
0.0
144
0.0208333333333333
144
0.0
144
0.0
144
0.0
144
0.0
144
1.0
144
0.0
144
0.0
144
0.0
144
0.0
144
1.0
147
0.0208333333333333
147
0.0
147
0.0
147
0.0
147
0.0
147
0.0208333333333333
147
0.0
147
0.0
147
0.0
147
0.0
147
1.0
147
0.0
147
0.0
147
0.0
147
0.0
147
1.0
  0
MATERIAL
  5
6223
102
{ACAD_XDICTIONARY
360
6224
102
}
102
{ACAD_REACTORS
330
6212
102
}
330
6212
100
AcDbMaterial
  1
Global
 72
     0
 43
0.0208333333333333
 43
0.0
 43
0.0
 43
0.0
 43
0.0
 43
0.0208333333333333
 43
0.0
 43
0.0
 43
0.0
 43
0.0
 43
1.0
 43
0.0
 43
0.0
 43
0.0
 43
0.0
 43
1.0
 77
     0
 47
0.0208333333333333
 47
0.0
 47
0.0
 47
0.0
 47
0.0
 47
0.0208333333333333
 47
0.0
 47
0.0
 47
0.0
 47
0.0
 47
1.0
 47
0.0
 47
0.0
 47
0.0
 47
0.0
 47
1.0
171
     0
 49
0.0208333333333333
 49
0.0
 49
0.0
 49
0.0
 49
0.0
 49
0.0208333333333333
 49
0.0
 49
0.0
 49
0.0
 49
0.0
 49
1.0
 49
0.0
 49
0.0
 49
0.0
 49
0.0
 49
1.0
175
     0
142
0.0208333333333333
142
0.0
142
0.0
142
0.0
142
0.0
142
0.0208333333333333
142
0.0
142
0.0
142
0.0
142
0.0
142
1.0
142
0.0
142
0.0
142
0.0
142
0.0
142
1.0
179
     0
144
0.0208333333333333
144
0.0
144
0.0
144
0.0
144
0.0
144
0.0208333333333333
144
0.0
144
0.0
144
0.0
144
0.0
144
1.0
144
0.0
144
0.0
144
0.0
144
0.0
144
1.0
147
0.0208333333333333
147
0.0
147
0.0
147
0.0
147
0.0
147
0.0208333333333333
147
0.0
147
0.0
147
0.0
147
0.0
147
1.0
147
0.0
147
0.0
147
0.0
147
0.0
147
1.0
  0
MLEADERSTYLE
  5
625A
102
{ACAD_XDICTIONARY
360
68A2
102
}
102
{ACAD_REACTORS
330
6259
102
}
330
6259
100
AcDbMLeaderStyle
170
     2
171
     1
172
     0
 90
        2
 40
0.0
 41
0.0
173
     1
 91
-1056964608
340
11
 92
       -2
290
     1
 42
0.09
291
     1
 43
0.36
  3
Standard
 44
0.18
300

342
F
174
     1
178
     6
175
     1
176
     0
 93
-1056964608
 45
0.18
292
     0
297
     0
 46
0.18
 94
-1056964608
 47
1.0
 49
1.0
140
1.0
293
     1
141
0.0
294
     1
177
     0
142
1.0
295
     0
296
     0
143
0.125
1001
ACAD_MLEADERVER
1070
     2
  0
MLINESTYLE
  5
1B
102
{ACAD_REACTORS
330
1A
102
}
330
1A
100
AcDbMlineStyle
  2
STANDARD
 70
     0
  3

 62
   256
 51
90.0
 52
90.0
 71
     2
 49
0.5
 62
   256
  6
BYLAYER
 49
-0.5
 62
   256
  6
BYLAYER
  0
ACDBPLACEHOLDER
  5
5386
102
{ACAD_REACTORS
330
5385
102
}
330
5385
  0
SCALE
  5
6248
102
{ACAD_REACTORS
330
6247
102
}
330
6247
100
AcDbScale
 70
     0
300
1:1
140
1.0
141
1.0
290
     1
  0
SCALE
  5
688E
102
{ACAD_REACTORS
330
6247
102
}
330
6247
100
AcDbScale
 70
     0
300
1/128" = 1'-0"
140
0.0078125
141
12.0
290
     0
  0
SCALE
  5
688F
102
{ACAD_REACTORS
330
6247
102
}
330
6247
100
AcDbScale
 70
     0
300
1/64" = 1'-0"
140
0.015625
141
12.0
290
     0
  0
SCALE
  5
6890
102
{ACAD_REACTORS
330
6247
102
}
330
6247
100
AcDbScale
 70
     0
300
1/32" = 1'-0"
140
0.03125
141
12.0
290
     0
  0
SCALE
  5
6891
102
{ACAD_REACTORS
330
6247
102
}
330
6247
100
AcDbScale
 70
     0
300
1/16" = 1'-0"
140
0.0625
141
12.0
290
     0
  0
SCALE
  5
6892
102
{ACAD_REACTORS
330
6247
102
}
330
6247
100
AcDbScale
 70
     0
300
3/32" = 1'-0"
140
0.09375
141
12.0
290
     0
  0
SCALE
  5
6893
102
{ACAD_REACTORS
330
6247
102
}
330
6247
100
AcDbScale
 70
     0
300
1/8" = 1'-0"
140
0.125
141
12.0
290
     0
  0
SCALE
  5
6894
102
{ACAD_REACTORS
330
6247
102
}
330
6247
100
AcDbScale
 70
     0
300
3/16" = 1'-0"
140
0.1875
141
12.0
290
     0
  0
SCALE
  5
6895
102
{ACAD_REACTORS
330
6247
102
}
330
6247
100
AcDbScale
 70
     0
300
1/4" = 1'-0"
140
0.25
141
12.0
290
     0
  0
SCALE
  5
6896
102
{ACAD_REACTORS
330
6247
102
}
330
6247
100
AcDbScale
 70
     0
300
3/8" = 1'-0"
140
0.375
141
12.0
290
     0
  0
SCALE
  5
6897
102
{ACAD_REACTORS
330
6247
102
}
330
6247
100
AcDbScale
 70
     0
300
1/2" = 1'-0"
140
0.5
141
12.0
290
     0
  0
SCALE
  5
6898
102
{ACAD_REACTORS
330
6247
102
}
330
6247
100
AcDbScale
 70
     0
300
3/4" = 1'-0"
140
0.75
141
12.0
290
     0
  0
SCALE
  5
6899
102
{ACAD_REACTORS
330
6247
102
}
330
6247
100
AcDbScale
 70
     0
300
1" = 1'-0"
140
1.0
141
12.0
290
     0
  0
SCALE
  5
689A
102
{ACAD_REACTORS
330
6247
102
}
330
6247
100
AcDbScale
 70
     0
300
1-1/2" = 1'-0"
140
1.5
141
12.0
290
     0
  0
SCALE
  5
689B
102
{ACAD_REACTORS
330
6247
102
}
330
6247
100
AcDbScale
 70
     0
300
3" = 1'-0"
140
3.0
141
12.0
290
     0
  0
SCALE
  5
689C
102
{ACAD_REACTORS
330
6247
102
}
330
6247
100
AcDbScale
 70
     0
300
6" = 1'-0"
140
6.0
141
12.0
290
     0
  0
SCALE
  5
689D
102
{ACAD_REACTORS
330
6247
102
}
330
6247
100
AcDbScale
 70
     0
300
1'-0" = 1'-0"
140
12.0
141
12.0
290
     0
  0
TABLESTYLE
  5
6246
102
{ACAD_XDICTIONARY
360
6295
102
}
102
{ACAD_REACTORS
330
6245
102
}
330
6245
100
AcDbTableStyle
  3
Standard
 70
     0
 71
     0
 40
0.06
 41
0.06
280
     0
281
     0
  7
STANDARD
140
0.18
170
     2
 62
     0
 63
     7
283
     0
274
    -2
284
     1
 64
     0
275
    -2
285
     1
 65
     0
276
    -2
286
     1
 66
     0
277
    -2
287
     1
 67
     0
278
    -2
288
     1
 68
     0
279
    -2
289
     1
 69
     0
  7
STANDARD
140
0.25
170
     5
 62
     0
 63
     7
283
     0
274
    -2
284
     1
 64
     0
275
    -2
285
     1
 65
     0
276
    -2
286
     1
 66
     0
277
    -2
287
     1
 67
     0
278
    -2
288
     1
 68
     0
279
    -2
289
     1
 69
     0
  7
STANDARD
140
0.18
170
     5
 62
     0
 63
     7
283
     0
274
    -2
284
     1
 64
     0
275
    -2
285
     1
 65
     0
276
    -2
286
     1
 66
     0
277
    -2
287
     1
 67
     0
278
    -2
288
     1
 68
     0
279
    -2
289
     1
 69
     0
  0
VISUALSTYLE
  5
6231
102
{ACAD_XDICTIONARY
360
68B9
102
}
102
{ACAD_REACTORS
330
622B
102
}
330
622B
100
AcDbVisualStyle
  2
2dWireframe
 70
     4
 71
     0
 72
     2
 73
     0
 90
        0
 40
-0.6
 41
-30.0
 62
     5
 63
     7
 74
     1
 91
        4
 64
     7
 65
   257
 75
     1
175
     1
 42
1.0
 92
        0
 66
   257
 43
1.0
 76
     1
 77
     6
 78
     2
 67
     7
 79
     5
170
     0
171
     0
290
     0
174
     0
 93
        1
 44
0.0
173
     0
291
     0
 45
0.0
1001
ACAD
1000
AcDbSavedByObjectVersion
1070
     0
  0
VISUALSTYLE
  5
67C5
102
{ACAD_XDICTIONARY
360
68E1
102
}
102
{ACAD_REACTORS
330
622B
102
}
330
622B
100
AcDbVisualStyle
  2
3D Hidden
 70
     6
 71
     1
 72
     2
 73
     2
 90
        0
 40
-0.6
 41
-30.0
 62
     5
 63
     7
 74
     2
 91
        2
 64
     7
 65
   257
 75
     2
175
     1
 42
40.0
 92
        0
 66
   257
 43
1.0
 76
     1
 77
     6
 78
     2
 67
     7
 79
     3
170
     0
171
     0
290
     0
174
     0
 93
        1
 44
0.0
173
     0
291
     0
 45
0.0
1001
ACAD
1000
AcDbSavedByObjectVersion
1070
     0
  0
VISUALSTYLE
  5
67C6
102
{ACAD_XDICTIONARY
360
68E3
102
}
102
{ACAD_REACTORS
330
622B
102
}
330
622B
100
AcDbVisualStyle
  2
3dWireframe
 70
     5
 71
     0
 72
     2
 73
     0
 90
        0
 40
-0.6
 41
-30.0
 62
     5
 63
     7
 74
     1
 91
        4
 64
     7
 65
   257
 75
     1
175
     1
 42
1.0
 92
        0
 66
   257
 43
1.0
 76
     1
 77
     6
 78
     2
 67
     7
 79
     5
170
     0
171
     0
290
     0
174
     0
 93
        1
 44
0.0
173
     0
291
     0
 45
0.0
1001
ACAD
1000
AcDbSavedByObjectVersion
1070
     0
  0
VISUALSTYLE
  5
6230
102
{ACAD_XDICTIONARY
360
68B7
102
}
102
{ACAD_REACTORS
330
622B
102
}
330
622B
100
AcDbVisualStyle
  2
Basic
 70
     7
 71
     1
 72
     0
 73
     1
 90
        0
 40
-0.6
 41
-30.0
 62
     5
 63
     7
 74
     0
 91
        4
 64
     7
 65
   257
 75
     1
175
     1
 42
1.0
 92
        8
 66
     7
 43
1.0
 76
     1
 77
     6
 78
     2
 67
     7
 79
     5
170
     0
171
     0
290
     0
174
     0
 93
        1
 44
0.0
173
     0
291
     1
 45
0.0
1001
ACAD
1000
AcDbSavedByObjectVersion
1070
     0
  0
VISUALSTYLE
  5
6237
102
{ACAD_XDICTIONARY
360
68C5
102
}
102
{ACAD_REACTORS
330
622B
102
}
330
622B
100
AcDbVisualStyle
  2
Brighten
 70
    12
 71
     2
 72
     2
 73
     0
 90
        0
 40
-0.6
 41
-30.0
 62
     5
 63
     7
 74
     1
 91
        4
 64
     7
 65
   257
 75
     1
175
     1
 42
1.0
 92
        8
 66
     7
 43
1.0
 76
     1
 77
     6
 78
     2
 67
     7
 79
     5
170
     0
171
     0
290
     0
174
     0
 93
        1
 44
50.0
173
     0
291
     1
 45
0.0
1001
ACAD
1000
AcDbSavedByObjectVersion
1070
     0
  0
VISUALSTYLE
  5
623B
102
{ACAD_XDICTIONARY
360
68CD
102
}
102
{ACAD_REACTORS
330
622B
102
}
330
622B
100
AcDbVisualStyle
  2
ColorChange
 70
    16
 71
     2
 72
     2
 73
     3
 90
        0
 40
-0.6
 41
-30.0
 62
     5
 63
     8
 74
     1
 91
        4
 64
     7
 65
   257
 75
     1
175
     1
 42
1.0
 92
        8
 66
     8
 43
1.0
 76
     1
 77
     6
 78
     2
 67
     7
 79
     5
170
     0
171
     0
290
     0
174
     0
 93
        1
 44
0.0
173
     0
291
     1
 45
0.0
1001
ACAD
1000
AcDbSavedByObjectVersion
1070
     0
  0
VISUALSTYLE
  5
6234
102
{ACAD_XDICTIONARY
360
68BF
102
}
102
{ACAD_REACTORS
330
622B
102
}
330
622B
100
AcDbVisualStyle
  2
Conceptual
 70
     9
 71
     3
 72
     2
 73
     0
 90
        0
 40
-0.6
 41
-30.0
 62
     5
 63
     7
 74
     2
 91
        2
 64
     7
 65
   257
 75
     1
175
     1
 42
179.0
 92
        8
 66
     7
 43
1.0
 76
     1
 77
     6
 78
     2
 67
     7
 79
     3
170
     0
171
     0
290
     0
174
     0
 93
        1
 44
0.0
173
     0
291
     0
 45
0.0
1001
ACAD
1000
AcDbSavedByObjectVersion
1070
     0
  0
VISUALSTYLE
  5
6236
102
{ACAD_XDICTIONARY
360
68C3
102
}
102
{ACAD_REACTORS
330
622B
102
}
330
622B
100
AcDbVisualStyle
  2
Dim
 70
    11
 71
     2
 72
     2
 73
     0
 90
        0
 40
-0.6
 41
-30.0
 62
     5
 63
     7
 74
     1
 91
        4
 64
     7
 65
   257
 75
     1
175
     1
 42
1.0
 92
        8
 66
     7
 43
1.0
 76
     1
 77
     6
 78
     2
 67
     7
 79
     5
170
     0
171
     0
290
     0
174
     0
 93
        1
 44
-50.0
173
     0
291
     1
 45
0.0
1001
ACAD
1000
AcDbSavedByObjectVersion
1070
     0
  0
VISUALSTYLE
  5
6243
102
{ACAD_XDICTIONARY
360
68DD
102
}
102
{ACAD_REACTORS
330
622B
102
}
330
622B
100
AcDbVisualStyle
  2
EdgeColorOff
 70
    22
 71
     2
 72
     2
 73
     0
 90
        0
 40
-0.6
 41
-30.0
 62
     5
 63
     7
 74
     1
 91
        4
 64
     7
 65
   257
 75
     1
175
     1
 42
1.0
 92
        8
 66
     7
 43
1.0
 76
     1
 77
     6
 78
     2
 67
     7
 79
     5
170
     0
171
     0
290
     0
174
     0
 93
        1
 44
0.0
173
     0
291
     1
 45
0.0
1001
ACAD
1000
AcDbSavedByObjectVersion
1070
     0
  0
VISUALSTYLE
  5
623A
102
{ACAD_XDICTIONARY
360
68CB
102
}
102
{ACAD_REACTORS
330
622B
102
}
330
622B
100
AcDbVisualStyle
  2
Facepattern
 70
    15
 71
     2
 72
     2
 73
     0
 90
        0
 40
-0.6
 41
-30.0
 62
     5
 63
     7
 74
     1
 91
        4
 64
     7
 65
   257
 75
     1
175
     1
 42
1.0
 92
        8
 66
     7
 43
1.0
 76
     1
 77
     6
 78
     2
 67
     7
 79
     5
170
     0
171
     0
290
     0
174
     0
 93
        1
 44
0.0
173
     0
291
     1
 45
0.0
1001
ACAD
1000
AcDbSavedByObjectVersion
1070
     0
  0
VISUALSTYLE
  5
622C
102
{ACAD_XDICTIONARY
360
68AF
102
}
102
{ACAD_REACTORS
330
622B
102
}
330
622B
100
AcDbVisualStyle
  2
Flat
 70
     0
 71
     2
 72
     1
 73
     1
 90
        2
 40
-0.6
 41
30.0
 62
     5
 63
     7
 74
     0
 91
        0
 64
     7
 65
   257
 75
     1
175
     1
 42
1.0
 92
        8
 66
     7
 43
1.0
 76
     1
 77
     6
 78
     2
 67
     7
 79
     5
170
     0
171
     0
290
     0
174
     0
 93
       13
 44
0.0
173
     0
291
     1
 45
0.0
1001
ACAD
1000
AcDbSavedByObjectVersion
1070
     0
  0
VISUALSTYLE
  5
622D
102
{ACAD_XDICTIONARY
360
68B1
102
}
102
{ACAD_REACTORS
330
622B
102
}
330
622B
100
AcDbVisualStyle
  2
FlatWithEdges
 70
     1
 71
     2
 72
     1
 73
     1
 90
        2
 40
-0.6
 41
30.0
 62
     5
 63
     7
 74
     1
 91
        0
 64
     7
 65
   257
 75
     1
175
     1
 42
1.0
 92
        0
 66
   257
 43
1.0
 76
     1
 77
     6
 78
     2
 67
     7
 79
     5
170
     0
171
     0
290
     0
174
     0
 93
       13
 44
0.0
173
     0
291
     1
 45
0.0
1001
ACAD
1000
AcDbSavedByObjectVersion
1070
     0
  0
VISUALSTYLE
  5
622E
102
{ACAD_XDICTIONARY
360
68B3
102
}
102
{ACAD_REACTORS
330
622B
102
}
330
622B
100
AcDbVisualStyle
  2
Gouraud
 70
     2
 71
     2
 72
     2
 73
     1
 90
        2
 40
-0.6
 41
30.0
 62
     5
 63
     7
 74
     0
 91
        0
 64
     7
 65
   257
 75
     1
175
     1
 42
1.0
 92
        0
 66
     7
 43
1.0
 76
     1
 77
     6
 78
     2
 67
     7
 79
     5
170
     0
171
     0
290
     0
174
     0
 93
       13
 44
0.0
173
     0
291
     1
 45
0.0
1001
ACAD
1000
AcDbSavedByObjectVersion
1070
     0
  0
VISUALSTYLE
  5
622F
102
{ACAD_XDICTIONARY
360
68B5
102
}
102
{ACAD_REACTORS
330
622B
102
}
330
622B
100
AcDbVisualStyle
  2
GouraudWithEdges
 70
     3
 71
     2
 72
     2
 73
     1
 90
        2
 40
-0.6
 41
30.0
 62
     5
 63
     7
 74
     1
 91
        0
 64
     7
 65
   257
 75
     1
175
     1
 42
1.0
 92
        0
 66
   257
 43
1.0
 76
     1
 77
     6
 78
     2
 67
     7
 79
     5
170
     0
171
     0
290
     0
174
     0
 93
       13
 44
0.0
173
     0
291
     1
 45
0.0
1001
ACAD
1000
AcDbSavedByObjectVersion
1070
     0
  0
VISUALSTYLE
  5
6233
102
{ACAD_XDICTIONARY
360
68BD
102
}
102
{ACAD_REACTORS
330
622B
102
}
330
622B
100
AcDbVisualStyle
  2
Hidden
 70
     6
 71
     1
 72
     2
 73
     2
 90
        0
 40
-0.6
 41
-30.0
 62
     5
 63
     7
 74
     2
 91
        2
 64
     7
 65
   257
 75
     2
175
     1
 42
40.0
 92
        0
 66
   257
 43
1.0
 76
     1
 77
     6
 78
     2
 67
     7
 79
     3
170
     0
171
     0
290
     0
174
     0
 93
        1
 44
0.0
173
     0
291
     0
 45
0.0
1001
ACAD
1000
AcDbSavedByObjectVersion
1070
     0
  0
VISUALSTYLE
  5
6241
102
{ACAD_XDICTIONARY
360
68D9
102
}
102
{ACAD_REACTORS
330
622B
102
}
330
622B
100
AcDbVisualStyle
  2
JitterOff
 70
    20
 71
     2
 72
     2
 73
     0
 90
        0
 40
-0.6
 41
-30.0
 62
     5
 63
     7
 74
     1
 91
        4
 64
     7
 65
   257
 75
     1
175
     1
 42
1.0
 92
       10
 66
     7
 43
1.0
 76
     1
 77
     6
 78
     2
 67
     7
 79
     5
170
     0
171
     0
290
     0
174
     0
 93
        1
 44
0.0
173
     0
291
     1
 45
0.0
1001
ACAD
1000
AcDbSavedByObjectVersion
1070
     0
  0
VISUALSTYLE
  5
6239
102
{ACAD_XDICTIONARY
360
68C9
102
}
102
{ACAD_REACTORS
330
622B
102
}
330
622B
100
AcDbVisualStyle
  2
Linepattern
 70
    14
 71
     2
 72
     2
 73
     0
 90
        0
 40
-0.6
 41
-30.0
 62
     5
 63
     7
 74
     1
 91
        4
 64
     7
 65
   257
 75
     7
175
     7
 42
1.0
 92
        8
 66
     7
 43
1.0
 76
     1
 77
     6
 78
     2
 67
     7
 79
     5
170
     0
171
     0
290
     0
174
     0
 93
        1
 44
0.0
173
     0
291
     1
 45
0.0
1001
ACAD
1000
AcDbSavedByObjectVersion
1070
     0
  0
VISUALSTYLE
  5
6242
102
{ACAD_XDICTIONARY
360
68DB
102
}
102
{ACAD_REACTORS
330
622B
102
}
330
622B
100
AcDbVisualStyle
  2
OverhangOff
 70
    21
 71
     2
 72
     2
 73
     0
 90
        0
 40
-0.6
 41
-30.0
 62
     5
 63
     7
 74
     1
 91
        4
 64
     7
 65
   257
 75
     1
175
     1
 42
1.0
 92
        9
 66
     7
 43
1.0
 76
     1
 77
     6
 78
     2
 67
     7
 79
     5
170
     0
171
     0
290
     0
174
     0
 93
        1
 44
0.0
173
     0
291
     1
 45
0.0
1001
ACAD
1000
AcDbSavedByObjectVersion
1070
     0
  0
VISUALSTYLE
  5
6235
102
{ACAD_XDICTIONARY
360
68C1
102
}
102
{ACAD_REACTORS
330
622B
102
}
330
622B
100
AcDbVisualStyle
  2
Realistic
 70
     8
 71
     2
 72
     2
 73
     0
 90
        2
 40
-0.6
 41
30.0
 62
     5
 63
     7
 74
     0
 91
        0
 64
     7
 65
   257
 75
     1
175
     1
 42
1.0
 92
        8
 66
   257
 43
1.0
 76
     1
 77
     6
 78
     2
 67
     7
 79
     3
170
     0
171
     0
290
     0
174
     0
 93
       13
 44
0.0
173
     0
291
     0
 45
0.0
1001
ACAD
1000
AcDbSavedByObjectVersion
1070
     0
  0
VISUALSTYLE
  5
6240
102
{ACAD_XDICTIONARY
360
68D7
102
}
102
{ACAD_REACTORS
330
622B
102
}
330
622B
100
AcDbVisualStyle
  2
Shaded
 70
    27
 71
     2
 72
     2
 73
     1
 90
        2
 40
-0.6
 41
30.0
 62
     5
 63
     7
 74
     0
 91
        4
 64
     7
 65
   257
 75
     1
175
     1
 42
1.0
 92
        8
 66
   257
 43
1.0
 76
     1
 77
     6
 78
     2
 67
     8
 79
     3
170
     0
171
     0
290
     0
174
     0
 93
        5
 44
0.0
173
     0
291
     0
 45
0.0
1001
ACAD
1000
AcDbSavedByObjectVersion
1070
     0
  0
VISUALSTYLE
  5
623F
102
{ACAD_XDICTIONARY
360
68D5
102
}
102
{ACAD_REACTORS
330
622B
102
}
330
622B
100
AcDbVisualStyle
  2
Shaded with edges
 70
    26
 71
     2
 72
     2
 73
     1
 90
        2
 40
-0.6
 41
30.0
 62
     5
 63
     7
 74
     1
 91
       10
 64
     7
 65
   257
 75
     2
175
     1
 42
1.0
 92
        8
 66
   257
 43
1.0
 76
     1
 77
     6
 78
     2
 67
     7
 79
     3
170
     0
171
     0
290
     0
174
     0
 93
        5
 44
0.0
173
     0
291
     0
 45
0.0
1001
ACAD
1000
AcDbSavedByObjectVersion
1070
     0
  0
VISUALSTYLE
  5
623C
102
{ACAD_XDICTIONARY
360
68CF
102
}
102
{ACAD_REACTORS
330
622B
102
}
330
622B
100
AcDbVisualStyle
  2
Shades of Gray
 70
    23
 71
     2
 72
     2
 73
     3
 90
        0
 40
-0.6
 41
-30.0
 62
     5
 63
     7
 74
     2
 91
        2
 64
     7
 65
     7
 75
     1
175
     1
 42
40.0
 92
        8
 66
     7
 43
1.0
 76
     1
 77
     6
 78
     2
 67
     7
 79
     3
170
     0
171
     0
290
     0
174
     0
 93
        1
 44
0.0
173
     0
291
     0
 45
0.0
1001
ACAD
1000
AcDbSavedByObjectVersion
1070
     0
  0
VISUALSTYLE
  5
623D
102
{ACAD_XDICTIONARY
360
68D1
102
}
102
{ACAD_REACTORS
330
622B
102
}
330
622B
100
AcDbVisualStyle
  2
Sketchy
 70
    24
 71
     1
 72
     2
 73
     2
 90
        0
 40
-0.6
 41
-30.0
 62
     5
 63
     7
 74
     2
 91
        2
 64
     7
 65
     7
 75
     1
175
     1
 42
40.0
 92
       11
 66
     7
 43
1.0
 76
     1
 77
     6
 78
     2
 67
     7
 79
     6
170
     0
171
     0
290
     0
174
     0
 93
        1
 44
0.0
173
     0
291
     0
 45
0.0
1001
ACAD
1000
AcDbSavedByObjectVersion
1070
     0
  0
VISUALSTYLE
  5
6238
102
{ACAD_XDICTIONARY
360
68C7
102
}
102
{ACAD_REACTORS
330
622B
102
}
330
622B
100
AcDbVisualStyle
  2
Thicken
 70
    13
 71
     2
 72
     2
 73
     0
 90
        0
 40
-0.6
 41
-30.0
 62
     5
 63
     7
 74
     1
 91
        4
 64
     7
 65
   257
 75
     1
175
     1
 42
1.0
 92
       12
 66
     7
 43
1.0
 76
     1
 77
     6
 78
     2
 67
     7
 79
     5
170
     0
171
     0
290
     0
174
     0
 93
        1
 44
0.0
173
     0
291
     1
 45
0.0
1001
ACAD
1000
AcDbSavedByObjectVersion
1070
     0
  0
VISUALSTYLE
  5
6232
102
{ACAD_XDICTIONARY
360
68BB
102
}
102
{ACAD_REACTORS
330
622B
102
}
330
622B
100
AcDbVisualStyle
  2
Wireframe
 70
     5
 71
     0
 72
     2
 73
     0
 90
        0
 40
-0.6
 41
-30.0
 62
     5
 63
     7
 74
     1
 91
        4
 64
     7
 65
   257
 75
     1
175
     1
 42
1.0
 92
        0
 66
   257
 43
1.0
 76
     1
 77
     6
 78
     2
 67
     7
 79
     3
170
     0
171
     0
290
     0
174
     0
 93
        1
 44
0.0
173
     0
291
     0
 45
0.0
1001
ACAD
1000
AcDbSavedByObjectVersion
1070
     0
  0
VISUALSTYLE
  5
623E
102
{ACAD_XDICTIONARY
360
68D3
102
}
102
{ACAD_REACTORS
330
622B
102
}
330
622B
100
AcDbVisualStyle
  2
X-Ray
 70
    25
 71
     2
 72
     2
 73
     1
 90
        1
 40
0.5
 41
-30.0
 62
     5
 63
     7
 74
     1
 91
        0
 64
     7
 65
   257
 75
     1
175
     1
 42
1.0
 92
        8
 66
     7
 43
1.0
 76
     1
 77
     6
 78
     2
 67
     7
 79
     3
170
     0
171
     0
290
     0
174
     0
 93
       13
 44
0.0
173
     0
291
     0
 45
0.0
1001
ACAD
1000
AcDbSavedByObjectVersion
1070
     0
  0
DICTIONARYVAR
  5
62D6
102
{ACAD_REACTORS
330
3E
102
}
330
3E
100
DictionaryVariables
280
     0
  1
1:1
  0
DICTIONARYVAR
  5
62D5
102
{ACAD_REACTORS
330
3E
102
}
330
3E
100
DictionaryVariables
280
     0
  1
STANDARD
  0
DICTIONARYVAR
  5
62D4
102
{ACAD_REACTORS
330
3E
102
}
330
3E
100
DictionaryVariables
280
     0
  1
STANDARD
  0
DICTIONARYVAR
  5
3F
102
{ACAD_REACTORS
330
3E
102
}
330
3E
100
DictionaryVariables
280
     0
  1
0
  0
DICTIONARYVAR
  5
62D9
102
{ACAD_REACTORS
330
3E
102
}
330
3E
100
DictionaryVariables
280
     0
  1
1
  0
DICTIONARYVAR
  5
62D8
102
{ACAD_REACTORS
330
3E
102
}
330
3E
100
DictionaryVariables
280
     0
  1
0
  0
DICTIONARYVAR
  5
6709
102
{ACAD_REACTORS
330
3E
102
}
330
3E
100
DictionaryVariables
280
     0
  1
1
  0
DICTIONARYVAR
  5
670A
102
{ACAD_REACTORS
330
3E
102
}
330
3E
100
DictionaryVariables
280
     0
  1
15
  0
DICTIONARYVAR
  5
6708
102
{ACAD_REACTORS
330
3E
102
}
330
3E
100
DictionaryVariables
280
     0
  1
0
  0
DICTIONARYVAR
  5
6707
102
{ACAD_REACTORS
330
3E
102
}
330
3E
100
DictionaryVariables
280
     0
  1
0
  0
DICTIONARYVAR
  5
62D7
102
{ACAD_REACTORS
330
3E
102
}
330
3E
100
DictionaryVariables
280
     0
  1
127
  0
DICTIONARYVAR
  5
689E
102
{ACAD_REACTORS
330
3E
102
}
330
3E
100
DictionaryVariables
280
     0
  1
2
  0
DICTIONARY
  5
68AA
330
538A
100
AcDbDictionary
280
     1
281
     1
  3
ACAD_XREC_ROUNDTRIP
360
68AB
  0
DICTIONARY
  5
68A8
330
5389
100
AcDbDictionary
280
     1
281
     1
  3
ACAD_XREC_ROUNDTRIP
360
68A9
  0
DICTIONARY
  5
621C
330
621B
100
AcDbDictionary
280
     1
281
     1
  3
ACAD_XREC_ROUNDTRIP
360
68AD
  3
BUMPTILE
360
621E
  3
DIFFUSETILE
360
621D
  3
OPACITYTILE
360
6221
  3
REFLECTIONTILE
360
6220
  3
REFRACTIONTILE
360
6222
  3
SPECULARTILE
360
621F
  0
DICTIONARY
  5
6214
330
6213
100
AcDbDictionary
280
     1
281
     1
  3
ACAD_XREC_ROUNDTRIP
360
68AC
  3
BUMPTILE
360
6216
  3
DIFFUSETILE
360
6215
  3
OPACITYTILE
360
6219
  3
REFLECTIONTILE
360
6218
  3
REFRACTIONTILE
360
621A
  3
SPECULARTILE
360
6217
  0
DICTIONARY
  5
6224
330
6223
100
AcDbDictionary
280
     1
281
     1
  3
ACAD_XREC_ROUNDTRIP
360
68AE
  3
BUMPTILE
360
6226
  3
DIFFUSETILE
360
6225
  3
OPACITYTILE
360
6229
  3
REFLECTIONTILE
360
6228
  3
REFRACTIONTILE
360
622A
  3
SPECULARTILE
360
6227
  0
DICTIONARY
  5
68A2
330
625A
100
AcDbDictionary
280
     1
281
     1
  3
ACAD_XREC_ROUNDTRIP
360
68A3
  0
DICTIONARY
  5
6295
330
6246
100
AcDbDictionary
280
     1
281
     1
  3
ACAD_ROUNDTRIP_2008_TABLESTYLE_CELLSTYLEMAP
360
68A1
  3
ACAD_XREC_ROUNDTRIP
360
68DF
  0
DICTIONARY
  5
68B9
330
6231
100
AcDbDictionary
280
     1
281
     1
  3
ACAD_XREC_ROUNDTRIP
360
68BA
  0
DICTIONARY
  5
68E1
330
67C5
100
AcDbDictionary
280
     1
281
     1
  3
ACAD_XREC_ROUNDTRIP
360
68E2
  0
DICTIONARY
  5
68E3
330
67C6
100
AcDbDictionary
280
     1
281
     1
  3
ACAD_XREC_ROUNDTRIP
360
68E4
  0
DICTIONARY
  5
68B7
330
6230
100
AcDbDictionary
280
     1
281
     1
  3
ACAD_XREC_ROUNDTRIP
360
68B8
  0
DICTIONARY
  5
68C5
330
6237
100
AcDbDictionary
280
     1
281
     1
  3
ACAD_XREC_ROUNDTRIP
360
68C6
  0
DICTIONARY
  5
68CD
330
623B
100
AcDbDictionary
280
     1
281
     1
  3
ACAD_XREC_ROUNDTRIP
360
68CE
  0
DICTIONARY
  5
68BF
330
6234
100
AcDbDictionary
280
     1
281
     1
  3
ACAD_XREC_ROUNDTRIP
360
68C0
  0
DICTIONARY
  5
68C3
330
6236
100
AcDbDictionary
280
     1
281
     1
  3
ACAD_XREC_ROUNDTRIP
360
68C4
  0
DICTIONARY
  5
68DD
330
6243
100
AcDbDictionary
280
     1
281
     1
  3
ACAD_XREC_ROUNDTRIP
360
68DE
  0
DICTIONARY
  5
68CB
330
623A
100
AcDbDictionary
280
     1
281
     1
  3
ACAD_XREC_ROUNDTRIP
360
68CC
  0
DICTIONARY
  5
68AF
330
622C
100
AcDbDictionary
280
     1
281
     1
  3
ACAD_XREC_ROUNDTRIP
360
68B0
  0
DICTIONARY
  5
68B1
330
622D
100
AcDbDictionary
280
     1
281
     1
  3
ACAD_XREC_ROUNDTRIP
360
68B2
  0
DICTIONARY
  5
68B3
330
622E
100
AcDbDictionary
280
     1
281
     1
  3
ACAD_XREC_ROUNDTRIP
360
68B4
  0
DICTIONARY
  5
68B5
330
622F
100
AcDbDictionary
280
     1
281
     1
  3
ACAD_XREC_ROUNDTRIP
360
68B6
  0
DICTIONARY
  5
68BD
330
6233
100
AcDbDictionary
280
     1
281
     1
  3
ACAD_XREC_ROUNDTRIP
360
68BE
  0
DICTIONARY
  5
68D9
330
6241
100
AcDbDictionary
280
     1
281
     1
  3
ACAD_XREC_ROUNDTRIP
360
68DA
  0
DICTIONARY
  5
68C9
330
6239
100
AcDbDictionary
280
     1
281
     1
  3
ACAD_XREC_ROUNDTRIP
360
68CA
  0
DICTIONARY
  5
68DB
330
6242
100
AcDbDictionary
280
     1
281
     1
  3
ACAD_XREC_ROUNDTRIP
360
68DC
  0
DICTIONARY
  5
68C1
330
6235
100
AcDbDictionary
280
     1
281
     1
  3
ACAD_XREC_ROUNDTRIP
360
68C2
  0
DICTIONARY
  5
68D7
330
6240
100
AcDbDictionary
280
     1
281
     1
  3
ACAD_XREC_ROUNDTRIP
360
68D8
  0
DICTIONARY
  5
68D5
330
623F
100
AcDbDictionary
280
     1
281
     1
  3
ACAD_XREC_ROUNDTRIP
360
68D6
  0
DICTIONARY
  5
68CF
330
623C
100
AcDbDictionary
280
     1
281
     1
  3
ACAD_XREC_ROUNDTRIP
360
68D0
  0
DICTIONARY
  5
68D1
330
623D
100
AcDbDictionary
280
     1
281
     1
  3
ACAD_XREC_ROUNDTRIP
360
68D2
  0
DICTIONARY
  5
68C7
330
6238
100
AcDbDictionary
280
     1
281
     1
  3
ACAD_XREC_ROUNDTRIP
360
68C8
  0
DICTIONARY
  5
68BB
330
6232
100
AcDbDictionary
280
     1
281
     1
  3
ACAD_XREC_ROUNDTRIP
360
68BC
  0
DICTIONARY
  5
68D3
330
623E
100
AcDbDictionary
280
     1
281
     1
  3
ACAD_XREC_ROUNDTRIP
360
68D4
  0
XRECORD
  5
68AB
102
{ACAD_REACTORS
330
68AA
102
}
330
68AA
100
AcDbXrecord
280
     1
102
SHADEPLOT
 70
     0
102
SHADEPLOTRESLEVEL
 70
     2
102
SHADEPLOTCUSTOMDPI
 70
   300
  0
XRECORD
  5
68A9
102
{ACAD_REACTORS
330
68A8
102
}
330
68A8
100
AcDbXrecord
280
     1
102
SHADEPLOT
 70
     0
102
SHADEPLOTRESLEVEL
 70
     2
102
SHADEPLOTCUSTOMDPI
 70
   300
  0
XRECORD
  5
68AD
102
{ACAD_REACTORS
330
621C
102
}
330
621C
100
AcDbXrecord
280
     1
102
MATERIAL
148
0.0
149
0.0
149
0.0
 93
        0
 94
      127
282
     0
 72
     0
 77
     0
171
     0
175
     0
179
     0
273
     0
  0
XRECORD
  5
621E
102
{ACAD_REACTORS
330
621C
102
}
330
621C
100
AcDbXrecord
280
     1
270
     1
271
     1
  0
XRECORD
  5
621D
102
{ACAD_REACTORS
330
621C
102
}
330
621C
100
AcDbXrecord
280
     1
270
     1
271
     1
  0
XRECORD
  5
6221
102
{ACAD_REACTORS
330
621C
102
}
330
621C
100
AcDbXrecord
280
     1
270
     1
271
     1
  0
XRECORD
  5
6220
102
{ACAD_REACTORS
330
621C
102
}
330
621C
100
AcDbXrecord
280
     1
270
     1
271
     1
  0
XRECORD
  5
6222
102
{ACAD_REACTORS
330
621C
102
}
330
621C
100
AcDbXrecord
280
     1
270
     1
271
     1
  0
XRECORD
  5
621F
102
{ACAD_REACTORS
330
621C
102
}
330
621C
100
AcDbXrecord
280
     1
270
     1
271
     1
  0
XRECORD
  5
68AC
102
{ACAD_REACTORS
330
6214
102
}
330
6214
100
AcDbXrecord
280
     1
102
MATERIAL
148
0.0
149
0.0
149
0.0
 93
        0
 94
      127
282
     0
 72
     0
 77
     0
171
     0
175
     0
179
     0
273
     0
  0
XRECORD
  5
6216
102
{ACAD_REACTORS
330
6214
102
}
330
6214
100
AcDbXrecord
280
     1
270
     1
271
     1
  0
XRECORD
  5
6215
102
{ACAD_REACTORS
330
6214
102
}
330
6214
100
AcDbXrecord
280
     1
270
     1
271
     1
  0
XRECORD
  5
6219
102
{ACAD_REACTORS
330
6214
102
}
330
6214
100
AcDbXrecord
280
     1
270
     1
271
     1
  0
XRECORD
  5
6218
102
{ACAD_REACTORS
330
6214
102
}
330
6214
100
AcDbXrecord
280
     1
270
     1
271
     1
  0
XRECORD
  5
621A
102
{ACAD_REACTORS
330
6214
102
}
330
6214
100
AcDbXrecord
280
     1
270
     1
271
     1
  0
XRECORD
  5
6217
102
{ACAD_REACTORS
330
6214
102
}
330
6214
100
AcDbXrecord
280
     1
270
     1
271
     1
  0
XRECORD
  5
68AE
102
{ACAD_REACTORS
330
6224
102
}
330
6224
100
AcDbXrecord
280
     1
102
MATERIAL
148
0.0
149
0.0
149
0.0
 93
        0
 94
      127
282
     0
 72
     0
 77
     0
171
     0
175
     0
179
     0
273
     0
  0
XRECORD
  5
6226
102
{ACAD_REACTORS
330
6224
102
}
330
6224
100
AcDbXrecord
280
     1
270
     1
271
     1
  0
XRECORD
  5
6225
102
{ACAD_REACTORS
330
6224
102
}
330
6224
100
AcDbXrecord
280
     1
270
     1
271
     1
  0
XRECORD
  5
6229
102
{ACAD_REACTORS
330
6224
102
}
330
6224
100
AcDbXrecord
280
     1
270
     1
271
     1
  0
XRECORD
  5
6228
102
{ACAD_REACTORS
330
6224
102
}
330
6224
100
AcDbXrecord
280
     1
270
     1
271
     1
  0
XRECORD
  5
622A
102
{ACAD_REACTORS
330
6224
102
}
330
6224
100
AcDbXrecord
280
     1
270
     1
271
     1
  0
XRECORD
  5
6227
102
{ACAD_REACTORS
330
6224
102
}
330
6224
100
AcDbXrecord
280
     1
270
     1
271
     1
  0
XRECORD
  5
68A3
102
{ACAD_REACTORS
330
68A2
102
}
330
68A2
100
AcDbXrecord
280
     1
102
ACAD_ROUNDTRIP_2012_MLEADER_STYLE
298
     1
  0
CELLSTYLEMAP
  5
68A1
102
{ACAD_REACTORS
330
6295
102
}
330
6295
100
AcDbCellStyleMap
 90
        3
300
CELLSTYLE
  1
TABLEFORMAT_BEGIN
 90
        5
170
     1
 91
        0
 92
    32768
 62
   257
 93
        1
300
CONTENTFORMAT
  1
CONTENTFORMAT_BEGIN
 90
        0
 91
        0
 92
      512
 93
        0
300

 40
0.0
140
1.0
 94
        5
 62
     0
340
F
144
0.25
309
CONTENTFORMAT_END
171
     0
 94
        0
309
TABLEFORMAT_END
  1
CELLSTYLE_BEGIN
 90
        1
 91
        1
300
_TITLE
309
CELLSTYLE_END
300
CELLSTYLE
  1
TABLEFORMAT_BEGIN
 90
        5
170
     1
 91
        0
 92
        0
 62
   257
 93
        1
300
CONTENTFORMAT
  1
CONTENTFORMAT_BEGIN
 90
        0
 91
        0
 92
      512
 93
        0
300

 40
0.0
140
1.0
 94
        5
 62
     0
340
F
144
0.18
309
CONTENTFORMAT_END
171
     0
 94
        0
309
TABLEFORMAT_END
  1
CELLSTYLE_BEGIN
 90
        2
 91
        1
300
_HEADER
309
CELLSTYLE_END
300
CELLSTYLE
  1
TABLEFORMAT_BEGIN
 90
        5
170
     1
 91
        0
 92
        0
 62
   257
 93
        1
300
CONTENTFORMAT
  1
CONTENTFORMAT_BEGIN
 90
        0
 91
        0
 92
      512
 93
        0
300

 40
0.0
140
1.0
 94
        2
 62
     0
340
F
144
0.18
309
CONTENTFORMAT_END
171
     0
 94
        0
309
TABLEFORMAT_END
  1
CELLSTYLE_BEGIN
 90
        3
 91
        2
300
_DATA
309
CELLSTYLE_END
  0
XRECORD
  5
68DF
102
{ACAD_REACTORS
330
6295
102
}
330
6295
100
AcDbXrecord
280
     1
102
ACAD_ROUNDTRIP_PRE2007_TABLESTYLE
 90
      512
 91
        0
  1

 92
      512
 93
        0
  2

 94
      512
 95
        0
  3

  0
XRECORD
  5
68BA
102
{ACAD_REACTORS
330
68B9
102
}
330
68B9
100
AcDbXrecord
280
     1
102
RTVSPropertyOp0
 70
     1
102
RTVSPropertyOp1
 70
     1
102
RTVSPropertyOp2
 70
     1
102
RTVSPropertyOp3
 70
     1
102
RTVSPropertyOp4
 70
     1
102
RTVSPropertyOp5
 70
     1
102
RTVSPropertyOp6
 70
     1
102
RTVSPropertyOp7
 70
     1
102
RTVSPropertyOp8
 70
     1
102
RTVSPropertyOp9
 70
     1
102
RTVSPropertyOp10
 70
     1
102
RTVSPropertyOp11
 70
     1
102
RTVSPropertyOp12
 70
     1
102
RTVSPropertyOp13
 70
     1
102
RTVSPropertyOp14
 70
     1
102
RTVSPropertyOp15
 70
     1
102
RTVSPropertyOp16
 70
     1
102
RTVSPropertyOp17
 70
     1
102
RTVSPropertyOp18
 70
     1
102
RTVSPropertyOp19
 70
     1
102
RTVSPropertyOp20
 70
     1
102
RTVSPropertyOp21
 70
     1
102
RTVSPropertyOp22
 70
     1
102
RTVSPropertyOp23
 70
     1
102
RTVSPropertyOp24
 70
     1
102
RTVSPropertyOp25
 70
     1
102
RTVSPropertyOp26
 70
     1
102
RTVSPropertyOp27
 70
     1
102
RTVSPropertyOp28
 70
     1
102
RTVSPropertyOp29
 70
     1
102
RTVSPropertyOp30
 70
     1
102
RTVSPropertyOp31
 70
     1
102
RTVSPropertyOp32
 70
     1
  0
XRECORD
  5
68E2
102
{ACAD_REACTORS
330
68E1
102
}
330
68E1
100
AcDbXrecord
280
     1
102
RTVSPropertyOp0
 70
     1
102
RTVSPropertyOp1
 70
     1
102
RTVSPropertyOp2
 70
     1
102
RTVSPropertyOp3
 70
     1
102
RTVSPropertyOp4
 70
     1
102
RTVSPropertyOp5
 70
     1
102
RTVSPropertyOp6
 70
     1
102
RTVSPropertyOp7
 70
     1
102
RTVSPropertyOp8
 70
     1
102
RTVSPropertyOp9
 70
     1
102
RTVSPropertyOp10
 70
     1
102
RTVSPropertyOp11
 70
     1
102
RTVSPropertyOp12
 70
     1
102
RTVSPropertyOp13
 70
     1
102
RTVSPropertyOp14
 70
     1
102
RTVSPropertyOp15
 70
     1
102
RTVSPropertyOp16
 70
     1
102
RTVSPropertyOp17
 70
     1
102
RTVSPropertyOp18
 70
     1
102
RTVSPropertyOp19
 70
     1
102
RTVSPropertyOp20
 70
     1
102
RTVSPropertyOp21
 70
     1
102
RTVSPropertyOp22
 70
     1
102
RTVSPropertyOp23
 70
     1
102
RTVSPropertyOp24
 70
     1
102
RTVSPropertyOp25
 70
     1
102
RTVSPropertyOp26
 70
     1
102
RTVSPropertyOp27
 70
     1
102
RTVSPropertyOp28
 70
     1
102
RTVSPropertyOp29
 70
     1
102
RTVSPropertyOp30
 70
     1
102
RTVSPropertyOp31
 70
     1
102
RTVSPropertyOp32
 70
     1
  0
XRECORD
  5
68E4
102
{ACAD_REACTORS
330
68E3
102
}
330
68E3
100
AcDbXrecord
280
     1
102
RTVSPropertyOp0
 70
     1
102
RTVSPropertyOp1
 70
     1
102
RTVSPropertyOp2
 70
     1
102
RTVSPropertyOp3
 70
     1
102
RTVSPropertyOp4
 70
     1
102
RTVSPropertyOp5
 70
     1
102
RTVSPropertyOp6
 70
     1
102
RTVSPropertyOp7
 70
     1
102
RTVSPropertyOp8
 70
     1
102
RTVSPropertyOp9
 70
     1
102
RTVSPropertyOp10
 70
     1
102
RTVSPropertyOp11
 70
     1
102
RTVSPropertyOp12
 70
     1
102
RTVSPropertyOp13
 70
     1
102
RTVSPropertyOp14
 70
     1
102
RTVSPropertyOp15
 70
     1
102
RTVSPropertyOp16
 70
     1
102
RTVSPropertyOp17
 70
     1
102
RTVSPropertyOp18
 70
     1
102
RTVSPropertyOp19
 70
     1
102
RTVSPropertyOp20
 70
     1
102
RTVSPropertyOp21
 70
     1
102
RTVSPropertyOp22
 70
     1
102
RTVSPropertyOp23
 70
     1
102
RTVSPropertyOp24
 70
     1
102
RTVSPropertyOp25
 70
     1
102
RTVSPropertyOp26
 70
     1
102
RTVSPropertyOp27
 70
     1
102
RTVSPropertyOp28
 70
     1
102
RTVSPropertyOp29
 70
     1
102
RTVSPropertyOp30
 70
     1
102
RTVSPropertyOp31
 70
     1
102
RTVSPropertyOp32
 70
     1
  0
XRECORD
  5
68B8
102
{ACAD_REACTORS
330
68B7
102
}
330
68B7
100
AcDbXrecord
280
     1
102
RTVSPropertyOp0
 70
     1
102
RTVSPropertyOp1
 70
     1
102
RTVSPropertyOp2
 70
     1
102
RTVSPropertyOp3
 70
     1
102
RTVSPropertyOp4
 70
     1
102
RTVSPropertyOp5
 70
     1
102
RTVSPropertyOp6
 70
     1
102
RTVSPropertyOp7
 70
     1
102
RTVSPropertyOp8
 70
     1
102
RTVSPropertyOp9
 70
     1
102
RTVSPropertyOp10
 70
     1
102
RTVSPropertyOp11
 70
     1
102
RTVSPropertyOp12
 70
     1
102
RTVSPropertyOp13
 70
     1
102
RTVSPropertyOp14
 70
     1
102
RTVSPropertyOp15
 70
     1
102
RTVSPropertyOp16
 70
     1
102
RTVSPropertyOp17
 70
     1
102
RTVSPropertyOp18
 70
     1
102
RTVSPropertyOp19
 70
     1
102
RTVSPropertyOp20
 70
     1
102
RTVSPropertyOp21
 70
     1
102
RTVSPropertyOp22
 70
     1
102
RTVSPropertyOp23
 70
     1
102
RTVSPropertyOp24
 70
     1
102
RTVSPropertyOp25
 70
     1
102
RTVSPropertyOp26
 70
     1
102
RTVSPropertyOp27
 70
     1
102
RTVSPropertyOp28
 70
     1
102
RTVSPropertyOp29
 70
     1
102
RTVSPropertyOp30
 70
     1
102
RTVSPropertyOp31
 70
     1
102
RTVSPropertyOp32
 70
     1
  0
XRECORD
  5
68C6
102
{ACAD_REACTORS
330
68C5
102
}
330
68C5
100
AcDbXrecord
280
     1
102
RTVSPropertyOp0
 70
     1
102
RTVSPropertyOp1
 70
     1
102
RTVSPropertyOp2
 70
     1
102
RTVSPropertyOp3
 70
     1
102
RTVSPropertyOp4
 70
     1
102
RTVSPropertyOp5
 70
     1
102
RTVSPropertyOp6
 70
     1
102
RTVSPropertyOp7
 70
     1
102
RTVSPropertyOp8
 70
     1
102
RTVSPropertyOp9
 70
     1
102
RTVSPropertyOp10
 70
     1
102
RTVSPropertyOp11
 70
     1
102
RTVSPropertyOp12
 70
     1
102
RTVSPropertyOp13
 70
     1
102
RTVSPropertyOp14
 70
     1
102
RTVSPropertyOp15
 70
     1
102
RTVSPropertyOp16
 70
     1
102
RTVSPropertyOp17
 70
     1
102
RTVSPropertyOp18
 70
     1
102
RTVSPropertyOp19
 70
     1
102
RTVSPropertyOp20
 70
     1
102
RTVSPropertyOp21
 70
     1
102
RTVSPropertyOp22
 70
     1
102
RTVSPropertyOp23
 70
     1
102
RTVSPropertyOp24
 70
     1
102
RTVSPropertyOp25
 70
     1
102
RTVSPropertyOp26
 70
     1
102
RTVSPropertyOp27
 70
     1
102
RTVSPropertyOp28
 70
     1
102
RTVSPropertyOp29
 70
     1
102
RTVSPropertyOp30
 70
     1
102
RTVSPropertyOp31
 70
     1
102
RTVSPropertyOp32
 70
     1
  0
XRECORD
  5
68CE
102
{ACAD_REACTORS
330
68CD
102
}
330
68CD
100
AcDbXrecord
280
     1
102
RTVSPropertyOp0
 70
     1
102
RTVSPropertyOp1
 70
     1
102
RTVSPropertyOp2
 70
     1
102
RTVSPropertyOp3
 70
     1
102
RTVSPropertyOp4
 70
     1
102
RTVSPropertyOp5
 70
     1
102
RTVSPropertyOp6
 70
     1
102
RTVSPropertyOp7
 70
     1
102
RTVSPropertyOp8
 70
     1
102
RTVSPropertyOp9
 70
     1
102
RTVSPropertyOp10
 70
     1
102
RTVSPropertyOp11
 70
     1
102
RTVSPropertyOp12
 70
     1
102
RTVSPropertyOp13
 70
     1
102
RTVSPropertyOp14
 70
     1
102
RTVSPropertyOp15
 70
     1
102
RTVSPropertyOp16
 70
     1
102
RTVSPropertyOp17
 70
     1
102
RTVSPropertyOp18
 70
     1
102
RTVSPropertyOp19
 70
     1
102
RTVSPropertyOp20
 70
     1
102
RTVSPropertyOp21
 70
     1
102
RTVSPropertyOp22
 70
     1
102
RTVSPropertyOp23
 70
     1
102
RTVSPropertyOp24
 70
     1
102
RTVSPropertyOp25
 70
     1
102
RTVSPropertyOp26
 70
     1
102
RTVSPropertyOp27
 70
     1
102
RTVSPropertyOp28
 70
     1
102
RTVSPropertyOp29
 70
     1
102
RTVSPropertyOp30
 70
     1
102
RTVSPropertyOp31
 70
     1
102
RTVSPropertyOp32
 70
     1
  0
XRECORD
  5
68C0
102
{ACAD_REACTORS
330
68BF
102
}
330
68BF
100
AcDbXrecord
280
     1
102
RTVSPropertyOp0
 70
     1
102
RTVSPropertyOp1
 70
     1
102
RTVSPropertyOp2
 70
     1
102
RTVSPropertyOp3
 70
     1
102
RTVSPropertyOp4
 70
     1
102
RTVSPropertyOp5
 70
     1
102
RTVSPropertyOp6
 70
     1
102
RTVSPropertyOp7
 70
     1
102
RTVSPropertyOp8
 70
     1
102
RTVSPropertyOp9
 70
     1
102
RTVSPropertyOp10
 70
     1
102
RTVSPropertyOp11
 70
     1
102
RTVSPropertyOp12
 70
     1
102
RTVSPropertyOp13
 70
     1
102
RTVSPropertyOp14
 70
     1
102
RTVSPropertyOp15
 70
     1
102
RTVSPropertyOp16
 70
     1
102
RTVSPropertyOp17
 70
     1
102
RTVSPropertyOp18
 70
     1
102
RTVSPropertyOp19
 70
     1
102
RTVSPropertyOp20
 70
     1
102
RTVSPropertyOp21
 70
     1
102
RTVSPropertyOp22
 70
     1
102
RTVSPropertyOp23
 70
     1
102
RTVSPropertyOp24
 70
     1
102
RTVSPropertyOp25
 70
     1
102
RTVSPropertyOp26
 70
     1
102
RTVSPropertyOp27
 70
     1
102
RTVSPropertyOp28
 70
     1
102
RTVSPropertyOp29
 70
     1
102
RTVSPropertyOp30
 70
     1
102
RTVSPropertyOp31
 70
     1
102
RTVSPropertyOp32
 70
     1
  0
XRECORD
  5
68C4
102
{ACAD_REACTORS
330
68C3
102
}
330
68C3
100
AcDbXrecord
280
     1
102
RTVSPropertyOp0
 70
     1
102
RTVSPropertyOp1
 70
     1
102
RTVSPropertyOp2
 70
     1
102
RTVSPropertyOp3
 70
     1
102
RTVSPropertyOp4
 70
     1
102
RTVSPropertyOp5
 70
     1
102
RTVSPropertyOp6
 70
     1
102
RTVSPropertyOp7
 70
     1
102
RTVSPropertyOp8
 70
     1
102
RTVSPropertyOp9
 70
     1
102
RTVSPropertyOp10
 70
     1
102
RTVSPropertyOp11
 70
     1
102
RTVSPropertyOp12
 70
     1
102
RTVSPropertyOp13
 70
     1
102
RTVSPropertyOp14
 70
     1
102
RTVSPropertyOp15
 70
     1
102
RTVSPropertyOp16
 70
     1
102
RTVSPropertyOp17
 70
     1
102
RTVSPropertyOp18
 70
     1
102
RTVSPropertyOp19
 70
     1
102
RTVSPropertyOp20
 70
     1
102
RTVSPropertyOp21
 70
     1
102
RTVSPropertyOp22
 70
     1
102
RTVSPropertyOp23
 70
     1
102
RTVSPropertyOp24
 70
     1
102
RTVSPropertyOp25
 70
     1
102
RTVSPropertyOp26
 70
     1
102
RTVSPropertyOp27
 70
     1
102
RTVSPropertyOp28
 70
     1
102
RTVSPropertyOp29
 70
     1
102
RTVSPropertyOp30
 70
     1
102
RTVSPropertyOp31
 70
     1
102
RTVSPropertyOp32
 70
     1
  0
XRECORD
  5
68DE
102
{ACAD_REACTORS
330
68DD
102
}
330
68DD
100
AcDbXrecord
280
     1
102
RTVSPropertyOp0
 70
     0
102
RTVSPropertyOp1
 70
     0
102
RTVSPropertyOp2
 70
     0
102
RTVSPropertyOp3
 70
     0
102
RTVSPropertyOp4
 70
     0
102
RTVSPropertyOp5
 70
     0
102
RTVSPropertyOp6
 70
     0
102
RTVSPropertyOp7
 70
     0
102
RTVSPropertyOp8
 70
     0
102
RTVSPropertyOp9
 70
     0
102
RTVSPropertyOp10
 70
     0
102
RTVSPropertyOp11
 70
     0
102
RTVSPropertyOp12
 70
     0
102
RTVSPropertyOp13
 70
     0
102
RTVSPropertyOp14
 70
     2
102
RTVSPropertyOp15
 70
     0
102
RTVSPropertyOp16
 70
     0
102
RTVSPropertyOp17
 70
     0
102
RTVSPropertyOp18
 70
     0
102
RTVSPropertyOp19
 70
     0
102
RTVSPropertyOp20
 70
     0
102
RTVSPropertyOp21
 70
     0
102
RTVSPropertyOp22
 70
     0
102
RTVSPropertyOp23
 70
     0
102
RTVSPropertyOp24
 70
     0
102
RTVSPropertyOp25
 70
     0
102
RTVSPropertyOp26
 70
     0
102
RTVSPropertyOp27
 70
     0
102
RTVSPropertyOp28
 70
     1
102
RTVSPropertyOp29
 70
     1
102
RTVSPropertyOp30
 70
     1
102
RTVSPropertyOp31
 70
     1
102
RTVSPropertyOp32
 70
     1
  0
XRECORD
  5
68CC
102
{ACAD_REACTORS
330
68CB
102
}
330
68CB
100
AcDbXrecord
280
     1
102
RTVSPropertyOp0
 70
     1
102
RTVSPropertyOp1
 70
     1
102
RTVSPropertyOp2
 70
     1
102
RTVSPropertyOp3
 70
     1
102
RTVSPropertyOp4
 70
     1
102
RTVSPropertyOp5
 70
     1
102
RTVSPropertyOp6
 70
     1
102
RTVSPropertyOp7
 70
     1
102
RTVSPropertyOp8
 70
     1
102
RTVSPropertyOp9
 70
     1
102
RTVSPropertyOp10
 70
     1
102
RTVSPropertyOp11
 70
     1
102
RTVSPropertyOp12
 70
     1
102
RTVSPropertyOp13
 70
     1
102
RTVSPropertyOp14
 70
     1
102
RTVSPropertyOp15
 70
     1
102
RTVSPropertyOp16
 70
     1
102
RTVSPropertyOp17
 70
     1
102
RTVSPropertyOp18
 70
     1
102
RTVSPropertyOp19
 70
     1
102
RTVSPropertyOp20
 70
     1
102
RTVSPropertyOp21
 70
     1
102
RTVSPropertyOp22
 70
     1
102
RTVSPropertyOp23
 70
     1
102
RTVSPropertyOp24
 70
     1
102
RTVSPropertyOp25
 70
     1
102
RTVSPropertyOp26
 70
     1
102
RTVSPropertyOp27
 70
     1
102
RTVSPropertyOp28
 70
     1
102
RTVSPropertyOp29
 70
     1
102
RTVSPropertyOp30
 70
     1
102
RTVSPropertyOp31
 70
     1
102
RTVSPropertyOp32
 70
     1
  0
XRECORD
  5
68B0
102
{ACAD_REACTORS
330
68AF
102
}
330
68AF
100
AcDbXrecord
280
     1
102
RTVSPropertyOp0
 70
     1
102
RTVSPropertyOp1
 70
     1
102
RTVSPropertyOp2
 70
     1
102
RTVSPropertyOp3
 70
     1
102
RTVSPropertyOp4
 70
     1
102
RTVSPropertyOp5
 70
     1
102
RTVSPropertyOp6
 70
     1
102
RTVSPropertyOp7
 70
     1
102
RTVSPropertyOp8
 70
     1
102
RTVSPropertyOp9
 70
     1
102
RTVSPropertyOp10
 70
     1
102
RTVSPropertyOp11
 70
     1
102
RTVSPropertyOp12
 70
     1
102
RTVSPropertyOp13
 70
     1
102
RTVSPropertyOp14
 70
     1
102
RTVSPropertyOp15
 70
     1
102
RTVSPropertyOp16
 70
     1
102
RTVSPropertyOp17
 70
     1
102
RTVSPropertyOp18
 70
     1
102
RTVSPropertyOp19
 70
     1
102
RTVSPropertyOp20
 70
     1
102
RTVSPropertyOp21
 70
     1
102
RTVSPropertyOp22
 70
     1
102
RTVSPropertyOp23
 70
     1
102
RTVSPropertyOp24
 70
     1
102
RTVSPropertyOp25
 70
     1
102
RTVSPropertyOp26
 70
     1
102
RTVSPropertyOp27
 70
     1
102
RTVSPropertyOp28
 70
     1
102
RTVSPropertyOp29
 70
     1
102
RTVSPropertyOp30
 70
     1
102
RTVSPropertyOp31
 70
     1
102
RTVSPropertyOp32
 70
     1
  0
XRECORD
  5
68B2
102
{ACAD_REACTORS
330
68B1
102
}
330
68B1
100
AcDbXrecord
280
     1
102
RTVSPropertyOp0
 70
     1
102
RTVSPropertyOp1
 70
     1
102
RTVSPropertyOp2
 70
     1
102
RTVSPropertyOp3
 70
     1
102
RTVSPropertyOp4
 70
     1
102
RTVSPropertyOp5
 70
     1
102
RTVSPropertyOp6
 70
     1
102
RTVSPropertyOp7
 70
     1
102
RTVSPropertyOp8
 70
     1
102
RTVSPropertyOp9
 70
     1
102
RTVSPropertyOp10
 70
     1
102
RTVSPropertyOp11
 70
     1
102
RTVSPropertyOp12
 70
     1
102
RTVSPropertyOp13
 70
     1
102
RTVSPropertyOp14
 70
     1
102
RTVSPropertyOp15
 70
     1
102
RTVSPropertyOp16
 70
     1
102
RTVSPropertyOp17
 70
     1
102
RTVSPropertyOp18
 70
     1
102
RTVSPropertyOp19
 70
     1
102
RTVSPropertyOp20
 70
     1
102
RTVSPropertyOp21
 70
     1
102
RTVSPropertyOp22
 70
     1
102
RTVSPropertyOp23
 70
     1
102
RTVSPropertyOp24
 70
     1
102
RTVSPropertyOp25
 70
     1
102
RTVSPropertyOp26
 70
     1
102
RTVSPropertyOp27
 70
     1
102
RTVSPropertyOp28
 70
     1
102
RTVSPropertyOp29
 70
     1
102
RTVSPropertyOp30
 70
     1
102
RTVSPropertyOp31
 70
     1
102
RTVSPropertyOp32
 70
     1
  0
XRECORD
  5
68B4
102
{ACAD_REACTORS
330
68B3
102
}
330
68B3
100
AcDbXrecord
280
     1
102
RTVSPropertyOp0
 70
     1
102
RTVSPropertyOp1
 70
     1
102
RTVSPropertyOp2
 70
     1
102
RTVSPropertyOp3
 70
     1
102
RTVSPropertyOp4
 70
     1
102
RTVSPropertyOp5
 70
     1
102
RTVSPropertyOp6
 70
     1
102
RTVSPropertyOp7
 70
     1
102
RTVSPropertyOp8
 70
     1
102
RTVSPropertyOp9
 70
     1
102
RTVSPropertyOp10
 70
     1
102
RTVSPropertyOp11
 70
     1
102
RTVSPropertyOp12
 70
     1
102
RTVSPropertyOp13
 70
     1
102
RTVSPropertyOp14
 70
     1
102
RTVSPropertyOp15
 70
     1
102
RTVSPropertyOp16
 70
     1
102
RTVSPropertyOp17
 70
     1
102
RTVSPropertyOp18
 70
     1
102
RTVSPropertyOp19
 70
     1
102
RTVSPropertyOp20
 70
     1
102
RTVSPropertyOp21
 70
     1
102
RTVSPropertyOp22
 70
     1
102
RTVSPropertyOp23
 70
     1
102
RTVSPropertyOp24
 70
     1
102
RTVSPropertyOp25
 70
     1
102
RTVSPropertyOp26
 70
     1
102
RTVSPropertyOp27
 70
     1
102
RTVSPropertyOp28
 70
     1
102
RTVSPropertyOp29
 70
     1
102
RTVSPropertyOp30
 70
     1
102
RTVSPropertyOp31
 70
     1
102
RTVSPropertyOp32
 70
     1
  0
XRECORD
  5
68B6
102
{ACAD_REACTORS
330
68B5
102
}
330
68B5
100
AcDbXrecord
280
     1
102
RTVSPropertyOp0
 70
     1
102
RTVSPropertyOp1
 70
     1
102
RTVSPropertyOp2
 70
     1
102
RTVSPropertyOp3
 70
     1
102
RTVSPropertyOp4
 70
     1
102
RTVSPropertyOp5
 70
     1
102
RTVSPropertyOp6
 70
     1
102
RTVSPropertyOp7
 70
     1
102
RTVSPropertyOp8
 70
     1
102
RTVSPropertyOp9
 70
     1
102
RTVSPropertyOp10
 70
     1
102
RTVSPropertyOp11
 70
     1
102
RTVSPropertyOp12
 70
     1
102
RTVSPropertyOp13
 70
     1
102
RTVSPropertyOp14
 70
     1
102
RTVSPropertyOp15
 70
     1
102
RTVSPropertyOp16
 70
     1
102
RTVSPropertyOp17
 70
     1
102
RTVSPropertyOp18
 70
     1
102
RTVSPropertyOp19
 70
     1
102
RTVSPropertyOp20
 70
     1
102
RTVSPropertyOp21
 70
     1
102
RTVSPropertyOp22
 70
     1
102
RTVSPropertyOp23
 70
     1
102
RTVSPropertyOp24
 70
     1
102
RTVSPropertyOp25
 70
     1
102
RTVSPropertyOp26
 70
     1
102
RTVSPropertyOp27
 70
     1
102
RTVSPropertyOp28
 70
     1
102
RTVSPropertyOp29
 70
     1
102
RTVSPropertyOp30
 70
     1
102
RTVSPropertyOp31
 70
     1
102
RTVSPropertyOp32
 70
     1
  0
XRECORD
  5
68BE
102
{ACAD_REACTORS
330
68BD
102
}
330
68BD
100
AcDbXrecord
280
     1
102
RTVSPropertyOp0
 70
     1
102
RTVSPropertyOp1
 70
     1
102
RTVSPropertyOp2
 70
     1
102
RTVSPropertyOp3
 70
     1
102
RTVSPropertyOp4
 70
     1
102
RTVSPropertyOp5
 70
     1
102
RTVSPropertyOp6
 70
     1
102
RTVSPropertyOp7
 70
     1
102
RTVSPropertyOp8
 70
     1
102
RTVSPropertyOp9
 70
     1
102
RTVSPropertyOp10
 70
     1
102
RTVSPropertyOp11
 70
     1
102
RTVSPropertyOp12
 70
     1
102
RTVSPropertyOp13
 70
     1
102
RTVSPropertyOp14
 70
     1
102
RTVSPropertyOp15
 70
     1
102
RTVSPropertyOp16
 70
     1
102
RTVSPropertyOp17
 70
     1
102
RTVSPropertyOp18
 70
     1
102
RTVSPropertyOp19
 70
     1
102
RTVSPropertyOp20
 70
     1
102
RTVSPropertyOp21
 70
     1
102
RTVSPropertyOp22
 70
     1
102
RTVSPropertyOp23
 70
     1
102
RTVSPropertyOp24
 70
     1
102
RTVSPropertyOp25
 70
     1
102
RTVSPropertyOp26
 70
     1
102
RTVSPropertyOp27
 70
     1
102
RTVSPropertyOp28
 70
     1
102
RTVSPropertyOp29
 70
     1
102
RTVSPropertyOp30
 70
     1
102
RTVSPropertyOp31
 70
     1
102
RTVSPropertyOp32
 70
     1
  0
XRECORD
  5
68DA
102
{ACAD_REACTORS
330
68D9
102
}
330
68D9
100
AcDbXrecord
280
     1
102
RTVSPropertyOp0
 70
     0
102
RTVSPropertyOp1
 70
     0
102
RTVSPropertyOp2
 70
     0
102
RTVSPropertyOp3
 70
     0
102
RTVSPropertyOp4
 70
     0
102
RTVSPropertyOp5
 70
     0
102
RTVSPropertyOp6
 70
     0
102
RTVSPropertyOp7
 70
     0
102
RTVSPropertyOp8
 70
     0
102
RTVSPropertyOp9
 70
     0
102
RTVSPropertyOp10
 70
     0
102
RTVSPropertyOp11
 70
     0
102
RTVSPropertyOp12
 70
     0
102
RTVSPropertyOp13
 70
     0
102
RTVSPropertyOp14
 70
     2
102
RTVSPropertyOp15
 70
     0
102
RTVSPropertyOp16
 70
     0
102
RTVSPropertyOp17
 70
     0
102
RTVSPropertyOp18
 70
     0
102
RTVSPropertyOp19
 70
     0
102
RTVSPropertyOp20
 70
     0
102
RTVSPropertyOp21
 70
     0
102
RTVSPropertyOp22
 70
     0
102
RTVSPropertyOp23
 70
     0
102
RTVSPropertyOp24
 70
     0
102
RTVSPropertyOp25
 70
     0
102
RTVSPropertyOp26
 70
     0
102
RTVSPropertyOp27
 70
     0
102
RTVSPropertyOp28
 70
     1
102
RTVSPropertyOp29
 70
     1
102
RTVSPropertyOp30
 70
     1
102
RTVSPropertyOp31
 70
     1
102
RTVSPropertyOp32
 70
     1
  0
XRECORD
  5
68CA
102
{ACAD_REACTORS
330
68C9
102
}
330
68C9
100
AcDbXrecord
280
     1
102
RTVSPropertyOp0
 70
     1
102
RTVSPropertyOp1
 70
     1
102
RTVSPropertyOp2
 70
     1
102
RTVSPropertyOp3
 70
     1
102
RTVSPropertyOp4
 70
     1
102
RTVSPropertyOp5
 70
     1
102
RTVSPropertyOp6
 70
     1
102
RTVSPropertyOp7
 70
     1
102
RTVSPropertyOp8
 70
     1
102
RTVSPropertyOp9
 70
     1
102
RTVSPropertyOp10
 70
     1
102
RTVSPropertyOp11
 70
     1
102
RTVSPropertyOp12
 70
     1
102
RTVSPropertyOp13
 70
     1
102
RTVSPropertyOp14
 70
     1
102
RTVSPropertyOp15
 70
     1
102
RTVSPropertyOp16
 70
     1
102
RTVSPropertyOp17
 70
     1
102
RTVSPropertyOp18
 70
     1
102
RTVSPropertyOp19
 70
     1
102
RTVSPropertyOp20
 70
     1
102
RTVSPropertyOp21
 70
     1
102
RTVSPropertyOp22
 70
     1
102
RTVSPropertyOp23
 70
     1
102
RTVSPropertyOp24
 70
     1
102
RTVSPropertyOp25
 70
     1
102
RTVSPropertyOp26
 70
     1
102
RTVSPropertyOp27
 70
     1
102
RTVSPropertyOp28
 70
     1
102
RTVSPropertyOp29
 70
     1
102
RTVSPropertyOp30
 70
     1
102
RTVSPropertyOp31
 70
     1
102
RTVSPropertyOp32
 70
     1
  0
XRECORD
  5
68DC
102
{ACAD_REACTORS
330
68DB
102
}
330
68DB
100
AcDbXrecord
280
     1
102
RTVSPropertyOp0
 70
     0
102
RTVSPropertyOp1
 70
     0
102
RTVSPropertyOp2
 70
     0
102
RTVSPropertyOp3
 70
     0
102
RTVSPropertyOp4
 70
     0
102
RTVSPropertyOp5
 70
     0
102
RTVSPropertyOp6
 70
     0
102
RTVSPropertyOp7
 70
     0
102
RTVSPropertyOp8
 70
     0
102
RTVSPropertyOp9
 70
     0
102
RTVSPropertyOp10
 70
     0
102
RTVSPropertyOp11
 70
     0
102
RTVSPropertyOp12
 70
     0
102
RTVSPropertyOp13
 70
     0
102
RTVSPropertyOp14
 70
     2
102
RTVSPropertyOp15
 70
     0
102
RTVSPropertyOp16
 70
     0
102
RTVSPropertyOp17
 70
     0
102
RTVSPropertyOp18
 70
     0
102
RTVSPropertyOp19
 70
     0
102
RTVSPropertyOp20
 70
     0
102
RTVSPropertyOp21
 70
     0
102
RTVSPropertyOp22
 70
     0
102
RTVSPropertyOp23
 70
     0
102
RTVSPropertyOp24
 70
     0
102
RTVSPropertyOp25
 70
     0
102
RTVSPropertyOp26
 70
     0
102
RTVSPropertyOp27
 70
     0
102
RTVSPropertyOp28
 70
     1
102
RTVSPropertyOp29
 70
     1
102
RTVSPropertyOp30
 70
     1
102
RTVSPropertyOp31
 70
     1
102
RTVSPropertyOp32
 70
     1
  0
XRECORD
  5
68C2
102
{ACAD_REACTORS
330
68C1
102
}
330
68C1
100
AcDbXrecord
280
     1
102
RTVSPropertyOp0
 70
     1
102
RTVSPropertyOp1
 70
     1
102
RTVSPropertyOp2
 70
     1
102
RTVSPropertyOp3
 70
     1
102
RTVSPropertyOp4
 70
     1
102
RTVSPropertyOp5
 70
     1
102
RTVSPropertyOp6
 70
     1
102
RTVSPropertyOp7
 70
     1
102
RTVSPropertyOp8
 70
     1
102
RTVSPropertyOp9
 70
     1
102
RTVSPropertyOp10
 70
     1
102
RTVSPropertyOp11
 70
     1
102
RTVSPropertyOp12
 70
     1
102
RTVSPropertyOp13
 70
     1
102
RTVSPropertyOp14
 70
     1
102
RTVSPropertyOp15
 70
     1
102
RTVSPropertyOp16
 70
     1
102
RTVSPropertyOp17
 70
     1
102
RTVSPropertyOp18
 70
     1
102
RTVSPropertyOp19
 70
     1
102
RTVSPropertyOp20
 70
     1
102
RTVSPropertyOp21
 70
     1
102
RTVSPropertyOp22
 70
     1
102
RTVSPropertyOp23
 70
     1
102
RTVSPropertyOp24
 70
     1
102
RTVSPropertyOp25
 70
     1
102
RTVSPropertyOp26
 70
     1
102
RTVSPropertyOp27
 70
     1
102
RTVSPropertyOp28
 70
     1
102
RTVSPropertyOp29
 70
     1
102
RTVSPropertyOp30
 70
     1
102
RTVSPropertyOp31
 70
     1
102
RTVSPropertyOp32
 70
     1
  0
XRECORD
  5
68D8
102
{ACAD_REACTORS
330
68D7
102
}
330
68D7
100
AcDbXrecord
280
     1
102
RTVSPropertyOp0
 70
     1
102
RTVSPropertyOp1
 70
     1
102
RTVSPropertyOp2
 70
     1
102
RTVSPropertyOp3
 70
     1
102
RTVSPropertyOp4
 70
     1
102
RTVSPropertyOp5
 70
     1
102
RTVSPropertyOp6
 70
     1
102
RTVSPropertyOp7
 70
     1
102
RTVSPropertyOp8
 70
     1
102
RTVSPropertyOp9
 70
     1
102
RTVSPropertyOp10
 70
     1
102
RTVSPropertyOp11
 70
     1
102
RTVSPropertyOp12
 70
     1
102
RTVSPropertyOp13
 70
     1
102
RTVSPropertyOp14
 70
     1
102
RTVSPropertyOp15
 70
     1
102
RTVSPropertyOp16
 70
     1
102
RTVSPropertyOp17
 70
     1
102
RTVSPropertyOp18
 70
     1
102
RTVSPropertyOp19
 70
     1
102
RTVSPropertyOp20
 70
     1
102
RTVSPropertyOp21
 70
     1
102
RTVSPropertyOp22
 70
     1
102
RTVSPropertyOp23
 70
     1
102
RTVSPropertyOp24
 70
     1
102
RTVSPropertyOp25
 70
     1
102
RTVSPropertyOp26
 70
     1
102
RTVSPropertyOp27
 70
     1
102
RTVSPropertyOp28
 70
     1
102
RTVSPropertyOp29
 70
     1
102
RTVSPropertyOp30
 70
     1
102
RTVSPropertyOp31
 70
     1
102
RTVSPropertyOp32
 70
     1
  0
XRECORD
  5
68D6
102
{ACAD_REACTORS
330
68D5
102
}
330
68D5
100
AcDbXrecord
280
     1
102
RTVSPropertyOp0
 70
     1
102
RTVSPropertyOp1
 70
     1
102
RTVSPropertyOp2
 70
     1
102
RTVSPropertyOp3
 70
     1
102
RTVSPropertyOp4
 70
     1
102
RTVSPropertyOp5
 70
     1
102
RTVSPropertyOp6
 70
     1
102
RTVSPropertyOp7
 70
     1
102
RTVSPropertyOp8
 70
     1
102
RTVSPropertyOp9
 70
     1
102
RTVSPropertyOp10
 70
     1
102
RTVSPropertyOp11
 70
     1
102
RTVSPropertyOp12
 70
     1
102
RTVSPropertyOp13
 70
     1
102
RTVSPropertyOp14
 70
     1
102
RTVSPropertyOp15
 70
     1
102
RTVSPropertyOp16
 70
     1
102
RTVSPropertyOp17
 70
     1
102
RTVSPropertyOp18
 70
     1
102
RTVSPropertyOp19
 70
     1
102
RTVSPropertyOp20
 70
     1
102
RTVSPropertyOp21
 70
     1
102
RTVSPropertyOp22
 70
     1
102
RTVSPropertyOp23
 70
     1
102
RTVSPropertyOp24
 70
     1
102
RTVSPropertyOp25
 70
     1
102
RTVSPropertyOp26
 70
     1
102
RTVSPropertyOp27
 70
     1
102
RTVSPropertyOp28
 70
     1
102
RTVSPropertyOp29
 70
     1
102
RTVSPropertyOp30
 70
     1
102
RTVSPropertyOp31
 70
     1
102
RTVSPropertyOp32
 70
     1
  0
XRECORD
  5
68D0
102
{ACAD_REACTORS
330
68CF
102
}
330
68CF
100
AcDbXrecord
280
     1
102
RTVSPropertyOp0
 70
     1
102
RTVSPropertyOp1
 70
     1
102
RTVSPropertyOp2
 70
     1
102
RTVSPropertyOp3
 70
     1
102
RTVSPropertyOp4
 70
     1
102
RTVSPropertyOp5
 70
     1
102
RTVSPropertyOp6
 70
     1
102
RTVSPropertyOp7
 70
     1
102
RTVSPropertyOp8
 70
     1
102
RTVSPropertyOp9
 70
     1
102
RTVSPropertyOp10
 70
     1
102
RTVSPropertyOp11
 70
     1
102
RTVSPropertyOp12
 70
     1
102
RTVSPropertyOp13
 70
     1
102
RTVSPropertyOp14
 70
     1
102
RTVSPropertyOp15
 70
     1
102
RTVSPropertyOp16
 70
     1
102
RTVSPropertyOp17
 70
     1
102
RTVSPropertyOp18
 70
     1
102
RTVSPropertyOp19
 70
     1
102
RTVSPropertyOp20
 70
     1
102
RTVSPropertyOp21
 70
     1
102
RTVSPropertyOp22
 70
     1
102
RTVSPropertyOp23
 70
     1
102
RTVSPropertyOp24
 70
     1
102
RTVSPropertyOp25
 70
     1
102
RTVSPropertyOp26
 70
     1
102
RTVSPropertyOp27
 70
     1
102
RTVSPropertyOp28
 70
     1
102
RTVSPropertyOp29
 70
     1
102
RTVSPropertyOp30
 70
     1
102
RTVSPropertyOp31
 70
     1
102
RTVSPropertyOp32
 70
     1
  0
XRECORD
  5
68D2
102
{ACAD_REACTORS
330
68D1
102
}
330
68D1
100
AcDbXrecord
280
     1
102
RTVSPropertyOp0
 70
     1
102
RTVSPropertyOp1
 70
     1
102
RTVSPropertyOp2
 70
     1
102
RTVSPropertyOp3
 70
     1
102
RTVSPropertyOp4
 70
     1
102
RTVSPropertyOp5
 70
     1
102
RTVSPropertyOp6
 70
     1
102
RTVSPropertyOp7
 70
     1
102
RTVSPropertyOp8
 70
     1
102
RTVSPropertyOp9
 70
     1
102
RTVSPropertyOp10
 70
     1
102
RTVSPropertyOp11
 70
     1
102
RTVSPropertyOp12
 70
     1
102
RTVSPropertyOp13
 70
     1
102
RTVSPropertyOp14
 70
     1
102
RTVSPropertyOp15
 70
     1
102
RTVSPropertyOp16
 70
     1
102
RTVSPropertyOp17
 70
     1
102
RTVSPropertyOp18
 70
     1
102
RTVSPropertyOp19
 70
     1
102
RTVSPropertyOp20
 70
     1
102
RTVSPropertyOp21
 70
     1
102
RTVSPropertyOp22
 70
     1
102
RTVSPropertyOp23
 70
     1
102
RTVSPropertyOp24
 70
     1
102
RTVSPropertyOp25
 70
     1
102
RTVSPropertyOp26
 70
     1
102
RTVSPropertyOp27
 70
     1
102
RTVSPropertyOp28
 70
     1
102
RTVSPropertyOp29
 70
     1
102
RTVSPropertyOp30
 70
     1
102
RTVSPropertyOp31
 70
     1
102
RTVSPropertyOp32
 70
     1
  0
XRECORD
  5
68C8
102
{ACAD_REACTORS
330
68C7
102
}
330
68C7
100
AcDbXrecord
280
     1
102
RTVSPropertyOp0
 70
     1
102
RTVSPropertyOp1
 70
     1
102
RTVSPropertyOp2
 70
     1
102
RTVSPropertyOp3
 70
     1
102
RTVSPropertyOp4
 70
     1
102
RTVSPropertyOp5
 70
     1
102
RTVSPropertyOp6
 70
     1
102
RTVSPropertyOp7
 70
     1
102
RTVSPropertyOp8
 70
     1
102
RTVSPropertyOp9
 70
     1
102
RTVSPropertyOp10
 70
     1
102
RTVSPropertyOp11
 70
     1
102
RTVSPropertyOp12
 70
     1
102
RTVSPropertyOp13
 70
     1
102
RTVSPropertyOp14
 70
     1
102
RTVSPropertyOp15
 70
     1
102
RTVSPropertyOp16
 70
     1
102
RTVSPropertyOp17
 70
     1
102
RTVSPropertyOp18
 70
     1
102
RTVSPropertyOp19
 70
     1
102
RTVSPropertyOp20
 70
     1
102
RTVSPropertyOp21
 70
     1
102
RTVSPropertyOp22
 70
     1
102
RTVSPropertyOp23
 70
     1
102
RTVSPropertyOp24
 70
     1
102
RTVSPropertyOp25
 70
     1
102
RTVSPropertyOp26
 70
     1
102
RTVSPropertyOp27
 70
     1
102
RTVSPropertyOp28
 70
     1
102
RTVSPropertyOp29
 70
     1
102
RTVSPropertyOp30
 70
     1
102
RTVSPropertyOp31
 70
     1
102
RTVSPropertyOp32
 70
     1
  0
XRECORD
  5
68BC
102
{ACAD_REACTORS
330
68BB
102
}
330
68BB
100
AcDbXrecord
280
     1
102
RTVSPropertyOp0
 70
     1
102
RTVSPropertyOp1
 70
     1
102
RTVSPropertyOp2
 70
     1
102
RTVSPropertyOp3
 70
     1
102
RTVSPropertyOp4
 70
     1
102
RTVSPropertyOp5
 70
     1
102
RTVSPropertyOp6
 70
     1
102
RTVSPropertyOp7
 70
     1
102
RTVSPropertyOp8
 70
     1
102
RTVSPropertyOp9
 70
     1
102
RTVSPropertyOp10
 70
     1
102
RTVSPropertyOp11
 70
     1
102
RTVSPropertyOp12
 70
     1
102
RTVSPropertyOp13
 70
     1
102
RTVSPropertyOp14
 70
     1
102
RTVSPropertyOp15
 70
     1
102
RTVSPropertyOp16
 70
     1
102
RTVSPropertyOp17
 70
     1
102
RTVSPropertyOp18
 70
     1
102
RTVSPropertyOp19
 70
     1
102
RTVSPropertyOp20
 70
     1
102
RTVSPropertyOp21
 70
     1
102
RTVSPropertyOp22
 70
     1
102
RTVSPropertyOp23
 70
     1
102
RTVSPropertyOp24
 70
     1
102
RTVSPropertyOp25
 70
     1
102
RTVSPropertyOp26
 70
     1
102
RTVSPropertyOp27
 70
     1
102
RTVSPropertyOp28
 70
     1
102
RTVSPropertyOp29
 70
     1
102
RTVSPropertyOp30
 70
     1
102
RTVSPropertyOp31
 70
     1
102
RTVSPropertyOp32
 70
     1
  0
XRECORD
  5
68D4
102
{ACAD_REACTORS
330
68D3
102
}
330
68D3
100
AcDbXrecord
280
     1
102
RTVSPropertyOp0
 70
     1
102
RTVSPropertyOp1
 70
     1
102
RTVSPropertyOp2
 70
     1
102
RTVSPropertyOp3
 70
     1
102
RTVSPropertyOp4
 70
     1
102
RTVSPropertyOp5
 70
     1
102
RTVSPropertyOp6
 70
     1
102
RTVSPropertyOp7
 70
     1
102
RTVSPropertyOp8
 70
     1
102
RTVSPropertyOp9
 70
     1
102
RTVSPropertyOp10
 70
     1
102
RTVSPropertyOp11
 70
     1
102
RTVSPropertyOp12
 70
     1
102
RTVSPropertyOp13
 70
     1
102
RTVSPropertyOp14
 70
     1
102
RTVSPropertyOp15
 70
     1
102
RTVSPropertyOp16
 70
     1
102
RTVSPropertyOp17
 70
     1
102
RTVSPropertyOp18
 70
     1
102
RTVSPropertyOp19
 70
     1
102
RTVSPropertyOp20
 70
     1
102
RTVSPropertyOp21
 70
     1
102
RTVSPropertyOp22
 70
     1
102
RTVSPropertyOp23
 70
     1
102
RTVSPropertyOp24
 70
     1
102
RTVSPropertyOp25
 70
     1
102
RTVSPropertyOp26
 70
     1
102
RTVSPropertyOp27
 70
     1
102
RTVSPropertyOp28
 70
     1
102
RTVSPropertyOp29
 70
     1
102
RTVSPropertyOp30
 70
     1
102
RTVSPropertyOp31
 70
     1
102
RTVSPropertyOp32
 70
     1
  0
ENDSEC
  0
EOF
