  0
SECTION
  2
HEADER
  9
$ACADVER
  1
AC1015
  9
$ACADMAINTVER
 70
    20
  9
$DWGCODEPAGE
  3
ANSI_1252
  9
$INSBASE
 10
0.0599999999999881
 20
0.06
 30
0.0
  9
$EXTMIN
 10
-0.0000000000000142
 20
-0.0000000000000036
 30
0.0
  9
$EXTMAX
 10
44.05826687614456
 20
23.76618448075539
 30
0.0
  9
$LIMMIN
 10
0.0
 20
0.0
  9
$LIMMAX
 10
44.05826687614454
 20
18.84016876750172
  9
$ORTHOMODE
 70
     0
  9
$REGENMODE
 70
     1
  9
$FILLMODE
 70
     1
  9
$QTEXTMODE
 70
     0
  9
$MIRRTEXT
 70
     0
  9
$LTSCALE
 40
2.0
  9
$ATTMODE
 70
     1
  9
$TEXTSIZE
 40
0.25
  9
$TRACEWID
 40
0.05
  9
$TEXTSTYLE
  7
ROMAND
  9
$CLAYER
  8
0
  9
$CELTYPE
  6
BYLAYER
  9
$CECOLOR
 62
   256
  9
$CELTSCALE
 40
1.0
  9
$DISPSILH
 70
     0
  9
$DIMSCALE
 40
2.0
  9
$DIMASZ
 40
0.125
  9
$DIMEXO
 40
0.125
  9
$DIMDLI
 40
0.0
  9
$DIMRND
 40
0.0
  9
$DIMDLE
 40
0.0
  9
$DIMEXE
 40
0.0625
  9
$DIMTP
 40
0.0
  9
$DIMTM
 40
0.0
  9
$DIMTXT
 40
0.125
  9
$DIMCEN
 40
0.0625
  9
$DIMTSZ
 40
0.0
  9
$DIMTOL
 70
     0
  9
$DIMLIM
 70
     0
  9
$DIMTIH
 70
     0
  9
$DIMTOH
 70
     0
  9
$DIMSE1
 70
     0
  9
$DIMSE2
 70
     0
  9
$DIMTAD
 70
     1
  9
$DIMZIN
 70
     1
  9
$DIMBLK
  1

  9
$DIMASO
 70
     1
  9
$DIMSHO
 70
     0
  9
$DIMPOST
  1
"
  9
$DIMAPOST
  1

  9
$DIMALT
 70
     0
  9
$DIMALTD
 70
     2
  9
$DIMALTF
 40
25.4
  9
$DIMLFAC
 40
1.0
  9
$DIMTOFL
 70
     1
  9
$DIMTVP
 40
0.0
  9
$DIMTIX
 70
     1
  9
$DIMSOXD
 70
     0
  9
$DIMSAH
 70
     1
  9
$DIMBLK1
  1
OBLIQUE
  9
$DIMBLK2
  1
OBLIQUE
  9
$DIMSTYLE
  2
STANDARD
  9
$DIMCLRD
 70
     0
  9
$DIMCLRE
 70
     0
  9
$DIMCLRT
 70
     0
  9
$DIMTFAC
 40
1.0
  9
$DIMGAP
 40
0.0625
  9
$DIMJUST
 70
     0
  9
$DIMSD1
 70
     0
  9
$DIMSD2
 70
     0
  9
$DIMTOLJ
 70
     1
  9
$DIMTZIN
 70
     8
  9
$DIMALTZ
 70
     8
  9
$DIMALTTZ
 70
     8
  9
$DIMUPT
 70
     0
  9
$DIMDEC
 70
     5
  9
$DIMTDEC
 70
     5
  9
$DIMALTU
 70
     2
  9
$DIMALTTD
 70
     2
  9
$DIMTXSTY
  7
ROMAND
  9
$DIMAUNIT
 70
     1
  9
$DIMADEC
 70
     1
  9
$DIMALTRND
 40
0.0
  9
$DIMAZIN
 70
     0
  9
$DIMDSEP
 70
    46
  9
$DIMATFIT
 70
     3
  9
$DIMFRAC
 70
     2
  9
$DIMLDRBLK
  1

  9
$DIMLUNIT
 70
     5
  9
$DIMLWD
 70
    -2
  9
$DIMLWE
 70
    -2
  9
$DIMTMOVE
 70
     2
  9
$LUNITS
 70
     2
  9
$LUPREC
 70
     5
  9
$SKETCHINC
 40
0.1
  9
$FILLETRAD
 40
0.0
  9
$AUNITS
 70
     1
  9
$AUPREC
 70
     4
  9
$MENU
  1
acad
  9
$ELEVATION
 40
0.0
  9
$PELEVATION
 40
0.0
  9
$THICKNESS
 40
0.0
  9
$LIMCHECK
 70
     0
  9
$CHAMFERA
 40
0.0
  9
$CHAMFERB
 40
0.0
  9
$CHAMFERC
 40
0.0
  9
$CHAMFERD
 40
0.0
  9
$SKPOLY
 70
     0
  9
$TDCREATE
 40
2450525.426291088
  9
$TDUCREATE
 40
2450525.634624421
  9
$TDUPDATE
 40
2457809.478597106
  9
$TDUUPDATE
 40
2457809.686930440
  9
$TDINDWG
 40
3.6230213426
  9
$TDUSRTIMER
 40
3.6230213426
  9
$USRTIMER
 70
     1
  9
$ANGBASE
 50
0.0
  9
$ANGDIR
 70
     0
  9
$PDMODE
 70
     0
  9
$PDSIZE
 40
0.0
  9
$PLINEWID
 40
0.0
  9
$SPLFRAME
 70
     0
  9
$SPLINETYPE
 70
     6
  9
$SPLINESEGS
 70
     8
  9
$HANDSEED
  5
81B0
  9
$SURFTAB1
 70
     6
  9
$SURFTAB2
 70
     6
  9
$SURFTYPE
 70
     6
  9
$SURFU
 70
     6
  9
$SURFV
 70
     6
  9
$UCSBASE
  2

  9
$UCSNAME
  2

  9
$UCSORG
 10
0.0
 20
0.0
 30
0.0
  9
$UCSXDIR
 10
1.0
 20
0.0
 30
0.0
  9
$UCSYDIR
 10
0.0
 20
1.0
 30
0.0
  9
$UCSORTHOREF
  2

  9
$UCSORTHOVIEW
 70
     0
  9
$UCSORGTOP
 10
0.0
 20
0.0
 30
0.0
  9
$UCSORGBOTTOM
 10
0.0
 20
0.0
 30
0.0
  9
$UCSORGLEFT
 10
0.0
 20
0.0
 30
0.0
  9
$UCSORGRIGHT
 10
0.0
 20
0.0
 30
0.0
  9
$UCSORGFRONT
 10
0.0
 20
0.0
 30
0.0
  9
$UCSORGBACK
 10
0.0
 20
0.0
 30
0.0
  9
$PUCSBASE
  2

  9
$PUCSNAME
  2

  9
$PUCSORG
 10
0.0
 20
0.0
 30
0.0
  9
$PUCSXDIR
 10
1.0
 20
0.0
 30
0.0
  9
$PUCSYDIR
 10
0.0
 20
1.0
 30
0.0
  9
$PUCSORTHOREF
  2

  9
$PUCSORTHOVIEW
 70
     0
  9
$PUCSORGTOP
 10
0.0
 20
0.0
 30
0.0
  9
$PUCSORGBOTTOM
 10
0.0
 20
0.0
 30
0.0
  9
$PUCSORGLEFT
 10
0.0
 20
0.0
 30
0.0
  9
$PUCSORGRIGHT
 10
0.0
 20
0.0
 30
0.0
  9
$PUCSORGFRONT
 10
0.0
 20
0.0
 30
0.0
  9
$PUCSORGBACK
 10
0.0
 20
0.0
 30
0.0
  9
$USERI1
 70
     0
  9
$USERI2
 70
     0
  9
$USERI3
 70
     0
  9
$USERI4
 70
     0
  9
$USERI5
 70
     0
  9
$USERR1
 40
0.0
  9
$USERR2
 40
0.0
  9
$USERR3
 40
0.0
  9
$USERR4
 40
0.0
  9
$USERR5
 40
0.0
  9
$WORLDVIEW
 70
     0
  9
$SHADEDGE
 70
     3
  9
$SHADEDIF
 70
    70
  9
$TILEMODE
 70
     1
  9
$MAXACTVP
 70
    16
  9
$PINSBASE
 10
0.0
 20
0.0
 30
0.0
  9
$PLIMCHECK
 70
     0
  9
$PEXTMIN
 10
1.000000000000000E+20
 20
1.000000000000000E+20
 30
1.000000000000000E+20
  9
$PEXTMAX
 10
-1.000000000000000E+20
 20
-1.000000000000000E+20
 30
-1.000000000000000E+20
  9
$PLIMMIN
 10
0.0
 20
0.0
  9
$PLIMMAX
 10
12.0
 20
9.0
  9
$UNITMODE
 70
     0
  9
$VISRETAIN
 70
     0
  9
$PLINEGEN
 70
     0
  9
$PSLTSCALE
 70
     0
  9
$TREEDEPTH
 70
  3020
  9
$CMLSTYLE
  2
STANDARD
  9
$CMLJUST
 70
     0
  9
$CMLSCALE
 40
1.0
  9
$PROXYGRAPHICS
 70
     1
  9
$MEASUREMENT
 70
     0
  9
$CELWEIGHT
370
    -1
  9
$ENDCAPS
280
     0
  9
$JOINSTYLE
280
     0
  9
$LWDISPLAY
290
     0
  9
$INSUNITS
 70
     0
  9
$HYPERLINKBASE
  1

  9
$STYLESHEET
  1
hp5000n.ctb
  9
$XEDIT
290
     1
  9
$CEPSNTYPE
380
     0
  9
$PSTYLEMODE
290
     1
  9
$FINGERPRINTGUID
  2

  9
$VERSIONGUID
  2
{86A70DE5-1E80-449B-BE57-8021DB7FC48E}
  9
$EXTNAMES
290
     1
  9
$PSVPSCALE
 40
0.0
  9
$OLESTARTUP
290
     0
  0
ENDSEC
  0
SECTION
  2
CLASSES
  0
CLASS
  1
DICTIONARYVAR
  2
AcDbDictionaryVar
  3
ObjectDBX Classes
 90
        0
280
     0
281
     0
  0
CLASS
  1
ACDBDICTIONARYWDFLT
  2
AcDbDictionaryWithDefault
  3
ObjectDBX Classes
 90
        0
280
     0
281
     0
  0
CLASS
  1
ACDBPLACEHOLDER
  2
AcDbPlaceHolder
  3
ObjectDBX Classes
 90
        0
280
     0
281
     0
  0
CLASS
  1
LAYOUT
  2
AcDbLayout
  3
ObjectDBX Classes
 90
        0
280
     0
281
     0
  0
CLASS
  1
PLOTSETTINGS
  2
AcDbPlotSettings
  3
ObjectDBX Classes
 90
    32768
280
     0
281
     0
  0
CLASS
  1
TABLESTYLE
  2
AcDbTableStyle
  3
ObjectDBX Classes
 90
     4095
280
     0
281
     0
  0
CLASS
  1
MATERIAL
  2
AcDbMaterial
  3
ObjectDBX Classes
 90
     1153
280
     0
281
     0
  0
CLASS
  1
VISUALSTYLE
  2
AcDbVisualStyle
  3
ObjectDBX Classes
 90
     4095
280
     0
281
     0
  0
CLASS
  1
SCALE
  2
AcDbScale
  3
ObjectDBX Classes
 90
     1153
280
     0
281
     0
  0
CLASS
  1
MLEADERSTYLE
  2
AcDbMLeaderStyle
  3
ACDB_MLEADERSTYLE_CLASS
 90
     4095
280
     0
281
     0
  0
CLASS
  1
SORTENTSTABLE
  2
AcDbSortentsTable
  3
ObjectDBX Classes
 90
        0
280
     0
281
     0
  0
CLASS
  1
CELLSTYLEMAP
  2
AcDbCellStyleMap
  3
ObjectDBX Classes
 90
     1152
280
     0
281
     0
  0
CLASS
  1
EXACXREFPANELOBJECT
  2
ExAcXREFPanelObject
  3
EXAC_ESW
 90
     1025
280
     0
281
     0
  0
CLASS
  1
NPOCOLLECTION
  2
AcDbImpNonPersistentObjectsCollection
  3
ObjectDBX Classes
 90
     1153
280
     0
281
     0
  0
CLASS
  1
FIELD
  2
AcDbField
  3
ObjectDBX Classes
 90
    33920
280
     0
281
     0
  0
CLASS
  1
FIELDLIST
  2
AcDbFieldList
  3
ObjectDBX Classes
 90
     1152
280
     0
281
     0
  0
ENDSEC
  0
SECTION
  2
TABLES
  0
TABLE
  2
VPORT
  5
3C
102
{ACAD_XDICTIONARY
360
7E9D
102
}
330
0
100
AcDbSymbolTable
 70
     1
  0
VPORT
  5
7E20
330
3C
100
AcDbSymbolTableRecord
100
AcDbViewportTableRecord
  2
*Active
 70
     0
 10
0.0
 20
0.0
 11
1.0
 21
1.0
 12
46.50853264630062
 22
13.4164444141945
 13
0.0
 23
0.0
 14
1.0
 24
1.0
 15
0.0
 25
0.0
 16
0.0
 26
0.0
 36
1.0
 17
0.0
 27
0.0
 37
0.0
 40
26.99863169870823
 41
3.716019417475727
 42
50.0
 43
0.0
 44
0.0
 50
0.0
 51
0.0
 71
     0
 72
   100
 73
     1
 74
     0
 75
     0
 76
     0
 77
     0
 78
     0
281
     0
 65
     1
110
0.0
120
0.0
130
0.0
111
1.0
121
0.0
131
0.0
112
0.0
122
1.0
132
0.0
 79
     0
146
0.0
1001
ACAD_NAV_VCDISPLAY
1070
     3
  0
ENDTAB
  0
TABLE
  2
LTYPE
  5
37
330
0
100
AcDbSymbolTable
 70
     4
  0
LTYPE
  5
38
330
37
100
AcDbSymbolTableRecord
100
AcDbLinetypeTableRecord
  2
BYBLOCK
 70
     0
  3

 72
    65
 73
     0
 40
0.0
  0
LTYPE
  5
39
330
37
100
AcDbSymbolTableRecord
100
AcDbLinetypeTableRecord
  2
BYLAYER
 70
     0
  3

 72
    65
 73
     0
 40
0.0
  0
LTYPE
  5
A
330
37
100
AcDbSymbolTableRecord
100
AcDbLinetypeTableRecord
  2
CONTINUOUS
 70
     0
  3
Solid line
 72
    65
 73
     0
 40
0.0
  0
LTYPE
  5
193
330
37
100
AcDbSymbolTableRecord
100
AcDbLinetypeTableRecord
  2
HIDDEN2
 70
     0
  3
_ _ _ _ _ _ _ _ _ _ _ _ _ _ _ _ _ _ _ _ _ _ _ _
 72
    65
 73
     2
 40
0.1875
 49
0.125
 74
     0
 49
-0.0625
 74
     0
  0
LTYPE
  5
80F5
330
37
100
AcDbSymbolTableRecord
100
AcDbLinetypeTableRecord
  2
DASHED
 70
     0
  3
Dashed __ __ __ __ __ __ __ __ __ __ __ __ __ _
 72
    65
 73
     2
 40
0.75
 49
0.5
 74
     0
 49
-0.25
 74
     0
  0
LTYPE
  5
80F6
330
37
100
AcDbSymbolTableRecord
100
AcDbLinetypeTableRecord
  2
DOT
 70
     0
  3
Dot . . . . . . . . . . . . . . . . . . . . . .
 72
    65
 73
     2
 40
0.25
 49
0.0
 74
     0
 49
-0.25
 74
     0
  0
ENDTAB
  0
TABLE
  2
LAYER
  5
14
102
{ACAD_XDICTIONARY
360
15
102
}
330
0
100
AcDbSymbolTable
 70
     9
  0
LAYER
  5
6
102
{ACAD_XDICTIONARY
360
7F09
102
}
330
14
100
AcDbSymbolTableRecord
100
AcDbLayerTableRecord
  2
0
 70
     0
 62
     7
  6
CONTINUOUS
370
    -3
390
7
  0
LAYER
  5
5A
330
14
100
AcDbSymbolTableRecord
100
AcDbLayerTableRecord
  2
DEFPOINTS
 70
     0
 62
     7
  6
CONTINUOUS
290
     0
370
    -3
390
7
  0
LAYER
  5
7AFE
102
{ACAD_XDICTIONARY
360
7F0B
102
}
330
14
100
AcDbSymbolTableRecord
100
AcDbLayerTableRecord
  2
R-SWTS-DET1
 70
     0
 62
     1
  6
CONTINUOUS
370
    -3
390
7
  0
LAYER
  5
7AFF
102
{ACAD_XDICTIONARY
360
7F0D
102
}
330
14
100
AcDbSymbolTableRecord
100
AcDbLayerTableRecord
  2
R-ANNO-DIMS
 70
     0
 62
     3
  6
CONTINUOUS
370
    -3
390
7
  0
LAYER
  5
7B00
102
{ACAD_XDICTIONARY
360
7F0F
102
}
330
14
100
AcDbSymbolTableRecord
100
AcDbLayerTableRecord
  2
R-SWTS-DET2
 70
     0
 62
     4
  6
CONTINUOUS
370
    -3
390
7
  0
LAYER
  5
7B01
102
{ACAD_XDICTIONARY
360
7F11
102
}
330
14
100
AcDbSymbolTableRecord
100
AcDbLayerTableRecord
  2
R-SWTS-DET3
 70
     0
 62
     5
  6
CONTINUOUS
370
    -3
390
7
  0
LAYER
  5
7B02
102
{ACAD_XDICTIONARY
360
7F13
102
}
330
14
100
AcDbSymbolTableRecord
100
AcDbLayerTableRecord
  2
PART_NUMBERS
 70
     0
 62
     6
  6
CONTINUOUS
370
    -3
390
7
  0
LAYER
  5
7EF0
102
{ACAD_XDICTIONARY
360
7EF1
102
}
330
14
100
AcDbSymbolTableRecord
100
AcDbLayerTableRecord
  2
TEXT
 70
     0
 62
     3
  6
CONTINUOUS
370
    -3
390
7
  0
LAYER
  5
80F7
330
14
100
AcDbSymbolTableRecord
100
AcDbLayerTableRecord
  2
Kawneer Logo-English
 70
     0
 62
     7
  6
CONTINUOUS
370
    -3
390
7
1001
AcAecLayerStandard
1000

1000

1001
AcCmTransparency
1071
        0
  0
ENDTAB
  0
TABLE
  2
STYLE
  5
34
330
0
100
AcDbSymbolTable
 70
     2
  0
STYLE
  5
35
330
34
100
AcDbSymbolTableRecord
100
AcDbTextStyleTableRecord
  2
STANDARD
 70
     0
 40
0.0
 41
1.0
 50
0.0
 71
     0
 42
0.2
  3
arial.ttf
  4

1001
ACAD
1000
Arial
1071
       34
  0
STYLE
  5
42
330
34
100
AcDbSymbolTableRecord
100
AcDbTextStyleTableRecord
  2
ROMAND
 70
     0
 40
0.0
 41
1.0
 50
0.0
 71
     0
 42
0.25
  3
arial.ttf
  4

1001
ACAD
1000
Arial
1071
       34
  0
ENDTAB
  0
TABLE
  2
VIEW
  5
3A
330
0
100
AcDbSymbolTable
 70
     0
  0
ENDTAB
  0
TABLE
  2
UCS
  5
3B
330
0
100
AcDbSymbolTable
 70
     0
  0
ENDTAB
  0
TABLE
  2
APPID
  5
3E
330
0
100
AcDbSymbolTable
 70
    15
  0
APPID
  5
3F
330
3E
100
AcDbSymbolTableRecord
100
AcDbRegAppTableRecord
  2
ACAD
 70
     0
  0
APPID
  5
7EF4
330
3E
100
AcDbSymbolTableRecord
100
AcDbRegAppTableRecord
  2
ACAD_NAV_VCDISPLAY
 70
     0
  0
APPID
  5
80F8
330
3E
100
AcDbSymbolTableRecord
100
AcDbRegAppTableRecord
  2
ACAD_EXEMPT_FROM_CAD_STANDARDS
 70
     0
  0
APPID
  5
80F9
330
3E
100
AcDbSymbolTableRecord
100
AcDbRegAppTableRecord
  2
GradientColor1ACI
 70
     0
  0
APPID
  5
80FA
330
3E
100
AcDbSymbolTableRecord
100
AcDbRegAppTableRecord
  2
GradientColor2ACI
 70
     0
  0
APPID
  5
80FB
330
3E
100
AcDbSymbolTableRecord
100
AcDbRegAppTableRecord
  2
ACAD_MLEADERVER
 70
     0
  0
APPID
  5
80FC
330
3E
100
AcDbSymbolTableRecord
100
AcDbRegAppTableRecord
  2
ACAD_PSEXT
 70
     0
  0
APPID
  5
80FD
330
3E
100
AcDbSymbolTableRecord
100
AcDbRegAppTableRecord
  2
ACAD_DSTYLE_DIMJAG
 70
     0
  0
APPID
  5
80FE
330
3E
100
AcDbSymbolTableRecord
100
AcDbRegAppTableRecord
  2
ACAD_DSTYLE_DIMTALN
 70
     0
  0
APPID
  5
80FF
330
3E
100
AcDbSymbolTableRecord
100
AcDbRegAppTableRecord
  2
ACAD_DSTYLE_DIMBREAK
 70
     0
  0
APPID
  5
8100
330
3E
100
AcDbSymbolTableRecord
100
AcDbRegAppTableRecord
  2
AcDbDynamicBlockGUID
 70
     0
  0
APPID
  5
8101
330
3E
100
AcDbSymbolTableRecord
100
AcDbRegAppTableRecord
  2
ACAUTHENVIRON
 70
     0
  0
APPID
  5
8102
330
3E
100
AcDbSymbolTableRecord
100
AcDbRegAppTableRecord
  2
AcDbDynamicBlockTrueName
 70
     0
  0
APPID
  5
8103
330
3E
100
AcDbSymbolTableRecord
100
AcDbRegAppTableRecord
  2
AcAecLayerStandard
 70
     0
  0
APPID
  5
8104
330
3E
100
AcDbSymbolTableRecord
100
AcDbRegAppTableRecord
  2
AcCmTransparency
 70
     0
  0
ENDTAB
  0
TABLE
  2
DIMSTYLE
  5
40
330
0
100
AcDbSymbolTable
 70
     2
100
AcDbDimStyleTable
 71
     2
340
41
340
47
  0
DIMSTYLE
105
41
102
{ACAD_REACTORS
330
3643
330
3659
330
3694
330
36C8
330
375D
330
373B
330
37A8
330
37B5
330
7774
330
7783
102
}
330
40
100
AcDbSymbolTableRecord
100
AcDbDimStyleTableRecord
  2
STANDARD
 70
     0
  3
"
 40
2.0
 41
0.125
 42
0.125
 43
0.0
 44
0.0625
 73
     0
 74
     0
 77
     1
 78
     1
140
0.125
141
0.0625
147
0.0625
172
     1
173
     1
174
     1
179
     1
271
     5
272
     5
275
     1
276
     2
277
     5
279
     2
284
     8
285
     8
286
     8
340
42
343
43
344
43
  0
DIMSTYLE
105
47
102
{ACAD_REACTORS
330
3674
330
3688
330
36D7
330
36E3
330
376C
330
3778
330
3788
330
3794
102
}
330
40
100
AcDbSymbolTableRecord
100
AcDbDimStyleTableRecord
  2
Open-end
 70
     0
  3
"
 40
2.0
 41
0.125
 42
0.125
 43
0.0
 44
0.0625
 73
     0
 74
     0
 76
     1
 77
     1
 78
     1
140
0.125
141
0.0625
147
0.0625
172
     1
173
     1
174
     1
179
     1
271
     5
272
     5
275
     1
276
     2
277
     5
279
     2
284
     8
285
     8
286
     8
340
42
343
43
  0
ENDTAB
  0
TABLE
  2
BLOCK_RECORD
  5
1
330
0
100
AcDbSymbolTable
 70
    20
  0
BLOCK_RECORD
  5
2
102
{ACAD_XDICTIONARY
360
3
102
}
330
1
100
AcDbSymbolTableRecord
100
AcDbBlockTableRecord
  2
*MODEL_SPACE
340
C
  0
BLOCK_RECORD
  5
E
102
{ACAD_XDICTIONARY
360
F
102
}
330
1
100
AcDbSymbolTableRecord
100
AcDbBlockTableRecord
  2
*PAPER_SPACE
340
13
  0
BLOCK_RECORD
  5
43
330
1
100
AcDbSymbolTableRecord
100
AcDbBlockTableRecord
  2
_OBLIQUE
340
0
102
{BLKREFS
331
7D79
331
7D81
331
7D8A
331
7D8B
331
7D93
331
7D94
331
7D9B
331
7DA6
331
7DA7
331
7DAE
331
7DB6
331
7DBF
331
7DC0
331
7DC7
331
7DD2
331
7DD3
331
7DDB
331
7DDC
331
7DE6
331
7DE7
331
7DEE
331
7DF6
331
7E00
331
7E01
331
7D66
331
7D67
331
7D71
331
7D72
102
}
  0
BLOCK_RECORD
  5
3644
330
1
100
AcDbSymbolTableRecord
100
AcDbBlockTableRecord
  2
*D1
340
0
  0
BLOCK_RECORD
  5
365A
330
1
100
AcDbSymbolTableRecord
100
AcDbBlockTableRecord
  2
*D2
340
0
  0
BLOCK_RECORD
  5
3675
330
1
100
AcDbSymbolTableRecord
100
AcDbBlockTableRecord
  2
*D3
340
0
  0
BLOCK_RECORD
  5
3689
330
1
100
AcDbSymbolTableRecord
100
AcDbBlockTableRecord
  2
*D4
340
0
  0
BLOCK_RECORD
  5
3695
330
1
100
AcDbSymbolTableRecord
100
AcDbBlockTableRecord
  2
*D5
340
0
  0
BLOCK_RECORD
  5
36C9
330
1
100
AcDbSymbolTableRecord
100
AcDbBlockTableRecord
  2
*D6
340
0
  0
BLOCK_RECORD
  5
36D8
330
1
100
AcDbSymbolTableRecord
100
AcDbBlockTableRecord
  2
*D7
340
0
  0
BLOCK_RECORD
  5
36E4
330
1
100
AcDbSymbolTableRecord
100
AcDbBlockTableRecord
  2
*D8
340
0
  0
BLOCK_RECORD
  5
373C
330
1
100
AcDbSymbolTableRecord
100
AcDbBlockTableRecord
  2
*D9
340
0
  0
BLOCK_RECORD
  5
375E
330
1
100
AcDbSymbolTableRecord
100
AcDbBlockTableRecord
  2
*D10
340
0
  0
BLOCK_RECORD
  5
376D
330
1
100
AcDbSymbolTableRecord
100
AcDbBlockTableRecord
  2
*D11
340
0
  0
BLOCK_RECORD
  5
3779
330
1
100
AcDbSymbolTableRecord
100
AcDbBlockTableRecord
  2
*D12
340
0
  0
BLOCK_RECORD
  5
3789
330
1
100
AcDbSymbolTableRecord
100
AcDbBlockTableRecord
  2
*D13
340
0
  0
BLOCK_RECORD
  5
3795
330
1
100
AcDbSymbolTableRecord
100
AcDbBlockTableRecord
  2
*D14
340
0
  0
BLOCK_RECORD
  5
37A9
330
1
100
AcDbSymbolTableRecord
100
AcDbBlockTableRecord
  2
*D15
340
0
  0
BLOCK_RECORD
  5
37B6
330
1
100
AcDbSymbolTableRecord
100
AcDbBlockTableRecord
  2
*D16
340
0
  0
BLOCK_RECORD
  5
7775
330
1
100
AcDbSymbolTableRecord
100
AcDbBlockTableRecord
  2
*D17
340
0
  0
BLOCK_RECORD
  5
7784
330
1
100
AcDbSymbolTableRecord
100
AcDbBlockTableRecord
  2
*D18
340
0
  0
BLOCK_RECORD
  5
8107
102
{ACAD_XDICTIONARY
360
8111
102
}
330
1
100
AcDbSymbolTableRecord
100
AcDbBlockTableRecord
  2
Kawneer Logo English
340
0
102
{BLKREFS
331
8115
102
}
1001
ACAD
1000
DesignCenter Data
1002
{
1070
     1
1070
     1
1002
}
  0
ENDTAB
  0
ENDSEC
  0
SECTION
  2
BLOCKS
  0
BLOCK
  5
5
330
2
100
AcDbEntity
  8
0
100
AcDbBlockBegin
  2
*MODEL_SPACE
 70
     0
 10
0.0
 20
0.0
 30
0.0
  3
*MODEL_SPACE
  1

  0
ENDBLK
  5
B
330
2
100
AcDbEntity
  8
0
100
AcDbBlockEnd
  0
BLOCK
  5
11
330
E
100
AcDbEntity
 67
     1
  8
0
100
AcDbBlockBegin
  2
*PAPER_SPACE
 70
     0
 10
0.0
 20
0.0
 30
0.0
  3
*PAPER_SPACE
  1

  0
ENDBLK
  5
12
330
E
100
AcDbEntity
 67
     1
  8
0
100
AcDbBlockEnd
  0
BLOCK
  5
45
330
43
100
AcDbEntity
  8
0
100
AcDbBlockBegin
  2
_OBLIQUE
 70
     0
 10
0.0
 20
0.0
 30
0.0
  3
_OBLIQUE
  1

  0
LINE
  5
44
330
43
100
AcDbEntity
  8
0
  6
ByBlock
 62
     0
100
AcDbLine
 10
-0.5
 20
-0.5
 30
0.0
 11
0.5
 21
0.5
 31
0.0
  0
ENDBLK
  5
46
330
43
100
AcDbEntity
  8
0
100
AcDbBlockEnd
  0
BLOCK
  5
364E
330
3644
100
AcDbEntity
  8
0
100
AcDbBlockBegin
  2
*D1
 70
     1
 10
0.0
 20
0.0
 30
0.0
  3
*D1
  1

  0
LINE
  5
7D87
330
3644
100
AcDbEntity
  8
R-ANNO-DIMS
 62
     0
370
    -2
100
AcDbLine
 10
4.874984355025901
 20
15.05588254086731
 30
0.0
 11
2.500015644974211
 21
15.05588254086731
 31
0.0
  0
LINE
  5
7D88
330
3644
100
AcDbEntity
  8
R-ANNO-DIMS
 62
     0
370
    -2
100
AcDbLine
 10
4.875000000000113
 20
19.0558825408692
 30
0.0
 11
2.500015644974212
 21
19.0558825408692
 31
0.0
  0
LINE
  5
7D89
330
3644
100
AcDbEntity
  8
R-ANNO-DIMS
 62
     0
370
    -2
100
AcDbLine
 10
2.625015644974211
 20
15.05588254086731
 30
0.0
 11
2.625015644974212
 21
19.0558825408692
 31
0.0
  0
INSERT
  5
7D8A
330
3644
100
AcDbEntity
  8
R-ANNO-DIMS
 62
     0
370
    -2
100
AcDbBlockReference
  2
_OBLIQUE
 10
2.625015644974211
 20
15.05588254086731
 30
0.0
 41
0.25
 42
0.25
 43
0.25
 50
270.0
  0
INSERT
  5
7D8B
330
3644
100
AcDbEntity
  8
R-ANNO-DIMS
 62
     0
370
    -2
100
AcDbBlockReference
  2
_OBLIQUE
 10
2.625015644974212
 20
19.0558825408692
 30
0.0
 41
0.25
 42
0.25
 43
0.25
 50
90.0
  0
MTEXT
  5
7D8C
330
3644
100
AcDbEntity
  8
R-ANNO-DIMS
 62
     0
100
AcDbMText
 10
2.351206121164684
 20
17.05588254086825
 30
0.0
 40
0.25
 41
0.0
 71
     5
 72
     1
  1
\A1;4"
  7
ROMAND
 11
0.0000000000000001
 21
1.0
 31
0.0
 73
     1
 44
1.0
1001
ACAD
1000
MTEXTBEGIN
1070
    73
1070
     1
1070
    44
1040
1.0
1070
    74
1070
     0
1000
MTEXTEND
  0
POINT
  5
7D8D
330
3644
100
AcDbEntity
  8
DEFPOINTS
 62
     0
100
AcDbPoint
 10
5.124984355025901
 20
15.05588254086731
 30
0.0
  0
POINT
  5
7D8E
330
3644
100
AcDbEntity
  8
DEFPOINTS
 62
     0
100
AcDbPoint
 10
5.125000000000113
 20
19.0558825408692
 30
0.0
  0
POINT
  5
7D8F
330
3644
100
AcDbEntity
  8
DEFPOINTS
 62
     0
100
AcDbPoint
 10
2.625015644974212
 20
19.0558825408692
 30
0.0
  0
ENDBLK
  5
364F
330
3644
100
AcDbEntity
  8
0
100
AcDbBlockEnd
  0
BLOCK
  5
3666
330
365A
100
AcDbEntity
  8
0
100
AcDbBlockBegin
  2
*D2
 70
     1
 10
0.0
 20
0.0
 30
0.0
  3
*D2
  1

  0
LINE
  5
7D6C
330
365A
100
AcDbEntity
  8
R-ANNO-DIMS
 62
     0
370
    -2
100
AcDbLine
 10
8.440000000000608
 20
13.55588254086729
 30
0.0
 11
3.249999999999999
 21
13.55588254086729
 31
0.0
  0
LINE
  5
7D6D
330
365A
100
AcDbEntity
  8
R-ANNO-DIMS
 62
     0
370
    -2
100
AcDbLine
 10
4.874984355025901
 20
15.05588254086731
 30
0.0
 11
3.25
 21
15.05588254086731
 31
0.0
  0
LINE
  5
7D6E
330
365A
100
AcDbEntity
  8
R-ANNO-DIMS
 62
     0
370
    -2
100
AcDbLine
 10
3.374999999999999
 20
13.55588254086729
 30
0.0
 11
3.374999999999999
 21
13.30588254086729
 31
0.0
  0
LINE
  5
7D6F
330
365A
100
AcDbEntity
  8
R-ANNO-DIMS
 62
     0
370
    -2
100
AcDbLine
 10
3.375
 20
15.05588254086731
 30
0.0
 11
3.375
 21
15.30588254086731
 31
0.0
  0
LINE
  5
7D70
330
365A
100
AcDbEntity
  8
R-ANNO-DIMS
 62
     0
370
    -2
100
AcDbLine
 10
3.374999999999999
 20
13.55588254086729
 30
0.0
 11
3.375
 21
15.05588254086731
 31
0.0
  0
INSERT
  5
7D71
330
365A
100
AcDbEntity
  8
R-ANNO-DIMS
 62
     0
370
    -2
100
AcDbBlockReference
  2
_OBLIQUE
 10
3.374999999999999
 20
13.55588254086729
 30
0.0
 41
0.25
 42
0.25
 43
0.25
 50
90.0
  0
INSERT
  5
7D72
330
365A
100
AcDbEntity
  8
R-ANNO-DIMS
 62
     0
370
    -2
100
AcDbBlockReference
  2
_OBLIQUE
 10
3.375
 20
15.05588254086731
 30
0.0
 41
0.25
 42
0.25
 43
0.25
 50
270.0
  0
MTEXT
  5
7D73
330
365A
100
AcDbEntity
  8
R-ANNO-DIMS
 62
     0
100
AcDbMText
 10
3.059523809523806
 20
14.3058825408673
 30
0.0
 40
0.25
 41
0.0
 71
     5
 72
     1
  1
\A1;1 1/2"
  7
ROMAND
 11
0.0000000000000001
 21
1.0
 31
0.0
 73
     1
 44
1.0
1001
ACAD
1000
MTEXTBEGIN
1070
    73
1070
     1
1070
    44
1040
1.0
1070
    74
1070
     0
1000
MTEXTEND
  0
POINT
  5
7D74
330
365A
100
AcDbEntity
  8
DEFPOINTS
 62
     0
100
AcDbPoint
 10
8.690000000000608
 20
13.55588254086729
 30
0.0
  0
POINT
  5
7D75
330
365A
100
AcDbEntity
  8
DEFPOINTS
 62
     0
100
AcDbPoint
 10
5.124984355025901
 20
15.05588254086731
 30
0.0
  0
POINT
  5
7D76
330
365A
100
AcDbEntity
  8
DEFPOINTS
 62
     0
100
AcDbPoint
 10
3.375
 20
15.05588254086731
 30
0.0
  0
ENDBLK
  5
3667
330
365A
100
AcDbEntity
  8
0
100
AcDbBlockEnd
  0
BLOCK
  5
367E
330
3675
100
AcDbEntity
  8
0
100
AcDbBlockBegin
  2
*D3
 70
     1
 10
0.0
 20
0.0
 30
0.0
  3
*D3
  1

  0
LINE
  5
7D77
330
3675
100
AcDbEntity
  8
R-ANNO-DIMS
 62
     0
370
    -2
100
AcDbLine
 10
4.874984355025901
 20
15.05588254086731
 30
0.0
 11
2.500015644974213
 21
15.05588254086731
 31
0.0
  0
LINE
  5
7D78
330
3675
100
AcDbEntity
  8
R-ANNO-DIMS
 62
     0
370
    -2
100
AcDbLine
 10
2.625015644974213
 20
15.05588254086731
 30
0.0
 11
2.625015644974212
 21
11.8058981858407
 31
0.0
  0
INSERT
  5
7D79
330
3675
100
AcDbEntity
  8
R-ANNO-DIMS
 62
     0
370
    -2
100
AcDbBlockReference
  2
_OBLIQUE
 10
2.625015644974213
 20
15.05588254086731
 30
0.0
 41
0.25
 42
0.25
 43
0.25
 50
90.0
  0
SOLID
  5
7D7A
330
3675
100
AcDbEntity
  8
R-ANNO-DIMS
 62
     0
100
AcDbTrace
 10
2.583348978307545
 20
11.8058981858407
 30
0.0
 11
2.666682311640878
 21
11.8058981858407
 31
0.0
 12
2.625015644974212
 22
11.5558981858407
 32
0.0
 13
2.625015644974212
 23
11.5558981858407
 33
0.0
  0
MTEXT
  5
7D7B
330
3675
100
AcDbEntity
  8
R-ANNO-DIMS
 62
     0
100
AcDbMText
 10
2.37501564497421
 20
13.430890363354
 30
0.0
 40
0.25
 41
0.0
 71
     5
 72
     1
  1
\A1;F.W.
  7
ROMAND
 11
0.0000000000000001
 21
1.0
 31
0.0
 73
     1
 44
1.0
1001
ACAD
1000
MTEXTBEGIN
1070
    73
1070
     1
1070
    44
1040
1.0
1070
    74
1070
     0
1000
MTEXTEND
  0
POINT
  5
7D7C
330
3675
100
AcDbEntity
  8
DEFPOINTS
 62
     0
100
AcDbPoint
 10
5.124984355025901
 20
15.05588254086731
 30
0.0
  0
POINT
  5
7D7D
330
3675
100
AcDbEntity
  8
DEFPOINTS
 62
     0
100
AcDbPoint
 10
8.440000000000608
 20
11.55589818584069
 30
0.0
  0
POINT
  5
7D7E
330
3675
100
AcDbEntity
  8
DEFPOINTS
 62
     0
100
AcDbPoint
 10
2.625015644974212
 20
11.5558981858407
 30
0.0
  0
ENDBLK
  5
367F
330
3675
100
AcDbEntity
  8
0
100
AcDbBlockEnd
  0
BLOCK
  5
3692
330
3689
100
AcDbEntity
  8
0
100
AcDbBlockBegin
  2
*D4
 70
     1
 10
0.0
 20
0.0
 30
0.0
  3
*D4
  1

  0
LINE
  5
7D7F
330
3689
100
AcDbEntity
  8
R-ANNO-DIMS
 62
     0
370
    -2
100
AcDbLine
 10
8.440000000000608
 20
13.55588254086729
 30
0.0
 11
3.25
 21
13.55588254086729
 31
0.0
  0
LINE
  5
7D80
330
3689
100
AcDbEntity
  8
R-ANNO-DIMS
 62
     0
370
    -2
100
AcDbLine
 10
3.375
 20
13.55588254086729
 30
0.0
 11
3.375
 21
11.8058981858407
 31
0.0
  0
INSERT
  5
7D81
330
3689
100
AcDbEntity
  8
R-ANNO-DIMS
 62
     0
370
    -2
100
AcDbBlockReference
  2
_OBLIQUE
 10
3.375
 20
13.55588254086729
 30
0.0
 41
0.25
 42
0.25
 43
0.25
 50
90.0
  0
SOLID
  5
7D82
330
3689
100
AcDbEntity
  8
R-ANNO-DIMS
 62
     0
100
AcDbTrace
 10
3.333333333333333
 20
11.8058981858407
 30
0.0
 11
3.416666666666666
 21
11.8058981858407
 31
0.0
 12
3.375
 22
11.5558981858407
 32
0.0
 13
3.375
 23
11.5558981858407
 33
0.0
  0
MTEXT
  5
7D83
330
3689
100
AcDbEntity
  8
R-ANNO-DIMS
 62
     0
100
AcDbMText
 10
3.124999999999998
 20
12.680890363354
 30
0.0
 40
0.25
 41
0.0
 71
     5
 72
     1
  1
\A1;D.L.O.
  7
ROMAND
 11
0.0000000000000001
 21
1.0
 31
0.0
 73
     1
 44
1.0
1001
ACAD
1000
MTEXTBEGIN
1070
    73
1070
     1
1070
    44
1040
1.0
1070
    74
1070
     0
1000
MTEXTEND
  0
POINT
  5
7D84
330
3689
100
AcDbEntity
  8
DEFPOINTS
 62
     0
100
AcDbPoint
 10
8.690000000000608
 20
13.55588254086729
 30
0.0
  0
POINT
  5
7D85
330
3689
100
AcDbEntity
  8
DEFPOINTS
 62
     0
100
AcDbPoint
 10
8.440000000000608
 20
11.55589818584069
 30
0.0
  0
POINT
  5
7D86
330
3689
100
AcDbEntity
  8
DEFPOINTS
 62
     0
100
AcDbPoint
 10
3.375
 20
11.5558981858407
 30
0.0
  0
ENDBLK
  5
3693
330
3689
100
AcDbEntity
  8
0
100
AcDbBlockEnd
  0
BLOCK
  5
369F
330
3695
100
AcDbEntity
  8
0
100
AcDbBlockBegin
  2
*D5
 70
     1
 10
0.0
 20
0.0
 30
0.0
  3
*D5
  1

  0
LINE
  5
7D90
330
3695
100
AcDbEntity
  8
R-ANNO-DIMS
 62
     0
370
    -2
100
AcDbLine
 10
8.625000000000824
 20
11.30586689589238
 30
0.0
 11
8.625000000000824
 21
8.93092947578912
 31
0.0
  0
LINE
  5
7D91
330
3695
100
AcDbEntity
  8
R-ANNO-DIMS
 62
     0
370
    -2
100
AcDbLine
 10
12.62500000000273
 20
11.3058825408666
 30
0.0
 11
12.62500000000273
 21
8.93092947578912
 31
0.0
  0
LINE
  5
7D92
330
3695
100
AcDbEntity
  8
R-ANNO-DIMS
 62
     0
370
    -2
100
AcDbLine
 10
8.625000000000824
 20
9.05592947578912
 30
0.0
 11
12.62500000000273
 21
9.05592947578912
 31
0.0
  0
INSERT
  5
7D93
330
3695
100
AcDbEntity
  8
R-ANNO-DIMS
 62
     0
370
    -2
100
AcDbBlockReference
  2
_OBLIQUE
 10
8.625000000000824
 20
9.05592947578912
 30
0.0
 41
0.25
 42
0.25
 43
0.25
 50
180.0
  0
INSERT
  5
7D94
330
3695
100
AcDbEntity
  8
R-ANNO-DIMS
 62
     0
370
    -2
100
AcDbBlockReference
  2
_OBLIQUE
 10
12.62500000000273
 20
9.05592947578912
 30
0.0
 41
0.25
 42
0.25
 43
0.25
  0
MTEXT
  5
7D95
330
3695
100
AcDbEntity
  8
R-ANNO-DIMS
 62
     0
100
AcDbMText
 10
10.62500000000177
 20
9.329738999598644
 30
0.0
 40
0.25
 41
0.0
 71
     5
 72
     1
  1
\A1;4"
  7
ROMAND
 73
     1
 44
1.0
1001
ACAD
1000
MTEXTBEGIN
1070
    73
1070
     1
1070
    44
1040
1.0
1070
    74
1070
     0
1000
MTEXTEND
  0
POINT
  5
7D96
330
3695
100
AcDbEntity
  8
DEFPOINTS
 62
     0
100
AcDbPoint
 10
8.625000000000824
 20
11.55586689589238
 30
0.0
  0
POINT
  5
7D97
330
3695
100
AcDbEntity
  8
DEFPOINTS
 62
     0
100
AcDbPoint
 10
12.62500000000273
 20
11.55588254086659
 30
0.0
  0
POINT
  5
7D98
330
3695
100
AcDbEntity
  8
DEFPOINTS
 62
     0
100
AcDbPoint
 10
12.62500000000273
 20
9.05592947578912
 30
0.0
  0
ENDBLK
  5
36A0
330
3695
100
AcDbEntity
  8
0
100
AcDbBlockEnd
  0
BLOCK
  5
36D5
330
36C9
100
AcDbEntity
  8
0
100
AcDbBlockBegin
  2
*D6
 70
     1
 10
0.0
 20
0.0
 30
0.0
  3
*D6
  1

  0
LINE
  5
7DA1
330
36C9
100
AcDbEntity
  8
R-ANNO-DIMS
 62
     0
370
    -2
100
AcDbLine
 10
7.12500000000081
 20
14.8708825408671
 30
0.0
 11
7.12500000000081
 21
9.680913830814908
 31
0.0
  0
LINE
  5
7DA2
330
36C9
100
AcDbEntity
  8
R-ANNO-DIMS
 62
     0
370
    -2
100
AcDbLine
 10
8.625000000000824
 20
11.30586689589238
 30
0.0
 11
8.625000000000824
 21
9.680913830814908
 31
0.0
  0
LINE
  5
7DA3
330
36C9
100
AcDbEntity
  8
R-ANNO-DIMS
 62
     0
370
    -2
100
AcDbLine
 10
7.12500000000081
 20
9.805913830814908
 30
0.0
 11
6.87500000000081
 21
9.805913830814908
 31
0.0
  0
LINE
  5
7DA4
330
36C9
100
AcDbEntity
  8
R-ANNO-DIMS
 62
     0
370
    -2
100
AcDbLine
 10
8.625000000000824
 20
9.805913830814908
 30
0.0
 11
8.875000000000824
 21
9.805913830814908
 31
0.0
  0
LINE
  5
7DA5
330
36C9
100
AcDbEntity
  8
R-ANNO-DIMS
 62
     0
370
    -2
100
AcDbLine
 10
7.12500000000081
 20
9.805913830814908
 30
0.0
 11
8.625000000000824
 21
9.805913830814908
 31
0.0
  0
INSERT
  5
7DA6
330
36C9
100
AcDbEntity
  8
R-ANNO-DIMS
 62
     0
370
    -2
100
AcDbBlockReference
  2
_OBLIQUE
 10
7.12500000000081
 20
9.805913830814908
 30
0.0
 41
0.25
 42
0.25
 43
0.25
  0
INSERT
  5
7DA7
330
36C9
100
AcDbEntity
  8
R-ANNO-DIMS
 62
     0
370
    -2
100
AcDbBlockReference
  2
_OBLIQUE
 10
8.625000000000824
 20
9.805913830814908
 30
0.0
 41
0.25
 42
0.25
 43
0.25
 50
180.0
  0
MTEXT
  5
7DA8
330
36C9
100
AcDbEntity
  8
R-ANNO-DIMS
 62
     0
100
AcDbMText
 10
7.875000000000817
 20
10.1213900212911
 30
0.0
 40
0.25
 41
0.0
 71
     5
 72
     1
  1
\A1;1 1/2"
  7
ROMAND
 73
     1
 44
1.0
1001
ACAD
1000
MTEXTBEGIN
1070
    73
1070
     1
1070
    44
1040
1.0
1070
    74
1070
     0
1000
MTEXTEND
  0
POINT
  5
7DA9
330
36C9
100
AcDbEntity
  8
DEFPOINTS
 62
     0
100
AcDbPoint
 10
7.12500000000081
 20
15.12088254086711
 30
0.0
  0
POINT
  5
7DAA
330
36C9
100
AcDbEntity
  8
DEFPOINTS
 62
     0
100
AcDbPoint
 10
8.625000000000824
 20
11.55586689589238
 30
0.0
  0
POINT
  5
7DAB
330
36C9
100
AcDbEntity
  8
DEFPOINTS
 62
     0
100
AcDbPoint
 10
8.625000000000824
 20
9.805913830814908
 30
0.0
  0
ENDBLK
  5
36D6
330
36C9
100
AcDbEntity
  8
0
100
AcDbBlockEnd
  0
BLOCK
  5
36E1
330
36D8
100
AcDbEntity
  8
0
100
AcDbBlockBegin
  2
*D7
 70
     1
 10
0.0
 20
0.0
 30
0.0
  3
*D7
  1

  0
LINE
  5
7DAC
330
36D8
100
AcDbEntity
  8
R-ANNO-DIMS
 62
     0
370
    -2
100
AcDbLine
 10
7.12500000000081
 20
14.8708825408671
 30
0.0
 11
7.12500000000081
 21
9.680913830814908
 31
0.0
  0
LINE
  5
7DAD
330
36D8
100
AcDbEntity
  8
R-ANNO-DIMS
 62
     0
370
    -2
100
AcDbLine
 10
7.12500000000081
 20
9.805913830814908
 30
0.0
 11
5.375015644974212
 21
9.805913830814908
 31
0.0
  0
INSERT
  5
7DAE
330
36D8
100
AcDbEntity
  8
R-ANNO-DIMS
 62
     0
370
    -2
100
AcDbBlockReference
  2
_OBLIQUE
 10
7.12500000000081
 20
9.805913830814908
 30
0.0
 41
0.25
 42
0.25
 43
0.25
  0
SOLID
  5
7DAF
330
36D8
100
AcDbEntity
  8
R-ANNO-DIMS
 62
     0
100
AcDbTrace
 10
5.375015644974212
 20
9.847580497481574
 30
0.0
 11
5.375015644974212
 21
9.764247164148242
 31
0.0
 12
5.125015644974212
 22
9.805913830814908
 32
0.0
 13
5.125015644974212
 23
9.805913830814908
 33
0.0
  0
MTEXT
  5
7DB0
330
36D8
100
AcDbEntity
  8
R-ANNO-DIMS
 62
     0
100
AcDbMText
 10
6.250007822487511
 20
10.05591383081491
 30
0.0
 40
0.25
 41
0.0
 71
     5
 72
     1
  1
\A1;D.L.O.
  7
ROMAND
 73
     1
 44
1.0
1001
ACAD
1000
MTEXTBEGIN
1070
    73
1070
     1
1070
    44
1040
1.0
1070
    74
1070
     0
1000
MTEXTEND
  0
POINT
  5
7DB1
330
36D8
100
AcDbEntity
  8
DEFPOINTS
 62
     0
100
AcDbPoint
 10
7.12500000000081
 20
15.12088254086711
 30
0.0
  0
POINT
  5
7DB2
330
36D8
100
AcDbEntity
  8
DEFPOINTS
 62
     0
100
AcDbPoint
 10
5.125015644974212
 20
14.8708825408671
 30
0.0
  0
POINT
  5
7DB3
330
36D8
100
AcDbEntity
  8
DEFPOINTS
 62
     0
100
AcDbPoint
 10
5.125015644974212
 20
9.805913830814908
 30
0.0
  0
ENDBLK
  5
36E2
330
36D8
100
AcDbEntity
  8
0
100
AcDbBlockEnd
  0
BLOCK
  5
36ED
330
36E4
100
AcDbEntity
  8
0
100
AcDbBlockBegin
  2
*D8
 70
     1
 10
0.0
 20
0.0
 30
0.0
  3
*D8
  1

  0
LINE
  5
7D99
330
36E4
100
AcDbEntity
  8
R-ANNO-DIMS
 62
     0
370
    -2
100
AcDbLine
 10
8.625000000000824
 20
11.30586689589238
 30
0.0
 11
8.625000000000824
 21
8.93092947578912
 31
0.0
  0
LINE
  5
7D9A
330
36E4
100
AcDbEntity
  8
R-ANNO-DIMS
 62
     0
370
    -2
100
AcDbLine
 10
8.625000000000824
 20
9.05592947578912
 30
0.0
 11
5.375015644974212
 21
9.05592947578912
 31
0.0
  0
INSERT
  5
7D9B
330
36E4
100
AcDbEntity
  8
R-ANNO-DIMS
 62
     0
370
    -2
100
AcDbBlockReference
  2
_OBLIQUE
 10
8.625000000000824
 20
9.05592947578912
 30
0.0
 41
0.25
 42
0.25
 43
0.25
  0
SOLID
  5
7D9C
330
36E4
100
AcDbEntity
  8
R-ANNO-DIMS
 62
     0
100
AcDbTrace
 10
5.375015644974212
 20
9.097596142455786
 30
0.0
 11
5.375015644974212
 21
9.014262809122454
 31
0.0
 12
5.125015644974212
 22
9.05592947578912
 32
0.0
 13
5.125015644974212
 23
9.05592947578912
 33
0.0
  0
MTEXT
  5
7D9D
330
36E4
100
AcDbEntity
  8
R-ANNO-DIMS
 62
     0
100
AcDbMText
 10
7.000007822487518
 20
9.30592947578912
 30
0.0
 40
0.25
 41
0.0
 71
     5
 72
     1
  1
\A1;F.W.
  7
ROMAND
 73
     1
 44
1.0
1001
ACAD
1000
MTEXTBEGIN
1070
    73
1070
     1
1070
    44
1040
1.0
1070
    74
1070
     0
1000
MTEXTEND
  0
POINT
  5
7D9E
330
36E4
100
AcDbEntity
  8
DEFPOINTS
 62
     0
100
AcDbPoint
 10
8.625000000000824
 20
11.55586689589238
 30
0.0
  0
POINT
  5
7D9F
330
36E4
100
AcDbEntity
  8
DEFPOINTS
 62
     0
100
AcDbPoint
 10
5.125015644974212
 20
14.8708825408671
 30
0.0
  0
POINT
  5
7DA0
330
36E4
100
AcDbEntity
  8
DEFPOINTS
 62
     0
100
AcDbPoint
 10
5.125015644974212
 20
9.05592947578912
 30
0.0
  0
ENDBLK
  5
36EE
330
36E4
100
AcDbEntity
  8
0
100
AcDbBlockEnd
  0
BLOCK
  5
3746
330
373C
100
AcDbEntity
  8
0
100
AcDbBlockBegin
  2
*D9
 70
     1
 10
0.0
 20
0.0
 30
0.0
  3
*D9
  1

  0
LINE
  5
7DD8
330
373C
100
AcDbEntity
  8
R-ANNO-DIMS
 62
     0
370
    -2
100
AcDbLine
 10
29.73041917188249
 20
11.55591383081499
 30
0.0
 11
23.61020342146941
 21
11.55591383081499
 31
0.0
  0
LINE
  5
7DD9
330
373C
100
AcDbEntity
  8
R-ANNO-DIMS
 62
     0
370
    -2
100
AcDbLine
 10
25.73041917188061
 20
15.55591383081688
 30
0.0
 11
23.61020342146941
 21
15.55591383081688
 31
0.0
  0
LINE
  5
7DDA
330
373C
100
AcDbEntity
  8
R-ANNO-DIMS
 62
     0
370
    -2
100
AcDbLine
 10
23.73520342146941
 20
11.55591383081499
 30
0.0
 11
23.73520342146941
 21
15.55591383081688
 31
0.0
  0
INSERT
  5
7DDB
330
373C
100
AcDbEntity
  8
R-ANNO-DIMS
 62
     0
370
    -2
100
AcDbBlockReference
  2
_OBLIQUE
 10
23.73520342146941
 20
11.55591383081499
 30
0.0
 41
0.25
 42
0.25
 43
0.25
 50
270.0
  0
INSERT
  5
7DDC
330
373C
100
AcDbEntity
  8
R-ANNO-DIMS
 62
     0
370
    -2
100
AcDbBlockReference
  2
_OBLIQUE
 10
23.73520342146941
 20
15.55591383081688
 30
0.0
 41
0.25
 42
0.25
 43
0.25
 50
90.0
  0
MTEXT
  5
7DDD
330
373C
100
AcDbEntity
  8
R-ANNO-DIMS
 62
     0
100
AcDbMText
 10
23.46139389765988
 20
13.55591383081594
 30
0.0
 40
0.25
 41
0.0
 71
     5
 72
     1
  1
\A1;4"
  7
ROMAND
 11
0.0000000000000001
 21
1.0
 31
0.0
 73
     1
 44
1.0
1001
ACAD
1000
MTEXTBEGIN
1070
    73
1070
     1
1070
    44
1040
1.0
1070
    74
1070
     0
1000
MTEXTEND
  0
POINT
  5
7DDE
330
373C
100
AcDbEntity
  8
DEFPOINTS
 62
     0
100
AcDbPoint
 10
29.98041917188249
 20
11.55591383081499
 30
0.0
  0
POINT
  5
7DDF
330
373C
100
AcDbEntity
  8
DEFPOINTS
 62
     0
100
AcDbPoint
 10
25.98041917188061
 20
15.55591383081688
 30
0.0
  0
POINT
  5
7DE0
330
373C
100
AcDbEntity
  8
DEFPOINTS
 62
     0
100
AcDbPoint
 10
23.73520342146941
 20
15.55591383081688
 30
0.0
  0
ENDBLK
  5
3747
330
373C
100
AcDbEntity
  8
0
100
AcDbBlockEnd
  0
BLOCK
  5
376A
330
375E
100
AcDbEntity
  8
0
100
AcDbBlockBegin
  2
*D10
 70
     1
 10
0.0
 20
0.0
 30
0.0
  3
*D10
  1

  0
LINE
  5
7DE1
330
375E
100
AcDbEntity
  8
R-ANNO-DIMS
 62
     0
370
    -2
100
AcDbLine
 10
25.73041917188061
 20
15.55591383081688
 30
0.0
 11
24.36020342146941
 21
15.55591383081688
 31
0.0
  0
LINE
  5
7DE2
330
375E
100
AcDbEntity
  8
R-ANNO-DIMS
 62
     0
370
    -2
100
AcDbLine
 10
25.79541917188041
 20
17.0559138308169
 30
0.0
 11
24.36020342146941
 21
17.0559138308169
 31
0.0
  0
LINE
  5
7DE3
330
375E
100
AcDbEntity
  8
R-ANNO-DIMS
 62
     0
370
    -2
100
AcDbLine
 10
24.48520342146941
 20
15.55591383081688
 30
0.0
 11
24.48520342146941
 21
15.30591383081688
 31
0.0
  0
LINE
  5
7DE4
330
375E
100
AcDbEntity
  8
R-ANNO-DIMS
 62
     0
370
    -2
100
AcDbLine
 10
24.48520342146941
 20
17.0559138308169
 30
0.0
 11
24.48520342146941
 21
17.3059138308169
 31
0.0
  0
LINE
  5
7DE5
330
375E
100
AcDbEntity
  8
R-ANNO-DIMS
 62
     0
370
    -2
100
AcDbLine
 10
24.48520342146941
 20
15.55591383081688
 30
0.0
 11
24.48520342146941
 21
17.0559138308169
 31
0.0
  0
INSERT
  5
7DE6
330
375E
100
AcDbEntity
  8
R-ANNO-DIMS
 62
     0
370
    -2
100
AcDbBlockReference
  2
_OBLIQUE
 10
24.48520342146941
 20
15.55591383081688
 30
0.0
 41
0.25
 42
0.25
 43
0.25
 50
90.0
  0
INSERT
  5
7DE7
330
375E
100
AcDbEntity
  8
R-ANNO-DIMS
 62
     0
370
    -2
100
AcDbBlockReference
  2
_OBLIQUE
 10
24.48520342146941
 20
17.0559138308169
 30
0.0
 41
0.25
 42
0.25
 43
0.25
 50
270.0
  0
MTEXT
  5
7DE8
330
375E
100
AcDbEntity
  8
R-ANNO-DIMS
 62
     0
100
AcDbMText
 10
24.16972723099322
 20
16.3059138308169
 30
0.0
 40
0.25
 41
0.0
 71
     5
 72
     1
  1
\A1;1 1/2"
  7
ROMAND
 11
0.0000000000000001
 21
1.0
 31
0.0
 73
     1
 44
1.0
1001
ACAD
1000
MTEXTBEGIN
1070
    73
1070
     1
1070
    44
1040
1.0
1070
    74
1070
     0
1000
MTEXTEND
  0
POINT
  5
7DE9
330
375E
100
AcDbEntity
  8
DEFPOINTS
 62
     0
100
AcDbPoint
 10
25.98041917188061
 20
15.55591383081688
 30
0.0
  0
POINT
  5
7DEA
330
375E
100
AcDbEntity
  8
DEFPOINTS
 62
     0
100
AcDbPoint
 10
26.04541917188041
 20
17.0559138308169
 30
0.0
  0
POINT
  5
7DEB
330
375E
100
AcDbEntity
  8
DEFPOINTS
 62
     0
100
AcDbPoint
 10
24.48520342146941
 20
17.0559138308169
 30
0.0
  0
ENDBLK
  5
376B
330
375E
100
AcDbEntity
  8
0
100
AcDbBlockEnd
  0
BLOCK
  5
3776
330
376D
100
AcDbEntity
  8
0
100
AcDbBlockBegin
  2
*D11
 70
     1
 10
0.0
 20
0.0
 30
0.0
  3
*D11
  1

  0
LINE
  5
7DEC
330
376D
100
AcDbEntity
  8
R-ANNO-DIMS
 62
     0
370
    -2
100
AcDbLine
 10
25.73041917188061
 20
15.55591383081688
 30
0.0
 11
23.61020342146941
 21
15.55591383081688
 31
0.0
  0
LINE
  5
7DED
330
376D
100
AcDbEntity
  8
R-ANNO-DIMS
 62
     0
370
    -2
100
AcDbLine
 10
23.73520342146941
 20
15.55591383081688
 30
0.0
 11
23.73520342146941
 21
18.80589818584352
 31
0.0
  0
INSERT
  5
7DEE
330
376D
100
AcDbEntity
  8
R-ANNO-DIMS
 62
     0
370
    -2
100
AcDbBlockReference
  2
_OBLIQUE
 10
23.73520342146941
 20
15.55591383081688
 30
0.0
 41
0.25
 42
0.25
 43
0.25
 50
270.0
  0
SOLID
  5
7DEF
330
376D
100
AcDbEntity
  8
R-ANNO-DIMS
 62
     0
100
AcDbTrace
 10
23.69353675480274
 20
18.80589818584352
 30
0.0
 11
23.77687008813607
 21
18.80589818584352
 31
0.0
 12
23.73520342146941
 22
19.05589818584353
 32
0.0
 13
23.73520342146941
 23
19.05589818584353
 33
0.0
  0
MTEXT
  5
7DF0
330
376D
100
AcDbEntity
  8
R-ANNO-DIMS
 62
     0
100
AcDbMText
 10
23.4852034214694
 20
17.18090600833021
 30
0.0
 40
0.25
 41
0.0
 71
     5
 72
     1
  1
\A1;F.W.
  7
ROMAND
 11
0.0000000000000001
 21
1.0
 31
0.0
 73
     1
 44
1.0
1001
ACAD
1000
MTEXTBEGIN
1070
    73
1070
     1
1070
    44
1040
1.0
1070
    74
1070
     0
1000
MTEXTEND
  0
POINT
  5
7DF1
330
376D
100
AcDbEntity
  8
DEFPOINTS
 62
     0
100
AcDbPoint
 10
25.98041917188061
 20
15.55591383081688
 30
0.0
  0
POINT
  5
7DF2
330
376D
100
AcDbEntity
  8
DEFPOINTS
 62
     0
100
AcDbPoint
 10
25.79541917188041
 20
19.05589818584352
 30
0.0
  0
POINT
  5
7DF3
330
376D
100
AcDbEntity
  8
DEFPOINTS
 62
     0
100
AcDbPoint
 10
23.73520342146941
 20
19.05589818584353
 30
0.0
  0
ENDBLK
  5
3777
330
376D
100
AcDbEntity
  8
0
100
AcDbBlockEnd
  0
BLOCK
  5
3782
330
3779
100
AcDbEntity
  8
0
100
AcDbBlockBegin
  2
*D12
 70
     1
 10
0.0
 20
0.0
 30
0.0
  3
*D12
  1

  0
LINE
  5
7DF4
330
3779
100
AcDbEntity
  8
R-ANNO-DIMS
 62
     0
370
    -2
100
AcDbLine
 10
25.79541917188041
 20
17.0559138308169
 30
0.0
 11
24.36020342146941
 21
17.0559138308169
 31
0.0
  0
LINE
  5
7DF5
330
3779
100
AcDbEntity
  8
R-ANNO-DIMS
 62
     0
370
    -2
100
AcDbLine
 10
24.48520342146941
 20
17.0559138308169
 30
0.0
 11
24.48520342146941
 21
18.80589818584352
 31
0.0
  0
INSERT
  5
7DF6
330
3779
100
AcDbEntity
  8
R-ANNO-DIMS
 62
     0
370
    -2
100
AcDbBlockReference
  2
_OBLIQUE
 10
24.48520342146941
 20
17.0559138308169
 30
0.0
 41
0.25
 42
0.25
 43
0.25
 50
270.0
  0
SOLID
  5
7DF7
330
3779
100
AcDbEntity
  8
R-ANNO-DIMS
 62
     0
100
AcDbTrace
 10
24.44353675480274
 20
18.80589818584352
 30
0.0
 11
24.52687008813608
 21
18.80589818584352
 31
0.0
 12
24.48520342146941
 22
19.05589818584352
 32
0.0
 13
24.48520342146941
 23
19.05589818584352
 33
0.0
  0
MTEXT
  5
7DF8
330
3779
100
AcDbEntity
  8
R-ANNO-DIMS
 62
     0
100
AcDbMText
 10
24.2352034214694
 20
17.93090600833022
 30
0.0
 40
0.25
 41
0.0
 71
     5
 72
     1
  1
\A1;D.L.O.
  7
ROMAND
 11
0.0000000000000001
 21
1.0
 31
0.0
 73
     1
 44
1.0
1001
ACAD
1000
MTEXTBEGIN
1070
    73
1070
     1
1070
    44
1040
1.0
1070
    74
1070
     0
1000
MTEXTEND
  0
POINT
  5
7DF9
330
3779
100
AcDbEntity
  8
DEFPOINTS
 62
     0
100
AcDbPoint
 10
26.04541917188041
 20
17.0559138308169
 30
0.0
  0
POINT
  5
7DFA
330
3779
100
AcDbEntity
  8
DEFPOINTS
 62
     0
100
AcDbPoint
 10
25.79541917188041
 20
19.05589818584352
 30
0.0
  0
POINT
  5
7DFB
330
3779
100
AcDbEntity
  8
DEFPOINTS
 62
     0
100
AcDbPoint
 10
24.48520342146941
 20
19.05589818584352
 30
0.0
  0
ENDBLK
  5
3783
330
3779
100
AcDbEntity
  8
0
100
AcDbBlockEnd
  0
BLOCK
  5
3792
330
3789
100
AcDbEntity
  8
0
100
AcDbBlockBegin
  2
*D13
 70
     1
 10
0.0
 20
0.0
 30
0.0
  3
*D13
  1

  0
LINE
  5
7DC5
330
3789
100
AcDbEntity
  8
R-ANNO-DIMS
 62
     0
370
    -2
100
AcDbLine
 10
31.48041917188249
 20
11.37091383081481
 30
0.0
 11
31.48041917188249
 21
9.935697690620031
 31
0.0
  0
LINE
  5
7DC6
330
3789
100
AcDbEntity
  8
R-ANNO-DIMS
 62
     0
370
    -2
100
AcDbLine
 10
31.48041917188249
 20
10.06069769062003
 30
0.0
 11
33.23043481685755
 21
10.06069769062003
 31
0.0
  0
INSERT
  5
7DC7
330
3789
100
AcDbEntity
  8
R-ANNO-DIMS
 62
     0
370
    -2
100
AcDbBlockReference
  2
_OBLIQUE
 10
31.48041917188249
 20
10.06069769062003
 30
0.0
 41
0.25
 42
0.25
 43
0.25
 50
180.0
  0
SOLID
  5
7DC8
330
3789
100
AcDbEntity
  8
R-ANNO-DIMS
 62
     0
100
AcDbTrace
 10
33.23043481685755
 20
10.10236435728669
 30
0.0
 11
33.23043481685755
 21
10.01903102395336
 31
0.0
 12
33.48043481685755
 22
10.06069769062003
 32
0.0
 13
33.48043481685755
 23
10.06069769062003
 33
0.0
  0
MTEXT
  5
7DC9
330
3789
100
AcDbEntity
  8
R-ANNO-DIMS
 62
     0
100
AcDbMText
 10
32.35542699437002
 20
10.31069769062003
 30
0.0
 40
0.25
 41
0.0
 71
     5
 72
     1
  1
\A1;D.L.O.
  7
ROMAND
 73
     1
 44
1.0
1001
ACAD
1000
MTEXTBEGIN
1070
    73
1070
     1
1070
    44
1040
1.0
1070
    74
1070
     0
1000
MTEXTEND
  0
POINT
  5
7DCA
330
3789
100
AcDbEntity
  8
DEFPOINTS
 62
     0
100
AcDbPoint
 10
31.48041917188249
 20
11.6209138308148
 30
0.0
  0
POINT
  5
7DCB
330
3789
100
AcDbEntity
  8
DEFPOINTS
 62
     0
100
AcDbPoint
 10
33.48043481685755
 20
11.37091383081481
 30
0.0
  0
POINT
  5
7DCC
330
3789
100
AcDbEntity
  8
DEFPOINTS
 62
     0
100
AcDbPoint
 10
33.48043481685755
 20
10.06069769062003
 30
0.0
  0
ENDBLK
  5
3793
330
3789
100
AcDbEntity
  8
0
100
AcDbBlockEnd
  0
BLOCK
  5
379E
330
3795
100
AcDbEntity
  8
0
100
AcDbBlockBegin
  2
*D14
 70
     1
 10
0.0
 20
0.0
 30
0.0
  3
*D14
  1

  0
LINE
  5
7DB4
330
3795
100
AcDbEntity
  8
R-ANNO-DIMS
 62
     0
370
    -2
100
AcDbLine
 10
29.98041917188249
 20
11.30591383081499
 30
0.0
 11
29.98041917188249
 21
9.185697690620038
 31
0.0
  0
LINE
  5
7DB5
330
3795
100
AcDbEntity
  8
R-ANNO-DIMS
 62
     0
370
    -2
100
AcDbLine
 10
29.98041917188249
 20
9.310697690620038
 30
0.0
 11
33.23043481685755
 21
9.310697690620038
 31
0.0
  0
INSERT
  5
7DB6
330
3795
100
AcDbEntity
  8
R-ANNO-DIMS
 62
     0
370
    -2
100
AcDbBlockReference
  2
_OBLIQUE
 10
29.98041917188249
 20
9.310697690620038
 30
0.0
 41
0.25
 42
0.25
 43
0.25
 50
180.0
  0
SOLID
  5
7DB7
330
3795
100
AcDbEntity
  8
R-ANNO-DIMS
 62
     0
100
AcDbTrace
 10
33.23043481685755
 20
9.352364357286704
 30
0.0
 11
33.23043481685755
 21
9.269031023953372
 31
0.0
 12
33.48043481685755
 22
9.310697690620038
 32
0.0
 13
33.48043481685755
 23
9.310697690620038
 33
0.0
  0
MTEXT
  5
7DB8
330
3795
100
AcDbEntity
  8
R-ANNO-DIMS
 62
     0
100
AcDbMText
 10
31.60542699437002
 20
9.560697690620038
 30
0.0
 40
0.25
 41
0.0
 71
     5
 72
     1
  1
\A1;F.W.
  7
ROMAND
 73
     1
 44
1.0
1001
ACAD
1000
MTEXTBEGIN
1070
    73
1070
     1
1070
    44
1040
1.0
1070
    74
1070
     0
1000
MTEXTEND
  0
POINT
  5
7DB9
330
3795
100
AcDbEntity
  8
DEFPOINTS
 62
     0
100
AcDbPoint
 10
29.98041917188249
 20
11.55591383081499
 30
0.0
  0
POINT
  5
7DBA
330
3795
100
AcDbEntity
  8
DEFPOINTS
 62
     0
100
AcDbPoint
 10
33.48043481685755
 20
11.37091383081481
 30
0.0
  0
POINT
  5
7DBB
330
3795
100
AcDbEntity
  8
DEFPOINTS
 62
     0
100
AcDbPoint
 10
33.48043481685755
 20
9.310697690620038
 30
0.0
  0
ENDBLK
  5
379F
330
3795
100
AcDbEntity
  8
0
100
AcDbBlockEnd
  0
BLOCK
  5
37B3
330
37A9
100
AcDbEntity
  8
0
100
AcDbBlockBegin
  2
*D15
 70
     1
 10
0.0
 20
0.0
 30
0.0
  3
*D15
  1

  0
LINE
  5
7DBC
330
37A9
100
AcDbEntity
  8
R-ANNO-DIMS
 62
     0
370
    -2
100
AcDbLine
 10
25.98041917188061
 20
15.30591383081688
 30
0.0
 11
25.98041917188061
 21
9.185697690620038
 31
0.0
  0
LINE
  5
7DBD
330
37A9
100
AcDbEntity
  8
R-ANNO-DIMS
 62
     0
370
    -2
100
AcDbLine
 10
29.98041917188249
 20
11.30591383081499
 30
0.0
 11
29.98041917188249
 21
9.185697690620038
 31
0.0
  0
LINE
  5
7DBE
330
37A9
100
AcDbEntity
  8
R-ANNO-DIMS
 62
     0
370
    -2
100
AcDbLine
 10
25.98041917188061
 20
9.310697690620038
 30
0.0
 11
29.98041917188249
 21
9.310697690620038
 31
0.0
  0
INSERT
  5
7DBF
330
37A9
100
AcDbEntity
  8
R-ANNO-DIMS
 62
     0
370
    -2
100
AcDbBlockReference
  2
_OBLIQUE
 10
25.98041917188061
 20
9.310697690620038
 30
0.0
 41
0.25
 42
0.25
 43
0.25
 50
180.0
  0
INSERT
  5
7DC0
330
37A9
100
AcDbEntity
  8
R-ANNO-DIMS
 62
     0
370
    -2
100
AcDbBlockReference
  2
_OBLIQUE
 10
29.98041917188249
 20
9.310697690620038
 30
0.0
 41
0.25
 42
0.25
 43
0.25
  0
MTEXT
  5
7DC1
330
37A9
100
AcDbEntity
  8
R-ANNO-DIMS
 62
     0
100
AcDbMText
 10
27.98041917188155
 20
9.584507214429562
 30
0.0
 40
0.25
 41
0.0
 71
     5
 72
     1
  1
\A1;4"
  7
ROMAND
 73
     1
 44
1.0
1001
ACAD
1000
MTEXTBEGIN
1070
    73
1070
     1
1070
    44
1040
1.0
1070
    74
1070
     0
1000
MTEXTEND
  0
POINT
  5
7DC2
330
37A9
100
AcDbEntity
  8
DEFPOINTS
 62
     0
100
AcDbPoint
 10
25.98041917188061
 20
15.55591383081688
 30
0.0
  0
POINT
  5
7DC3
330
37A9
100
AcDbEntity
  8
DEFPOINTS
 62
     0
100
AcDbPoint
 10
29.98041917188249
 20
11.55591383081499
 30
0.0
  0
POINT
  5
7DC4
330
37A9
100
AcDbEntity
  8
DEFPOINTS
 62
     0
100
AcDbPoint
 10
29.98041917188249
 20
9.310697690620038
 30
0.0
  0
ENDBLK
  5
37B4
330
37A9
100
AcDbEntity
  8
0
100
AcDbBlockEnd
  0
BLOCK
  5
37C2
330
37B6
100
AcDbEntity
  8
0
100
AcDbBlockBegin
  2
*D16
 70
     1
 10
0.0
 20
0.0
 30
0.0
  3
*D16
  1

  0
LINE
  5
7DCD
330
37B6
100
AcDbEntity
  8
R-ANNO-DIMS
 62
     0
370
    -2
100
AcDbLine
 10
29.98041917188249
 20
11.30591383081499
 30
0.0
 11
29.98041917188249
 21
9.935697690620031
 31
0.0
  0
LINE
  5
7DCE
330
37B6
100
AcDbEntity
  8
R-ANNO-DIMS
 62
     0
370
    -2
100
AcDbLine
 10
31.48041917188249
 20
11.37091383081481
 30
0.0
 11
31.48041917188249
 21
9.935697690620031
 31
0.0
  0
LINE
  5
7DCF
330
37B6
100
AcDbEntity
  8
R-ANNO-DIMS
 62
     0
370
    -2
100
AcDbLine
 10
29.98041917188249
 20
10.06069769062003
 30
0.0
 11
29.73041917188249
 21
10.06069769062003
 31
0.0
  0
LINE
  5
7DD0
330
37B6
100
AcDbEntity
  8
R-ANNO-DIMS
 62
     0
370
    -2
100
AcDbLine
 10
31.48041917188249
 20
10.06069769062003
 30
0.0
 11
31.73041917188249
 21
10.06069769062003
 31
0.0
  0
LINE
  5
7DD1
330
37B6
100
AcDbEntity
  8
R-ANNO-DIMS
 62
     0
370
    -2
100
AcDbLine
 10
29.98041917188249
 20
10.06069769062003
 30
0.0
 11
31.48041917188249
 21
10.06069769062003
 31
0.0
  0
INSERT
  5
7DD2
330
37B6
100
AcDbEntity
  8
R-ANNO-DIMS
 62
     0
370
    -2
100
AcDbBlockReference
  2
_OBLIQUE
 10
29.98041917188249
 20
10.06069769062003
 30
0.0
 41
0.25
 42
0.25
 43
0.25
  0
INSERT
  5
7DD3
330
37B6
100
AcDbEntity
  8
R-ANNO-DIMS
 62
     0
370
    -2
100
AcDbBlockReference
  2
_OBLIQUE
 10
31.48041917188249
 20
10.06069769062003
 30
0.0
 41
0.25
 42
0.25
 43
0.25
 50
180.0
  0
MTEXT
  5
7DD4
330
37B6
100
AcDbEntity
  8
R-ANNO-DIMS
 62
     0
100
AcDbMText
 10
30.73041917188249
 20
10.37617388109622
 30
0.0
 40
0.25
 41
0.0
 71
     5
 72
     1
  1
\A1;1 1/2"
  7
ROMAND
 73
     1
 44
1.0
1001
ACAD
1000
MTEXTBEGIN
1070
    73
1070
     1
1070
    44
1040
1.0
1070
    74
1070
     0
1000
MTEXTEND
  0
POINT
  5
7DD5
330
37B6
100
AcDbEntity
  8
DEFPOINTS
 62
     0
100
AcDbPoint
 10
29.98041917188249
 20
11.55591383081499
 30
0.0
  0
POINT
  5
7DD6
330
37B6
100
AcDbEntity
  8
DEFPOINTS
 62
     0
100
AcDbPoint
 10
31.48041917188249
 20
11.6209138308148
 30
0.0
  0
POINT
  5
7DD7
330
37B6
100
AcDbEntity
  8
DEFPOINTS
 62
     0
100
AcDbPoint
 10
31.48041917188249
 20
10.06069769062003
 30
0.0
  0
ENDBLK
  5
37C3
330
37B6
100
AcDbEntity
  8
0
100
AcDbBlockEnd
  0
BLOCK
  5
7781
330
7775
100
AcDbEntity
  8
0
100
AcDbBlockBegin
  2
*D17
 70
     1
 10
0.0
 20
0.0
 30
0.0
  3
*D17
  1

  0
LINE
  5
7D61
330
7775
100
AcDbEntity
  8
R-ANNO-DIMS
 62
     0
370
    -2
100
AcDbLine
 10
8.625999999999208
 20
19.29088254086917
 30
0.0
 11
8.625999999999208
 21
19.91588254086915
 31
0.0
  0
LINE
  5
7D62
330
7775
100
AcDbEntity
  8
R-ANNO-DIMS
 62
     0
370
    -2
100
AcDbLine
 10
8.000999999996636
 20
19.29088254086915
 30
0.0
 11
8.000999999996636
 21
19.91588254086915
 31
0.0
  0
LINE
  5
7D63
330
7775
100
AcDbEntity
  8
R-ANNO-DIMS
 62
     0
370
    -2
100
AcDbLine
 10
8.625999999999208
 20
19.79088254086915
 30
0.0
 11
8.875999999999208
 21
19.79088254086915
 31
0.0
  0
LINE
  5
7D64
330
7775
100
AcDbEntity
  8
R-ANNO-DIMS
 62
     0
370
    -2
100
AcDbLine
 10
8.000999999996636
 20
19.79088254086915
 30
0.0
 11
7.750999999996636
 21
19.79088254086915
 31
0.0
  0
LINE
  5
7D65
330
7775
100
AcDbEntity
  8
R-ANNO-DIMS
 62
     0
370
    -2
100
AcDbLine
 10
8.625999999999208
 20
19.79088254086915
 30
0.0
 11
8.000999999996636
 21
19.79088254086915
 31
0.0
  0
INSERT
  5
7D66
330
7775
100
AcDbEntity
  8
R-ANNO-DIMS
 62
     0
370
    -2
100
AcDbBlockReference
  2
_OBLIQUE
 10
8.625999999999208
 20
19.79088254086915
 30
0.0
 41
0.25
 42
0.25
 43
0.25
 50
180.0
  0
INSERT
  5
7D67
330
7775
100
AcDbEntity
  8
R-ANNO-DIMS
 62
     0
370
    -2
100
AcDbBlockReference
  2
_OBLIQUE
 10
8.000999999996636
 20
19.79088254086915
 30
0.0
 41
0.25
 42
0.25
 43
0.25
  0
MTEXT
  5
7D68
330
7775
100
AcDbEntity
  8
R-ANNO-DIMS
 62
     0
100
AcDbMText
 10
8.313499999997922
 20
20.10635873134535
 30
0.0
 40
0.25
 41
0.0
 71
     5
 72
     1
  1
\A1;5/8"
  7
ROMAND
 73
     1
 44
1.0
1001
ACAD
1000
MTEXTBEGIN
1070
    73
1070
     1
1070
    44
1040
1.0
1070
    74
1070
     0
1000
MTEXTEND
  0
POINT
  5
7D69
330
7775
100
AcDbEntity
  8
DEFPOINTS
 62
     0
100
AcDbPoint
 10
8.625999999999208
 20
19.04088254086917
 30
0.0
  0
POINT
  5
7D6A
330
7775
100
AcDbEntity
  8
DEFPOINTS
 62
     0
100
AcDbPoint
 10
8.000999999996636
 20
19.04088254086915
 30
0.0
  0
POINT
  5
7D6B
330
7775
100
AcDbEntity
  8
DEFPOINTS
 62
     0
100
AcDbPoint
 10
8.000999999996636
 20
19.79088254086915
 30
0.0
  0
ENDBLK
  5
7782
330
7775
100
AcDbEntity
  8
0
100
AcDbBlockEnd
  0
BLOCK
  5
7790
330
7784
100
AcDbEntity
  8
0
100
AcDbBlockBegin
  2
*D18
 70
     1
 10
0.0
 20
0.0
 30
0.0
  3
*D18
  1

  0
LINE
  5
7DFC
330
7784
100
AcDbEntity
  8
R-ANNO-DIMS
 62
     0
370
    -2
100
AcDbLine
 10
12.86000000000268
 20
15.05688254086569
 30
0.0
 11
13.48500000000266
 21
15.05688254086569
 31
0.0
  0
LINE
  5
7DFD
330
7784
100
AcDbEntity
  8
R-ANNO-DIMS
 62
     0
370
    -2
100
AcDbLine
 10
12.86000000000266
 20
14.43188254086312
 30
0.0
 11
13.48500000000266
 21
14.43188254086312
 31
0.0
  0
LINE
  5
7DFE
330
7784
100
AcDbEntity
  8
R-ANNO-DIMS
 62
     0
370
    -2
100
AcDbLine
 10
13.36000000000266
 20
15.05688254086569
 30
0.0
 11
13.36000000000266
 21
14.43188254086312
 31
0.0
  0
MTEXT
  5
7DFF
330
7784
100
AcDbEntity
  8
R-ANNO-DIMS
 62
     0
100
AcDbMText
 10
13.04452380952645
 20
13.83867437024678
 30
0.0
 40
0.25
 41
0.0
 71
     5
 72
     1
  1
\A1;5/8"
  7
ROMAND
 11
0.0000000000000001
 21
1.0
 31
0.0
 73
     1
 44
1.0
1001
ACAD
1000
MTEXTBEGIN
1070
    73
1070
     1
1070
    44
1040
1.0
1070
    74
1070
     0
1000
MTEXTEND
  0
INSERT
  5
7E00
330
7784
100
AcDbEntity
  8
R-ANNO-DIMS
 62
     0
370
    -2
100
AcDbBlockReference
  2
_OBLIQUE
 10
13.36000000000266
 20
15.05688254086569
 30
0.0
 41
0.25
 42
0.25
 43
0.25
 50
90.0
  0
INSERT
  5
7E01
330
7784
100
AcDbEntity
  8
R-ANNO-DIMS
 62
     0
370
    -2
100
AcDbBlockReference
  2
_OBLIQUE
 10
13.36000000000266
 20
14.43188254086312
 30
0.0
 41
0.25
 42
0.25
 43
0.25
 50
270.0
  0
POINT
  5
7E02
330
7784
100
AcDbEntity
  8
DEFPOINTS
 62
     0
100
AcDbPoint
 10
12.61000000000268
 20
15.05688254086569
 30
0.0
  0
POINT
  5
7E03
330
7784
100
AcDbEntity
  8
DEFPOINTS
 62
     0
100
AcDbPoint
 10
12.61000000000265
 20
14.43188254086312
 30
0.0
  0
POINT
  5
7E04
330
7784
100
AcDbEntity
  8
DEFPOINTS
 62
     0
100
AcDbPoint
 10
13.36000000000266
 20
14.43188254086312
 30
0.0
  0
ENDBLK
  5
7791
330
7784
100
AcDbEntity
  8
0
100
AcDbBlockEnd
  0
BLOCK
  5
8113
330
8107
100
AcDbEntity
  8
0
100
AcDbBlockBegin
  2
Kawneer Logo English
 70
     0
 10
0.0
 20
0.0
 30
0.0
  3
Kawneer Logo English
  1

  0
MTEXT
  5
8108
102
{ACAD_XDICTIONARY
360
8170
102
}
330
8107
100
AcDbEntity
  8
Kawneer Logo-English
100
AcDbMText
 10
1.510096758583198
 20
0.0372523876656778
 30
0.0
 40
0.036
 41
0.6125900866323382
 71
     3
 72
     5
  1
{\fArial TUR|b0|i0|c0|p34;\T1.05;AN ARCONIC COMPANY}
 73
     1
 44
1.0
1001
ACAD
1000
ACAD_MTEXT_COLUMN_INFO_BEGIN
1070
    75
1070
     2
1070
    79
1070
     0
1070
    76
1070
     1
1070
    78
1070
     0
1070
    48
1040
0.6125900866323382
1070
    49
1040
1.0
1070
    50
1070
     1
1040
0.0
1000
ACAD_MTEXT_COLUMN_INFO_END
1000
MTEXTBEGIN
1070
    73
1070
     1
1070
    44
1040
1.0
1070
    74
1070
     0
1000
MTEXTEND
  0
HATCH
  5
8109
330
8107
100
AcDbEntity
  8
Kawneer Logo-English
100
AcDbHatch
 10
0.0
 20
0.0
 30
0.0
210
0.0
220
0.0
230
1.0
  2
SOLID
 70
     1
 71
     0
 91
        1
 92
        1
 93
       81
 72
     1
 10
0.2706169776412204
 20
0.0336337282279411
 11
0.2687512969786691
 21
0.0350329887248546
 72
     1
 10
0.2687512969786696
 20
0.0350329887248547
 11
0.2633408230572721
 21
0.039137486182467
 72
     1
 10
0.2633408230572729
 20
0.0391374861824669
 11
0.2550385441089194
 21
0.0453875164020133
 72
     1
 10
0.2550385441089191
 20
0.0453875164020132
 11
0.2442175962661241
 21
0.053596511317238
 72
     1
 10
0.2442175962661235
 20
0.0535965113172379
 11
0.2314376837276472
 21
0.0632980507625037
 72
     1
 10
0.2314376837276479
 20
0.0632980507625037
 11
0.2172585106922595
 21
0.0741189986052996
 72
     1
 10
0.2172585106922598
 20
0.0741189986052996
 11
0.2019599292593419
 21
0.0856862187131167
 72
     1
 10
0.201959929259341
 20
0.0856862187131167
 11
0.1862882116939105
 21
0.0976265749534437
 72
     1
 10
0.1862882116939102
 20
0.0976265749534437
 11
0.1706164941284813
 21
0.1095669311937706
 72
     1
 10
0.1706164941284811
 20
0.1095669311937709
 11
0.1553179126955632
 21
0.1211341513015875
 72
     1
 10
0.1553179126955642
 20
0.1211341513015876
 11
0.1411387396601757
 21
0.131955099144384
 72
     1
 10
0.1411387396601755
 20
0.1319550991443839
 11
0.1284521111548274
 21
0.141749922622777
 72
     1
 10
0.1284521111548278
 20
0.1417499226227768
 11
0.117631163312031
 21
0.1499589175380016
 72
     1
 10
0.1176311633120304
 20
0.1499589175380017
 11
0.1094221683968068
 21
0.1563022317906752
 72
     1
 10
0.1094221683968062
 20
0.1563022317906754
 11
0.1041049785085351
 21
0.1604067292482882
 72
     1
 10
0.1041049785085351
 20
0.1604067292482878
 11
0.1023325818791119
 21
0.1618992737783286
 72
     1
 10
0.1023325818791116
 20
0.1618992737783289
 11
0.1043848306079176
 21
0.1636716704077524
 72
     1
 10
0.1043848306079194
 20
0.1636716704077524
 11
0.1100751566286996
 21
0.1683358720641301
 72
     1
 10
0.1100751566286986
 20
0.1683358720641301
 11
0.1189371397758159
 21
0.1757053106812067
 72
     1
 10
0.1189371397758161
 20
0.1757053106812067
 11
0.1304110758505067
 21
0.1851269980270901
 72
     1
 10
0.1304110758505059
 20
0.1851269980270902
 11
0.1439372606540007
 21
0.1963210820023967
 72
     1
 10
0.1439372606540017
 20
0.1963210820023967
 11
0.1589559899875385
 21
0.2087278584083611
 72
     1
 10
0.1589559899875379
 20
0.2087278584083611
 11
0.1750941277186041
 21
0.2220674751456017
 72
     1
 10
0.1750941277186047
 20
0.2220674751456017
 11
0.19169868561531
 21
0.2358735120484796
 72
     1
 10
0.1916986856153105
 20
0.2358735120484796
 11
0.208303243512014
 21
0.2495862649182301
 72
     1
 10
0.2083032435120131
 20
0.2495862649182304
 11
0.2244413812430811
 21
0.2628325976223432
 72
     1
 10
0.2244413812430812
 20
0.2628325976223429
 11
0.239460110576618
 21
0.2753326580614352
 72
     1
 10
0.2394601105766174
 20
0.2753326580614351
 11
0.2529862953801122
 21
0.2864334580036143
 72
     1
 10
0.2529862953801132
 20
0.2864334580036143
 11
0.2643669474216756
 21
0.2958551453494973
 72
     1
 10
0.2643669474216757
 20
0.2958551453494973
 11
0.2731356465356649
 21
0.3031312999334466
 72
     1
 10
0.273135646535664
 20
0.3031312999334466
 11
0.2788259725564443
 21
0.3077955015898243
 72
     1
 10
0.278825972556445
 20
0.3077955015898246
 11
0.2807849372521245
 21
0.3094746141861208
 72
     1
 10
0.2807849372521249
 20
0.3094746141861205
 11
0.2798520969208501
 21
0.3094746141861205
 72
     1
 10
0.2798520969208496
 20
0.3094746141861205
 11
0.2769602918938953
 21
0.3095678982192478
 72
     1
 10
0.2769602918938943
 20
0.3095678982192481
 11
0.2724826583037715
 21
0.3095678982192481
 72
     1
 10
0.2724826583037729
 20
0.3095678982192481
 11
0.2666057642167363
 21
0.3095678982192481
 72
     1
 10
0.266605764216735
 20
0.3095678982192481
 11
0.2597027457652953
 21
0.3095678982192481
 72
     1
 10
0.2597027457652956
 20
0.3095678982192481
 11
0.2519601710157094
 21
0.3095678982192481
 72
     1
 10
0.2519601710157104
 20
0.3095678982192481
 11
0.2437511761004851
 21
0.3095678982192481
 72
     1
 10
0.243751176100484
 20
0.3095678982192481
 11
0.2351690450527495
 21
0.3095678982192481
 72
     1
 10
0.2351690450527495
 20
0.3095678982192481
 11
0.2266801980381413
 21
0.3095678982192481
 72
     1
 10
0.2266801980381423
 20
0.3095678982192481
 11
0.2183779190897905
 21
0.3094746141861208
 72
     1
 10
0.2183779190897899
 20
0.3094746141861205
 11
0.2106353443402037
 21
0.3094746141861205
 72
     1
 10
0.2106353443402029
 20
0.3094746141861205
 11
0.2037323258887632
 21
0.3094746141861205
 72
     1
 10
0.203732325888764
 20
0.3094746141861205
 11
0.1978554318017273
 21
0.3094746141861205
 72
     1
 10
0.1978554318017278
 20
0.3094746141861205
 11
0.1932845141784786
 21
0.3094746141861205
 72
     1
 10
0.1932845141784787
 20
0.3094746141861205
 11
0.1903927091515244
 21
0.3094746141861205
 72
     1
 10
0.1903927091515234
 20
0.3094746141861205
 11
0.1893665847871204
 21
0.3094746141861205
 72
     1
 10
0.1893665847871206
 20
0.3094746141861205
 11
0.1879673242902067
 21
0.3077955015898243
 72
     1
 10
0.1879673242902076
 20
0.3077955015898246
 11
0.1841426789319786
 21
0.3030380159003196
 72
     1
 10
0.1841426789319787
 20
0.3030380159003192
 11
0.1780792167786874
 21
0.29576186131637
 72
     1
 10
0.1780792167786873
 20
0.29576186131637
 11
0.170243357995973
 21
0.2862468899373593
 72
     1
 10
0.170243357995973
 20
0.2862468899373593
 11
0.1610082387163447
 21
0.2750528059620528
 72
     1
 10
0.1610082387163438
 20
0.2750528059620528
 11
0.1507469950723126
 21
0.2624594614898328
 72
     1
 10
0.1507469950723133
 20
0.2624594614898328
 11
0.1396461951301336
 21
0.2491198447525922
 72
     1
 10
0.1396461951301333
 20
0.2491198447525922
 11
0.1282655430885727
 21
0.2352205238165866
 72
     1
 10
0.1282655430885726
 20
0.2352205238165868
 11
0.1168848910470102
 21
0.2214144869137089
 72
     1
 10
0.1168848910470102
 20
0.2214144869137087
 11
0.1058773751379587
 21
0.2079815861433408
 72
     1
 10
0.105877375137958
 20
0.2079815861433408
 11
0.0955228474608004
 21
0.1954815257042486
 72
     1
 10
0.0955228474608019
 20
0.1954815257042488
 11
0.0862877281811736
 21
0.1842874417289424
 72
     1
 10
0.0862877281811727
 20
0.1842874417289424
 11
0.0784518693984583
 21
0.1747724703499316
 72
     1
 10
0.0784518693984584
 20
0.1747724703499314
 11
0.0723884072451672
 21
0.1674963157659821
 72
     1
 10
0.0723884072451671
 20
0.1674963157659822
 11
0.0685637618869363
 21
0.1627388300764767
 72
     1
 10
0.0685637618869364
 20
0.1627388300764767
 11
0.0671645013900242
 21
0.1611530015133082
 72
     1
 10
0.0671645013900251
 20
0.1611530015133082
 11
0.0680040576881734
 21
0.1596604569832674
 72
     1
 10
0.0680040576881726
 20
0.1596604569832674
 11
0.0704294425494878
 21
0.1556492435587824
 72
     1
 10
0.0704294425494871
 20
0.1556492435587824
 11
0.0742540879077179
 21
0.1493059293061089
 72
     1
 10
0.0742540879077192
 20
0.1493059293061089
 11
0.0791048576303511
 21
0.1411902184240116
 72
     1
 10
0.0791048576303508
 20
0.1411902184240116
 11
0.0848884676842594
 21
0.1314886789787458
 72
     1
 10
0.0848884676842596
 20
0.1314886789787459
 11
0.0913250659700619
 21
0.1207610151690772
 72
     1
 10
0.0913250659700613
 20
0.1207610151690775
 11
0.0982280844214992
 21
0.1091937950612604
 72
     1
 10
0.0982280844214985
 20
0.1091937950612603
 11
0.1053176709391927
 21
0.0973467228540611
 72
     1
 10
0.105317670939193
 20
0.0973467228540612
 11
0.1124072574568872
 21
0.0854996506468619
 72
     1
 10
0.1124072574568871
 20
0.0854996506468617
 11
0.1193102759083267
 21
0.0739324305390446
 72
     1
 10
0.1193102759083278
 20
0.0739324305390448
 11
0.1257468741941283
 21
0.0632047667293762
 72
     1
 10
0.1257468741941277
 20
0.063204766729376
 11
0.1315304842480362
 21
0.0535032272841102
 72
     1
 10
0.1315304842480365
 20
0.0535032272841104
 11
0.1363812539706702
 21
0.0453875164020132
 72
     1
 10
0.1363812539706699
 20
0.0453875164020132
 11
0.1402058993288989
 21
0.0391374861824667
 72
     1
 10
0.1402058993288988
 20
0.0391374861824669
 11
0.1426312841902157
 21
0.0350329887248546
 72
     1
 10
0.1426312841902164
 20
0.0350329887248547
 11
0.1434708404883648
 21
0.0336337282279412
 72
     1
 10
0.143470840488364
 20
0.0336337282279411
 11
0.2706169776412211
 21
0.0336337282279411
 97
        0
 75
     0
 76
     1
 98
        1
 10
-0.3743130907707726
 20
-0.2500502867693841
1001
ACAD
1010
0.0
1020
0.0
1030
0.0
  0
HATCH
  5
810A
330
8107
100
AcDbEntity
  8
Kawneer Logo-English
100
AcDbHatch
 10
0.0
 20
0.0
 30
0.0
210
0.0
220
0.0
230
1.0
  2
SOLID
 70
     1
 71
     0
 91
        1
 92
        1
 93
       18
 72
     1
 10
0.0001865656044393
 20
0.2563959993365415
 11
-0.0000000024618153
 21
0.113671428651383
 72
     1
 10
-0.0000000024618159
 20
0.1136714286513832
 11
0.0012126899688416
 21
0.1152572572145516
 72
     1
 10
0.0012126899688421
 20
0.1152572572145516
 11
0.0045709151614355
 21
0.1197348908046738
 72
     1
 10
0.004570915161435
 20
0.119734890804674
 11
0.0098881050497044
 21
0.1268244773223682
 72
     1
 10
0.0098881050497044
 20
0.1268244773223682
 11
0.0166978394680158
 21
0.1359663125688683
 72
     1
 10
0.016697839468016
 20
0.1359663125688683
 11
0.0248135503501131
 21
0.1467872604116651
 72
     1
 10
0.024813550350113
 20
0.1467872604116652
 11
0.0338621015634867
 21
0.1588209006851195
 72
     1
 10
0.0338621015634872
 20
0.1588209006851194
 11
0.0434703569756247
 21
0.1716940972567221
 72
     1
 10
0.0434703569756247
 20
0.1716940972567224
 11
0.0534517485202732
 21
0.1850337139939626
 72
     1
 10
0.0534517485202724
 20
0.1850337139939624
 11
0.0634331400649208
 21
0.1983733307312025
 72
     1
 10
0.0634331400649222
 20
0.1983733307312024
 11
0.0730413954770597
 21
0.2112465273028051
 72
     1
 10
0.0730413954770595
 20
0.2112465273028053
 11
0.0820899466904331
 21
0.2233734516093873
 72
     1
 10
0.0820899466904321
 20
0.2233734516093873
 11
0.0902056575725293
 21
0.2341943994521837
 72
     1
 10
0.0902056575725308
 20
0.2341943994521837
 11
0.0970153919908422
 21
0.2433362346986839
 72
     1
 10
0.0970153919908405
 20
0.2433362346986839
 11
0.1022392978459834
 21
0.2503325371832507
 72
     1
 10
0.1022392978459843
 20
0.2503325371832508
 11
0.1056908070717041
 21
0.2549034548065008
 72
     1
 10
0.1056908070717046
 20
0.254903454806501
 11
0.1069034995023621
 21
0.2564892833696694
 72
     1
 10
0.1069034995023625
 20
0.2564892833696695
 11
0.0001865656044399
 21
0.2563959993365418
 97
        0
 75
     0
 76
     1
 98
        1
 10
-0.3743130907707726
 20
-0.2500502867693841
1001
ACAD
1010
0.0
1020
0.0
1030
0.0
  0
HATCH
  5
810B
330
8107
100
AcDbEntity
  8
Kawneer Logo-English
100
AcDbHatch
 10
0.0
 20
0.0
 30
0.0
210
0.0
220
0.0
230
1.0
  2
SOLID
 70
     1
 71
     0
 91
        2
 92
       16
 93
       76
 72
     1
 10
1.358402087941634
 20
0.1650709309046659
 11
1.358402087941634
 21
0.16796273593162
 72
     1
 10
1.358402087941634
 20
0.1679627359316202
 11
1.358402087941634
 21
0.1729067896873803
 72
     1
 10
1.358402087941634
 20
0.1729067896873803
 11
1.358402087941634
 21
0.1791568199069267
 72
     1
 10
1.358402087941634
 20
0.1791568199069267
 11
1.358402087941634
 21
0.1861531223914932
 72
     1
 10
1.358402087941634
 20
0.186153122391493
 11
1.358402087941634
 21
0.1931494248760595
 72
     1
 10
1.358402087941634
 20
0.1931494248760596
 11
1.358402087941634
 21
0.1994927391287338
 72
     1
 10
1.358402087941634
 20
0.1994927391287336
 11
1.358402087941634
 21
0.2044367928844937
 72
     1
 10
1.358402087941634
 20
0.2044367928844937
 11
1.358402087941634
 21
0.2072353138783208
 72
     1
 10
1.358402087941634
 20
0.2072353138783208
 11
1.359894632471676
 21
0.2072353138783208
 72
     1
 10
1.359894632471676
 20
0.2072353138783208
 11
1.362693153465502
 21
0.2072353138783208
 72
     1
 10
1.362693153465502
 20
0.2072353138783208
 11
1.366424514790605
 21
0.2072353138783208
 72
     1
 10
1.366424514790606
 20
0.2072353138783208
 11
1.371088716446983
 21
0.2072353138783208
 72
     1
 10
1.371088716446982
 20
0.2072353138783208
 11
1.376405906335254
 21
0.2072353138783208
 72
     1
 10
1.376405906335254
 20
0.2072353138783208
 11
1.382282800422289
 21
0.2072353138783208
 72
     1
 10
1.38228280042229
 20
0.2072353138783208
 11
1.388346262575581
 21
0.2072353138783208
 72
     1
 10
1.388346262575579
 20
0.2072353138783208
 11
1.394596292795125
 21
0.2072353138783208
 72
     1
 10
1.394596292795125
 20
0.2072353138783208
 11
1.400753038981545
 21
0.2072353138783208
 72
     1
 10
1.400753038981546
 20
0.2072353138783208
 11
1.406723217101709
 21
0.2072353138783208
 72
     1
 10
1.406723217101708
 20
0.2072353138783208
 11
1.412320259089362
 21
0.2072353138783208
 72
     1
 10
1.412320259089362
 20
0.2072353138783208
 11
1.417264312845122
 21
0.2072353138783208
 72
     1
 10
1.417264312845123
 20
0.2072353138783208
 11
1.421368810302735
 21
0.2072353138783208
 72
     1
 10
1.421368810302734
 20
0.2072353138783208
 11
1.424540467429071
 21
0.2072353138783208
 72
     1
 10
1.424540467429072
 20
0.2072353138783208
 11
1.426592716157878
 21
0.2072353138783208
 72
     1
 10
1.426592716157878
 20
0.2072353138783208
 11
1.427338988422898
 21
0.2072353138783208
 72
     1
 10
1.427338988422898
 20
0.2072353138783208
 11
1.430977065714873
 21
0.207142029845193
 72
     1
 10
1.430977065714872
 20
0.207142029845193
 11
1.434335290907465
 21
0.2068621777458102
 72
     1
 10
1.434335290907465
 20
0.2068621777458102
 11
1.435921119470633
 21
0.2066756096795552
 72
     1
 10
1.435921119470633
 20
0.206675609679555
 11
1.437413664000673
 21
0.2063957575801723
 72
     1
 10
1.437413664000674
 20
0.2063957575801723
 11
1.438906208530714
 21
0.2061159054807895
 72
     1
 10
1.438906208530714
 20
0.2061159054807898
 11
1.440398753060756
 21
0.2056494853151523
 72
     1
 10
1.440398753060756
 20
0.2056494853151521
 11
1.441704729524542
 21
0.2050897811163865
 72
     1
 10
1.441704729524542
 20
0.2050897811163866
 11
1.443010705988328
 21
0.204530076917621
 72
     1
 10
1.443010705988329
 20
0.204530076917621
 11
1.444223398418986
 21
0.2036905206194736
 72
     1
 10
1.444223398418985
 20
0.2036905206194736
 11
1.445436090849643
 21
0.2028509643213252
 72
     1
 10
1.445436090849643
 20
0.2028509643213252
 11
1.446555499247174
 21
0.2018248399569224
 72
     1
 10
1.446555499247173
 20
0.2018248399569223
 11
1.447581623611576
 21
0.2007054315593917
 72
     1
 10
1.447581623611578
 20
0.2007054315593915
 11
1.448607747975981
 21
0.1993061710624781
 72
     1
 10
1.448607747975981
 20
0.1993061710624781
 11
1.449540588307258
 21
0.1978136265324374
 72
     1
 10
1.449540588307256
 20
0.1978136265324373
 11
1.450380144605403
 21
0.1961345139361415
 72
     1
 10
1.450380144605404
 20
0.1961345139361415
 11
1.451126416870426
 21
0.1944554013398453
 72
     1
 10
1.451126416870426
 20
0.1944554013398454
 11
1.451592837036063
 21
0.1929628568098046
 72
     1
 10
1.451592837036062
 20
0.1929628568098046
 11
1.451965973168573
 21
0.1913770282466361
 72
     1
 10
1.451965973168574
 20
0.1913770282466361
 11
1.452245825267955
 21
0.1899777677497231
 72
     1
 10
1.452245825267954
 20
0.1899777677497231
 11
1.452432393334211
 21
0.188671791285937
 72
     1
 10
1.452432393334211
 20
0.1886717912859369
 11
1.452432393334211
 21
0.1874590988552789
 72
     1
 10
1.452432393334211
 20
0.1874590988552789
 11
1.452525677367338
 21
0.1863396904577482
 72
     1
 10
1.452525677367337
 20
0.1863396904577481
 11
1.452432393334211
 21
0.1844740097951972
 72
     1
 10
1.452432393334211
 20
0.1844740097951974
 11
1.452245825267955
 21
0.1827948971989012
 72
     1
 10
1.452245825267954
 20
0.1827948971989009
 11
1.451872689135445
 21
0.1810225005694773
 72
     1
 10
1.451872689135446
 20
0.1810225005694774
 11
1.451406268969809
 21
0.1794366720063093
 72
     1
 10
1.451406268969809
 20
0.1794366720063094
 11
1.450846564771043
 21
0.1779441274762682
 72
     1
 10
1.450846564771041
 20
0.1779441274762681
 11
1.450100292506021
 21
0.1764515829462274
 72
     1
 10
1.450100292506023
 20
0.1764515829462275
 11
1.449260736207875
 21
0.1750523224493141
 72
     1
 10
1.449260736207873
 20
0.1750523224493139
 11
1.448327895876597
 21
0.1737463459855283
 72
     1
 10
1.448327895876596
 20
0.1737463459855281
 11
1.44702191941281
 21
0.1723470854886151
 72
     1
 10
1.447021919412811
 20
0.1723470854886151
 11
1.445715942949025
 21
0.1711343930579568
 72
     1
 10
1.445715942949026
 20
0.1711343930579568
 11
1.444316682452114
 21
0.1700149846604262
 72
     1
 10
1.444316682452114
 20
0.1700149846604259
 11
1.442824137922072
 21
0.168988860296023
 72
     1
 10
1.442824137922072
 20
0.168988860296023
 11
1.441238309358904
 21
0.1682425880310024
 72
     1
 10
1.441238309358902
 20
0.1682425880310024
 11
1.439559196762608
 21
0.1674963157659821
 72
     1
 10
1.439559196762608
 20
0.1674963157659822
 11
1.437880084166311
 21
0.1669366115672166
 72
     1
 10
1.437880084166311
 20
0.1669366115672167
 11
1.436107687536888
 21
0.1664701914015788
 72
     1
 10
1.436107687536888
 20
0.1664701914015789
 11
1.434242006874337
 21
0.166003771235941
 72
     1
 10
1.434242006874337
 20
0.1660037712359412
 11
1.432376326211786
 21
0.1657239191365588
 72
     1
 10
1.432376326211785
 20
0.1657239191365585
 11
1.430417361516107
 21
0.1655373510703035
 72
     1
 10
1.430417361516108
 20
0.1655373510703037
 11
1.428458396820429
 21
0.1653507830040482
 72
     1
 10
1.428458396820428
 20
0.1653507830040482
 11
1.424353899362817
 21
0.1651642149377932
 72
     1
 10
1.424353899362817
 20
0.1651642149377932
 11
1.420156117872077
 21
0.1650709309046658
 72
     1
 10
1.420156117872076
 20
0.1650709309046659
 11
1.41773073301076
 21
0.1650709309046659
 72
     1
 10
1.417730733010761
 20
0.1650709309046659
 11
1.411107566658704
 21
0.1650709309046659
 72
     1
 10
1.411107566658702
 20
0.1650709309046659
 11
1.401779163345947
 21
0.1650709309046659
 72
     1
 10
1.401779163345949
 20
0.1650709309046659
 11
1.390958215503152
 21
0.1650709309046659
 72
     1
 10
1.390958215503152
 20
0.1650709309046659
 11
1.379950699594101
 21
0.1650709309046659
 72
     1
 10
1.379950699594099
 20
0.1650709309046659
 11
1.369969308049451
 21
0.1650709309046659
 72
     1
 10
1.369969308049451
 20
0.1650709309046659
 11
1.362320017332992
 21
0.1650709309046659
 72
     1
 10
1.362320017332992
 20
0.1650709309046659
 11
1.358402087941635
 21
0.1650709309046659
 97
        0
 92
        1
 93
      107
 72
     1
 10
1.443756978253348
 20
0.1485596570410883
 11
1.446928635379685
 21
0.1492126452729816
 72
     1
 10
1.446928635379685
 20
0.1492126452729817
 11
1.449540588307256
 21
0.1498656335048746
 72
     1
 10
1.449540588307256
 20
0.1498656335048745
 11
1.451872689135445
 21
0.1506119057698948
 72
     1
 10
1.451872689135446
 20
0.1506119057698946
 11
1.45401822189738
 21
0.1514514620680426
 72
     1
 10
1.45401822189738
 20
0.1514514620680425
 11
1.455883902559929
 21
0.1521977343330632
 72
     1
 10
1.455883902559929
 20
0.1521977343330631
 11
1.457563015156225
 21
0.1530372906312111
 72
     1
 10
1.457563015156225
 20
0.1530372906312111
 11
1.459148843719394
 21
0.1539701309624869
 72
     1
 10
1.459148843719394
 20
0.1539701309624866
 11
1.460641388249434
 21
0.1549029712937624
 72
     1
 10
1.460641388249434
 20
0.1549029712937622
 11
1.462133932779476
 21
0.155835811625038
 72
     1
 10
1.462133932779476
 20
0.155835811625038
 11
1.463439909243262
 21
0.1568619359894408
 72
     1
 10
1.463439909243262
 20
0.1568619359894408
 11
1.464745885707048
 21
0.1579813443869714
 72
     1
 10
1.464745885707047
 20
0.1579813443869716
 11
1.465865294104579
 21
0.1591007527845022
 72
     1
 10
1.465865294104579
 20
0.1591007527845025
 11
1.466984702502109
 21
0.1602201611820331
 72
     1
 10
1.466984702502108
 20
0.1602201611820328
 11
1.468010826866511
 21
0.1613395695795634
 72
     1
 10
1.468010826866511
 20
0.1613395695795637
 11
1.468943667197788
 21
0.1625522620102216
 72
     1
 10
1.468943667197788
 20
0.1625522620102216
 11
1.469876507529063
 21
0.1636716704077522
 72
     1
 10
1.469876507529063
 20
0.1636716704077524
 11
1.470622779794084
 21
0.1648843628384107
 72
     1
 10
1.470622779794084
 20
0.1648843628384107
 11
1.471462336092232
 21
0.1661903393021964
 72
     1
 10
1.471462336092232
 20
0.1661903393021967
 11
1.472115324324125
 21
0.1674030317328546
 72
     1
 10
1.472115324324124
 20
0.1674030317328546
 11
1.472768312556016
 21
0.1686157241635125
 72
     1
 10
1.472768312556017
 20
0.1686157241635125
 11
1.473328016754783
 21
0.1699217006272986
 72
     1
 10
1.473328016754782
 20
0.1699217006272989
 11
1.47379443692042
 21
0.1711343930579568
 72
     1
 10
1.47379443692042
 20
0.1711343930579568
 11
1.474260857086057
 21
0.1724403695217425
 72
     1
 10
1.474260857086058
 20
0.1724403695217424
 11
1.474727277251697
 21
0.1736530619524008
 72
     1
 10
1.474727277251697
 20
0.173653061952401
 11
1.475380265483589
 21
0.1760784468137175
 72
     1
 10
1.475380265483588
 20
0.1760784468137173
 11
1.475846685649225
 21
0.1785038316750338
 72
     1
 10
1.475846685649226
 20
0.1785038316750335
 11
1.476219821781737
 21
0.1808359325032223
 72
     1
 10
1.476219821781738
 20
0.1808359325032223
 11
1.47649967388112
 21
0.1830747492982838
 72
     1
 10
1.47649967388112
 20
0.1830747492982838
 11
1.476592957914248
 21
0.1851269980270901
 72
     1
 10
1.476592957914248
 20
0.1851269980270902
 11
1.476686241947374
 21
0.1870859627227688
 72
     1
 10
1.476686241947375
 20
0.1870859627227687
 11
1.476592957914249
 21
0.1888583593521923
 72
     1
 10
1.476592957914248
 20
0.1888583593521922
 11
1.476499673881119
 21
0.1906307559816158
 72
     1
 10
1.47649967388112
 20
0.1906307559816159
 11
1.476406389847991
 21
0.1924031526110394
 72
     1
 10
1.476406389847991
 20
0.1924031526110394
 11
1.476126537748608
 21
0.1940822652073352
 72
     1
 10
1.476126537748608
 20
0.1940822652073352
 11
1.475846685649226
 21
0.195761377803631
 72
     1
 10
1.475846685649226
 20
0.1957613778036309
 11
1.475566833549843
 21
0.1974404903999272
 72
     1
 10
1.475566833549843
 20
0.1974404903999272
 11
1.475100413384206
 21
0.1990263189630953
 72
     1
 10
1.475100413384205
 20
0.1990263189630952
 11
1.474633993218568
 21
0.2006121475262637
 72
     1
 10
1.474633993218568
 20
0.2006121475262639
 11
1.47416757305293
 21
0.2021046920563051
 72
     1
 10
1.474167573052932
 20
0.2021046920563049
 11
1.473514584821038
 21
0.2035972365863457
 72
     1
 10
1.473514584821037
 20
0.2035972365863459
 11
1.472954880622271
 21
0.2050897811163867
 72
     1
 10
1.472954880622272
 20
0.2050897811163866
 11
1.472208608357252
 21
0.2064890416133
 72
     1
 10
1.472208608357252
 20
0.2064890416133001
 11
1.471462336092232
 21
0.2078883021102135
 72
     1
 10
1.471462336092232
 20
0.2078883021102136
 11
1.470622779794083
 21
0.2091942785739993
 72
     1
 10
1.470622779794084
 20
0.2091942785739991
 11
1.469783223495935
 21
0.2105002550377848
 72
     1
 10
1.469783223495934
 20
0.2105002550377851
 11
1.468850383164659
 21
0.2118062315015707
 72
     1
 10
1.468850383164661
 20
0.2118062315015709
 11
1.467917542833386
 21
0.2130189239322288
 72
     1
 10
1.467917542833385
 20
0.2130189239322289
 11
1.466891418468982
 21
0.2141383323297595
 72
     1
 10
1.466891418468982
 20
0.2141383323297595
 11
1.465772010071451
 21
0.2153510247604178
 72
     1
 10
1.46577201007145
 20
0.215351024760418
 11
1.464652601673919
 21
0.2163771491248209
 72
     1
 10
1.46465260167392
 20
0.2163771491248209
 11
1.463533193276389
 21
0.2174032734892238
 72
     1
 10
1.463533193276389
 20
0.2174032734892238
 11
1.462227216812603
 21
0.2184293978536266
 72
     1
 10
1.462227216812602
 20
0.2184293978536266
 11
1.461014524381945
 21
0.2193622381849024
 72
     1
 10
1.461014524381946
 20
0.2193622381849023
 11
1.459615263885032
 21
0.2202950785161781
 72
     1
 10
1.459615263885031
 20
0.2202950785161782
 11
1.458309287421245
 21
0.2211346348143262
 72
     1
 10
1.458309287421246
 20
0.221134634814326
 11
1.456816742891206
 21
0.221974191112474
 72
     1
 10
1.456816742891206
 20
0.2219741911124738
 11
1.455417482394292
 21
0.2227204633774945
 72
     1
 10
1.455417482394291
 20
0.2227204633774944
 11
1.453831653831122
 21
0.2233734516093874
 72
     1
 10
1.453831653831123
 20
0.2233734516093873
 11
1.452339109301082
 21
0.2240264398412803
 72
     1
 10
1.452339109301082
 20
0.2240264398412803
 11
1.450659996704785
 21
0.2245861440400459
 72
     1
 10
1.450659996704787
 20
0.2245861440400457
 11
1.44907416814162
 21
0.2251458482388108
 72
     1
 10
1.449074168141619
 20
0.2251458482388109
 11
1.447301771512194
 21
0.2256122684044489
 72
     1
 10
1.447301771512194
 20
0.2256122684044488
 11
1.445249522783388
 21
0.2261719726032139
 72
     1
 10
1.445249522783388
 20
0.226171972603214
 11
1.44329055808771
 21
0.2265451087357246
 72
     1
 10
1.443290558087712
 20
0.2265451087357244
 11
1.441145025325778
 21
0.2269182448682345
 72
     1
 10
1.441145025325776
 20
0.2269182448682345
 11
1.438906208530714
 21
0.2271980969676173
 72
     1
 10
1.438906208530714
 20
0.2271980969676173
 11
1.436387539636271
 21
0.2273846650338724
 72
     1
 10
1.436387539636271
 20
0.2273846650338724
 11
1.433495734609316
 21
0.2275712331001274
 72
     1
 10
1.433495734609317
 20
0.2275712331001274
 11
1.430044225383597
 21
0.2276645171332552
 72
     1
 10
1.430044225383597
 20
0.2276645171332549
 11
1.42612629599224
 21
0.2277578011663822
 72
     1
 10
1.42612629599224
 20
0.2277578011663825
 11
1.426033011959112
 21
0.2277578011663825
 72
     1
 10
1.426033011959111
 20
0.2277578011663825
 11
1.33489451159349
 21
0.2277578011663825
 72
     1
 10
1.334894511593491
 20
0.2277578011663825
 11
1.334894511593491
 21
0.0926825211976832
 72
     1
 10
1.334894511593491
 20
0.0926825211976832
 11
1.358588656007891
 21
0.0926825211976832
 72
     1
 10
1.358588656007891
 20
0.0926825211976832
 11
1.358588656007891
 21
0.0947347699264896
 72
     1
 10
1.358588656007891
 20
0.0947347699264896
 11
1.358588656007891
 21
0.1001452438478876
 72
     1
 10
1.358588656007891
 20
0.1001452438478875
 11
1.358588656007891
 21
0.1079811026306024
 72
     1
 10
1.358588656007891
 20
0.1079811026306024
 11
1.358588656007891
 21
0.1170296538439752
 72
     1
 10
1.358588656007891
 20
0.1170296538439753
 11
1.358588656007891
 21
0.1262647731236032
 72
     1
 10
1.358588656007891
 20
0.1262647731236031
 11
1.358588656007891
 21
0.1347536201382103
 72
     1
 10
1.358588656007891
 20
0.1347536201382104
 11
1.358588656007891
 21
0.1412835024571394
 72
     1
 10
1.358588656007891
 20
0.1412835024571393
 11
1.358588656007891
 21
0.1448282957159864
 72
     1
 10
1.358588656007891
 20
0.1448282957159865
 11
1.362320017332992
 21
0.1448282957159865
 72
     1
 10
1.362320017332992
 20
0.1448282957159865
 11
1.369409603850688
 21
0.1448282957159865
 72
     1
 10
1.369409603850688
 20
0.1448282957159865
 11
1.378738007163443
 21
0.1448282957159865
 72
     1
 10
1.378738007163443
 20
0.1448282957159865
 11
1.388999250807475
 21
0.1448282957159865
 72
     1
 10
1.388999250807473
 20
0.1448282957159865
 11
1.399260494451505
 21
0.1448282957159865
 72
     1
 10
1.399260494451506
 20
0.1448282957159865
 11
1.408215761631749
 21
0.1448282957159865
 72
     1
 10
1.408215761631748
 20
0.1448282957159865
 11
1.414745643950677
 21
0.1448282957159865
 72
     1
 10
1.414745643950678
 20
0.1448282957159865
 11
1.41773073301076
 21
0.1448282957159865
 72
     1
 10
1.417730733010761
 20
0.1448282957159865
 11
1.420062833838949
 21
0.1420297747221594
 72
     1
 10
1.420062833838949
 20
0.1420297747221597
 11
1.425193455660966
 21
0.1359663125688683
 72
     1
 10
1.425193455660965
 20
0.1359663125688683
 11
1.432283042178659
 21
0.1275707495873888
 72
     1
 10
1.432283042178659
 20
0.1275707495873886
 11
1.440305469027628
 21
0.1180557782083779
 72
     1
 10
1.440305469027629
 20
0.1180557782083781
 11
1.448234611843471
 21
0.1087273748956225
 72
     1
 10
1.448234611843471
 20
0.1087273748956225
 11
1.455044346261782
 21
0.1006116640135252
 72
     1
 10
1.455044346261782
 20
0.1006116640135252
 11
1.459895115984414
 21
0.0948280539596167
 72
     1
 10
1.459895115984414
 20
0.0948280539596169
 11
1.461760796646965
 21
0.0926825211976832
 72
     1
 10
1.461760796646967
 20
0.0926825211976832
 11
1.49254452757906
 21
0.0926825211976832
 72
     1
 10
1.492544527579059
 20
0.0926825211976832
 11
1.490678846916508
 21
0.0948280539596169
 72
     1
 10
1.490678846916508
 20
0.0948280539596169
 11
1.48564150912762
 21
0.100518379980398
 72
     1
 10
1.48564150912762
 20
0.1005183799803981
 11
1.478458638576797
 21
0.1088206589287502
 72
     1
 10
1.478458638576798
 20
0.1088206589287502
 11
1.470063075595318
 21
0.1183356303077609
 72
     1
 10
1.470063075595317
 20
0.118335630307761
 11
1.461480944547582
 21
0.1282237378192818
 72
     1
 10
1.461480944547582
 20
0.1282237378192818
 11
1.453551801731739
 21
0.1372722890326546
 72
     1
 10
1.45355180173174
 20
0.1372722890326546
 11
1.447395055545323
 21
0.1444551595834761
 72
     1
 10
1.447395055545323
 20
0.1444551595834759
 11
1.443756978253349
 21
0.1485596570410882
 97
        0
 75
     0
 76
     1
 98
        1
 10
-0.3743130907707726
 20
-0.2500502867693841
1001
ACAD
1010
0.0
1020
0.0
1030
0.0
  0
HATCH
  5
810C
330
8107
100
AcDbEntity
  8
Kawneer Logo-English
100
AcDbHatch
 10
0.0
 20
0.0
 30
0.0
210
0.0
220
0.0
230
1.0
  2
SOLID
 70
     1
 71
     0
 91
        1
 92
        1
 93
       87
 72
     1
 10
1.205602841678699
 20
0.1525708704655737
 11
1.207468522341251
 21
0.1525708704655737
 72
     1
 10
1.207468522341252
 20
0.1525708704655737
 11
1.211199883666355
 21
0.1525708704655737
 72
     1
 10
1.211199883666355
 20
0.1525708704655737
 11
1.216517073554626
 21
0.1525708704655737
 72
     1
 10
1.216517073554626
 20
0.1525708704655737
 11
1.223046955873555
 21
0.1525708704655737
 72
     1
 10
1.223046955873553
 20
0.1525708704655737
 11
1.230602962556885
 21
0.1525708704655737
 72
     1
 10
1.230602962556885
 20
0.1525708704655737
 11
1.238998525538365
 21
0.1525708704655737
 72
     1
 10
1.238998525538365
 20
0.1525708704655737
 11
1.247767224652354
 21
0.1525708704655737
 72
     1
 10
1.247767224652355
 20
0.1525708704655737
 11
1.256815775865728
 21
0.1525708704655737
 72
     1
 10
1.256815775865729
 20
0.1525708704655737
 11
1.265771043045974
 21
0.1525708704655737
 72
     1
 10
1.265771043045973
 20
0.1525708704655737
 11
1.274446458126836
 21
0.1525708704655737
 72
     1
 10
1.274446458126837
 20
0.1525708704655737
 11
1.282562169008935
 21
0.1525708704655737
 72
     1
 10
1.282562169008935
 20
0.1525708704655737
 11
1.289745039559756
 21
0.1525708704655737
 72
     1
 10
1.289745039559755
 20
0.1525708704655737
 11
1.295808501713046
 21
0.1525708704655737
 72
     1
 10
1.295808501713046
 20
0.1525708704655737
 11
1.300472703369423
 21
0.1525708704655737
 72
     1
 10
1.300472703369423
 20
0.1525708704655737
 11
1.303457792429505
 21
0.1525708704655737
 72
     1
 10
1.303457792429505
 20
0.1525708704655737
 11
1.304483916793908
 21
0.1525708704655737
 72
     1
 10
1.304483916793908
 20
0.1525708704655737
 11
1.304483916793908
 21
0.1730000737205081
 72
     1
 10
1.304483916793908
 20
0.1730000737205078
 11
1.303457792429505
 21
0.1730000737205078
 72
     1
 10
1.303457792429505
 20
0.1730000737205078
 11
1.300472703369423
 21
0.1730000737205078
 72
     1
 10
1.300472703369423
 20
0.1730000737205078
 11
1.295808501713045
 21
0.1730000737205078
 72
     1
 10
1.295808501713046
 20
0.1730000737205078
 11
1.289745039559754
 21
0.1730000737205078
 72
     1
 10
1.289745039559755
 20
0.1730000737205078
 11
1.282562169008934
 21
0.1730000737205078
 72
     1
 10
1.282562169008935
 20
0.1730000737205078
 11
1.274446458126837
 21
0.1730000737205078
 72
     1
 10
1.274446458126837
 20
0.1730000737205078
 11
1.265771043045975
 21
0.1730000737205078
 72
     1
 10
1.265771043045973
 20
0.1730000737205078
 11
1.256815775865728
 21
0.1730000737205078
 72
     1
 10
1.256815775865729
 20
0.1730000737205078
 11
1.247767224652355
 21
0.1730000737205078
 72
     1
 10
1.247767224652355
 20
0.1730000737205078
 11
1.238998525538365
 21
0.1730000737205078
 72
     1
 10
1.238998525538365
 20
0.1730000737205078
 11
1.230602962556885
 21
0.1730000737205078
 72
     1
 10
1.230602962556885
 20
0.1730000737205078
 11
1.223046955873553
 21
0.1730000737205078
 72
     1
 10
1.223046955873553
 20
0.1730000737205078
 11
1.216517073554625
 21
0.1730000737205078
 72
     1
 10
1.216517073554626
 20
0.1730000737205078
 11
1.211199883666355
 21
0.1730000737205078
 72
     1
 10
1.211199883666355
 20
0.1730000737205078
 11
1.207468522341252
 21
0.1730000737205078
 72
     1
 10
1.207468522341252
 20
0.1730000737205078
 11
1.205602841678701
 21
0.1730000737205078
 72
     1
 10
1.205602841678699
 20
0.1730000737205078
 11
1.205602841678699
 21
0.1754254585818243
 72
     1
 10
1.205602841678699
 20
0.1754254585818245
 11
1.205602841678699
 21
0.1794366720063095
 72
     1
 10
1.205602841678699
 20
0.1794366720063094
 11
1.205602841678699
 21
0.1843807257620694
 72
     1
 10
1.205602841678699
 20
0.1843807257620694
 11
1.205602841678699
 21
0.1898844837165951
 72
     1
 10
1.205602841678699
 20
0.1898844837165951
 11
1.205602841678699
 21
0.1952949576379935
 72
     1
 10
1.205602841678699
 20
0.1952949576379937
 11
1.205602841678699
 21
0.2003322954268815
 72
     1
 10
1.205602841678699
 20
0.2003322954268814
 11
1.205602841678699
 21
0.2042502248182386
 72
     1
 10
1.205602841678699
 20
0.2042502248182386
 11
1.205602841678699
 21
0.206675609679555
 72
     1
 10
1.205602841678699
 20
0.206675609679555
 11
1.207468522341251
 21
0.206675609679555
 72
     1
 10
1.207468522341252
 20
0.206675609679555
 11
1.211293167699483
 21
0.206675609679555
 72
     1
 10
1.211293167699483
 20
0.206675609679555
 11
1.21670364162088
 21
0.206675609679555
 72
     1
 10
1.216703641620879
 20
0.206675609679555
 11
1.223420092006063
 21
0.206675609679555
 72
     1
 10
1.223420092006064
 20
0.206675609679555
 11
1.231255950788778
 21
0.206675609679555
 72
     1
 10
1.231255950788778
 20
0.206675609679555
 11
1.239744797803386
 21
0.206675609679555
 72
     1
 10
1.239744797803385
 20
0.206675609679555
 11
1.248886633049885
 21
0.206675609679555
 72
     1
 10
1.248886633049885
 20
0.206675609679555
 11
1.258121752329513
 21
0.206675609679555
 72
     1
 10
1.258121752329514
 20
0.206675609679555
 11
1.267356871609143
 21
0.206675609679555
 72
     1
 10
1.267356871609142
 20
0.206675609679555
 11
1.276218854756259
 21
0.206675609679555
 72
     1
 10
1.276218854756259
 20
0.206675609679555
 11
1.284521133704611
 21
0.206675609679555
 72
     1
 10
1.284521133704611
 20
0.206675609679555
 11
1.291890572321688
 21
0.206675609679555
 72
     1
 10
1.291890572321688
 20
0.206675609679555
 11
1.298140602541234
 21
0.206675609679555
 72
     1
 10
1.298140602541234
 20
0.206675609679555
 11
1.30289808823074
 21
0.206675609679555
 72
     1
 10
1.30289808823074
 20
0.206675609679555
 11
1.305976461323949
 21
0.206675609679555
 72
     1
 10
1.305976461323949
 20
0.206675609679555
 11
1.30709586972148
 21
0.206675609679555
 72
     1
 10
1.307095869721479
 20
0.206675609679555
 11
1.307095869721479
 21
0.2277578011663822
 72
     1
 10
1.307095869721479
 20
0.2277578011663825
 11
1.304577200827036
 21
0.2277578011663825
 72
     1
 10
1.304577200827037
 20
0.2277578011663825
 11
1.182188549363684
 21
0.2277578011663825
 72
     1
 10
1.182188549363684
 20
0.2277578011663825
 11
1.182188549363684
 21
0.0926825211976832
 72
     1
 10
1.182188549363684
 20
0.0926825211976832
 11
1.311853355410986
 21
0.0926825211976832
 72
     1
 10
1.311853355410985
 20
0.0926825211976832
 11
1.311853355410985
 21
0.113671428651383
 72
     1
 10
1.311853355410985
 20
0.1136714286513832
 11
1.310733947013454
 21
0.1136714286513832
 72
     1
 10
1.310733947013455
 20
0.1136714286513832
 11
1.307469005853991
 21
0.1136714286513832
 72
     1
 10
1.307469005853991
 20
0.1136714286513832
 11
1.302431668065102
 21
0.1136714286513832
 72
     1
 10
1.302431668065103
 20
0.1136714286513832
 11
1.295901785746174
 21
0.1136714286513832
 72
     1
 10
1.295901785746174
 20
0.1136714286513832
 11
1.288159210996586
 21
0.1136714286513832
 72
     1
 10
1.288159210996587
 20
0.1136714286513832
 11
1.279483795915724
 21
0.1136714286513832
 72
     1
 10
1.279483795915723
 20
0.1136714286513832
 11
1.270155392602968
 21
0.1136714286513832
 72
     1
 10
1.270155392602969
 20
0.1136714286513832
 11
1.260547137190832
 21
0.1136714286513832
 72
     1
 10
1.260547137190831
 20
0.1136714286513832
 11
1.250752313712437
 21
0.1136714286513832
 72
     1
 10
1.250752313712437
 20
0.1136714286513832
 11
1.241330626366554
 21
0.1136714286513832
 72
     1
 10
1.241330626366555
 20
0.1136714286513832
 11
1.23237535918631
 21
0.1136714286513832
 72
     1
 10
1.232375359186308
 20
0.1136714286513832
 11
1.224166364271082
 21
0.1136714286513832
 72
     1
 10
1.224166364271083
 20
0.1136714286513832
 11
1.217170061786517
 21
0.1136714286513832
 72
     1
 10
1.217170061786517
 20
0.1136714286513832
 11
1.211479735765737
 21
0.1136714286513832
 72
     1
 10
1.211479735765737
 20
0.1136714286513832
 11
1.20756180637438
 21
0.1136714286513832
 72
     1
 10
1.207561806374379
 20
0.1136714286513832
 11
1.2056028416787
 21
0.1136714286513832
 72
     1
 10
1.205602841678699
 20
0.1136714286513832
 11
1.205602841678699
 21
0.1163766656120825
 72
     1
 10
1.205602841678699
 20
0.1163766656120823
 11
1.205602841678699
 21
0.1209475832353323
 72
     1
 10
1.205602841678699
 20
0.1209475832353325
 11
1.205602841678699
 21
0.1267311932892411
 72
     1
 10
1.205602841678699
 20
0.1267311932892408
 11
1.205602841678699
 21
0.1330745075419143
 72
     1
 10
1.205602841678699
 20
0.1330745075419144
 11
1.205602841678699
 21
0.1395111058277156
 72
     1
 10
1.205602841678699
 20
0.1395111058277158
 11
1.205602841678699
 21
0.1452947158816239
 72
     1
 10
1.205602841678699
 20
0.145294715881624
 11
1.205602841678699
 21
0.1498656335048746
 72
     1
 10
1.205602841678699
 20
0.1498656335048745
 11
1.205602841678699
 21
0.1525708704655738
 97
        0
 75
     0
 76
     1
 98
        1
 10
-0.3743130907707726
 20
-0.2500502867693841
1001
ACAD
1010
0.0
1020
0.0
1030
0.0
  0
HATCH
  5
810D
330
8107
100
AcDbEntity
  8
Kawneer Logo-English
100
AcDbHatch
 10
0.0
 20
0.0
 30
0.0
210
0.0
220
0.0
230
1.0
  2
SOLID
 70
     1
 71
     0
 91
        1
 92
        1
 93
       87
 72
     1
 10
1.049352086190046
 20
0.1525708704655737
 11
1.051217766852597
 21
0.1525708704655737
 72
     1
 10
1.051217766852596
 20
0.1525708704655737
 11
1.054949128177699
 21
0.1525708704655737
 72
     1
 10
1.0549491281777
 20
0.1525708704655737
 11
1.060173034032843
 21
0.1525708704655737
 72
     1
 10
1.060173034032843
 20
0.1525708704655737
 11
1.0667962003849
 21
0.1525708704655737
 72
     1
 10
1.0667962003849
 20
0.1525708704655737
 11
1.074352207068231
 21
0.1525708704655737
 72
     1
 10
1.074352207068232
 20
0.1525708704655737
 11
1.082747770049711
 21
0.1525708704655737
 72
     1
 10
1.082747770049711
 20
0.1525708704655737
 11
1.0915164691637
 21
0.1525708704655737
 72
     1
 10
1.091516469163701
 20
0.1525708704655737
 11
1.100565020377075
 21
0.1525708704655737
 72
     1
 10
1.100565020377073
 20
0.1525708704655737
 11
1.109520287557319
 21
0.1525708704655737
 72
     1
 10
1.10952028755732
 20
0.1525708704655737
 11
1.118195702638183
 21
0.1525708704655737
 72
     1
 10
1.118195702638182
 20
0.1525708704655737
 11
1.126218129487151
 21
0.1525708704655737
 72
     1
 10
1.126218129487152
 20
0.1525708704655737
 11
1.133401000037974
 21
0.1525708704655737
 72
     1
 10
1.133401000037974
 20
0.1525708704655737
 11
1.139557746224391
 21
0.1525708704655737
 72
     1
 10
1.139557746224392
 20
0.1525708704655737
 11
1.14422194788077
 21
0.1525708704655737
 72
     1
 10
1.144221947880769
 20
0.1525708704655737
 11
1.147207036940851
 21
0.1525708704655737
 72
     1
 10
1.147207036940852
 20
0.1525708704655737
 11
1.148233161305255
 21
0.1525708704655737
 72
     1
 10
1.148233161305255
 20
0.1525708704655737
 11
1.148233161305255
 21
0.1730000737205081
 72
     1
 10
1.148233161305255
 20
0.1730000737205078
 11
1.147207036940852
 21
0.1730000737205078
 72
     1
 10
1.147207036940852
 20
0.1730000737205078
 11
1.14422194788077
 21
0.1730000737205078
 72
     1
 10
1.144221947880769
 20
0.1730000737205078
 11
1.139557746224391
 21
0.1730000737205078
 72
     1
 10
1.139557746224392
 20
0.1730000737205078
 11
1.133494284071101
 21
0.1730000737205078
 72
     1
 10
1.133494284071101
 20
0.1730000737205078
 11
1.126218129487152
 21
0.1730000737205078
 72
     1
 10
1.126218129487152
 20
0.1730000737205078
 11
1.118195702638183
 21
0.1730000737205078
 72
     1
 10
1.118195702638182
 20
0.1730000737205078
 11
1.10952028755732
 21
0.1730000737205078
 72
     1
 10
1.10952028755732
 20
0.1730000737205078
 11
1.100565020377074
 21
0.1730000737205078
 72
     1
 10
1.100565020377073
 20
0.1730000737205078
 11
1.0915164691637
 21
0.1730000737205078
 72
     1
 10
1.091516469163701
 20
0.1730000737205078
 11
1.082747770049712
 21
0.1730000737205078
 72
     1
 10
1.082747770049711
 20
0.1730000737205078
 11
1.074352207068231
 21
0.1730000737205078
 72
     1
 10
1.074352207068232
 20
0.1730000737205078
 11
1.0667962003849
 21
0.1730000737205078
 72
     1
 10
1.0667962003849
 20
0.1730000737205078
 11
1.060173034032843
 21
0.1730000737205078
 72
     1
 10
1.060173034032843
 20
0.1730000737205078
 11
1.054949128177701
 21
0.1730000737205078
 72
     1
 10
1.0549491281777
 20
0.1730000737205078
 11
1.051217766852597
 21
0.1730000737205078
 72
     1
 10
1.051217766852596
 20
0.1730000737205078
 11
1.049352086190045
 21
0.1730000737205078
 72
     1
 10
1.049352086190046
 20
0.1730000737205078
 11
1.049352086190046
 21
0.1754254585818243
 72
     1
 10
1.049352086190046
 20
0.1754254585818245
 11
1.049352086190046
 21
0.1794366720063095
 72
     1
 10
1.049352086190046
 20
0.1794366720063094
 11
1.049352086190046
 21
0.1843807257620694
 72
     1
 10
1.049352086190046
 20
0.1843807257620694
 11
1.049352086190046
 21
0.1898844837165951
 72
     1
 10
1.049352086190046
 20
0.1898844837165951
 11
1.049352086190046
 21
0.1952949576379935
 72
     1
 10
1.049352086190046
 20
0.1952949576379937
 11
1.049352086190046
 21
0.2003322954268815
 72
     1
 10
1.049352086190046
 20
0.2003322954268814
 11
1.049352086190046
 21
0.2042502248182386
 72
     1
 10
1.049352086190046
 20
0.2042502248182386
 11
1.049352086190046
 21
0.206675609679555
 72
     1
 10
1.049352086190046
 20
0.206675609679555
 11
1.051217766852597
 21
0.206675609679555
 72
     1
 10
1.051217766852596
 20
0.206675609679555
 11
1.055042412210825
 21
0.206675609679555
 72
     1
 10
1.055042412210827
 20
0.206675609679555
 11
1.060452886132226
 21
0.206675609679555
 72
     1
 10
1.060452886132225
 20
0.206675609679555
 11
1.067169336517409
 21
0.206675609679555
 72
     1
 10
1.06716933651741
 20
0.206675609679555
 11
1.075005195300124
 21
0.206675609679555
 72
     1
 10
1.075005195300123
 20
0.206675609679555
 11
1.083494042314731
 21
0.206675609679555
 72
     1
 10
1.083494042314732
 20
0.206675609679555
 11
1.092542593528105
 21
0.206675609679555
 72
     1
 10
1.092542593528106
 20
0.206675609679555
 11
1.10187099684086
 21
0.206675609679555
 72
     1
 10
1.101870996840861
 20
0.206675609679555
 11
1.111106116120489
 21
0.206675609679555
 72
     1
 10
1.111106116120488
 20
0.206675609679555
 11
1.119968099267605
 21
0.206675609679555
 72
     1
 10
1.119968099267605
 20
0.206675609679555
 11
1.128270378215957
 21
0.206675609679555
 72
     1
 10
1.128270378215957
 20
0.206675609679555
 11
1.135639816833034
 21
0.206675609679555
 72
     1
 10
1.135639816833034
 20
0.206675609679555
 11
1.14188984705258
 21
0.206675609679555
 72
     1
 10
1.141889847052581
 20
0.206675609679555
 11
1.146647332742086
 21
0.206675609679555
 72
     1
 10
1.146647332742086
 20
0.206675609679555
 11
1.149725705835295
 21
0.206675609679555
 72
     1
 10
1.149725705835296
 20
0.206675609679555
 11
1.150845114232827
 21
0.206675609679555
 72
     1
 10
1.150845114232826
 20
0.206675609679555
 11
1.150845114232826
 21
0.2277578011663822
 72
     1
 10
1.150845114232826
 20
0.2277578011663825
 11
1.148326445338383
 21
0.2277578011663825
 72
     1
 10
1.148326445338383
 20
0.2277578011663825
 11
1.025937793875031
 21
0.2277578011663825
 72
     1
 10
1.025937793875032
 20
0.2277578011663825
 11
1.025937793875032
 21
0.0926825211976832
 72
     1
 10
1.025937793875032
 20
0.0926825211976832
 11
1.155602599922332
 21
0.0926825211976832
 72
     1
 10
1.155602599922332
 20
0.0926825211976832
 11
1.155602599922332
 21
0.113671428651383
 72
     1
 10
1.155602599922332
 20
0.1136714286513832
 11
1.154483191524801
 21
0.1136714286513832
 72
     1
 10
1.154483191524799
 20
0.1136714286513832
 11
1.151218250365336
 21
0.1136714286513832
 72
     1
 10
1.151218250365338
 20
0.1136714286513832
 11
1.146180912576449
 21
0.1136714286513832
 72
     1
 10
1.146180912576449
 20
0.1136714286513832
 11
1.13965103025752
 21
0.1136714286513832
 72
     1
 10
1.13965103025752
 20
0.1136714286513832
 11
1.131908455507932
 21
0.1136714286513832
 72
     1
 10
1.131908455507931
 20
0.1136714286513832
 11
1.12323304042707
 21
0.1136714286513832
 72
     1
 10
1.123233040427071
 20
0.1136714286513832
 11
1.113904637114314
 21
0.1136714286513832
 72
     1
 10
1.113904637114314
 20
0.1136714286513832
 11
1.104296381702177
 21
0.1136714286513832
 72
     1
 10
1.104296381702177
 20
0.1136714286513832
 11
1.094501558223783
 21
0.1136714286513832
 72
     1
 10
1.094501558223784
 20
0.1136714286513832
 11
1.085079870877901
 21
0.1136714286513832
 72
     1
 10
1.085079870877899
 20
0.1136714286513832
 11
1.076124603697654
 21
0.1136714286513832
 72
     1
 10
1.076124603697655
 20
0.1136714286513832
 11
1.067915608782429
 21
0.1136714286513832
 72
     1
 10
1.067915608782429
 20
0.1136714286513832
 11
1.060919306297863
 21
0.1136714286513832
 72
     1
 10
1.060919306297863
 20
0.1136714286513832
 11
1.055228980277083
 21
0.1136714286513832
 72
     1
 10
1.055228980277082
 20
0.1136714286513832
 11
1.051311050885725
 21
0.1136714286513832
 72
     1
 10
1.051311050885726
 20
0.1136714286513832
 11
1.049352086190046
 21
0.1136714286513832
 72
     1
 10
1.049352086190046
 20
0.1136714286513832
 11
1.049352086190046
 21
0.1163766656120825
 72
     1
 10
1.049352086190046
 20
0.1163766656120823
 11
1.049352086190046
 21
0.1209475832353323
 72
     1
 10
1.049352086190046
 20
0.1209475832353325
 11
1.049352086190046
 21
0.1267311932892411
 72
     1
 10
1.049352086190046
 20
0.1267311932892408
 11
1.049352086190046
 21
0.1330745075419143
 72
     1
 10
1.049352086190046
 20
0.1330745075419144
 11
1.049352086190046
 21
0.1395111058277156
 72
     1
 10
1.049352086190046
 20
0.1395111058277158
 11
1.049352086190046
 21
0.1452947158816239
 72
     1
 10
1.049352086190046
 20
0.145294715881624
 11
1.049352086190046
 21
0.1498656335048746
 72
     1
 10
1.049352086190046
 20
0.1498656335048745
 11
1.049352086190046
 21
0.1525708704655738
 97
        0
 75
     0
 76
     1
 98
        1
 10
-0.3743130907707726
 20
-0.2500502867693841
1001
ACAD
1010
0.0
1020
0.0
1030
0.0
  0
HATCH
  5
810E
330
8107
100
AcDbEntity
  8
Kawneer Logo-English
100
AcDbHatch
 10
0.0
 20
0.0
 30
0.0
210
0.0
220
0.0
230
1.0
  2
SOLID
 70
     1
 71
     0
 91
        1
 92
        1
 93
       42
 72
     1
 10
0.9725793269260698
 20
0.2277578011663825
 11
0.9725793269260698
 21
0.1354998924032311
 72
     1
 10
0.9725793269260698
 20
0.1354998924032311
 11
0.9729524630585808
 21
0.1264513411898582
 72
     1
 10
0.9729524630585796
 20
0.1264513411898583
 11
0.9729524630585796
 21
0.1255185008585825
 72
     1
 10
0.9729524630585796
 20
0.1255185008585824
 11
0.9731390311248343
 21
0.1238393882622866
 72
     1
 10
0.9731390311248349
 20
0.1238393882622866
 11
0.9717397706279211
 21
0.1254252168254551
 72
     1
 10
0.97173977062792
 20
0.1254252168254551
 11
0.9710867823960281
 21
0.1262647731236031
 72
     1
 10
0.9710867823960294
 20
0.1262647731236031
 11
0.9641837639445897
 21
0.1339140638400625
 72
     1
 10
0.9641837639445899
 20
0.1339140638400624
 11
0.8755639324734129
 21
0.2277578011663823
 72
     1
 10
0.8755639324734115
 20
0.2277578011663825
 11
0.8529891964565429
 21
0.2277578011663825
 72
     1
 10
0.8529891964565434
 20
0.2277578011663825
 11
0.8529891964565434
 21
0.0926825211976832
 72
     1
 10
0.8529891964565434
 20
0.0926825211976832
 11
0.8756572165065401
 21
0.0926825211976832
 72
     1
 10
0.875657216506541
 20
0.0926825211976832
 11
0.875657216506541
 21
0.1927762887435495
 72
     1
 10
0.875657216506541
 20
0.1927762887435495
 11
0.875657216506541
 21
0.1931494248760597
 72
     1
 10
0.875657216506541
 20
0.1931494248760596
 11
0.8755639324734129
 21
0.193988981174208
 72
     1
 10
0.8755639324734115
 20
0.1939889811742079
 11
0.8754706484402849
 21
0.1952949576379935
 72
     1
 10
0.8754706484402859
 20
0.1952949576379937
 11
0.8753773644071577
 21
0.1967875021680344
 72
     1
 10
0.875377364407158
 20
0.1967875021680343
 11
0.8755639324734126
 21
0.1965076500686515
 72
     1
 10
0.8755639324734115
 20
0.1965076500686517
 11
0.8756572165065396
 21
0.1963210820023967
 72
     1
 10
0.875657216506541
 20
0.1963210820023967
 11
0.8764967728046894
 21
0.1954815257042487
 72
     1
 10
0.8764967728046887
 20
0.1954815257042488
 11
0.8781758854009835
 21
0.1936158450416976
 72
     1
 10
0.8781758854009842
 20
0.1936158450416973
 11
0.8797617139641527
 21
0.1917501643791464
 72
     1
 10
0.879761713964152
 20
0.1917501643791466
 11
0.8805079862291723
 21
0.1909106080809982
 72
     1
 10
0.8805079862291727
 20
0.190910608080998
 11
0.8816273946267036
 21
0.1897911996834678
 72
     1
 10
0.8816273946267028
 20
0.1897911996834681
 11
0.884519199653657
 21
0.1867128265902584
 72
     1
 10
0.8845191996536581
 20
0.1867128265902582
 11
0.8891834013100353
 21
0.1818620568676254
 72
     1
 10
0.889183401310035
 20
0.1818620568676252
 11
0.8951535794301982
 21
0.1756120266480794
 72
     1
 10
0.8951535794301985
 20
0.1756120266480794
 11
0.9021498819147662
 21
0.1681493039978751
 72
     1
 10
0.9021498819147669
 20
0.1681493039978752
 11
0.9099857406974814
 21
0.1598470250495227
 72
     1
 10
0.9099857406974813
 20
0.1598470250495225
 11
0.9183813036789613
 21
0.1509850419024051
 72
     1
 10
0.9183813036789612
 20
0.1509850419024052
 11
0.9271500027929521
 21
0.1418432066559046
 72
     1
 10
0.9271500027929509
 20
0.1418432066559046
 11
0.9358254178738118
 21
0.1326080873762767
 72
     1
 10
0.9358254178738132
 20
0.1326080873762767
 11
0.9442209808552931
 21
0.1237461042291589
 72
     1
 10
0.9442209808552931
 20
0.1237461042291589
 11
0.9520568396380092
 21
0.1154438252808068
 72
     1
 10
0.9520568396380092
 20
0.1154438252808068
 11
0.9590531421225751
 21
0.1079811026306025
 72
     1
 10
0.959053142122574
 20
0.1079811026306024
 11
0.9650233202427372
 21
0.101731072411056
 72
     1
 10
0.9650233202427376
 20
0.101731072411056
 11
0.9695942378659868
 21
0.0968803026884232
 72
     1
 10
0.9695942378659871
 20
0.096880302688423
 11
0.9725793269260696
 21
0.0938019295952138
 72
     1
 10
0.9725793269260698
 20
0.093801929595214
 11
0.9736054512904727
 21
0.0926825211976834
 72
     1
 10
0.9736054512904726
 20
0.0926825211976832
 11
0.9952473469760661
 21
0.0926825211976832
 72
     1
 10
0.9952473469760651
 20
0.0926825211976832
 11
0.9952473469760651
 21
0.2277578011663825
 72
     1
 10
0.9952473469760651
 20
0.2277578011663825
 11
0.9927286780816201
 21
0.2277578011663825
 72
     1
 10
0.9927286780816203
 20
0.2277578011663825
 11
0.9725793269260686
 21
0.2277578011663825
 97
        0
 75
     0
 76
     1
 98
        1
 10
-0.3743130907707726
 20
-0.2500502867693841
1001
ACAD
1010
0.0
1020
0.0
1030
0.0
  0
HATCH
  5
810F
330
8107
100
AcDbEntity
  8
Kawneer Logo-English
100
AcDbHatch
 10
0.0
 20
0.0
 30
0.0
210
0.0
220
0.0
230
1.0
  2
SOLID
 70
     1
 71
     0
 91
        2
 92
       16
 93
       32
 72
     1
 10
0.5269615006757409
 20
0.144641727649731
 11
0.5290137494045469
 21
0.148652941074216
 72
     1
 10
0.5290137494045464
 20
0.1486529410742159
 11
0.5322786905640116
 21
0.1551828233931449
 72
     1
 10
0.532278690564012
 20
0.1551828233931452
 11
0.5364764720547521
 21
0.1633918183083696
 72
     1
 10
0.5364764720547526
 20
0.1633918183083696
 11
0.5409541056448736
 21
0.1722538014554874
 72
     1
 10
0.5409541056448726
 20
0.1722538014554873
 11
0.545338455201869
 21
0.1808359325032223
 72
     1
 10
0.5453384552018701
 20
0.1808359325032223
 11
0.5490698165269726
 21
0.1882053711202994
 72
     1
 10
0.549069816526973
 20
0.1882053711202996
 11
0.5515884854214162
 21
0.1932427089091875
 72
     1
 10
0.5515884854214148
 20
0.1932427089091872
 11
0.5526146097858177
 21
0.1952016736048658
 72
     1
 10
0.5526146097858194
 20
0.1952016736048658
 11
0.552801177852074
 21
0.195761377803631
 72
     1
 10
0.5528011778520723
 20
0.1957613778036309
 11
0.5533608820508379
 21
0.1970673542674166
 72
     1
 10
0.5533608820508378
 20
0.1970673542674169
 11
0.5542004383489863
 21
0.1990263189630955
 72
     1
 10
0.5542004383489872
 20
0.1990263189630952
 11
0.5550399946471356
 21
0.2012651357581567
 72
     1
 10
0.5550399946471352
 20
0.2012651357581567
 11
0.5555064148127727
 21
0.2001457273606265
 72
     1
 10
0.5555064148127729
 20
0.2001457273606264
 11
0.5560661190115385
 21
0.198933034929968
 72
     1
 10
0.5560661190115379
 20
0.198933034929968
 11
0.5567191072434298
 21
0.197533774433055
 72
     1
 10
0.5567191072434304
 20
0.197533774433055
 11
0.5574653795084506
 21
0.1959479458698865
 72
     1
 10
0.557465379508451
 20
0.1959479458698865
 11
0.5583049358065995
 21
0.1942688332735902
 72
     1
 10
0.5583049358065986
 20
0.1942688332735903
 11
0.5606370366347874
 21
0.1896046316172126
 72
     1
 10
0.5606370366347871
 20
0.1896046316172126
 11
0.5639952618273804
 21
0.1828881812320289
 72
     1
 10
0.5639952618273814
 20
0.1828881812320287
 11
0.5680064752518651
 21
0.1748657543830587
 72
     1
 10
0.5680064752518637
 20
0.1748657543830589
 11
0.57239082480886
 21
0.1661903393021966
 72
     1
 10
0.5723908248088612
 20
0.1661903393021967
 11
0.5765886062996012
 21
0.1577947763207168
 72
     1
 10
0.5765886062996
 20
0.1577947763207165
 11
0.5803199676247008
 21
0.1503320536705122
 72
     1
 10
0.5803199676247015
 20
0.1503320536705122
 11
0.5831184886185295
 21
0.144641727649731
 72
     1
 10
0.5831184886185295
 20
0.144641727649731
 11
0.5791072751940441
 21
0.144641727649731
 72
     1
 10
0.5791072751940436
 20
0.144641727649731
 11
0.5724841088419869
 21
0.144641727649731
 72
     1
 10
0.5724841088419872
 20
0.144641727649731
 11
0.5641818298936356
 21
0.144641727649731
 72
     1
 10
0.5641818298936352
 20
0.144641727649731
 11
0.5550399946471351
 21
0.144641727649731
 72
     1
 10
0.5550399946471352
 20
0.144641727649731
 11
0.5458981594006351
 21
0.144641727649731
 72
     1
 10
0.5458981594006352
 20
0.144641727649731
 11
0.5375958804522815
 21
0.144641727649731
 72
     1
 10
0.5375958804522814
 20
0.144641727649731
 11
0.5310659981333528
 21
0.144641727649731
 72
     1
 10
0.5310659981333524
 20
0.144641727649731
 11
0.5269615006757405
 21
0.144641727649731
 97
        0
 92
        1
 93
      141
 72
     1
 10
0.5656743744236757
 20
0.2277578011663825
 11
0.544405614870593
 21
0.2277578011663825
 72
     1
 10
0.544405614870593
 20
0.2277578011663825
 11
0.4748157261574382
 21
0.0934287934627039
 72
     1
 10
0.4748157261574378
 20
0.0934287934627039
 11
0.4729500454948865
 21
0.0955743262246376
 72
     1
 10
0.4729500454948874
 20
0.0955743262246376
 11
0.4699649564348049
 21
0.0991191194834847
 72
     1
 10
0.4699649564348043
 20
0.0991191194834847
 11
0.4661403110765752
 21
0.1036900371067346
 72
     1
 10
0.4661403110765754
 20
0.1036900371067347
 11
0.4615693934533244
 21
0.1091005110281331
 72
     1
 10
0.461569393453325
 20
0.109100511028133
 11
0.456345487598182
 21
0.1152572572145517
 72
     1
 10
0.4563454875981812
 20
0.1152572572145516
 11
0.4506551615774008
 21
0.1219737075997353
 72
     1
 10
0.4506551615774015
 20
0.1219737075997354
 11
0.4447782674903648
 21
0.1290632941174296
 72
     1
 10
0.4447782674903636
 20
0.1290632941174296
 11
0.4387148053370722
 21
0.1362461646682511
 72
     1
 10
0.4387148053370727
 20
0.1362461646682512
 11
0.4326513431837832
 21
0.1433357511859454
 72
     1
 10
0.4326513431837844
 20
0.1433357511859453
 11
0.4268677331298759
 21
0.1502387696373844
 72
     1
 10
0.4268677331298756
 20
0.1502387696373844
 11
0.4214572592084763
 21
0.1566753679231857
 72
     1
 10
0.4214572592084754
 20
0.1566753679231858
 11
0.4165132054527153
 21
0.1625522620102216
 72
     1
 10
0.4165132054527163
 20
0.1625522620102216
 11
0.4123154239619763
 21
0.1674963157659821
 72
     1
 10
0.4123154239619753
 20
0.1674963157659822
 11
0.4088639147362555
 21
0.1715075291904667
 72
     1
 10
0.4088639147362568
 20
0.1715075291904669
 11
0.4065318139080681
 21
0.1743993342174211
 72
     1
 10
0.4065318139080665
 20
0.1743993342174211
 11
0.405319121477409
 21
0.1757985947143345
 72
     1
 10
0.4053191214774104
 20
0.1757985947143345
 11
0.4067183819743243
 21
0.1769180031118651
 72
     1
 10
0.4067183819743235
 20
0.1769180031118651
 11
0.4094236189350213
 21
0.1788769678075437
 72
     1
 10
0.4094236189350218
 20
0.1788769678075437
 11
0.4132482642932526
 21
0.1816754888013702
 72
     1
 10
0.4132482642932525
 20
0.1816754888013703
 11
0.4179124659496298
 21
0.1852202820602174
 72
     1
 10
0.417912465949629
 20
0.1852202820602174
 11
0.4232296558379
 21
0.189138211451575
 72
     1
 10
0.4232296558379001
 20
0.1891382114515751
 11
0.4291065499249351
 21
0.1935225610085696
 72
     1
 10
0.4291065499249367
 20
0.1935225610085698
 11
0.4352632961113562
 21
0.1981867626649482
 72
     1
 10
0.4352632961113554
 20
0.1981867626649479
 11
0.4416066103640296
 21
0.2028509643213252
 72
     1
 10
0.4416066103640293
 20
0.2028509643213252
 11
0.4479499246167016
 21
0.2076084500108307
 72
     1
 10
0.4479499246167018
 20
0.2076084500108307
 11
0.4540133867699932
 21
0.2120860836009535
 72
     1
 10
0.4540133867699927
 20
0.2120860836009535
 11
0.4596104287576467
 21
0.2162838650916932
 72
     1
 10
0.4596104287576468
 20
0.216283865091693
 11
0.4646477665465351
 21
0.2200152264167952
 72
     1
 10
0.464647766546535
 20
0.2200152264167951
 11
0.4689388320704013
 21
0.223186883543132
 72
     1
 10
0.4689388320704016
 20
0.2231868835431323
 11
0.4721104891967386
 21
0.2256122684044488
 72
     1
 10
0.4721104891967376
 20
0.2256122684044488
 11
0.4742560219586717
 21
0.2271980969676172
 72
     1
 10
0.4742560219586727
 20
0.2271980969676173
 11
0.475002294223693
 21
0.2277578011663825
 72
     1
 10
0.4750022942236929
 20
0.2277578011663825
 11
0.4674462875403612
 21
0.2277578011663825
 72
     1
 10
0.4674462875403611
 20
0.2277578011663825
 11
0.4395543616352215
 21
0.2277578011663825
 72
     1
 10
0.439554361635222
 20
0.2277578011663825
 11
0.4386215213039473
 21
0.2270115289013622
 72
     1
 10
0.4386215213039466
 20
0.2270115289013622
 11
0.4359162843432469
 21
0.2250525642056836
 72
     1
 10
0.4359162843432465
 20
0.2250525642056836
 11
0.4318117868856346
 21
0.2220674751456017
 72
     1
 10
0.4318117868856351
 20
0.2220674751456017
 11
0.4264013129642376
 21
0.2180562617211167
 72
     1
 10
0.4264013129642379
 20
0.2180562617211168
 11
0.4200579987115638
 21
0.2132987760316117
 72
     1
 10
0.4200579987115641
 20
0.2132987760316114
 11
0.4128751281607416
 21
0.2079815861433408
 72
     1
 10
0.4128751281607408
 20
0.2079815861433408
 11
0.4051325534111546
 21
0.20229126012256
 72
     1
 10
0.4051325534111552
 20
0.20229126012256
 11
0.397016842529058
 21
0.1963210820023964
 72
     1
 10
0.3970168425290583
 20
0.1963210820023967
 11
0.3889011316469611
 21
0.1903509038822331
 72
     1
 10
0.3889011316469611
 20
0.190350903882233
 11
0.3808787047979902
 21
0.1844740097951972
 72
     1
 10
0.3808787047979898
 20
0.1844740097951974
 11
0.3733226981146581
 21
0.1787836837744166
 72
     1
 10
0.373322698114658
 20
0.1787836837744166
 11
0.3663263956300919
 21
0.173653061952401
 72
     1
 10
0.3663263956300931
 20
0.173653061952401
 11
0.3601696494436735
 21
0.169082144329151
 72
     1
 10
0.3601696494436726
 20
0.1690821443291508
 11
0.3550390276216579
 21
0.1653507830040483
 72
     1
 10
0.3550390276216584
 20
0.1653507830040482
 11
0.3513076662965558
 21
0.1625522620102218
 72
     1
 10
0.3513076662965551
 20
0.1625522620102216
 11
0.3490688495014928
 21
0.1609664334470531
 72
     1
 10
0.3490688495014926
 20
0.1609664334470531
 11
0.3490688495014926
 21
0.1631119662089868
 72
     1
 10
0.3490688495014926
 20
0.1631119662089868
 11
0.3490688495014926
 21
0.1662836233353237
 72
     1
 10
0.3490688495014926
 20
0.1662836233353238
 11
0.3490688495014926
 21
0.1702948367598088
 72
     1
 10
0.3490688495014926
 20
0.1702948367598088
 11
0.3490688495014926
 21
0.1749590384161865
 72
     1
 10
0.3490688495014926
 20
0.1749590384161865
 11
0.3490688495014926
 21
0.1801829442713294
 72
     1
 10
0.3490688495014926
 20
0.1801829442713296
 11
0.3490688495014926
 21
0.185779986258983
 72
     1
 10
0.3490688495014926
 20
0.1857799862589829
 11
0.3490688495014926
 21
0.1916568803460187
 72
     1
 10
0.3490688495014926
 20
0.1916568803460186
 11
0.3490688495014926
 21
0.1975337744330549
 72
     1
 10
0.3490688495014926
 20
0.197533774433055
 11
0.3490688495014926
 21
0.2033173844869632
 72
     1
 10
0.3490688495014926
 20
0.2033173844869631
 11
0.3490688495014926
 21
0.2088211424414888
 72
     1
 10
0.3490688495014926
 20
0.2088211424414888
 11
0.3490688495014926
 21
0.2139517642635044
 72
     1
 10
0.3490688495014926
 20
0.2139517642635044
 11
0.3490688495014926
 21
0.2185226818867544
 72
     1
 10
0.3490688495014926
 20
0.2185226818867545
 11
0.3490688495014926
 21
0.2222540432118567
 72
     1
 10
0.3490688495014926
 20
0.2222540432118567
 11
0.3490688495014926
 21
0.2252391322719387
 72
     1
 10
0.3490688495014926
 20
0.2252391322719387
 11
0.3490688495014926
 21
0.2271048129344895
 72
     1
 10
0.3490688495014926
 20
0.2271048129344895
 11
0.3490688495014926
 21
0.2277578011663825
 72
     1
 10
0.3490688495014926
 20
0.2277578011663825
 11
0.3258411252527322
 21
0.2277578011663825
 72
     1
 10
0.3258411252527336
 20
0.2277578011663825
 11
0.3258411252527336
 21
0.0926825211976832
 72
     1
 10
0.3258411252527336
 20
0.0926825211976832
 11
0.3486957133689848
 21
0.0926825211976832
 72
     1
 10
0.3486957133689845
 20
0.0926825211976832
 11
0.3486957133689845
 21
0.0943616337939795
 72
     1
 10
0.3486957133689845
 20
0.0943616337939795
 11
0.3486957133689845
 21
0.0988392673841017
 72
     1
 10
0.3486957133689845
 20
0.0988392673841017
 11
0.3486957133689845
 21
0.1051825816367752
 72
     1
 10
0.3486957133689845
 20
0.1051825816367753
 11
0.3486957133689845
 21
0.1125520202538523
 72
     1
 10
0.3486957133689845
 20
0.1125520202538524
 11
0.3486957133689845
 21
0.1200147429040567
 72
     1
 10
0.3486957133689845
 20
0.1200147429040567
 11
0.3486957133689845
 21
0.1267311932892408
 72
     1
 10
0.3486957133689845
 20
0.1267311932892408
 11
0.3486957133689845
 21
0.1317685310781287
 72
     1
 10
0.3486957133689845
 20
0.1317685310781289
 11
0.3486957133689845
 21
0.1342871999725727
 72
     1
 10
0.3486957133689845
 20
0.1342871999725725
 11
0.3507479620977905
 21
0.1356864604694859
 72
     1
 10
0.35074796209779
 20
0.1356864604694859
 11
0.3548524595554018
 21
0.1387648335626952
 72
     1
 10
0.3548524595554015
 20
0.1387648335626952
 11
0.3605427855761835
 21
0.1428693310203079
 72
     1
 10
0.3605427855761842
 20
0.1428693310203079
 11
0.3668860998288565
 21
0.1476268167098129
 72
     1
 10
0.3668860998288568
 20
0.1476268167098129
 11
0.373322698114659
 21
0.1522910183661906
 72
     1
 10
0.373322698114658
 20
0.1522910183661908
 11
0.3791995922016947
 21
0.1565820838900582
 72
     1
 10
0.3791995922016946
 20
0.1565820838900582
 11
0.3836772257918156
 21
0.1599403090826502
 72
     1
 10
0.3836772257918159
 20
0.1599403090826503
 11
0.386195894686261
 21
0.1618059897452011
 72
     1
 10
0.3861958946862609
 20
0.1618059897452011
 11
0.3873153030837921
 21
0.1604067292482882
 72
     1
 10
0.3873153030837915
 20
0.1604067292482878
 11
0.3894608358457238
 21
0.1577947763207163
 72
     1
 10
0.3894608358457248
 20
0.1577947763207165
 11
0.3925392089389353
 21
0.1541566990287417
 72
     1
 10
0.3925392089389348
 20
0.1541566990287417
 11
0.396457138330292
 21
0.149492497372364
 72
     1
 10
0.3964571383302933
 20
0.149492497372364
 11
0.4009347719204161
 21
0.1442685915172211
 72
     1
 10
0.4009347719204146
 20
0.1442685915172209
 11
0.4057855416430466
 21
0.138391697430185
 72
     1
 10
0.4057855416430463
 20
0.1383916974301853
 11
0.4109161634650628
 21
0.1322349512437666
 72
     1
 10
0.410916163465064
 20
0.1322349512437666
 11
0.4162333533533335
 21
0.1259849210242201
 72
     1
 10
0.4162333533533334
 20
0.1259849210242201
 11
0.4215505432416044
 21
0.1196416067715466
 72
     1
 10
0.4215505432416045
 20
0.1196416067715466
 11
0.4265878810304927
 21
0.113671428651383
 72
     1
 10
0.4265878810304931
 20
0.1136714286513832
 11
0.4312520826868704
 21
0.1079811026306024
 72
     1
 10
0.4312520826868696
 20
0.1079811026306024
 11
0.4355431482107378
 21
0.1029437648417141
 72
     1
 10
0.435543148210738
 20
0.1029437648417139
 11
0.4390879414695842
 21
0.0987459833509739
 72
     1
 10
0.4390879414695843
 20
0.0987459833509741
 11
0.4417931784302841
 21
0.0954810421915098
 72
     1
 10
0.4417931784302845
 20
0.0954810421915096
 11
0.4435655750597076
 21
0.0934287934627037
 72
     1
 10
0.4435655750597074
 20
0.0934287934627039
 11
0.4442185632915993
 21
0.0926825211976832
 72
     1
 10
0.4442185632915985
 20
0.0926825211976832
 11
0.4743493059918004
 21
0.0926825211976832
 72
     1
 10
0.4743493059918001
 20
0.0926825211976832
 11
0.4753754303562029
 21
0.0926825211976832
 72
     1
 10
0.4753754303562033
 20
0.0926825211976832
 11
0.5008419714000258
 21
0.0926825211976832
 72
     1
 10
0.5008419714000265
 20
0.0926825211976832
 11
0.5014949596319184
 21
0.0939884976614689
 72
     1
 10
0.501494959631919
 20
0.0939884976614688
 11
0.5031740722282155
 21
0.0973467228540609
 72
     1
 10
0.503174072228215
 20
0.0973467228540612
 11
0.5055061730564038
 21
0.1021042085435666
 72
     1
 10
0.505506173056403
 20
0.1021042085435665
 11
0.5083046940502291
 21
0.1077012505312196
 72
     1
 10
0.5083046940502292
 20
0.1077012505312194
 11
0.5111032150440553
 21
0.1134848605851279
 72
     1
 10
0.5111032150440549
 20
0.1134848605851281
 11
0.5137151679716264
 21
0.1186154824071433
 72
     1
 10
0.5137151679716277
 20
0.1186154824071433
 11
0.5156741326673071
 21
0.1226266958316283
 72
     1
 10
0.5156741326673076
 20
0.122626695831628
 11
0.5167002570317104
 21
0.1247722285935621
 72
     1
 10
0.5167002570317103
 20
0.1247722285935622
 11
0.5180062334954961
 21
0.1247722285935622
 72
     1
 10
0.5180062334954961
 20
0.1247722285935622
 11
0.5207114704561957
 21
0.1247722285935622
 72
     1
 10
0.5207114704561944
 20
0.1247722285935622
 11
0.5246293998475517
 21
0.1247722285935622
 72
     1
 10
0.5246293998475525
 20
0.1247722285935622
 11
0.5295734536033125
 21
0.1247722285935622
 72
     1
 10
0.5295734536033115
 20
0.1247722285935622
 11
0.5352637796240919
 21
0.1247722285935622
 72
     1
 10
0.5352637796240929
 20
0.1247722285935622
 11
0.5415138098436386
 21
0.1247722285935622
 72
     1
 10
0.5415138098436394
 20
0.1247722285935622
 11
0.5482302602288245
 21
0.1247722285935622
 72
     1
 10
0.5482302602288236
 20
0.1247722285935622
 11
0.5551332786802616
 21
0.1247722285935622
 72
     1
 10
0.5551332786802608
 20
0.1247722285935622
 11
0.5620362971317004
 21
0.1247722285935622
 72
     1
 10
0.5620362971317015
 20
0.1247722285935622
 11
0.5687527475168847
 21
0.1247722285935622
 72
     1
 10
0.5687527475168839
 20
0.1247722285935622
 11
0.5750027777364317
 21
0.1247722285935622
 72
     1
 10
0.5750027777364322
 20
0.1247722285935622
 11
0.5806931037572126
 21
0.1247722285935622
 72
     1
 10
0.5806931037572119
 20
0.1247722285935622
 11
0.585637157512972
 21
0.1247722285935622
 72
     1
 10
0.5856371575129727
 20
0.1247722285935622
 11
0.5895550869043299
 21
0.1247722285935622
 72
     1
 10
0.5895550869043289
 20
0.1247722285935622
 11
0.5922603238650286
 21
0.1247722285935622
 72
     1
 10
0.5922603238650291
 20
0.1247722285935622
 11
0.5935663003288148
 21
0.1247722285935622
 72
     1
 10
0.5935663003288148
 20
0.1247722285935622
 11
0.5945924246932176
 21
0.1226266958316281
 72
     1
 10
0.5945924246932175
 20
0.122626695831628
 11
0.5965513893888953
 21
0.1186154824071431
 72
     1
 10
0.5965513893888957
 20
0.1186154824071433
 11
0.5991633423164672
 21
0.1134848605851281
 72
     1
 10
0.5991633423164667
 20
0.1134848605851281
 11
0.6019618633102946
 21
0.1077012505312196
 72
     1
 10
0.6019618633102959
 20
0.1077012505312194
 11
0.604760384304122
 21
0.1021042085435664
 72
     1
 10
0.6047603843041221
 20
0.1021042085435665
 11
0.6070924851323109
 21
0.0973467228540611
 72
     1
 10
0.6070924851323101
 20
0.0973467228540612
 11
0.6087715977286067
 21
0.0939884976614691
 72
     1
 10
0.6087715977286062
 20
0.0939884976614688
 11
0.609424585960498
 21
0.0926825211976832
 72
     1
 10
0.6094245859604986
 20
0.0926825211976832
 11
0.6363836715343633
 21
0.0926825211976832
 72
     1
 10
0.6363836715343641
 20
0.0926825211976832
 11
0.5671669189537184
 21
0.2277578011663825
 72
     1
 10
0.5671669189537179
 20
0.2277578011663825
 11
0.5656743744236758
 21
0.2277578011663825
 97
        0
 75
     0
 76
     1
 98
        1
 10
-0.3743130907707726
 20
-0.2500502867693841
1001
ACAD
1010
0.0
1020
0.0
1030
0.0
  0
HATCH
  5
8110
330
8107
100
AcDbEntity
  8
Kawneer Logo-English
100
AcDbHatch
 10
0.0
 20
0.0
 30
0.0
210
0.0
220
0.0
230
1.0
  2
SOLID
 70
     1
 71
     0
 91
        1
 92
        1
 93
       69
 72
     1
 10
0.8092389849197205
 20
0.2277578011663825
 11
0.778921674153266
 21
0.1309289747799811
 72
     1
 10
0.778921674153267
 20
0.1309289747799809
 11
0.7781754018882468
 21
0.1287834420180468
 72
     1
 10
0.7781754018882468
 20
0.1287834420180467
 11
0.7776156976894812
 21
0.1270110453886236
 72
     1
 10
0.7776156976894813
 20
0.1270110453886237
 11
0.7771492775238438
 21
0.1253319327923275
 72
     1
 10
0.7771492775238436
 20
0.1253319327923274
 11
0.7766828573582045
 21
0.1238393882622867
 72
     1
 10
0.7766828573582046
 20
0.1238393882622866
 11
0.7764030052588217
 21
0.1248655126266895
 72
     1
 10
0.776403005258822
 20
0.1248655126266896
 11
0.7761231531594392
 21
0.1259849210242202
 72
     1
 10
0.7761231531594391
 20
0.1259849210242201
 11
0.7759365850931844
 21
0.1268244773223681
 72
     1
 10
0.7759365850931843
 20
0.1268244773223682
 11
0.7758433010600562
 21
0.1271976134548783
 72
     1
 10
0.7758433010600552
 20
0.1271976134548783
 11
0.7755634489606744
 21
0.1280371697530267
 72
     1
 10
0.775563448960674
 20
0.1280371697530267
 11
0.7750970287950349
 21
0.1291565781505569
 72
     1
 10
0.7750970287950363
 20
0.1291565781505568
 11
0.773977620397507
 21
0.1323282352768938
 72
     1
 10
0.7739776203975062
 20
0.1323282352768939
 11
0.7721119397349549
 21
0.1372722890326544
 72
     1
 10
0.7721119397349554
 20
0.1372722890326546
 11
0.7697798389067666
 21
0.1436156032853281
 72
     1
 10
0.769779838906767
 20
0.1436156032853281
 11
0.7670746019460673
 21
0.1511716099686602
 72
     1
 10
0.7670746019460668
 20
0.15117160996866
 11
0.7639962288528581
 21
0.1595671729501399
 72
     1
 10
0.7639962288528582
 20
0.15956717295014
 11
0.7606380036602665
 21
0.1686157241635125
 72
     1
 10
0.7606380036602652
 20
0.1686157241635125
 11
0.7572797784676718
 21
0.1778508434431408
 72
     1
 10
0.7572797784676726
 20
0.1778508434431408
 11
0.753921553275081
 21
0.187179246755896
 72
     1
 10
0.7539215532750814
 20
0.1871792467558961
 11
0.7505633280824898
 21
0.1962277979692689
 72
     1
 10
0.7505633280824902
 20
0.1962277979692689
 11
0.7474849549892814
 21
0.2046233609507488
 72
     1
 10
0.7474849549892797
 20
0.2046233609507488
 11
0.74477971802858
 21
0.2121793676340809
 72
     1
 10
0.7447797180285814
 20
0.2121793676340809
 11
0.7424476172003926
 21
0.2185226818867544
 72
     1
 10
0.7424476172003929
 20
0.2185226818867545
 11
0.7405819365378416
 21
0.2234667356425151
 72
     1
 10
0.7405819365378408
 20
0.2234667356425151
 11
0.7394625281403098
 21
0.2266383927688516
 72
     1
 10
0.7394625281403103
 20
0.2266383927688516
 11
0.7390893920078009
 21
0.2277578011663822
 72
     1
 10
0.7390893920078004
 20
0.2277578011663825
 11
0.7191266089185034
 21
0.2277578011663825
 72
     1
 10
0.7191266089185029
 20
0.2277578011663825
 11
0.6843316645619254
 21
0.1336342117406798
 72
     1
 10
0.6843316645619267
 20
0.1336342117406795
 11
0.6832122561643957
 21
0.130649122680598
 72
     1
 10
0.6832122561643961
 20
0.1306491226805981
 11
0.6823726998662476
 21
0.1282237378192816
 72
     1
 10
0.6823726998662468
 20
0.1282237378192818
 11
0.6817197116343549
 21
0.1260782050573481
 72
     1
 10
0.6817197116343552
 20
0.1260782050573481
 11
0.6811600074355896
 21
0.1241192403616695
 72
     1
 10
0.6811600074355884
 20
0.1241192403616695
 11
0.6808801553362055
 21
0.1250520806929446
 72
     1
 10
0.6808801553362059
 20
0.1250520806929445
 11
0.6805070192036949
 21
0.1261714890904751
 72
     1
 10
0.680507019203696
 20
0.1261714890904752
 11
0.6802271671043131
 21
0.1272908974880058
 72
     1
 10
0.680227167104313
 20
0.1272908974880061
 11
0.6798540309718037
 21
0.1286901579849195
 72
     1
 10
0.6798540309718031
 20
0.1286901579849194
 11
0.6794808948392922
 21
0.12980956638245
 72
     1
 10
0.6794808948392932
 20
0.1298095663824503
 11
0.6784547704748904
 21
0.1328879394756595
 72
     1
 10
0.67845477047489
 20
0.1328879394756595
 11
0.6769622259448497
 21
0.1378319932314196
 72
     1
 10
0.6769622259448496
 20
0.1378319932314196
 11
0.6750032612491701
 21
0.1441753074840938
 72
     1
 10
0.6750032612491697
 20
0.1441753074840937
 11
0.6725778763878547
 21
0.1516380301342981
 72
     1
 10
0.6725778763878556
 20
0.1516380301342981
 11
0.6699659234602841
 21
0.160033593115778
 72
     1
 10
0.6699659234602829
 20
0.160033593115778
 11
0.6671674024664549
 21
0.168988860296023
 72
     1
 10
0.6671674024664554
 20
0.168988860296023
 11
0.6642755974395012
 21
0.1782239795756509
 72
     1
 10
0.6642755974395019
 20
0.178223979575651
 11
0.6613837924125477
 21
0.1874590988552789
 72
     1
 10
0.6613837924125466
 20
0.1874590988552789
 11
0.6585852714187205
 21
0.1964143660355239
 72
     1
 10
0.6585852714187204
 20
0.1964143660355237
 11
0.6559733184911489
 21
0.2047166449838762
 72
     1
 10
0.6559733184911494
 20
0.2047166449838765
 11
0.6536412176629606
 21
0.2122726516672082
 72
     1
 10
0.6536412176629614
 20
0.2122726516672082
 11
0.6515889689341538
 21
0.2186159659198823
 72
     1
 10
0.6515889689341537
 20
0.2186159659198821
 11
0.6500964244041133
 21
0.2234667356425149
 72
     1
 10
0.6500964244041132
 20
0.2234667356425151
 11
0.6490703000397104
 21
0.2266383927688516
 72
     1
 10
0.6490703000397105
 20
0.2266383927688516
 11
0.6487904479403276
 21
0.2277578011663822
 72
     1
 10
0.648790447940328
 20
0.2277578011663825
 11
0.6237903270621445
 21
0.2277578011663825
 72
     1
 10
0.6237903270621437
 20
0.2277578011663825
 11
0.6676338226320932
 21
0.0926825211976832
 72
     1
 10
0.6676338226320926
 20
0.0926825211976832
 11
0.6922608073777669
 21
0.0926825211976832
 72
     1
 10
0.6922608073777666
 20
0.0926825211976832
 11
0.726029627369941
 21
0.1855001341596003
 72
     1
 10
0.7260296273699423
 20
0.1855001341596003
 11
0.7269624677012189
 21
0.1882986551534267
 72
     1
 10
0.7269624677012177
 20
0.1882986551534266
 11
0.7278020239993661
 21
0.1906307559816158
 72
     1
 10
0.727802023999367
 20
0.1906307559816159
 11
0.7284550122312589
 21
0.1927762887435496
 72
     1
 10
0.7284550122312581
 20
0.1927762887435495
 11
0.7290147164300237
 21
0.1947352534392281
 72
     1
 10
0.7290147164300232
 20
0.1947352534392282
 11
0.7298542727281716
 21
0.192216584544784
 72
     1
 10
0.729854272728173
 20
0.1922165845447839
 11
0.7306938290263214
 21
0.1894180635509575
 72
     1
 10
0.7306938290263206
 20
0.1894180635509575
 11
0.7318132374238499
 21
0.1863396904577483
 72
     1
 10
0.7318132374238511
 20
0.1863396904577481
 11
0.7331192138876387
 21
0.1827016131657736
 72
     1
 10
0.7331192138876382
 20
0.1827016131657737
 11
0.7654887733828987
 21
0.0926825211976834
 72
     1
 10
0.7654887733828986
 20
0.0926825211976832
 11
0.7895560539298075
 21
0.0926825211976832
 72
     1
 10
0.7895560539298075
 20
0.0926825211976832
 11
0.8341458217647785
 21
0.2277578011663825
 72
     1
 10
0.8341458217647783
 20
0.2277578011663825
 11
0.830601028505932
 21
0.2277578011663825
 72
     1
 10
0.8306010285059324
 20
0.2277578011663825
 11
0.8092389849197216
 21
0.2277578011663825
 97
        0
 75
     0
 76
     1
 98
        1
 10
-0.3743130907707726
 20
-0.2500502867693841
1001
ACAD
1010
0.0
1020
0.0
1030
0.0
  0
ENDBLK
  5
8114
330
8107
100
AcDbEntity
  8
0
100
AcDbBlockEnd
  0
ENDSEC
  0
SECTION
  2
ENTITIES
  0
MTEXT
  5
22BC
330
2
100
AcDbEntity
  8
0
 62
     2
100
AcDbMText
 10
25.0
 20
4.21552654211915
 30
0.0
 40
0.25
 41
10.0
 71
     2
 72
     5
  1
{\H2x;516 THERMAL WINDOWS\PCORNER DETAILS\P4" DEEP (1" INFILL)\P}\P{\H1.5x;DETAIL SCALE: 1" = 1"}
  7
ROMAND
 73
     1
 44
1.0
1001
ACAD
1000
MTEXTBEGIN
1070
    73
1070
     1
1070
    44
1040
1.0
1070
    74
1070
     0
1000
MTEXTEND
  0
CIRCLE
  5
22C0
330
2
100
AcDbEntity
  8
R-SWTS-DET2
100
AcDbCircle
 10
7.304499999999976
 20
15.24827447076972
 30
0.0
 40
0.0503284406763105
  0
CIRCLE
  5
22C1
330
2
100
AcDbEntity
  8
R-SWTS-DET2
100
AcDbCircle
 10
8.817391929903223
 20
13.73538254086647
 30
0.0
 40
0.0503284406763105
  0
LWPOLYLINE
  5
22C2
330
2
100
AcDbEntity
  8
R-SWTS-DET1
100
AcDbPolyline
 90
       20
 70
     1
 43
0.0
 10
8.685000000000826
 20
18.97588254086917
 42
0.4142135623730951
 10
8.675000000000821
 20
18.96588254086917
 10
8.675000000000821
 20
18.42588254086917
 42
-0.4142135623730951
 10
8.66500000000083
 20
18.41588254086917
 10
8.635000000000829
 20
18.41588254086917
 42
-0.4142135623730951
 10
8.625000000000824
 20
18.42588254086917
 10
8.625000000000824
 20
19.01088254086917
 42
-0.4142135623730939
 10
8.655000000000825
 20
19.04088254086917
 10
12.58000000000265
 20
19.04088254086918
 42
-0.414213562373096
 10
12.61000000000268
 20
19.01088254086918
 10
12.61000000000268
 20
15.08588254086731
 42
-0.4142135623730953
 10
12.58000000000265
 20
15.05588254086731
 10
11.99500000000266
 20
15.05588254086731
 42
-0.4142135623730898
 10
11.98500000000267
 20
15.06588254086731
 10
11.98500000000267
 20
15.09588254086731
 42
-0.4142135623730951
 10
11.99500000000266
 20
15.1058825408673
 10
12.53500000000267
 20
15.1058825408673
 42
0.4142135623730951
 10
12.54500000000269
 20
15.11588254086731
 10
12.54500000000269
 20
18.94588254086917
 42
0.4142135623730951
 10
12.51500000000266
 20
18.97588254086917
  0
LWPOLYLINE
  5
22C3
330
2
100
AcDbEntity
  8
R-SWTS-DET2
  6
HIDDEN2
100
AcDbPolyline
 90
       18
 70
     1
 43
0.0
 10
9.924324060899053
 20
14.41688254086468
 10
10.17932406089906
 20
14.41688254086468
 42
0.4142135623730951
 10
10.18432406089906
 20
14.42188254086468
 10
10.18432406089906
 20
14.4768825408647
 42
-0.9999999999999287
 10
10.20932406089906
 20
14.4768825408647
 10
10.20932406089906
 20
14.40438254086468
 42
-0.4142135623730951
 10
10.19682406089906
 20
14.39188254086468
 10
10.02449170066317
 20
14.39188254086468
 42
0.3706321426687706
 10
10.01213403604956
 20
14.38126353137433
 10
9.905192348782648
 20
13.67868183429913
 42
-0.9950963693897204
 10
9.887403652561019
 20
13.68143037167616
 10
9.985504411135963
 20
14.37763842974905
 42
0.4558347385663113
 10
9.973126686126235
 20
14.39188254086468
 10
9.906824060899054
 20
14.39188254086468
 42
-0.4142135623730951
 10
9.894324060899052
 20
14.40438254086468
 10
9.894324060899052
 20
14.47688254086468
 42
-1.0
 10
9.919324060899057
 20
14.47688254086468
 10
9.919324060899057
 20
14.42188254086468
 42
0.4142135623730951
  0
LWPOLYLINE
  5
22C4
330
2
100
AcDbEntity
  8
R-SWTS-DET2
  6
HIDDEN2
100
AcDbPolyline
 90
       18
 70
     1
 43
0.0
 10
7.985999999998199
 20
16.35520660176556
 10
7.985999999998199
 20
16.61020660176556
 42
-0.4142135623730951
 10
7.990999999998194
 20
16.61520660176555
 10
8.045999999998201
 20
16.61520660176557
 42
0.9999999999999287
 10
8.045999999998201
 20
16.64020660176557
 10
7.973499999998196
 20
16.64020660176557
 42
0.4142135623730951
 10
7.960999999998193
 20
16.62770660176557
 10
7.960999999998193
 20
16.45537424152969
 42
-0.3706321426687706
 10
7.950380990507852
 20
16.44301657691607
 10
7.247799293432635
 20
16.33607488964916
 42
0.9950963693897204
 10
7.250547830809665
 20
16.31828619342753
 10
7.946755888882549
 20
16.41638695200246
 42
-0.4558347385663113
 10
7.960999999998193
 20
16.40400922699273
 10
7.960999999998193
 20
16.33770660176557
 42
0.4142135623730951
 10
7.973499999998196
 20
16.32520660176556
 10
8.045999999998201
 20
16.32520660176556
 42
1.0
 10
8.045999999998201
 20
16.35020660176557
 10
7.990999999998194
 20
16.35020660176557
 42
-0.4142135623730951
  0
LWPOLYLINE
  5
22C5
330
2
100
AcDbEntity
  8
R-SWTS-DET2
100
AcDbPolyline
 90
       12
 70
     1
 43
0.0
 10
10.05089946430614
 20
13.55641512671869
 10
10.17591332083671
 20
13.55641512671869
 10
10.17591332083671
 20
13.55403332052125
 42
-0.3639702342662026
 10
10.15632878264742
 20
13.53069337677485
 10
9.88006979365268
 20
13.41971559802699
 10
9.88006979365268
 20
13.52428552267999
 42
0.3145636000813645
 10
9.933942545556291
 20
13.86756385548934
 10
9.937978037077115
 20
13.89407608429074
 10
9.964447244228836
 20
13.89407608429074
 42
-0.2645518979873512
 10
10.08953341295637
 20
13.65964475493012
 10
10.07065262330415
 20
13.65631556229736
 42
0.315298788878984
 10
10.06805691266305
 20
13.65371985165625
  0
LWPOLYLINE
  5
22C6
330
2
100
AcDbEntity
  8
R-SWTS-DET1
100
AcDbPolyline
 90
       41
 70
     1
 43
0.0
 10
7.378532585852198
 20
16.54781509958969
 42
-0.4142135623730431
 10
7.363532585852198
 20
16.56281509958969
 10
7.363532585852198
 20
16.59481509958968
 42
0.4142135623730951
 10
7.348532585852197
 20
16.60981509958969
 10
7.23842454541554
 20
16.60981509958969
 42
-0.4184033046059118
 10
7.176430869838512
 20
16.67270064374408
 10
7.184676429271092
 20
17.24994180543599
 42
-0.4139326425428041
 10
7.245469739628333
 20
17.30907950123941
 10
7.916203034448273
 20
17.30014196068565
 42
-0.4077932646411109
 10
7.931002616152113
 20
17.28527297571646
 42
0.413875507397508
 10
8.001524389376143
 20
17.21588012974775
 42
-0.4122343511257975
 10
8.016635234832676
 20
17.20109434624184
 10
8.02402032729428
 20
16.68300539862137
 42
0.3394542588633734
 10
8.03534342296912
 20
16.66867644422677
 10
8.069342894183833
 20
16.660083777915
 10
8.070874978417592
 20
16.55260294237197
 10
8.065875486316244
 20
16.55253167717396
 42
0.9999999999999847
 10
8.066303077504187
 20
16.52253472456581
 10
8.072437097018735
 20
16.52262216187071
 42
0.3727193515204652
 10
8.101758442867861
 20
16.54874603493359
 10
8.104367393132392
 20
16.56878525598365
 10
8.115525188066797
 20
16.65448774029769
 42
0.3800361709519329
 10
8.078194895102498
 20
16.7094187061684
 10
8.073632462339816
 20
16.7105717671102
 10
8.065531062156352
 20
17.27891209827387
 42
0.4577045202689281
 10
8.048136486593236
 20
17.29350568963171
 10
8.000999999998001
 20
17.28587816554709
 10
8.000999999998001
 20
17.3698781655471
 10
7.125532585852198
 20
17.3698781655471
 10
7.125532585852212
 20
16.54974627893136
 42
0.267949192431115
 10
7.133032585852205
 20
16.53675589787459
 10
7.197032585852198
 20
16.49980548064645
 42
0.577350269189628
 10
7.219532585852206
 20
16.51279586170321
 10
7.219532585852206
 20
16.55981509958969
 10
7.3135325858522
 20
16.55981509958969
 10
7.3135325858522
 20
16.52781509958969
 42
0.4142135623730948
 10
7.343532585852202
 20
16.49781509958969
 10
7.397532585852204
 20
16.49781509958968
 42
0.4142135623731297
 10
7.412532585852204
 20
16.51281509958968
 10
7.412532585852204
 20
16.53281509958969
 42
0.4142135623730431
 10
7.397532585852204
 20
16.54781509958969
  0
LWPOLYLINE
  5
22C7
330
2
100
AcDbEntity
  8
R-SWTS-DET2
100
AcDbPolyline
 90
       12
 70
     1
 43
0.0
 10
7.125532585852198
 20
16.48178200517265
 10
7.125532585852198
 20
16.60679586170321
 10
7.123150779654764
 20
16.60679586170321
 42
0.3639702342662026
 10
7.099810835908371
 20
16.58721132351392
 10
6.988833057160505
 20
16.31095233451919
 10
7.093402981813511
 20
16.31095233451919
 42
-0.3145636000813645
 10
7.436681314622859
 20
16.3648250864228
 10
7.463193543424253
 20
16.36886057794361
 10
7.463193543424253
 20
16.39532978509533
 42
0.2645518979873512
 10
7.228762214063635
 20
16.52041595382287
 10
7.225433021430873
 20
16.50153516417065
 42
-0.315298788878984
 10
7.22283731078977
 20
16.49893945352955
  0
LWPOLYLINE
  5
22C8
330
2
100
AcDbEntity
  8
R-SWTS-DET1
100
AcDbPolyline
 90
       20
 70
     1
 43
0.0
 10
29.92041917188249
 20
11.6859138308148
 42
0.4142135623730951
 10
29.93041917188248
 20
11.69591383081481
 10
29.93041917188248
 20
12.23591383081481
 42
-0.4142135623730951
 10
29.94041917188247
 20
12.2459138308148
 10
29.9704191718825
 20
12.2459138308148
 42
-0.4142135623730951
 10
29.98041917188249
 20
12.23591383081481
 10
29.98041917188249
 20
11.65091383081481
 42
-0.4142135623730939
 10
29.95041917188249
 20
11.6209138308148
 10
26.07541917188041
 20
11.6209138308148
 42
-0.414213562373096
 10
26.04541917188041
 20
11.65091383081479
 10
26.04541917188041
 20
15.52591383081688
 42
-0.4142135623730953
 10
26.07541917188041
 20
15.55591383081688
 10
26.66041917188039
 20
15.55591383081688
 42
-0.4142135623730898
 10
26.67041917188041
 20
15.54591383081689
 10
26.67041917188041
 20
15.51591383081689
 42
-0.4142135623730951
 10
26.66041917188042
 20
15.50591383081689
 10
26.12041917188043
 20
15.50591383081689
 42
0.4142135623730951
 10
26.11041917188041
 20
15.49591383081689
 10
26.11041917188041
 20
11.7159138308148
 42
0.4142135623730951
 10
26.14041917188041
 20
11.6859138308148
  0
CIRCLE
  5
22C9
330
2
100
AcDbEntity
  8
R-SWTS-DET2
100
AcDbCircle
 10
31.30091917188333
 20
11.74830576071742
 30
0.0
 40
0.0503284406763105
  0
CIRCLE
  5
22CA
330
2
100
AcDbEntity
  8
R-SWTS-DET2
100
AcDbCircle
 10
26.17281149156679
 20
16.87641383081774
 30
0.0
 40
0.0503284406763105
  0
LWPOLYLINE
  5
22CB
330
2
100
AcDbEntity
  8
R-SWTS-DET2
  6
HIDDEN2
100
AcDbPolyline
 90
       18
 70
     1
 43
0.0
 10
30.61941917188511
 20
12.85523789171326
 10
30.61941917188511
 20
13.11023789171326
 42
0.4142135623730951
 10
30.61441917188512
 20
13.11523789171326
 10
30.55941917188511
 20
13.11523789171327
 42
-0.9999999999999287
 10
30.55941917188511
 20
13.14023789171328
 10
30.6319191718851
 20
13.14023789171328
 42
-0.4142135623730951
 10
30.64441917188512
 20
13.12773789171327
 10
30.64441917188512
 20
12.95540553147739
 42
0.3706321426687706
 10
30.65503818137546
 20
12.94304786686377
 10
31.35761987845067
 20
12.83610617959686
 42
-0.9950963693897204
 10
31.35487134107365
 20
12.81831748337523
 10
30.65866328300075
 20
12.91641824195016
 42
0.4558347385663113
 10
30.64441917188512
 20
12.90404051694045
 10
30.64441917188512
 20
12.83773789171327
 42
-0.4142135623730951
 10
30.6319191718851
 20
12.82523789171326
 10
30.55941917188511
 20
12.82523789171326
 42
-1.0
 10
30.55941917188511
 20
12.85023789171327
 10
30.61441917188512
 20
12.85023789171327
 42
0.4142135623730951
  0
LWPOLYLINE
  5
22CC
330
2
100
AcDbEntity
  8
R-SWTS-DET2
  6
HIDDEN2
100
AcDbPolyline
 90
       18
 70
     1
 43
0.0
 10
27.27974362256265
 20
16.19491383081953
 10
27.53474362256265
 20
16.19491383081953
 42
-0.4142135623730951
 10
27.53974362256264
 20
16.18991383081953
 10
27.53974362256264
 20
16.13491383081952
 42
0.9999999999999287
 10
27.56474362256262
 20
16.13491383081952
 10
27.56474362256262
 20
16.20741383081952
 42
0.4142135623730951
 10
27.55224362256263
 20
16.21991383081953
 10
27.37991126232675
 20
16.21991383081953
 42
-0.3706321426687706
 10
27.36755359771314
 20
16.23053284030987
 10
27.26061191044625
 20
16.93311453738508
 42
0.9950963693897204
 10
27.24282321422459
 20
16.93036600000805
 10
27.34092397279955
 20
16.23415794193517
 42
-0.4558347385663113
 10
27.3285462477898
 20
16.21991383081953
 10
27.26224362256264
 20
16.21991383081953
 42
0.4142135623730951
 10
27.24974362256262
 20
16.20741383081952
 10
27.24974362256262
 20
16.13491383081952
 42
1.0
 10
27.27474362256265
 20
16.13491383081952
 10
27.27474362256265
 20
16.18991383081953
 42
-0.4142135623730951
  0
LWPOLYLINE
  5
22CD
330
2
100
AcDbEntity
  8
R-SWTS-DET1
100
AcDbPolyline
 90
       41
 70
     1
 43
0.0
 10
27.47235173060301
 20
16.80238124496551
 42
-0.4142135623730431
 10
27.487351730603
 20
16.81738124496551
 10
27.51935173060298
 20
16.81738124496551
 42
0.4142135623730951
 10
27.53435173060299
 20
16.83238124496551
 10
27.53435173060299
 20
16.94248928540217
 42
-0.4184033046059118
 10
27.59723727475739
 20
17.00448296097921
 10
28.17447843644931
 20
16.99623740154661
 42
-0.4139326425428041
 10
28.23361613225273
 20
16.93544409118937
 10
28.22467859169896
 20
16.26471079636943
 42
-0.4077932646411109
 10
28.20980960672978
 20
16.24991121466559
 42
0.413875507397508
 10
28.14041676076107
 20
16.17938944144158
 42
-0.4122343511257975
 10
28.12563097725513
 20
16.16427859598503
 10
27.60754202963466
 20
16.15689350352343
 42
0.3394542588633734
 10
27.59321307524007
 20
16.1455704078486
 10
27.58462040892829
 20
16.11157093663387
 10
27.47713957338528
 20
16.11003885240011
 10
27.47706830818726
 20
16.11503834450148
 42
0.9999999999999847
 10
27.44707135557912
 20
16.11461075331352
 10
27.44715879288401
 20
16.10847673379897
 42
0.3727193515204652
 10
27.4732826659469
 20
16.07915538794985
 10
27.49332188699697
 20
16.07654643768531
 10
27.57902437131099
 20
16.06538864275091
 42
0.3800361709519329
 10
27.63395533718171
 20
16.10271893571522
 10
27.63510839812352
 20
16.10728136847789
 10
28.20344872928718
 20
16.11538276866135
 42
0.4577045202689281
 10
28.218042320645
 20
16.13277734422448
 10
28.2104147965604
 20
16.1799138308197
 10
28.2944147965604
 20
16.1799138308197
 10
28.2944147965604
 20
17.05538124496551
 10
27.47428290994466
 20
17.05538124496551
 42
0.267949192431115
 10
27.4612925288879
 20
17.0478812449655
 10
27.42434211165977
 20
16.98388124496551
 42
0.577350269189628
 10
27.43733249271651
 20
16.96138124496551
 10
27.48435173060301
 20
16.96138124496551
 10
27.48435173060301
 20
16.86738124496551
 10
27.452351730603
 20
16.86738124496551
 42
0.4142135623730948
 10
27.422351730603
 20
16.8373812449655
 10
27.422351730603
 20
16.7833812449655
 42
0.4142135623731297
 10
27.43735173060299
 20
16.7683812449655
 10
27.457351730603
 20
16.7683812449655
 42
0.4142135623730431
 10
27.47235173060301
 20
16.7833812449655
  0
LWPOLYLINE
  5
22CE
330
2
100
AcDbEntity
  8
R-SWTS-DET2
100
AcDbPolyline
 90
       12
 70
     1
 43
0.0
 10
27.40631863618598
 20
17.05538124496551
 10
27.5313324927165
 20
17.05538124496551
 10
27.5313324927165
 20
17.05776305116294
 42
0.3639702342662026
 10
27.51174795452721
 20
17.08110299490934
 10
27.23548896553251
 20
17.19208077365722
 10
27.23548896553251
 20
17.08751084900419
 42
-0.3145636000813645
 10
27.28936171743612
 20
16.74423251619486
 10
27.29339720895692
 20
16.71772028739347
 10
27.31986641610865
 20
16.71772028739347
 42
0.2645518979873512
 10
27.44495258483619
 20
16.95215161675407
 10
27.42607179518396
 20
16.95548080938685
 42
-0.315298788878984
 10
27.42347608454287
 20
16.95807652002795
  0
LWPOLYLINE
  5
22CF
330
2
100
AcDbEntity
  8
R-SWTS-DET1
100
AcDbPolyline
 90
       41
 70
     1
 43
0.0
 10
31.2268865860311
 20
13.04784638953739
 42
0.4142135623730431
 10
31.24188658603112
 20
13.06284638953739
 10
31.24188658603112
 20
13.09484638953739
 42
-0.4142135623730951
 10
31.2568865860311
 20
13.10984638953739
 10
31.36699462646777
 20
13.10984638953739
 42
0.4184033046059118
 10
31.42898830204479
 20
13.17273193369178
 10
31.42074274261222
 20
13.74997309538368
 42
0.4139326425428041
 10
31.35994943225495
 20
13.80911079118712
 10
30.68921613743504
 20
13.80017325063336
 42
0.4077932646411109
 10
30.6744165557312
 20
13.78530426566416
 42
-0.413875507397508
 10
30.60389478250716
 20
13.71591141969545
 42
0.4122343511257975
 10
30.58878393705061
 20
13.70112563618954
 10
30.58139884458905
 20
13.18303668856907
 42
-0.3394542588633734
 10
30.57007574891418
 20
13.16870773417447
 10
30.53607627769947
 20
13.1601150678627
 10
30.53454419346571
 20
13.05263423231967
 10
30.53954368556708
 20
13.05256296712167
 42
-0.9999999999999847
 10
30.53911609437913
 20
13.02256601451352
 10
30.53298207486455
 20
13.0226534518184
 42
-0.3727193515204652
 10
30.50366072901545
 20
13.04877732488129
 10
30.50105177875094
 20
13.06881654593136
 10
30.4898939838165
 20
13.15451903024539
 42
-0.3800361709519329
 10
30.52722427678083
 20
13.2094499961161
 10
30.5317867095435
 20
13.2106030570579
 10
30.53988810972695
 20
13.77894338822157
 42
-0.4577045202689281
 10
30.55728268529009
 20
13.79353697957942
 10
30.6044191718853
 20
13.78590945549481
 10
30.6044191718853
 20
13.86990945549481
 10
31.47988658603111
 20
13.86990945549481
 10
31.47988658603111
 20
13.04977756887906
 42
-0.267949192431115
 10
31.47238658603112
 20
13.03678718782229
 10
31.4083865860311
 20
12.99983677059416
 42
-0.577350269189628
 10
31.38588658603112
 20
13.01282715165093
 10
31.38588658603112
 20
13.05984638953739
 10
31.2918865860311
 20
13.05984638953739
 10
31.2918865860311
 20
13.02784638953739
 42
-0.4142135623730948
 10
31.2618865860311
 20
12.99784638953739
 10
31.20788658603113
 20
12.99784638953739
 42
-0.4142135623731297
 10
31.19288658603111
 20
13.01284638953739
 10
31.19288658603111
 20
13.03284638953739
 42
-0.4142135623730431
 10
31.20788658603109
 20
13.04784638953739
  0
LWPOLYLINE
  5
22D0
330
2
100
AcDbEntity
  8
R-SWTS-DET2
100
AcDbPolyline
 90
       12
 70
     1
 43
0.0
 10
31.47988658603111
 20
12.98181329512035
 10
31.47988658603111
 20
13.10682715165091
 10
31.48226839222855
 20
13.10682715165091
 42
-0.3639702342662026
 10
31.50560833597495
 20
13.08724261346162
 10
31.6165861147228
 20
12.81098362446689
 10
31.5120161900698
 20
12.81098362446689
 42
0.3145636000813645
 10
31.16873785726046
 20
12.8648563763705
 10
31.14222562845907
 20
12.86889186789131
 10
31.14222562845907
 20
12.89536107504305
 42
-0.2645518979873512
 10
31.37665695781968
 20
13.02044724377058
 10
31.37998615045245
 20
13.00156645411837
 42
0.315298788878984
 10
31.38258186109354
 20
12.99897074347725
  0
LWPOLYLINE
  5
22D1
330
2
100
AcDbEntity
  8
R-SWTS-DET1
100
AcDbPolyline
 90
       63
 70
     1
 43
0.0
 10
30.06456731754145
 20
11.91906428754429
 42
0.4142135623731602
 10
30.07256731754143
 20
11.9110642875443
 10
30.26156731754139
 20
11.9110642875443
 42
0.4142135623731602
 10
30.26956731754137
 20
11.91906428754429
 10
30.26956731754137
 20
11.93792069400485
 42
0.1316524975860434
 10
30.26849552077166
 20
11.94192069400484
 10
30.25916058539903
 20
11.95808927635573
 42
0.3431487919942175
 10
30.2477845187799
 20
11.96271343148871
 42
-0.7725978076396093
 10
30.23310419819018
 20
11.98775626590603
 10
30.32343586653031
 20
12.07808793424616
 42
-0.713293067896966
 10
30.34043239585856
 20
12.06979817300024
 10
30.33099785090036
 20
11.99295997047014
 10
30.35371546319715
 20
11.90817668715184
 42
-0.0655434628152399
 10
30.35456731753993
 20
11.90170621102428
 10
30.35456731753993
 20
11.7534138308148
 42
0.4142135623730604
 10
30.42206731753996
 20
11.6859138308148
 10
30.55456731753998
 20
11.6859138308148
 10
30.55456731753998
 20
11.7479138308148
 10
30.60456731753996
 20
11.7479138308148
 10
30.60456731753996
 20
11.6859138308148
 10
30.99041917188254
 20
11.6859138308148
 10
31.01041917188255
 20
11.66591383081481
 10
31.03041917188256
 20
11.6859138308148
 10
31.05041917188254
 20
11.66591383081481
 10
31.07041917188252
 20
11.6859138308148
 10
31.09041917188253
 20
11.66591383081481
 10
31.11041917188254
 20
11.6859138308148
 10
31.13041917188252
 20
11.66591383081481
 10
31.15041917188253
 20
11.6859138308148
 10
31.17041917188255
 20
11.66591383081481
 10
31.19041917188253
 20
11.6859138308148
 10
31.21041917188251
 20
11.66591383081481
 10
31.23041917188252
 20
11.6859138308148
 10
31.25041917188253
 20
11.66591383081481
 10
31.27041917188251
 20
11.6859138308148
 10
31.29041917188252
 20
11.66591383081481
 10
31.31041917188253
 20
11.6859138308148
 10
31.33041917188251
 20
11.66591383081481
 10
31.35041917188249
 20
11.6859138308148
 10
31.37041917188253
 20
11.66591383081481
 10
31.39041917188251
 20
11.6859138308148
 10
31.4104191718825
 20
11.66591383081481
 10
31.43041917188253
 20
11.6859138308148
 10
31.48041917188252
 20
11.6859138308148
 10
31.48041917188249
 20
11.6209138308148
 10
29.98041917188249
 20
11.6209138308148
 10
29.98041917188252
 20
11.6859138308148
 10
30.14041917188257
 20
11.6859138308148
 10
30.22206731753966
 20
11.6859138308148
 42
1.00000000000321
 10
30.22206731753966
 20
11.82091383081539
 10
30.10041917188292
 20
11.82091383081498
 10
30.03756731754004
 20
11.82091383081476
 42
-0.4142135623740818
 10
29.97956731753982
 20
11.87891383081477
 10
29.97956731753982
 20
11.90170621101279
 42
-0.0655434628152783
 10
29.9804191718826
 20
11.90817668714035
 10
30.00313678418252
 20
11.99295997047013
 10
29.99370223922426
 20
12.06979817300024
 42
-0.7132930678969658
 10
30.01069876855257
 20
12.07808793424616
 10
30.1010304368927
 20
11.98775626590603
 42
-0.7725978076383388
 10
30.08635011630298
 20
11.96271343148878
 42
0.3431487919937011
 10
30.07497404968388
 20
11.95808927635585
 10
30.06563911431118
 20
11.94192069400484
 42
0.1316524975860435
 10
30.06456731754145
 20
11.93792069400485
  0
LWPOLYLINE
  5
22D2
330
2
100
AcDbEntity
  8
R-SWTS-DET1
100
AcDbPolyline
 90
      130
 70
     1
 43
0.0
 10
30.03941917188411
 20
15.34591383081686
 42
-0.4142135623730951
 10
30.02941917188412
 20
15.35591383081686
 10
30.02941917188412
 20
15.47591383081687
 10
30.53941917188388
 20
15.47591383081684
 10
30.53941917188388
 20
14.84774476673873
 42
-0.5494743523523319
 10
30.5180441718839
 20
14.83416686649607
 42
0.2918218255973577
 10
30.36336447230167
 20
14.81411555241174
 42
0.2220475164447702
 10
30.35619960327853
 20
14.79877738391589
 10
30.35619960327853
 20
14.76291383081688
 42
0.4142135623730951
 10
30.37619960327854
 20
14.74291383081688
 10
30.38536285619
 20
14.74291383081688
 42
0.2208810136133115
 10
30.40064378429622
 20
14.75001060501042
 42
-0.1605330212145298
 10
30.43957344120722
 20
14.77394355246891
 10
30.43726580686791
 20
14.78367365132539
 42
-0.116970356020677
 10
30.4755758052026
 20
14.78367287613003
 10
30.47326777709191
 20
14.77394287067061
 42
-0.2835070872900811
 10
30.52744889353596
 20
14.71975956149357
 10
30.53717899239243
 20
14.72206719583286
 42
-0.1169703560206769
 10
30.53717821719707
 20
14.68375719749817
 10
30.52744821173764
 20
14.68606522560886
 42
-0.283507087290093
 10
30.4732649025606
 20
14.63188410916482
 10
30.47557253689991
 20
14.62215401030834
 42
-0.1169703560206769
 10
30.43726253856522
 20
14.6221547855037
 10
30.43957056667591
 20
14.63188479096312
 42
-0.1605226430949019
 10
30.40064378429619
 20
14.65581705662331
 42
0.2208810136133025
 10
30.38536285619
 20
14.66291383081688
 10
30.37619960327854
 20
14.66291383081687
 42
0.4142135623730951
 10
30.35619960327853
 20
14.64291383081687
 10
30.35619960327853
 20
14.60705027771785
 42
0.2220475164447751
 10
30.36336447230167
 20
14.59171210922201
 42
0.2918218255974009
 10
30.5180441718839
 20
14.57166079513768
 42
-0.5494743523524548
 10
30.53941917188394
 20
14.55808289489503
 10
30.53941917188399
 20
13.92261009789217
 10
30.40524387757881
 20
13.92261009789217
 10
30.23120976199482
 20
13.71894576723581
 10
30.23120976199482
 20
13.14669774058492
 10
30.40695703521274
 20
13.0996064006542
 10
30.40695703521274
 20
12.98494699540364
 10
30.28956731754153
 20
12.98494699540364
 10
30.28956731754153
 20
12.90976470801038
 42
-0.5494743523522922
 10
30.26819231755849
 20
12.89618680776771
 42
0.2918218255973563
 10
30.11351261797626
 20
12.87613549368337
 42
0.222047516444722
 10
30.10634774895311
 20
12.86079732518754
 10
30.10634774895311
 20
12.82493377208852
 42
0.4142135623731471
 10
30.12634774895313
 20
12.80493377208851
 10
30.13551100186459
 20
12.80493377208851
 42
0.2208810136133066
 10
30.15079192997081
 20
12.81203054628206
 42
-0.1605330212146638
 10
30.18972158688183
 20
12.8359634937406
 10
30.18741395254256
 20
12.84569359259708
 42
-0.116970356020677
 10
30.22572395087721
 20
12.84569281740172
 10
30.22341592276652
 20
12.83596281194226
 42
-0.283507087290051
 10
30.27759703921055
 20
12.78177950276521
 10
30.28732713806701
 20
12.78408713710448
 42
-0.1169703560206769
 10
30.28732636287165
 20
12.74577713876982
 10
30.27759635741222
 20
12.74808516688049
 42
-0.2835070872899558
 10
30.22341304823522
 20
12.69390405043651
 10
30.22572068257449
 20
12.68417395158004
 42
-0.1169703560206765
 10
30.18741068423981
 20
12.6841747267754
 10
30.1897187123505
 20
12.69390473223476
 42
-0.1605226430949548
 10
30.15079192997078
 20
12.71783699789496
 42
0.2208810136133165
 10
30.13551100186459
 20
12.72493377208851
 10
30.12634774895313
 20
12.72493377208851
 42
0.4142135623730951
 10
30.10634774895311
 20
12.70493377208852
 10
30.10634774895311
 20
12.66907021898948
 42
0.2220475164447311
 10
30.11351261797626
 20
12.65373205049364
 42
0.1410634256728592
 10
30.18687480643996
 20
12.62127721983332
 42
-0.9341031171555698
 10
30.18378005928941
 20
12.57591383081757
 10
30.03756731754072
 20
12.5759138308179
 42
0.4142135623740998
 10
29.97956731754053
 20
12.51791383081791
 10
29.97956731754027
 20
12.49512145061774
 42
0.0655434628180566
 10
29.98041917188306
 20
12.48865097448989
 10
30.00313678418252
 20
12.40386769116178
 10
29.99370223922426
 20
12.32702948863167
 42
0.713293067896938
 10
30.01069876855257
 20
12.31873972738577
 10
30.1010304368927
 20
12.40907139572588
 42
0.7725978076385306
 10
30.08635011630298
 20
12.43411423014314
 42
-0.3431487919936307
 10
30.07497404968388
 20
12.43873838527609
 10
30.06563911431118
 20
12.45490696762707
 42
-0.1316524975860437
 10
30.06456731754145
 20
12.45890696762708
 10
30.06456731754145
 20
12.47776337408764
 42
-0.4142135623731602
 10
30.07256731754143
 20
12.48576337408763
 10
30.26156731754139
 20
12.48576337408763
 42
-0.4142135623731602
 10
30.26956731754137
 20
12.47776337408764
 10
30.26956731754137
 20
12.45890696762708
 42
-0.1316524975860435
 10
30.26849552077166
 20
12.45490696762707
 10
30.259160585399
 20
12.43873838527614
 42
-0.3431487919941411
 10
30.24778451877987
 20
12.43411423014316
 42
0.7725978076394044
 10
30.23310419819018
 20
12.40907139572588
 10
30.32343586653031
 20
12.31873972738577
 42
0.7132930678969421
 10
30.34043239585856
 20
12.32702948863167
 10
30.33099785090036
 20
12.40386769116177
 10
30.35371546319772
 20
12.48865097448222
 42
0.0655434628120725
 10
30.3545673175405
 20
12.49512145060946
 10
30.3545673175459
 20
12.91994699540364
 10
30.55441917188517
 20
12.91994699540364
 10
30.55441917188517
 20
12.85794699540364
 10
30.56257433806278
 20
12.85794699540364
 42
0.3255049610922502
 10
30.59112559659559
 20
12.87873691200595
 10
30.60441917188518
 20
12.91994699540364
 10
30.60441917188518
 20
13.09253789171489
 42
0.4142135623732337
 10
30.58941917188517
 20
13.1075378917149
 10
30.5694191718851
 20
13.1075378917149
 42
0.4142135623728176
 10
30.55441917188512
 20
13.09253789171492
 10
30.55441917188506
 20
12.98494699540364
 10
30.47195703521274
 20
12.98494699540364
 10
30.47195703521274
 20
13.14948265487283
 10
30.29620976199482
 20
13.19657399480355
 10
30.29620976199482
 20
13.69657399480354
 10
30.43695703521275
 20
13.85761009789217
 10
30.53941917188399
 20
13.85761009789217
 10
30.53941917188399
 20
13.80546234795023
 42
0.3639702342661772
 10
30.54768269010734
 20
13.79561427042011
 10
30.59268269010863
 20
13.78767955628799
 42
0.4663076581547077
 10
30.6044191718853
 20
13.79752763381811
 10
30.60441917188666
 20
15.54091383081685
 10
29.97941917188411
 20
15.54091383081687
 10
29.97941917188413
 20
15.30091383081686
 42
0.4142135623730951
 10
29.98941917188415
 20
15.29091383081687
 10
29.99441917188415
 20
15.29091383081687
 42
-0.4142135623730951
 10
30.00441917188414
 20
15.28091383081686
 10
30.00441917188417
 20
14.98091383081687
 42
-0.4142135623731992
 10
29.99441917188418
 20
14.97091383081686
 10
29.98941917188418
 20
14.97091383081686
 42
0.4142135623731992
 10
29.97941917188416
 20
14.96091383081686
 10
29.97941917188416
 20
14.92591383081686
 42
0.4142135623730951
 10
29.98941917188418
 20
14.91591383081687
 10
30.0444191718841
 20
14.91591383081685
 42
0.4142135623730951
 10
30.05441917188409
 20
14.92591383081686
 10
30.05441917188409
 20
15.33591383081686
 42
0.4142135623730951
 10
30.0444191718841
 20
15.34591383081686
  0
LWPOLYLINE
  5
22D3
330
2
100
AcDbEntity
  8
R-SWTS-DET1
100
AcDbPolyline
 90
      130
 70
     1
 43
0.0
 10
29.77041917188245
 20
15.61491383081849
 42
0.4142135623730951
 10
29.78041917188247
 20
15.60491383081849
 10
29.90041917188248
 20
15.60491383081849
 10
29.90041917188245
 20
16.11491383081827
 10
29.27225010780432
 20
16.11491383081829
 42
0.5494743523523319
 10
29.25867220756169
 20
16.09353883081828
 42
-0.2918218255973577
 10
29.23862089347733
 20
15.93885913123608
 42
-0.2220475164447702
 10
29.22328272498152
 20
15.93169426221293
 10
29.18741917188248
 20
15.93169426221292
 42
-0.4142135623730951
 10
29.1674191718825
 20
15.95169426221293
 10
29.1674191718825
 20
15.96085751512438
 42
-0.2208810136133115
 10
29.17451594607604
 20
15.9761384432306
 42
0.1605330212145298
 10
29.19844889353453
 20
16.01506810014161
 10
29.208178992391
 20
16.01276046580232
 42
0.116970356020677
 10
29.20817821719564
 20
16.05107046413699
 10
29.19844821173621
 20
16.04876243602631
 42
0.2835070872900811
 10
29.14426490255917
 20
16.10294355247036
 10
29.14657253689848
 20
16.11267365132682
 42
0.1169703560206769
 10
29.10826253856379
 20
16.11267287613146
 10
29.11057056667448
 20
16.10294287067204
 42
0.283507087290093
 10
29.05638945023043
 20
16.048759561495
 10
29.04665935137393
 20
16.05106719583428
 42
0.1169703560206769
 10
29.0466601265693
 20
16.0127571974996
 10
29.05639013202872
 20
16.01506522561029
 42
0.1605226430949019
 10
29.08032239768892
 20
15.97613844323059
 42
-0.2208810136133025
 10
29.08741917188249
 20
15.96085751512438
 10
29.08741917188246
 20
15.95169426221293
 42
-0.4142135623730951
 10
29.06741917188248
 20
15.93169426221292
 10
29.03155561878345
 20
15.93169426221292
 42
-0.2220475164447751
 10
29.01621745028763
 20
15.93885913123606
 42
-0.2918218255974009
 10
28.99616613620327
 20
16.09353883081828
 42
0.5494743523524548
 10
28.98258823596064
 20
16.11491383081833
 10
28.34711543895776
 20
16.11491383081839
 10
28.34711543895776
 20
15.98073853651319
 10
28.14345110830141
 20
15.80670442092921
 10
27.57120308165054
 20
15.80670442092921
 10
27.52411174171982
 20
15.98245169414713
 10
27.40945233646926
 20
15.98245169414713
 10
27.40945233646926
 20
15.8650619764759
 10
27.334270049076
 20
15.8650619764759
 42
0.5494743523522922
 10
27.3206921488333
 20
15.84368697649287
 42
-0.2918218255973563
 10
27.30064083474898
 20
15.68900727691066
 42
-0.222047516444722
 10
27.28530266625313
 20
15.68184240788751
 10
27.24943911315413
 20
15.68184240788751
 42
-0.4142135623731471
 10
27.22943911315411
 20
15.70184240788752
 10
27.22943911315411
 20
15.71100566079897
 42
-0.2208810136133066
 10
27.23653588734766
 20
15.72628658890519
 42
0.1605330212146638
 10
27.2604688348062
 20
15.76521624581622
 10
27.2701989336627
 20
15.76290861147693
 42
0.116970356020677
 10
27.27019815846734
 20
15.8012186098116
 10
27.26046815300788
 20
15.79891058170091
 42
0.283507087290051
 10
27.20628484383082
 20
15.85309169814494
 10
27.20859247817009
 20
15.86282179700141
 42
0.1169703560206769
 10
27.17028247983541
 20
15.86282102180605
 10
27.1725905079461
 20
15.85309101634663
 42
0.2835070872899558
 10
27.1184093915021
 20
15.79890770716961
 10
27.10867929264566
 20
15.80121534150888
 42
0.1169703560206765
 10
27.10868006784102
 20
15.76290534317422
 10
27.11841007330037
 20
15.76521337128489
 42
0.1605226430949548
 10
27.14234233896056
 20
15.72628658890517
 42
-0.2208810136133165
 10
27.14943911315413
 20
15.71100566079897
 10
27.14943911315413
 20
15.70184240788752
 42
-0.4142135623730951
 10
27.12943911315412
 20
15.68184240788751
 10
27.09357556005509
 20
15.68184240788751
 42
-0.2220475164447311
 10
27.07823739155924
 20
15.68900727691065
 42
-0.1410634256728592
 10
27.04578256089894
 20
15.76236946537437
 42
0.9341031171555698
 10
27.00041917188318
 20
15.75927471822378
 10
27.00041917188349
 20
15.61306197647513
 42
-0.4142135623740998
 10
26.9424191718835
 20
15.55506197647492
 10
26.91962679168336
 20
15.55506197647468
 42
-0.0655434628180566
 10
26.91315631555551
 20
15.55591383081745
 10
26.82837303222738
 20
15.5786314431169
 10
26.75153482969728
 20
15.56919689815867
 42
-0.713293067896938
 10
26.74324506845136
 20
15.58619342748695
 10
26.83357673679149
 20
15.67652509582708
 42
-0.7725978076385306
 10
26.85861957120875
 20
15.66184477523739
 42
0.3431487919936307
 10
26.8632437263417
 20
15.65046870861827
 10
26.87941230869268
 20
15.64113377324556
 42
0.1316524975860437
 10
26.8834123086927
 20
15.64006197647584
 10
26.90226871515324
 20
15.64006197647584
 42
0.4142135623731602
 10
26.91026871515322
 20
15.64806197647583
 10
26.91026871515322
 20
15.83706197647579
 42
0.4142135623731602
 10
26.90226871515324
 20
15.84506197647578
 10
26.8834123086927
 20
15.84506197647578
 42
0.1316524975860435
 10
26.87941230869268
 20
15.84399017970606
 10
26.86324372634175
 20
15.83465524433339
 42
0.3431487919941411
 10
26.85861957120875
 20
15.82327917771426
 42
-0.7725978076394044
 10
26.83357673679149
 20
15.80859885712456
 10
26.74324506845136
 20
15.89893052546468
 42
-0.7132930678969421
 10
26.75153482969728
 20
15.91592705479295
 10
26.82837303222738
 20
15.90649250983474
 10
26.91315631554784
 20
15.92921012213212
 42
-0.0655434628120725
 10
26.91962679167506
 20
15.93006197647489
 10
27.34445233646926
 20
15.93006197648031
 10
27.34445233646926
 20
16.12991383081955
 10
27.28245233646925
 20
16.12991383081955
 10
27.28245233646925
 20
16.13806899699717
 42
-0.3255049610922502
 10
27.30324225307157
 20
16.16662025552998
 10
27.34445233646926
 20
16.17991383081956
 10
27.51704323278051
 20
16.17991383081956
 42
-0.4142135623732337
 10
27.5320432327805
 20
16.16491383081956
 10
27.5320432327805
 20
16.14491383081951
 42
-0.4142135623728176
 10
27.51704323278051
 20
16.12991383081951
 10
27.40945233646926
 20
16.12991383081944
 10
27.40945233646926
 20
16.04745169414713
 10
27.57398799593844
 20
16.04745169414713
 10
27.62107933586916
 20
15.87170442092921
 10
28.12107933586913
 20
15.87170442092921
 10
28.28211543895776
 20
16.01245169414714
 10
28.28211543895776
 20
16.1149138308184
 10
28.22996768901584
 20
16.1149138308184
 42
-0.3639702342661772
 10
28.2201196114857
 20
16.12317734904173
 10
28.21218489735361
 20
16.16817734904304
 42
-0.4663076581547077
 10
28.22203297488372
 20
16.1799138308197
 10
29.96541917188245
 20
16.17991383082107
 10
29.96541917188248
 20
15.5549138308185
 10
29.72541917188247
 20
15.55491383081853
 42
-0.4142135623730951
 10
29.71541917188247
 20
15.56491383081853
 10
29.71541917188247
 20
15.56991383081853
 42
0.4142135623730951
 10
29.70541917188246
 20
15.57991383081853
 10
29.40541917188247
 20
15.57991383081856
 42
0.4142135623731992
 10
29.39541917188245
 20
15.56991383081857
 10
29.39541917188245
 20
15.56491383081857
 42
-0.4142135623731992
 10
29.38541917188246
 20
15.55491383081857
 10
29.35041917188247
 20
15.55491383081857
 42
-0.4142135623730951
 10
29.34041917188248
 20
15.56491383081857
 10
29.34041917188245
 20
15.61991383081849
 42
-0.4142135623730951
 10
29.35041917188247
 20
15.62991383081849
 10
29.76041917188246
 20
15.6299138308185
 42
-0.4142135623730951
 10
29.77041917188245
 20
15.61991383081849
  0
LWPOLYLINE
  5
22D4
330
2
100
AcDbEntity
  8
R-SWTS-DET1
100
AcDbPolyline
 90
       63
 70
     1
 43
0.0
 10
26.34356962860989
 20
15.64006197647584
 42
-0.4142135623731602
 10
26.3355696286099
 20
15.64806197647583
 10
26.3355696286099
 20
15.83706197647579
 42
-0.4142135623731602
 10
26.34356962860989
 20
15.84506197647578
 10
26.36242603507046
 20
15.84506197647578
 42
-0.1316524975860434
 10
26.36642603507045
 20
15.84399017970606
 10
26.38259461742132
 20
15.83465524433342
 42
-0.3431487919942175
 10
26.38721877255432
 20
15.82327917771429
 42
0.7725978076396093
 10
26.41226160697164
 20
15.80859885712456
 10
26.50259327531177
 20
15.89893052546468
 42
0.713293067896966
 10
26.49430351406585
 20
15.91592705479296
 10
26.41746531153575
 20
15.90649250983474
 10
26.33268202821745
 20
15.92921012213156
 42
0.0655434628152399
 10
26.32621155208989
 20
15.93006197647433
 10
26.17791917188041
 20
15.93006197647434
 42
-0.4142135623730604
 10
26.11041917188041
 20
15.99756197647435
 10
26.11041917188041
 20
16.13006197647436
 10
26.17241917188039
 20
16.13006197647436
 10
26.17241917188039
 20
16.18006197647435
 10
26.11041917188041
 20
16.18006197647435
 10
26.11041917188041
 20
16.56591383081693
 10
26.0904191718804
 20
16.58591383081694
 10
26.11041917188041
 20
16.60591383081694
 10
26.0904191718804
 20
16.62591383081693
 10
26.11041917188041
 20
16.64591383081693
 10
26.0904191718804
 20
16.66591383081692
 10
26.11041917188041
 20
16.68591383081692
 10
26.0904191718804
 20
16.70591383081693
 10
26.11041917188041
 20
16.72591383081693
 10
26.0904191718804
 20
16.74591383081692
 10
26.11041917188041
 20
16.76591383081692
 10
26.0904191718804
 20
16.78591383081691
 10
26.11041917188041
 20
16.80591383081691
 10
26.0904191718804
 20
16.82591383081692
 10
26.11041917188041
 20
16.84591383081692
 10
26.0904191718804
 20
16.86591383081691
 10
26.11041917188041
 20
16.88591383081691
 10
26.0904191718804
 20
16.90591383081691
 10
26.11041917188041
 20
16.9259138308169
 10
26.0904191718804
 20
16.94591383081691
 10
26.11041917188041
 20
16.96591383081691
 10
26.0904191718804
 20
16.9859138308169
 10
26.11041917188041
 20
17.00591383081691
 10
26.11041917188041
 20
17.05591383081691
 10
26.04541917188041
 20
17.0559138308169
 10
26.04541917188041
 20
15.5559138308169
 10
26.11041917188041
 20
15.55591383081691
 10
26.11041917188041
 20
15.71591383081695
 10
26.11041917188041
 20
15.79756197647405
 42
-1.00000000000321
 10
26.245419171881
 20
15.79756197647405
 10
26.2454191718806
 20
15.67591383081731
 10
26.24541917188037
 20
15.61306197647442
 42
0.4142135623740818
 10
26.30341917188037
 20
15.55506197647423
 10
26.32621155207841
 20
15.55506197647423
 42
0.0655434628152783
 10
26.33268202820597
 20
15.555913830817
 10
26.41746531153575
 20
15.5786314431169
 10
26.49430351406585
 20
15.56919689815867
 42
0.7132930678969658
 10
26.50259327531177
 20
15.58619342748695
 10
26.41226160697164
 20
15.67652509582708
 42
0.7725978076383388
 10
26.38721877255438
 20
15.66184477523737
 42
-0.3431487919937011
 10
26.38259461742146
 20
15.65046870861828
 10
26.36642603507045
 20
15.64113377324556
 42
-0.1316524975860435
 10
26.36242603507046
 20
15.64006197647584
  0
LWPOLYLINE
  5
22D5
330
2
100
AcDbEntity
  8
R-SWTS-DET1
100
AcDbPolyline
 90
      130
 70
     1
 43
0.0
 10
8.56599999999922
 20
18.84588254086916
 42
0.4142135623730951
 10
8.575999999999211
 20
18.85588254086917
 10
8.575999999999211
 20
18.97588254086917
 10
8.065999999999434
 20
18.97588254086914
 10
8.065999999999419
 20
18.34771347679103
 42
0.5494743523523319
 10
8.087374999999425
 20
18.33413557654837
 42
-0.2918218255973577
 10
8.242054699581629
 20
18.31408426246404
 42
-0.2220475164447702
 10
8.249219568604772
 20
18.2987460939682
 10
8.249219568604786
 20
18.26288254086918
 42
-0.4142135623730951
 10
8.229219568604776
 20
18.24288254086918
 10
8.220056315693327
 20
18.24288254086918
 42
-0.2208810136133115
 10
8.204775387587105
 20
18.24997931506272
 42
0.1605330212145298
 10
8.165845730676096
 20
18.27391226252121
 10
8.168153365015385
 20
18.28364236137769
 42
0.116970356020677
 10
8.129843366680717
 20
18.28364158618233
 10
8.132151394791392
 20
18.27391158072291
 42
0.2835070872900811
 10
8.077970278347351
 20
18.21972827154587
 10
8.068240179490885
 20
18.22203590588516
 42
0.1169703560206769
 10
8.068240954686245
 20
18.18372590755047
 10
8.077970960145663
 20
18.18603393566116
 42
0.283507087290093
 10
8.132154269322711
 20
18.13185281921712
 10
8.129846634983422
 20
18.12212272036064
 42
0.1169703560206769
 10
8.168156633318105
 20
18.122123495556
 10
8.165848605207415
 20
18.13185350101542
 42
0.1605226430949019
 10
8.204775387587119
 20
18.15578576667561
 42
-0.2208810136133025
 10
8.220056315693327
 20
18.16288254086918
 10
8.229219568604776
 20
18.16288254086917
 42
-0.4142135623730951
 10
8.249219568604786
 20
18.14288254086917
 10
8.249219568604786
 20
18.10701898777015
 42
-0.2220475164447751
 10
8.242054699581643
 20
18.09168081927431
 42
-0.2918218255974009
 10
8.087374999999425
 20
18.07162950518998
 42
0.5494743523524548
 10
8.065999999999377
 20
18.05805160494733
 10
8.06599999999932
 20
17.42257880794447
 10
8.200175294304514
 20
17.42257880794447
 10
8.374209409888493
 20
17.21891447728811
 10
8.374209409888493
 20
16.64666645063722
 10
8.19846213667057
 20
16.5995751107065
 10
8.19846213667057
 20
16.48491570545594
 10
8.315851854341801
 20
16.48491570545594
 10
8.315851854341801
 20
16.40973341806268
 42
0.5494743523522922
 10
8.337226854324839
 20
16.39615551782001
 42
-0.2918218255973563
 10
8.491906553907043
 20
16.37610420373567
 42
-0.222047516444722
 10
8.4990714229302
 20
16.36076603523984
 10
8.4990714229302
 20
16.32490248214082
 42
-0.4142135623731471
 10
8.479071422930189
 20
16.30490248214081
 10
8.46990817001874
 20
16.30490248214081
 42
-0.2208810136133066
 10
8.454627241912518
 20
16.31199925633437
 42
0.1605330212146638
 10
8.415697585001481
 20
16.3359322037929
 10
8.41800521934077
 20
16.34566230264938
 42
0.116970356020677
 10
8.379695221006102
 20
16.34566152745402
 10
8.382003249116792
 20
16.33593152199456
 42
0.283507087290051
 10
8.327822132672764
 20
16.28174821281751
 10
8.318092033816299
 20
16.28405584715678
 42
0.1169703560206769
 10
8.318092809011659
 20
16.24574584882212
 10
8.327822814471076
 20
16.24805387693279
 42
0.2835070872899558
 10
8.382006123648096
 20
16.19387276048881
 10
8.379698489308822
 20
16.18414266163234
 42
0.1169703560206765
 10
8.41800848764349
 20
16.1841434368277
 10
8.415700459532814
 20
16.19387344228706
 42
0.1605226430949548
 10
8.454627241912533
 20
16.21780570794725
 42
-0.2208810136133165
 10
8.46990817001874
 20
16.22490248214081
 10
8.479071422930189
 20
16.22490248214081
 42
-0.4142135623730951
 10
8.4990714229302
 20
16.20490248214081
 10
8.4990714229302
 20
16.16903892904178
 42
-0.2220475164447311
 10
8.491906553907057
 20
16.15370076054594
 42
-0.1410634256728592
 10
8.418544365443338
 20
16.12124592988562
 42
0.9341031171555698
 10
8.421639112593922
 20
16.07588254086987
 10
8.567851854342578
 20
16.0758825408702
 42
-0.4142135623740998
 10
8.625851854342784
 20
16.01788254087021
 10
8.625851854343025
 20
15.99509016067004
 42
-0.0655434628180566
 10
8.625000000000255
 20
15.98861968454219
 10
8.60228238770081
 20
15.90383640121408
 10
8.611716932659035
 20
15.82699819868397
 42
-0.713293067896938
 10
8.594720403330754
 20
15.81870843743807
 10
8.504388734990627
 20
15.90904010577818
 42
-0.7725978076385306
 10
8.519069055580317
 20
15.93408294019544
 42
0.3431487919936307
 10
8.530445122199438
 20
15.93870709532839
 10
8.539780057572144
 20
15.95487567767937
 42
0.1316524975860437
 10
8.540851854341866
 20
15.95887567767938
 10
8.540851854341866
 20
15.97773208413993
 42
0.4142135623731602
 10
8.53285185434187
 20
15.98573208413993
 10
8.34385185434192
 20
15.98573208413993
 42
0.4142135623731602
 10
8.335851854341925
 20
15.97773208413993
 10
8.335851854341925
 20
15.95887567767938
 42
0.1316524975860435
 10
8.336923651111646
 20
15.95487567767937
 10
8.34625858648431
 20
15.93870709532844
 42
0.3431487919941411
 10
8.357634653103445
 20
15.93408294019546
 42
-0.7725978076394044
 10
8.37231497369315
 20
15.90904010577818
 10
8.281983305353023
 20
15.81870843743807
 42
-0.7132930678969421
 10
8.264986776024755
 20
15.82699819868397
 10
8.274421320982966
 20
15.90383640121407
 10
8.251703708685582
 20
15.98861968453452
 42
-0.0655434628120725
 10
8.250851854342812
 20
15.99509016066177
 10
8.250851854337398
 20
16.41991570545594
 10
8.050999999998154
 20
16.41991570545594
 10
8.050999999998154
 20
16.35791570545594
 10
8.042844833820538
 20
16.35791570545594
 42
-0.3255049610922502
 10
8.014293575287723
 20
16.37870562205825
 10
8.000999999998143
 20
16.41991570545594
 10
8.000999999998143
 20
16.59250660176719
 42
-0.4142135623732337
 10
8.015999999998143
 20
16.6075066017672
 10
8.035999999998196
 20
16.6075066017672
 42
-0.4142135623728176
 10
8.050999999998197
 20
16.59250660176722
 10
8.050999999998268
 20
16.48491570545594
 10
8.133462136670573
 20
16.48491570545594
 10
8.133462136670573
 20
16.64945136492513
 10
8.309209409888495
 20
16.69654270485585
 10
8.309209409888495
 20
17.19654270485583
 10
8.168462136670569
 20
17.35757880794447
 10
8.065999999999306
 20
17.35757880794447
 10
8.065999999999306
 20
17.30543105800253
 42
-0.3639702342661772
 10
8.057736481775975
 20
17.29558298047241
 10
8.012736481774666
 20
17.28764826634029
 42
-0.4663076581547077
 10
8.000999999998001
 20
17.29749634387041
 10
8.000999999996636
 20
19.04088254086915
 10
8.625999999999208
 20
19.04088254086917
 10
8.62599999999918
 20
18.80088254086916
 42
-0.4142135623730951
 10
8.615999999999175
 20
18.79088254086917
 10
8.610999999999179
 20
18.79088254086917
 42
0.4142135623730951
 10
8.600999999999174
 20
18.78088254086916
 10
8.600999999999146
 20
18.48088254086917
 42
0.4142135623731992
 10
8.610999999999137
 20
18.47088254086916
 10
8.615999999999132
 20
18.47088254086916
 42
-0.4142135623731992
 10
8.625999999999137
 20
18.46088254086916
 10
8.625999999999137
 20
18.42588254086916
 42
-0.4142135623730951
 10
8.615999999999132
 20
18.41588254086917
 10
8.560999999999211
 20
18.41588254086915
 42
-0.4142135623730951
 10
8.55099999999922
 20
18.42588254086916
 10
8.550999999999206
 20
18.83588254086916
 42
-0.4142135623730951
 10
8.560999999999211
 20
18.84588254086916
  0
LWPOLYLINE
  5
22D6
330
2
100
AcDbEntity
  8
R-SWTS-DET1
100
AcDbPolyline
 90
       63
 70
     1
 43
0.0
 10
8.540851854341866
 20
15.41903299759659
 42
-0.4142135623731602
 10
8.53285185434187
 20
15.4110329975966
 10
8.34385185434192
 20
15.4110329975966
 42
-0.4142135623731602
 10
8.335851854341925
 20
15.41903299759659
 10
8.335851854341925
 20
15.43788940405715
 42
-0.1316524975860434
 10
8.336923651111646
 20
15.44188940405714
 10
8.346258586484282
 20
15.45805798640803
 42
-0.3431487919942175
 10
8.357634653103417
 20
15.46268214154101
 42
0.7725978076396093
 10
8.37231497369315
 20
15.48772497595833
 10
8.281983305353023
 20
15.57805664429846
 42
0.713293067896966
 10
8.264986776024741
 20
15.56976688305254
 10
8.274421320982966
 20
15.49292868052244
 10
8.25170370868615
 20
15.40814539720414
 42
0.0655434628152399
 10
8.25085185434338
 20
15.40167492107658
 10
8.250851854343366
 20
15.2533825408671
 42
-0.4142135623730604
 10
8.183351854343356
 20
15.1858825408671
 10
8.050851854343349
 20
15.1858825408671
 10
8.050851854343349
 20
15.2478825408671
 10
8.000851854343352
 20
15.2478825408671
 10
8.000851854343352
 20
15.1858825408671
 10
7.615000000000776
 20
15.1858825408671
 10
7.595000000000766
 20
15.16588254086711
 10
7.57500000000077
 20
15.1858825408671
 10
7.555000000000774
 20
15.16588254086711
 10
7.535000000000778
 20
15.1858825408671
 10
7.515000000000782
 20
15.16588254086711
 10
7.495000000000786
 20
15.1858825408671
 10
7.475000000000775
 20
15.16588254086711
 10
7.455000000000779
 20
15.1858825408671
 10
7.435000000000783
 20
15.16588254086711
 10
7.415000000000787
 20
15.1858825408671
 10
7.395000000000791
 20
15.16588254086711
 10
7.375000000000795
 20
15.1858825408671
 10
7.355000000000785
 20
15.16588254086711
 10
7.335000000000789
 20
15.1858825408671
 10
7.315000000000793
 20
15.16588254086711
 10
7.295000000000797
 20
15.1858825408671
 10
7.275000000000801
 20
15.16588254086711
 10
7.255000000000805
 20
15.1858825408671
 10
7.235000000000795
 20
15.16588254086711
 10
7.215000000000799
 20
15.1858825408671
 10
7.195000000000803
 20
15.16588254086711
 10
7.175000000000792
 20
15.1858825408671
 10
7.125000000000795
 20
15.1858825408671
 10
7.12500000000081
 20
15.12088254086711
 10
8.62500000000081
 20
15.12088254086711
 10
8.625000000000795
 20
15.1858825408671
 10
8.465000000000756
 20
15.1858825408671
 10
8.383351854343658
 20
15.1858825408671
 42
-1.00000000000321
 10
8.383351854343658
 20
15.32088254086769
 10
8.505000000000393
 20
15.32088254086728
 10
8.567851854343288
 20
15.32088254086707
 42
0.4142135623740818
 10
8.62585185434348
 20
15.37888254086707
 10
8.62585185434348
 20
15.40167492106508
 42
0.0655434628152783
 10
8.62500000000071
 20
15.40814539719265
 10
8.60228238770081
 20
15.49292868052243
 10
8.611716932659035
 20
15.56976688305254
 42
0.7132930678969658
 10
8.594720403330754
 20
15.57805664429846
 10
8.504388734990627
 20
15.48772497595833
 42
0.7725978076383388
 10
8.519069055580331
 20
15.46268214154109
 42
-0.3431487919937011
 10
8.530445122199424
 20
15.45805798640816
 10
8.539780057572144
 20
15.44188940405714
 42
-0.1316524975860435
 10
8.540851854341866
 20
15.43788940405715
  0
LWPOLYLINE
  5
22D7
330
2
100
AcDbEntity
  8
R-SWTS-DET1
100
AcDbPolyline
 90
      130
 70
     1
 43
0.0
 10
12.41500000000266
 20
14.9968825408657
 42
-0.4142135623730951
 10
12.42500000000268
 20
15.00688254086569
 10
12.54500000000269
 20
15.00688254086569
 10
12.54500000000263
 20
14.49688254086592
 10
11.91683093592454
 20
14.4968825408659
 42
-0.5494743523523319
 10
11.90325303568187
 20
14.51825754086591
 42
0.2918218255973577
 10
11.88320172159754
 20
14.67293724044811
 42
0.2220475164447702
 10
11.8678635531017
 20
14.68010210947126
 10
11.83200000000268
 20
14.68010210947127
 42
0.4142135623730951
 10
11.81200000000268
 20
14.66010210947126
 10
11.81200000000268
 20
14.65093885655981
 42
0.2208810136133115
 10
11.81909677419622
 20
14.63565792845359
 42
-0.1605330212145298
 10
11.84302972165471
 20
14.59672827154258
 10
11.85275982051119
 20
14.59903590588187
 42
-0.116970356020677
 10
11.85275904531583
 20
14.5607259075472
 10
11.84302903985642
 20
14.56303393565788
 42
-0.2835070872900811
 10
11.78884573067937
 20
14.50885281921383
 10
11.79115336501866
 20
14.49912272035737
 42
-0.1169703560206769
 10
11.75284336668397
 20
14.49912349555273
 10
11.75515139479466
 20
14.50885350101215
 42
-0.283507087290093
 10
11.70097027835062
 20
14.56303681018919
 10
11.69124017949414
 20
14.56072917584991
 42
-0.1169703560206769
 10
11.6912409546895
 20
14.59903917418459
 10
11.70097096014892
 20
14.5967311460739
 42
-0.1605226430949019
 10
11.72490322580911
 20
14.6356579284536
 42
0.2208810136133025
 10
11.73200000000268
 20
14.65093885655981
 10
11.73200000000267
 20
14.66010210947126
 42
0.4142135623730951
 10
11.71200000000267
 20
14.68010210947127
 10
11.67613644690365
 20
14.68010210947127
 42
0.2220475164447751
 10
11.66079827840781
 20
14.67293724044813
 42
0.2918218255974009
 10
11.64074696432348
 20
14.51825754086591
 42
-0.5494743523524548
 10
11.62716906408083
 20
14.49688254086586
 10
10.99169626707797
 20
14.4968825408658
 10
10.99169626707797
 20
14.631057835171
 10
10.78803193642162
 20
14.80509195075498
 10
10.21578390977072
 20
14.80509195075498
 10
10.16869256984
 20
14.62934467753705
 10
10.05403316458944
 20
14.62934467753705
 10
10.05403316458944
 20
14.74673439520828
 10
9.97885087719618
 20
14.74673439520828
 42
-0.5494743523522922
 10
9.965272976953514
 20
14.76810939519132
 42
0.2918218255973563
 10
9.945221662869172
 20
14.92278909477352
 42
0.222047516444722
 10
9.929883494373342
 20
14.92995396379668
 10
9.894019941274322
 20
14.92995396379668
 42
0.4142135623731471
 10
9.874019941274312
 20
14.90995396379667
 10
9.874019941274312
 20
14.90079071088522
 42
0.2208810136133066
 10
9.881116715467868
 20
14.885509782779
 42
-0.1605330212146638
 10
9.905049662926401
 20
14.84658012586796
 10
9.914779761782881
 20
14.84888776020725
 42
-0.116970356020677
 10
9.914778986587521
 20
14.81057776187259
 10
9.905048981128061
 20
14.81288578998327
 42
-0.283507087290051
 10
9.850865671951012
 20
14.75870467353925
 10
9.853173306290287
 20
14.74897457468278
 42
-0.1169703560206769
 10
9.814863307955619
 20
14.74897534987814
 10
9.817171336066294
 20
14.75870535533756
 42
-0.2835070872899558
 10
9.762990219622309
 20
14.81288866451458
 10
9.753260120765844
 20
14.8105810301753
 42
-0.1169703560206765
 10
9.753260895961204
 20
14.84889102850997
 10
9.762990901420565
 20
14.8465830003993
 42
-0.1605226430949548
 10
9.786923167080757
 20
14.88550978277902
 42
0.2208810136133165
 10
9.794019941274314
 20
14.90079071088522
 10
9.794019941274314
 20
14.90995396379667
 42
0.4142135623730951
 10
9.774019941274318
 20
14.92995396379668
 10
9.738156388175283
 20
14.92995396379668
 42
0.2220475164447311
 10
9.722818219679439
 20
14.92278909477354
 42
0.1410634256728592
 10
9.690363389019125
 20
14.84942690630982
 42
-0.9341031171555698
 10
9.645000000003378
 20
14.85252165346041
 10
9.645000000003705
 20
14.99873439520906
 42
0.4142135623740998
 10
9.587000000003712
 20
15.05673439520927
 10
9.564207619803539
 20
15.05673439520951
 42
0.0655434628180566
 10
9.557737143675694
 20
15.05588254086674
 10
9.472953860347587
 20
15.03316492856729
 10
9.396115657817475
 20
15.04259947352552
 42
0.713293067896938
 10
9.38782589657157
 20
15.02560294419724
 10
9.478157564911683
 20
14.93527127585711
 42
0.7725978076385306
 10
9.503200399328946
 20
14.9499515964468
 42
-0.3431487919936307
 10
9.50782455446189
 20
14.96132766306592
 10
9.523993136812876
 20
14.97066259843863
 42
-0.1316524975860437
 10
9.527993136812881
 20
14.97173439520835
 10
9.546849543273438
 20
14.97173439520835
 42
-0.4142135623731602
 10
9.554849543273434
 20
14.96373439520835
 10
9.554849543273434
 20
14.7747343952084
 42
-0.4142135623731602
 10
9.546849543273438
 20
14.76673439520841
 10
9.527993136812881
 20
14.76673439520841
 42
-0.1316524975860435
 10
9.523993136812876
 20
14.76780619197813
 10
9.507824554461947
 20
14.77714112735079
 42
-0.3431487919941411
 10
9.50320039932896
 20
14.78851719396993
 42
0.7725978076394044
 10
9.478157564911683
 20
14.80319751455963
 10
9.38782589657157
 20
14.71286584621951
 42
0.7132930678969421
 10
9.396115657817475
 20
14.69586931689124
 10
9.472953860347573
 20
14.70530386184945
 10
9.55773714366802
 20
14.68258624955207
 42
0.0655434628120725
 10
9.564207619795269
 20
14.6817343952093
 10
9.989033164589443
 20
14.68173439520388
 10
9.989033164589443
 20
14.48188254086464
 10
9.927033164589445
 20
14.48188254086464
 10
9.927033164589445
 20
14.47372737468702
 42
0.3255049610922502
 10
9.947823081191756
 20
14.4451761161542
 10
9.989033164589443
 20
14.43188254086463
 10
10.16162406090069
 20
14.43188254086463
 42
0.4142135623732337
 10
10.1766240609007
 20
14.44688254086463
 10
10.1766240609007
 20
14.46688254086468
 42
0.4142135623728176
 10
10.16162406090072
 20
14.48188254086468
 10
10.05403316458944
 20
14.48188254086475
 10
10.05403316458944
 20
14.56434467753705
 10
10.21856882405863
 20
14.56434467753705
 10
10.26566016398935
 20
14.74009195075498
 10
10.76566016398934
 20
14.74009195075498
 10
10.92669626707797
 20
14.59934467753705
 10
10.92669626707797
 20
14.49688254086579
 10
10.87454851713603
 20
14.49688254086579
 42
0.3639702342661772
 10
10.86470043960591
 20
14.48861902264246
 10
10.85676572547379
 20
14.44361902264115
 42
0.4663076581547077
 10
10.86661380300391
 20
14.43188254086448
 10
12.61000000000265
 20
14.43188254086312
 10
12.61000000000268
 20
15.05688254086569
 10
12.37000000000267
 20
15.05688254086566
 42
0.4142135623730951
 10
12.36000000000268
 20
15.04688254086566
 10
12.36000000000268
 20
15.04188254086566
 42
-0.4142135623730951
 10
12.35000000000266
 20
15.03188254086566
 10
12.05000000000267
 20
15.03188254086563
 42
-0.4142135623731992
 10
12.04000000000266
 20
15.04188254086562
 10
12.04000000000266
 20
15.04688254086562
 42
0.4142135623731992
 10
12.03000000000266
 20
15.05688254086562
 10
11.99500000000266
 20
15.05688254086562
 42
0.4142135623730951
 10
11.98500000000267
 20
15.04688254086562
 10
11.98500000000265
 20
14.99188254086569
 42
0.4142135623730951
 10
11.99500000000266
 20
14.9818825408657
 10
12.40500000000264
 20
14.98188254086569
 42
0.4142135623730951
 10
12.41500000000266
 20
14.99188254086569
  0
LWPOLYLINE
  5
22D8
330
2
100
AcDbEntity
  8
R-SWTS-DET1
100
AcDbPolyline
 90
       63
 70
     1
 43
0.0
 10
8.988150456730096
 20
14.97173439520835
 42
0.4142135623731602
 10
8.9801504567301
 20
14.96373439520835
 10
8.9801504567301
 20
14.7747343952084
 42
0.4142135623731602
 10
8.988150456730096
 20
14.76673439520841
 10
9.007006863190653
 20
14.76673439520841
 42
0.1316524975860434
 10
9.011006863190644
 20
14.76780619197813
 10
9.02717544554153
 20
14.77714112735077
 42
0.3431487919942175
 10
9.031799600674517
 20
14.7885171939699
 42
-0.7725978076396093
 10
9.056842435091837
 20
14.80319751455963
 10
9.147174103431964
 20
14.71286584621951
 42
-0.713293067896966
 10
9.138884342186045
 20
14.69586931689122
 10
9.062046139655947
 20
14.70530386184945
 10
8.977262856337645
 20
14.68258624955263
 42
-0.0655434628152399
 10
8.970792380210085
 20
14.68173439520986
 10
8.822500000000601
 20
14.68173439520985
 42
0.4142135623730604
 10
8.755000000000606
 20
14.61423439520984
 10
8.755000000000606
 20
14.48173439520983
 10
8.817000000000604
 20
14.48173439520983
 10
8.817000000000604
 20
14.43173439520984
 10
8.755000000000606
 20
14.43173439520984
 10
8.755000000000606
 20
14.04588254086726
 10
8.73500000000061
 20
14.02588254086725
 10
8.755000000000606
 20
14.00588254086725
 10
8.73500000000061
 20
13.98588254086726
 10
8.755000000000606
 20
13.96588254086726
 10
8.73500000000061
 20
13.94588254086726
 10
8.755000000000606
 20
13.92588254086727
 10
8.73500000000061
 20
13.90588254086726
 10
8.755000000000606
 20
13.88588254086726
 10
8.73500000000061
 20
13.86588254086727
 10
8.755000000000606
 20
13.84588254086727
 10
8.73500000000061
 20
13.82588254086728
 10
8.755000000000606
 20
13.80588254086728
 10
8.73500000000061
 20
13.78588254086727
 10
8.755000000000606
 20
13.76588254086727
 10
8.73500000000061
 20
13.74588254086728
 10
8.755000000000606
 20
13.72588254086728
 10
8.73500000000061
 20
13.70588254086728
 10
8.755000000000606
 20
13.68588254086729
 10
8.73500000000061
 20
13.66588254086728
 10
8.755000000000606
 20
13.64588254086728
 10
8.73500000000061
 20
13.62588254086729
 10
8.755000000000606
 20
13.60588254086728
 10
8.755000000000606
 20
13.55588254086728
 10
8.690000000000608
 20
13.55588254086729
 10
8.690000000000608
 20
15.05588254086729
 10
8.755000000000606
 20
15.05588254086728
 10
8.755000000000606
 20
14.89588254086724
 10
8.755000000000606
 20
14.81423439521014
 42
1.00000000000321
 10
8.890000000001194
 20
14.81423439521014
 10
8.890000000000782
 20
14.93588254086688
 10
8.890000000000569
 20
14.99873439520977
 42
-0.4142135623740818
 10
8.948000000000575
 20
15.05673439520996
 10
8.970792380198588
 20
15.05673439520996
 42
-0.0655434628152783
 10
8.977262856326149
 20
15.05588254086719
 10
9.062046139655933
 20
15.03316492856729
 10
9.138884342186045
 20
15.04259947352552
 42
-0.7132930678969658
 10
9.147174103431964
 20
15.02560294419724
 10
9.056842435091837
 20
14.93527127585711
 42
-0.7725978076383388
 10
9.031799600674588
 20
14.94995159644681
 42
0.3431487919937011
 10
9.027175445541658
 20
14.96132766306591
 10
9.011006863190644
 20
14.97066259843863
 42
0.1316524975860435
 10
9.007006863190653
 20
14.97173439520835
  0
LWPOLYLINE
  5
22D9
330
2
100
AcDbEntity
  8
R-SWTS-DET1
100
AcDbPolyline
 90
       41
 70
     1
 43
0.0
 10
10.11693255872319
 20
13.80941512671868
 42
0.4142135623730431
 10
10.13193255872319
 20
13.79441512671868
 10
10.16393255872319
 20
13.79441512671868
 42
-0.4142135623730951
 10
10.17893255872319
 20
13.77941512671868
 10
10.17893255872319
 20
13.66930708628202
 42
0.4184033046059118
 10
10.24181810287759
 20
13.60731341070499
 10
10.81905926456949
 20
13.61555897013758
 42
0.4139326425428041
 10
10.87819696037292
 20
13.67635228049482
 10
10.86925941981916
 20
14.34708557531475
 42
0.4077932646411109
 10
10.85439043484996
 20
14.3618851570186
 42
-0.413875507397508
 10
10.78499758888125
 20
14.43240693024263
 42
0.4122343511257975
 10
10.77021180537534
 20
14.44751777569916
 10
10.25212285775487
 20
14.45490286816076
 42
-0.3394542588633734
 10
10.23779390336027
 20
14.4662259638356
 10
10.2292012370485
 20
14.50022543505031
 10
10.12172040150547
 20
14.50175751928408
 10
10.12164913630747
 20
14.49675802718273
 42
-0.9999999999999847
 10
10.09165218369931
 20
14.49718561837067
 10
10.09173962100421
 20
14.50331963788522
 42
-0.3727193515204652
 10
10.11786349406709
 20
14.53264098373434
 10
10.13790271511715
 20
14.53524993399887
 10
10.22360519943119
 20
14.54640772893328
 42
-0.3800361709519329
 10
10.2785361653019
 20
14.50907743596898
 10
10.2796892262437
 20
14.5045150032063
 10
10.84802955740737
 20
14.49641360302283
 42
-0.4577045202689281
 10
10.86262314876521
 20
14.47901902745972
 10
10.8549956246806
 20
14.43188254086448
 10
10.9389956246806
 20
14.43188254086448
 10
10.9389956246806
 20
13.55641512671868
 10
10.11886373806486
 20
13.55641512671869
 42
-0.267949192431115
 10
10.10587335700809
 20
13.56391512671869
 10
10.06892293977995
 20
13.62791512671868
 42
-0.577350269189628
 10
10.08191332083672
 20
13.65041512671869
 10
10.12893255872319
 20
13.65041512671869
 10
10.12893255872319
 20
13.74441512671868
 10
10.09693255872319
 20
13.74441512671868
 42
-0.4142135623730948
 10
10.06693255872319
 20
13.77441512671868
 10
10.06693255872318
 20
13.82841512671869
 42
-0.4142135623731297
 10
10.08193255872318
 20
13.84341512671869
 10
10.10193255872319
 20
13.84341512671869
 42
-0.4142135623730431
 10
10.11693255872319
 20
13.82841512671869
  0
LWPOLYLINE
  5
22DD
330
2
100
AcDbEntity
  8
R-SWTS-DET2
100
AcDbPolyline
 90
        4
 70
     1
 43
0.0
 10
7.427965103174031
 20
15.31066640067234
 10
7.181034896825948
 20
15.31066640067234
 42
0.9999999999999998
 10
7.181034896825948
 20
15.1858825408671
 10
7.427965103174031
 20
15.1858825408671
 42
0.9999999999999998
  0
LWPOLYLINE
  5
22DE
330
2
100
AcDbEntity
  8
R-SWTS-DET2
100
AcDbPolyline
 90
        4
 70
     1
 43
0.0
 10
8.87978385980584
 20
13.85884764404051
 42
0.9999999999999998
 10
8.755000000000606
 20
13.85884764404051
 10
8.755000000000606
 20
13.61191743769243
 42
0.9999999999999998
 10
8.87978385980584
 20
13.61191743769243
  0
LWPOLYLINE
  5
22DF
330
2
100
AcDbEntity
  8
R-SWTS-DET3
100
AcDbPolyline
 90
        4
 70
     0
 43
0.0
 10
9.129783859805826
 20
11.55588254086647
 10
9.129783859805826
 20
14.11788254086647
 10
8.879783859805826
 20
14.11788254086647
 10
8.879783859805826
 20
11.55588254086647
  0
LWPOLYLINE
  5
22E0
330
2
100
AcDbEntity
  8
R-SWTS-DET3
100
AcDbPolyline
 90
        4
 70
     0
 43
0.0
 10
9.879783859805826
 20
11.55588254086647
 10
9.879783859805826
 20
14.11788254086647
 10
9.629783859805826
 20
14.11788254086647
 10
9.629783859805826
 20
11.55588254086647
  0
LWPOLYLINE
  5
22E1
330
2
100
AcDbEntity
  8
R-SWTS-DET3
100
AcDbPolyline
 90
        4
 70
     1
 43
0.0
 10
9.629783859805826
 20
14.11788254086647
 10
9.629783859805826
 20
13.86788254086647
 10
9.129783859805826
 20
13.86788254086647
 10
9.129783859805826
 20
14.11788254086647
  0
LWPOLYLINE
  5
22E2
330
2
100
AcDbEntity
  8
R-SWTS-DET3
100
AcDbPolyline
 90
        4
 70
     1
 43
0.0
 10
7.686999999999983
 20
15.56066640067234
 10
7.436999999999983
 20
15.56066640067234
 10
7.436999999999983
 20
16.06066640067234
 10
7.686999999999983
 20
16.06066640067234
  0
LWPOLYLINE
  5
22E3
330
2
100
AcDbEntity
  8
R-SWTS-DET3
100
AcDbPolyline
 90
        4
 70
     0
 43
0.0
 10
5.124999999999985
 20
15.31066640067234
 10
7.686999999999983
 20
15.31066640067234
 10
7.686999999999983
 20
15.56066640067234
 10
5.124999999999985
 20
15.56066640067234
  0
LWPOLYLINE
  5
22E4
330
2
100
AcDbEntity
  8
R-SWTS-DET3
100
AcDbPolyline
 90
        4
 70
     0
 43
0.0
 10
5.124999999999985
 20
16.06066640067234
 10
7.686999999999983
 20
16.06066640067234
 10
7.686999999999983
 20
16.31066640067234
 10
5.124999999999985
 20
16.31066640067234
  0
LWPOLYLINE
  5
22E5
330
2
100
AcDbEntity
  8
R-SWTS-DET1
100
AcDbPolyline
 90
        6
 70
     0
 43
0.0
 10
5.125015644974212
 20
14.8708825408671
 10
5.125015644974212
 20
16.97403841513104
 10
4.91280045199204
 20
17.02710699686754
 10
5.337215192982228
 20
17.13465808486871
 10
5.125
 20
17.18772666660521
 10
5.125
 20
19.29088254086915
  0
LWPOLYLINE
  5
22E6
330
2
100
AcDbEntity
  8
R-SWTS-DET1
100
AcDbPolyline
 90
        6
 70
     0
 43
0.0
 10
8.440000000000608
 20
11.55589818584069
 10
10.54315587426454
 20
11.55589818584069
 10
10.59622445600104
 20
11.76811337882287
 10
10.70377554400221
 20
11.34369863783268
 10
10.75684412573871
 20
11.55591383081491
 10
12.86000000000266
 20
11.55591383081491
  0
LINE
  5
22E9
330
2
100
AcDbEntity
  8
R-SWTS-DET1
100
AcDbLine
 10
8.625000000000824
 20
15.05588254086731
 30
0.0
 11
12.62500000000273
 21
15.05588254086731
 31
0.0
  0
LINE
  5
22EA
330
2
100
AcDbEntity
  8
R-SWTS-DET1
100
AcDbLine
 10
12.62500000000273
 20
11.55588254086659
 30
0.0
 11
12.62500000000273
 21
15.05588254086731
 31
0.0
  0
LINE
  5
22EB
330
2
100
AcDbEntity
  8
R-SWTS-DET1
100
AcDbLine
 10
8.690000000000807
 20
11.55586689589238
 30
0.0
 11
8.690000000000807
 21
15.05588254086731
 31
0.0
  0
LINE
  5
22EC
330
2
100
AcDbEntity
  8
R-SWTS-DET1
100
AcDbLine
 10
8.625000000000824
 20
11.55586689589238
 30
0.0
 11
8.625000000000824
 21
15.05588254086731
 31
0.0
  0
LINE
  5
22ED
330
2
100
AcDbEntity
  8
R-SWTS-DET2
100
AcDbLine
 10
10.17591332083672
 20
13.55641512671868
 30
0.0
 11
10.17591332083672
 21
11.55588254086659
 31
0.0
  0
LINE
  5
22EE
330
2
100
AcDbEntity
  8
R-SWTS-DET1
100
AcDbLine
 10
10.93899562468061
 20
13.55641512671868
 30
0.0
 11
10.93899562468061
 21
11.55588254086659
 31
0.0
  0
LINE
  5
2309
330
2
100
AcDbEntity
  8
R-SWTS-DET1
100
AcDbLine
 10
5.125000000000113
 20
19.0558825408692
 30
0.0
 11
8.625000000000824
 21
19.0558825408692
 31
0.0
  0
LINE
  5
230A
330
2
100
AcDbEntity
  8
R-SWTS-DET1
100
AcDbLine
 10
7.125532585852198
 20
17.3698781655471
 30
0.0
 11
5.125000000000113
 21
17.3698781655471
 31
0.0
  0
LINE
  5
230B
330
2
100
AcDbEntity
  8
R-SWTS-DET2
100
AcDbLine
 10
7.125532585852198
 20
16.60679586170321
 30
0.0
 11
5.125000000000113
 21
16.60679586170321
 31
0.0
  0
LINE
  5
230C
330
2
100
AcDbEntity
  8
R-SWTS-DET1
100
AcDbLine
 10
5.124984355025901
 20
15.05588254086731
 30
0.0
 11
8.625000000000824
 21
15.05588254086731
 31
0.0
  0
LINE
  5
230D
330
2
100
AcDbEntity
  8
R-SWTS-DET1
100
AcDbLine
 10
5.124984355025901
 20
15.12088254086729
 30
0.0
 11
8.625000000000824
 21
15.12088254086729
 31
0.0
  0
LINE
  5
230E
330
2
100
AcDbEntity
  8
R-SWTS-DET1
100
AcDbLine
 10
8.625000000000824
 20
15.05588254086731
 30
0.0
 11
8.625000000000824
 21
19.0558825408692
 31
0.0
  0
LWPOLYLINE
  5
2320
330
2
100
AcDbEntity
  8
R-SWTS-DET3
100
AcDbPolyline
 90
        4
 70
     0
 43
0.0
 10
26.48520342146941
 20
19.05591383081773
 10
26.48520342146941
 20
16.49391383081774
 10
26.23520342146941
 20
16.49391383081774
 10
26.23520342146941
 20
19.05591383081773
  0
LWPOLYLINE
  5
2321
330
2
100
AcDbEntity
  8
R-SWTS-DET3
100
AcDbPolyline
 90
        4
 70
     0
 43
0.0
 10
27.23520342146941
 20
19.05591383081773
 10
27.23520342146941
 20
16.49391383081774
 10
26.98520342146941
 20
16.49391383081774
 10
26.98520342146941
 20
19.05591383081773
  0
LWPOLYLINE
  5
2322
330
2
100
AcDbEntity
  8
R-SWTS-DET3
100
AcDbPolyline
 90
        4
 70
     1
 43
0.0
 10
26.98520342146941
 20
16.49391383081774
 10
26.98520342146941
 20
16.74391383081774
 10
26.48520342146941
 20
16.74391383081774
 10
26.48520342146941
 20
16.49391383081774
  0
LWPOLYLINE
  5
2323
330
2
100
AcDbEntity
  8
R-SWTS-DET3
100
AcDbPolyline
 90
        4
 70
     0
 43
0.0
 10
33.48041917188334
 20
11.81069769062004
 10
30.91841917188333
 20
11.81069769062004
 10
30.91841917188333
 20
12.06069769062004
 10
33.48041917188334
 20
12.06069769062004
  0
LWPOLYLINE
  5
2324
330
2
100
AcDbEntity
  8
R-SWTS-DET3
100
AcDbPolyline
 90
        4
 70
     0
 43
0.0
 10
33.48041917188334
 20
12.56069769062004
 10
30.91841917188333
 20
12.56069769062004
 10
30.91841917188333
 20
12.81069769062004
 10
33.48041917188334
 20
12.81069769062004
  0
LWPOLYLINE
  5
2325
330
2
100
AcDbEntity
  8
R-SWTS-DET3
100
AcDbPolyline
 90
        4
 70
     1
 43
0.0
 10
30.91841917188333
 20
12.06069769062004
 10
31.16841917188333
 20
12.06069769062004
 10
31.16841917188333
 20
12.56069769062004
 10
30.91841917188333
 20
12.56069769062004
  0
LWPOLYLINE
  5
2326
330
2
100
AcDbEntity
  8
R-SWTS-DET2
100
AcDbPolyline
 90
        4
 70
     1
 43
0.0
 10
26.23520342146941
 20
16.99987893399178
 42
0.9999999999999998
 10
26.11041956166417
 20
16.99987893399178
 10
26.11041956166417
 20
16.7529487276437
 42
0.9999999999999998
 10
26.23520342146941
 20
16.7529487276437
  0
LWPOLYLINE
  5
2327
330
2
100
AcDbEntity
  8
R-SWTS-DET2
100
AcDbPolyline
 90
        4
 70
     1
 43
0.0
 10
31.17745406870927
 20
11.81069769062004
 42
0.9999999999999998
 10
31.17745406870927
 20
11.6859138308148
 10
31.42438427505738
 20
11.6859138308148
 42
0.9999999999999998
 10
31.42438427505738
 20
11.81069769062004
  0
LWPOLYLINE
  5
2328
330
2
100
AcDbEntity
  8
R-SWTS-DET1
100
AcDbPolyline
 90
        6
 70
     0
 43
0.0
 10
25.79541917188041
 20
19.05589818584352
 10
27.89857504614435
 20
19.05589818584352
 10
27.95164362788085
 20
19.26811337882569
 10
28.05919471588203
 20
18.84369863783551
 10
28.11226329761851
 20
19.05591383081773
 10
30.21541917188244
 20
19.05591383081773
  0
LWPOLYLINE
  5
2329
330
2
100
AcDbEntity
  8
R-SWTS-DET1
100
AcDbPolyline
 90
        6
 70
     0
 43
0.0
 10
33.48043481685755
 20
11.37091383081481
 10
33.48043481685755
 20
13.47406970507874
 10
33.26821962387538
 20
13.52713828681524
 10
33.69263436486557
 20
13.63468937481641
 10
33.48041917188334
 20
13.68775795655291
 10
33.48041917188334
 20
15.79091383081685
  0
LINE
  5
232A
330
2
100
AcDbEntity
  8
R-SWTS-DET1
100
AcDbLine
 10
33.4804191718832
 20
15.55591383081688
 30
0.0
 11
29.98041917188249
 21
15.55591383081688
 31
0.0
  0
LINE
  5
232B
330
2
100
AcDbEntity
  8
R-SWTS-DET1
100
AcDbLine
 10
29.98041917188249
 20
11.55591383081499
 30
0.0
 11
29.98041917188249
 21
15.55591383081688
 31
0.0
  0
LINE
  5
232C
330
2
100
AcDbEntity
  8
R-SWTS-DET1
100
AcDbLine
 10
33.48043481685741
 20
11.62091383081498
 30
0.0
 11
29.98041917188249
 21
11.62091383081498
 31
0.0
  0
LINE
  5
232D
330
2
100
AcDbEntity
  8
R-SWTS-DET1
100
AcDbLine
 10
33.48043481685741
 20
11.55591383081499
 30
0.0
 11
29.98041917188249
 21
11.55591383081499
 31
0.0
  0
LINE
  5
232E
330
2
100
AcDbEntity
  8
R-SWTS-DET1
100
AcDbLine
 10
31.47988658603111
 20
13.86990945549478
 30
0.0
 11
33.4804191718832
 21
13.86990945549478
 31
0.0
  0
LINE
  5
232F
330
2
100
AcDbEntity
  8
R-SWTS-DET2
100
AcDbLine
 10
31.47988658603111
 20
13.10682715165089
 30
0.0
 11
33.4804191718832
 21
13.10682715165089
 31
0.0
  0
LINE
  5
2330
330
2
100
AcDbEntity
  8
R-SWTS-DET1
100
AcDbLine
 10
25.98041917188061
 20
19.05592947579181
 30
0.0
 11
25.98041917188061
 21
15.55591383081688
 31
0.0
  0
LINE
  5
2331
330
2
100
AcDbEntity
  8
R-SWTS-DET1
100
AcDbLine
 10
26.04541917188058
 20
19.05592947579181
 30
0.0
 11
26.04541917188058
 21
15.55591383081688
 31
0.0
  0
LINE
  5
2332
330
2
100
AcDbEntity
  8
R-SWTS-DET2
100
AcDbLine
 10
27.5313324927165
 20
17.05538124496551
 30
0.0
 11
27.5313324927165
 21
19.05591383081759
 31
0.0
  0
LINE
  5
2333
330
2
100
AcDbEntity
  8
R-SWTS-DET1
100
AcDbLine
 10
28.29441479656038
 20
17.05538124496551
 30
0.0
 11
28.29441479656038
 21
19.05591383081759
 31
0.0
  0
LINE
  5
2334
330
2
100
AcDbEntity
  8
R-SWTS-DET1
100
AcDbLine
 10
29.98041917188249
 20
19.05591383081759
 30
0.0
 11
29.98041917188249
 21
15.55591383081688
 31
0.0
  0
LINE
  5
2335
330
2
100
AcDbEntity
  8
R-SWTS-DET1
100
AcDbLine
 10
25.98041917188061
 20
15.55591383081688
 30
0.0
 11
29.98041917188249
 21
15.55591383081688
 31
0.0
  0
LWPOLYLINE
  5
2336
330
2
100
AcDbEntity
  8
R-SWTS-DET2
100
AcDbPolyline
 90
        6
 70
     1
 43
0.0
 10
29.96341917188573
 20
14.88668426985188
 10
29.96341917188573
 20
15.53891383082006
 10
29.31318961091432
 20
15.53891383082006
 10
29.31318961091432
 20
15.41602960122563
 10
29.8405349422913
 20
15.41602960122563
 10
29.8405349422913
 20
14.88668426985188
  0
LWPOLYLINE
  5
2368
330
2
100
AcDbEntity
  8
R-SWTS-DET2
100
AcDbPolyline
 90
        7
 70
     0
 43
0.0
 10
8.62500000000081
 20
15.05588254086729
 10
9.277229560968976
 20
15.05588254086729
 10
9.277229560968976
 20
15.17876677046171
 10
8.74988422959197
 20
15.17876677046171
 10
8.74988422959197
 20
15.70811210183546
 10
8.626999999997551
 20
15.70811210183546
 10
8.626999999997551
 20
15.05588254086729
  0
LINE
  5
2377
330
2
100
AcDbEntity
  8
0
100
AcDbLine
 10
-0.0000000000000142
 20
23.76618448075539
 30
0.0
 11
0.0
 21
0.0
 31
0.0
  0
LINE
  5
2378
330
2
100
AcDbEntity
  8
0
100
AcDbLine
 10
0.0
 20
0.0
 30
0.0
 11
44.05826687614456
 21
-0.0000000000000036
 31
0.0
  0
DIMENSION
  5
3643
330
2
100
AcDbEntity
  8
R-ANNO-DIMS
100
AcDbDimension
  2
*D1
 10
2.625015644974212
 20
19.0558825408692
 30
0.0
 11
2.351206121164684
 21
17.05588254086825
 31
0.0
 70
    32
 71
     5
 42
4.000000000001888
  3
STANDARD
100
AcDbAlignedDimension
 13
5.124984355025901
 23
15.05588254086731
 33
0.0
 14
5.125000000000113
 24
19.0558825408692
 34
0.0
 50
90.0
100
AcDbRotatedDimension
  0
DIMENSION
  5
3659
330
2
100
AcDbEntity
  8
R-ANNO-DIMS
100
AcDbDimension
  2
*D2
 10
3.375
 20
15.05588254086731
 30
0.0
 11
3.059523809523806
 21
14.3058825408673
 31
0.0
 70
    32
 71
     5
 42
1.500000000000014
  3
STANDARD
100
AcDbAlignedDimension
 13
8.690000000000608
 23
13.55588254086729
 33
0.0
 14
5.124984355025901
 24
15.05588254086731
 34
0.0
 50
90.0
100
AcDbRotatedDimension
  0
DIMENSION
  5
3674
330
2
100
AcDbEntity
  8
R-ANNO-DIMS
100
AcDbDimension
  2
*D3
 10
2.625015644974212
 20
11.5558981858407
 30
0.0
 11
2.37501564497421
 21
13.430890363354
 31
0.0
 70
    32
  1
F.W.
 71
     5
 42
3.499984355026612
  3
Open-end
100
AcDbAlignedDimension
 13
5.124984355025901
 23
15.05588254086731
 33
0.0
 14
8.440000000000608
 24
11.55589818584069
 34
0.0
 50
90.0
100
AcDbRotatedDimension
  0
DIMENSION
  5
3688
330
2
100
AcDbEntity
  8
R-ANNO-DIMS
100
AcDbDimension
  2
*D4
 10
3.375
 20
11.5558981858407
 30
0.0
 11
3.124999999999998
 21
12.680890363354
 31
0.0
 70
    32
  1
D.L.O.
 71
     5
 42
1.999984355026597
  3
Open-end
100
AcDbAlignedDimension
 13
8.690000000000608
 23
13.55588254086729
 33
0.0
 14
8.440000000000608
 24
11.55589818584069
 34
0.0
 50
90.0
100
AcDbRotatedDimension
  0
DIMENSION
  5
3694
330
2
100
AcDbEntity
  8
R-ANNO-DIMS
100
AcDbDimension
  2
*D5
 10
12.62500000000273
 20
9.05592947578912
 30
0.0
 11
10.62500000000177
 21
9.329738999598644
 31
0.0
 70
    32
 71
     5
 42
4.000000000001904
  3
STANDARD
100
AcDbAlignedDimension
 13
8.625000000000824
 23
11.55586689589238
 33
0.0
 14
12.62500000000273
 24
11.55588254086659
 34
0.0
100
AcDbRotatedDimension
  0
DIMENSION
  5
36C8
330
2
100
AcDbEntity
  8
R-ANNO-DIMS
100
AcDbDimension
  2
*D6
 10
8.625000000000824
 20
9.805913830814908
 30
0.0
 11
7.875000000000817
 21
10.1213900212911
 31
0.0
 70
    32
 71
     5
 42
1.500000000000014
  3
STANDARD
100
AcDbAlignedDimension
 13
7.12500000000081
 23
15.12088254086711
 33
0.0
 14
8.625000000000824
 24
11.55586689589238
 34
0.0
100
AcDbRotatedDimension
  0
DIMENSION
  5
36D7
330
2
100
AcDbEntity
  8
R-ANNO-DIMS
100
AcDbDimension
  2
*D7
 10
5.125015644974212
 20
9.805913830814908
 30
0.0
 11
6.250007822487511
 21
10.05591383081491
 31
0.0
 70
    32
  1
D.L.O.
 71
     5
 42
1.999984355026597
  3
Open-end
100
AcDbAlignedDimension
 13
7.12500000000081
 23
15.12088254086711
 33
0.0
 14
5.125015644974212
 24
14.8708825408671
 34
0.0
100
AcDbRotatedDimension
  0
DIMENSION
  5
36E3
330
2
100
AcDbEntity
  8
R-ANNO-DIMS
100
AcDbDimension
  2
*D8
 10
5.125015644974212
 20
9.05592947578912
 30
0.0
 11
7.000007822487518
 21
9.30592947578912
 31
0.0
 70
    32
  1
F.W.
 71
     5
 42
3.499984355026612
  3
Open-end
100
AcDbAlignedDimension
 13
8.625000000000824
 23
11.55586689589238
 33
0.0
 14
5.125015644974212
 24
14.8708825408671
 34
0.0
100
AcDbRotatedDimension
  0
DIMENSION
  5
373B
330
2
100
AcDbEntity
  8
R-ANNO-DIMS
100
AcDbDimension
  2
*D9
 10
23.73520342146941
 20
15.55591383081688
 30
0.0
 11
23.46139389765988
 21
13.55591383081594
 31
0.0
 70
    32
 71
     5
 42
4.000000000001888
  3
STANDARD
100
AcDbAlignedDimension
 13
29.98041917188249
 23
11.55591383081499
 33
0.0
 14
25.98041917188061
 24
15.55591383081688
 34
0.0
 50
90.0
100
AcDbRotatedDimension
  0
DIMENSION
  5
375D
330
2
100
AcDbEntity
  8
R-ANNO-DIMS
100
AcDbDimension
  2
*D10
 10
24.48520342146941
 20
17.0559138308169
 30
0.0
 11
24.16972723099322
 21
16.3059138308169
 31
0.0
 70
    32
 71
     5
 42
1.500000000000015
  3
STANDARD
100
AcDbAlignedDimension
 13
25.98041917188061
 23
15.55591383081688
 33
0.0
 14
26.04541917188041
 24
17.0559138308169
 34
0.0
 50
90.0
100
AcDbRotatedDimension
  0
DIMENSION
  5
376C
330
2
100
AcDbEntity
  8
R-ANNO-DIMS
100
AcDbDimension
  2
*D11
 10
23.73520342146941
 20
19.05589818584353
 30
0.0
 11
23.4852034214694
 21
17.18090600833021
 31
0.0
 70
    32
  1
F.W.
 71
     5
 42
3.499984355026642
  3
Open-end
100
AcDbAlignedDimension
 13
25.98041917188061
 23
15.55591383081688
 33
0.0
 14
25.79541917188041
 24
19.05589818584352
 34
0.0
 50
90.0
100
AcDbRotatedDimension
  0
DIMENSION
  5
3778
330
2
100
AcDbEntity
  8
R-ANNO-DIMS
100
AcDbDimension
  2
*D12
 10
24.48520342146941
 20
19.05589818584352
 30
0.0
 11
24.2352034214694
 21
17.93090600833022
 31
0.0
 70
    32
  1
D.L.O.
 71
     5
 42
1.999984355026626
  3
Open-end
100
AcDbAlignedDimension
 13
26.04541917188041
 23
17.0559138308169
 33
0.0
 14
25.79541917188041
 24
19.05589818584352
 34
0.0
 50
90.0
100
AcDbRotatedDimension
  0
DIMENSION
  5
3788
330
2
100
AcDbEntity
  8
R-ANNO-DIMS
100
AcDbDimension
  2
*D13
 10
33.48043481685755
 20
10.06069769062003
 30
0.0
 11
32.35542699437002
 21
10.31069769062003
 31
0.0
 70
    32
  1
D.L.O.
 71
     5
 42
2.000015644975064
  3
Open-end
100
AcDbAlignedDimension
 13
31.48041917188249
 23
11.6209138308148
 33
0.0
 14
33.48043481685755
 24
11.37091383081481
 34
0.0
100
AcDbRotatedDimension
  0
DIMENSION
  5
3794
330
2
100
AcDbEntity
  8
R-ANNO-DIMS
100
AcDbDimension
  2
*D14
 10
33.48043481685755
 20
9.310697690620038
 30
0.0
 11
31.60542699437002
 21
9.560697690620038
 31
0.0
 70
    32
  1
F.W.
 71
     5
 42
3.500015644975064
  3
Open-end
100
AcDbAlignedDimension
 13
29.98041917188249
 23
11.55591383081499
 33
0.0
 14
33.48043481685755
 24
11.37091383081481
 34
0.0
100
AcDbRotatedDimension
  0
DIMENSION
  5
37A8
330
2
100
AcDbEntity
  8
R-ANNO-DIMS
100
AcDbDimension
  2
*D15
 10
29.98041917188249
 20
9.310697690620038
 30
0.0
 11
27.98041917188155
 21
9.584507214429562
 31
0.0
 70
    32
 71
     5
 42
4.000000000001875
  3
STANDARD
100
AcDbAlignedDimension
 13
25.98041917188061
 23
15.55591383081688
 33
0.0
 14
29.98041917188249
 24
11.55591383081499
 34
0.0
100
AcDbRotatedDimension
  0
DIMENSION
  5
37B5
330
2
100
AcDbEntity
  8
R-ANNO-DIMS
100
AcDbDimension
  2
*D16
 10
31.48041917188249
 20
10.06069769062003
 30
0.0
 11
30.73041917188249
 21
10.37617388109622
 31
0.0
 70
    32
 71
     5
 42
1.5
  3
STANDARD
100
AcDbAlignedDimension
 13
29.98041917188249
 23
11.55591383081499
 33
0.0
 14
31.48041917188249
 24
11.6209138308148
 34
0.0
100
AcDbRotatedDimension
  0
TEXT
  5
3FCD
330
2
100
AcDbEntity
  8
0
 62
     2
100
AcDbText
 10
5.074956662870462
 20
7.77237723630207
 30
0.0
 40
0.375
  1
%%u90° INSIDE CORNER
  7
ROMAND
 72
     1
 11
7.62500782248847
 21
7.77237723630207
 31
0.0
100
AcDbText
  0
TEXT
  5
3FCE
330
2
100
AcDbEntity
  8
0
 62
     2
100
AcDbText
 10
26.37050528133344
 20
7.77237723630207
 30
0.0
 40
0.375
  1
%%u90° OUTSIDE CORNER
  7
ROMAND
 72
     1
 11
29.21152676837301
 21
7.77237723630207
 31
0.0
100
AcDbText
  0
LEADER
  5
6D3D
330
2
100
AcDbEntity
  8
PART_NUMBERS
100
AcDbLeader
  3
STANDARD
 76
     3
 10
7.563266292925106
 20
17.3698781655471
 30
0.0
 10
15.62500000000273
 20
17.7240062127874
 30
0.0
 10
15.87500000000273
 20
17.7240062127874
 30
0.0
1001
ACAD
1000
DSTYLE
1002
{
1070
   147
1040
0.0625
1070
    77
1070
     0
1002
}
  0
LEADER
  5
6D3E
330
2
100
AcDbEntity
  8
PART_NUMBERS
100
AcDbLeader
  3
STANDARD
 76
     3
 10
7.044321946534438
 20
16.44908182901655
 30
0.0
 10
15.62500000000273
 20
16.5090062127874
 30
0.0
 10
15.87500000000273
 20
16.5090062127874
 30
0.0
1001
ACAD
1000
DSTYLE
1002
{
1070
   147
1040
0.0625
1070
    77
1070
     0
1002
}
  0
LEADER
  5
6D40
330
2
100
AcDbEntity
  8
PART_NUMBERS
100
AcDbLeader
  3
STANDARD
 76
     3
 10
9.980480822166768
 20
14.17330937153256
 30
0.0
 10
15.62500000000273
 20
14.4840062127874
 30
0.0
 10
15.87500000000273
 20
14.4840062127874
 30
0.0
1001
ACAD
1000
DSTYLE
1002
{
1070
   147
1040
0.0625
1070
    77
1070
     0
1002
}
  0
TEXT
  5
6D46
330
2
100
AcDbEntity
  8
PART_NUMBERS
100
AcDbText
 10
15.87500000000273
 20
17.20440661914554
 30
0.0
 40
0.25
  1
GLASS STOP
  7
ROMAND
100
AcDbText
  0
TEXT
  5
6D47
330
2
100
AcDbEntity
  8
PART_NUMBERS
100
AcDbText
 10
15.87500000000273
 20
17.60916852390744
 30
0.0
 40
0.25
  1
556011
  7
ROMAND
100
AcDbText
  0
TEXT
  5
6D49
330
2
100
AcDbEntity
  8
PART_NUMBERS
100
AcDbText
 10
15.87500000000273
 20
16.39416852390744
 30
0.0
 40
0.25
  1
INTERIOR GLAZING GASKET
  7
ROMAND
100
AcDbText
  0
TEXT
  5
6D4A
330
2
100
AcDbEntity
  8
PART_NUMBERS
100
AcDbText
 10
15.87500000000273
 20
13.96440661914554
 30
0.0
 40
0.25
  1
AIR SEAL GASKET
  7
ROMAND
100
AcDbText
  0
TEXT
  5
6D4B
330
2
100
AcDbEntity
  8
PART_NUMBERS
100
AcDbText
 10
15.87500000000273
 20
14.36916852390744
 30
0.0
 40
0.25
  1
027799
  7
ROMAND
100
AcDbText
  0
TEXT
  5
6D52
330
2
100
AcDbEntity
  8
PART_NUMBERS
100
AcDbText
 10
15.87500000000273
 20
13.55940661914554
 30
0.0
 40
0.25
  1
(FOR RAIN SCREEN APPLICATION)
  7
ROMAND
100
AcDbText
  0
LEADER
  5
6D5B
330
2
100
AcDbEntity
  8
PART_NUMBERS
100
AcDbLeader
  3
STANDARD
 76
     3
 10
8.867720370579533
 20
13.73538254086647
 30
0.0
 10
15.62500000000273
 20
12.86400621278739
 30
0.0
 10
15.87500000000273
 20
12.86400621278739
 30
0.0
1001
ACAD
1000
DSTYLE
1002
{
1070
   147
1040
0.0625
1070
    77
1070
     0
1002
}
  0
TEXT
  5
6D5C
330
2
100
AcDbEntity
  8
PART_NUMBERS
100
AcDbText
 10
15.87500000000273
 20
12.74916852390743
 30
0.0
 40
0.25
  1
1/8" PRESHIM GLAZING TAPE
  7
ROMAND
100
AcDbText
  0
LEADER
  5
6D5D
330
2
100
AcDbEntity
  8
PART_NUMBERS
100
AcDbLeader
  3
STANDARD
 76
     3
 10
12.61000000000268
 20
14.74438254086441
 30
0.0
 10
15.62500000000273
 20
15.6990062127874
 30
0.0
 10
15.87500000000273
 20
15.6990062127874
 30
0.0
1001
ACAD
1000
DSTYLE
1002
{
1070
   147
1040
0.0625
1070
    77
1070
     0
1002
}
  0
TEXT
  5
6D60
330
2
100
AcDbEntity
  8
PART_NUMBERS
100
AcDbText
 10
15.87500000000273
 20
15.58416852390744
 30
0.0
 40
0.25
  1
556201
  7
ROMAND
100
AcDbText
  0
TEXT
  5
6D61
330
2
100
AcDbEntity
  8
PART_NUMBERS
100
AcDbText
 10
15.87500000000273
 20
15.17940661914554
 30
0.0
 40
0.25
  1
JAMB
  7
ROMAND
100
AcDbText
  0
LEADER
  5
6DE2
330
2
100
AcDbEntity
  8
PART_NUMBERS
100
AcDbLeader
  3
STANDARD
 76
     3
 10
30.60441917188598
 20
14.66922073231748
 30
0.0
 10
36.48041917188334
 20
16.9140062127874
 30
0.0
 10
36.73041917188334
 20
16.9140062127874
 30
0.0
1001
ACAD
1000
DSTYLE
1002
{
1070
   147
1040
0.0625
1070
    77
1070
     0
1002
}
  0
TEXT
  5
6DE3
330
2
100
AcDbEntity
  8
PART_NUMBERS
100
AcDbText
 10
36.73041917188334
 20
13.55940661914554
 30
0.0
 40
0.25
  1
(FOR RAIN SCREEN APPLICATION)
  7
ROMAND
100
AcDbText
  0
TEXT
  5
6DE4
330
2
100
AcDbEntity
  8
PART_NUMBERS
100
AcDbText
 10
36.73041917188334
 20
12.74916852390743
 30
0.0
 40
0.25
  1
1/8" PRESHIM GLAZING TAPE
  7
ROMAND
100
AcDbText
  0
LEADER
  5
6DE5
330
2
100
AcDbEntity
  8
PART_NUMBERS
100
AcDbLeader
  3
STANDARD
 76
     3
 10
31.48677620496
 20
11.74830576071742
 30
0.0
 10
36.48041917188334
 20
12.86400621278739
 30
0.0
 10
36.73041917188334
 20
12.86400621278739
 30
0.0
1001
ACAD
1000
DSTYLE
1002
{
1070
   147
1040
0.0625
1070
    77
1070
     0
1002
}
  0
LEADER
  5
6DE6
330
2
100
AcDbEntity
  8
PART_NUMBERS
100
AcDbLeader
  3
STANDARD
 76
     3
 10
30.80495482647393
 20
12.92022868577356
 30
0.0
 10
36.48041917188334
 20
14.4840062127874
 30
0.0
 10
36.73041917188334
 20
14.4840062127874
 30
0.0
1001
ACAD
1000
DSTYLE
1002
{
1070
   147
1040
0.0625
1070
    77
1070
     0
1002
}
  0
TEXT
  5
6DE7
330
2
100
AcDbEntity
  8
PART_NUMBERS
100
AcDbText
 10
36.73041917188334
 20
13.96440661914554
 30
0.0
 40
0.25
  1
AIR SEAL GASKET
  7
ROMAND
100
AcDbText
  0
TEXT
  5
6DE8
330
2
100
AcDbEntity
  8
PART_NUMBERS
100
AcDbText
 10
36.73041917188334
 20
14.36916852390744
 30
0.0
 40
0.25
  1
027799
  7
ROMAND
100
AcDbText
  0
TEXT
  5
6DE9
330
2
100
AcDbEntity
  8
PART_NUMBERS
100
AcDbText
 10
36.73041917188334
 20
17.60916852390744
 30
0.0
 40
0.25
  1
INTERIOR GLAZING GASKET
  7
ROMAND
100
AcDbText
  0
LEADER
  5
6DEA
330
2
100
AcDbEntity
  8
PART_NUMBERS
100
AcDbLeader
  3
STANDARD
 76
     3
 10
27.37361846002986
 20
17.13659188428328
 30
0.0
 10
36.48041917188334
 20
17.7240062127874
 30
0.0
 10
36.73041917188334
 20
17.7240062127874
 30
0.0
1001
ACAD
1000
DSTYLE
1002
{
1070
   147
1040
0.0625
1070
    77
1070
     0
1002
}
  0
TEXT
  5
6DEC
330
2
100
AcDbEntity
  8
PART_NUMBERS
100
AcDbText
 10
36.73041917188334
 20
16.79916852390745
 30
0.0
 40
0.25
  1
556201
  7
ROMAND
100
AcDbText
  0
TEXT
  5
6DEF
330
2
100
AcDbEntity
  8
PART_NUMBERS
100
AcDbText
 10
36.73041917188334
 20
16.39440661914555
 30
0.0
 40
0.25
  1
JAMB
  7
ROMAND
100
AcDbText
  0
LEADER
  5
6DF0
330
2
100
AcDbEntity
  8
PART_NUMBERS
100
AcDbLeader
  3
STANDARD
 76
     3
 10
31.47988658603111
 20
13.45984351218693
 30
0.0
 10
36.48041917188334
 20
15.6990062127874
 30
0.0
 10
36.73041917188334
 20
15.6990062127874
 30
0.0
1001
ACAD
1000
DSTYLE
1002
{
1070
   147
1040
0.0625
1070
    77
1070
     0
1002
}
  0
TEXT
  5
6DF3
330
2
100
AcDbEntity
  8
PART_NUMBERS
100
AcDbText
 10
36.73041917188334
 20
15.17940661914554
 30
0.0
 40
0.25
  1
GLASS STOP
  7
ROMAND
100
AcDbText
  0
TEXT
  5
6DF4
330
2
100
AcDbEntity
  8
PART_NUMBERS
100
AcDbText
 10
36.73041917188334
 20
15.58416852390744
 30
0.0
 40
0.25
  1
556011
  7
ROMAND
100
AcDbText
  0
DIMENSION
  5
7774
330
2
100
AcDbEntity
  8
R-ANNO-DIMS
100
AcDbDimension
  2
*D17
 10
8.000999999996636
 20
19.79088254086915
 30
0.0
 11
8.313499999997922
 21
20.10635873134535
 31
0.0
 70
    32
 71
     5
 42
0.6250000000025722
  3
STANDARD
100
AcDbAlignedDimension
 13
8.625999999999208
 23
19.04088254086917
 33
0.0
 14
8.000999999996636
 24
19.04088254086915
 34
0.0
100
AcDbRotatedDimension
  0
DIMENSION
  5
7783
330
2
100
AcDbEntity
  8
R-ANNO-DIMS
100
AcDbDimension
  2
*D18
 10
13.36000000000266
 20
14.43188254086312
 30
0.0
 11
13.04452380952645
 21
13.83867437024678
 31
0.0
 70
   160
 71
     5
 42
0.6250000000025722
  3
STANDARD
100
AcDbAlignedDimension
 13
12.61000000000268
 23
15.05688254086569
 33
0.0
 14
12.61000000000265
 24
14.43188254086312
 34
0.0
 50
90.0
100
AcDbRotatedDimension
  0
LWPOLYLINE
  5
79DB
330
2
100
AcDbEntity
  8
0
100
AcDbPolyline
 90
       12
 70
     1
 43
0.0
 10
8.354424524851907
 20
15.77861009219609
 42
0.2734560415951634
 10
8.323351854342007
 20
15.72604385199791
 10
8.323351854342035
 20
15.67087168599528
 42
0.2734560397667185
 10
8.354424524494248
 20
15.61830544599397
 10
8.378086583332773
 20
15.6052841574087
 42
0.2569805071132461
 10
8.498617122874321
 20
15.6052841574087
 10
8.522279183474125
 20
15.61830544654351
 42
0.2734560434246889
 10
8.553351854341968
 20
15.67087168693864
 10
8.553351854341983
 20
15.72604385199769
 42
0.2734560415960701
 10
8.522279183831926
 20
15.77861009219596
 10
8.49861712411247
 20
15.79163138105613
 42
0.2569805071137504
 10
8.378086584570709
 20
15.79163138105602
  0
LINE
  5
79DC
330
2
100
AcDbEntity
  8
0
100
AcDbLine
 10
8.264912237541182
 20
15.82577950524994
 30
0.0
 11
8.264912237541182
 21
15.5709855764866
 31
0.0
  0
LINE
  5
79DD
330
2
100
AcDbEntity
  8
0
100
AcDbLine
 10
8.611791471142623
 20
15.82577950524994
 30
0.0
 11
8.611791471142623
 21
15.5709855764866
 31
0.0
  0
HATCH
  5
79DE
330
2
100
AcDbEntity
  8
0
100
AcDbHatch
 10
0.0
 20
0.0
 30
0.0
210
0.0
220
0.0
230
1.0
  2
ANSI37
 70
     0
 71
     0
 91
        2
 92
        7
 72
     1
 73
     1
 93
       36
 10
8.504388734990641
 20
15.90904010577822
 42
-0.7725978076390306
 10
8.519069055580359
 20
15.93408294019548
 42
0.3431487919939772
 10
8.530445122199495
 20
15.93870709532847
 42
0.0
 10
8.539780057572158
 20
15.95487567767938
 42
0.1316524975866234
 10
8.540851854341866
 20
15.9588756776794
 42
0.0
 10
8.54085185434188
 20
15.97773208413994
 42
0.4142135623732251
 10
8.532851854341885
 20
15.98573208413994
 42
0.0
 10
8.34385185434192
 20
15.98573208413994
 42
0.4142135623730951
 10
8.335851854341939
 20
15.97773208413994
 42
0.0
 10
8.335851854341939
 20
15.95887567767941
 42
0.1316524975867365
 10
8.336923651111661
 20
15.95487567767938
 42
0.0
 10
8.346258586484353
 20
15.93870709532842
 42
0.3431487919938694
 10
8.35763465310346
 20
15.93408294019545
 42
-0.7725978076389934
 10
8.372314973693164
 20
15.9090401057782
 42
0.0
 10
8.281983305353037
 20
15.81870843743807
 42
-0.6681786379195998
 10
8.264912237541182
 20
15.82577950524994
 42
0.0
 10
8.264912237541182
 20
15.5709855764866
 42
-0.6681786379193648
 10
8.281983305353037
 20
15.57805664429847
 42
0.0
 10
8.372314973693164
 20
15.48772497595836
 42
-0.7725978076389625
 10
8.357634653103445
 20
15.46268214154111
 42
0.3431487919941874
 10
8.346258586484339
 20
15.45805798640813
 42
0.0
 10
8.336923651111646
 20
15.44188940405715
 42
0.1316524975865931
 10
8.335851854341939
 20
15.43788940405714
 42
0.0
 10
8.335851854341939
 20
15.4190329975966
 42
0.4142135623730951
 10
8.34385185434192
 20
15.41103299759661
 42
0.0
 10
8.532851854341885
 20
15.41103299759661
 42
0.4142135623732251
 10
8.54085185434188
 20
15.4190329975966
 42
0.0
 10
8.540851854341866
 20
15.43788940405714
 42
0.1316524975866234
 10
8.539780057572158
 20
15.44188940405716
 42
0.0
 10
8.530445122199523
 20
15.45805798640805
 42
0.3431487919941009
 10
8.519069055580374
 20
15.46268214154102
 42
-0.7725978076391972
 10
8.504388734990627
 20
15.48772497595833
 42
0.0
 10
8.594720403330768
 20
15.57805664429847
 42
-0.6681786379189261
 10
8.611791471142623
 20
15.5709855764866
 42
0.0
 10
8.611791471142623
 20
15.82577950524994
 42
-0.6681786379190888
 10
8.594720403330768
 20
15.81870843743809
 42
0.0
 97
        0
 92
       22
 72
     1
 73
     1
 93
       12
 10
8.498617124112371
 20
15.79163138105619
 42
0.0
 10
8.522279183831912
 20
15.77861009219596
 42
-0.2734560415961063
 10
8.553351854341983
 20
15.72604385199769
 42
0.0
 10
8.553351854341968
 20
15.67087168693864
 42
-0.2734560434247475
 10
8.522279183474125
 20
15.61830544654351
 42
0.0
 10
8.498617122128877
 20
15.60528415699848
 42
-0.256980507113151
 10
8.378086582587343
 20
15.60528415781891
 42
0.0
 10
8.354424524494248
 20
15.61830544599397
 42
-0.27345603976678
 10
8.323351854342035
 20
15.67087168599528
 42
0.0
 10
8.323351854342007
 20
15.72604385199791
 42
-0.2734560415951508
 10
8.354424524851907
 20
15.77861009219609
 42
0.0
 10
8.378086584570624
 20
15.79163138105596
 42
-0.2569805071137288
 97
        0
 75
     0
 76
     1
 52
0.0
 41
0.5
 77
     0
 78
     2
 53
45.0
 43
-4.469636643219516
 44
6.203420772462337
 45
-0.0441941738241592
 46
0.0441941738241592
 79
     0
 53
135.0
 43
-4.469636643219516
 44
6.203420772462337
 45
-0.0441941738241592
 46
-0.0441941738241592
 79
     0
 47
0.0059641903077434
 98
        2
 10
8.460351734397264
 20
15.85828049068483
 10
8.460351734397264
 20
15.85828049068483
  0
LWPOLYLINE
  5
79DF
330
2
100
AcDbEntity
  8
0
100
AcDbPolyline
 90
       12
 70
     1
 43
0.0
 10
30.08313998805141
 20
12.27864138214379
 42
0.2734560415951634
 10
30.05206731754152
 20
12.22607514194561
 10
30.05206731754154
 20
12.17090297594298
 42
0.2734560397667185
 10
30.08313998769376
 20
12.11833673594167
 10
30.10680204653227
 20
12.1053154473564
 42
0.2569805071132461
 10
30.22733258607383
 20
12.1053154473564
 10
30.25099464667363
 20
12.11833673649121
 42
0.2734560434246889
 10
30.28206731754148
 20
12.17090297688634
 10
30.28206731754148
 20
12.22607514194538
 42
0.2734560415960701
 10
30.25099464703143
 20
12.27864138214366
 10
30.22733258731199
 20
12.29166267100383
 42
0.2569805071137504
 10
30.1068020477702
 20
12.29166267100372
  0
LINE
  5
79E0
330
2
100
AcDbEntity
  8
0
100
AcDbLine
 10
29.99362770074069
 20
12.32581079519764
 30
0.0
 11
29.99362770074069
 21
12.0710168664343
 31
0.0
  0
LINE
  5
79E1
330
2
100
AcDbEntity
  8
0
100
AcDbLine
 10
30.34050693434213
 20
12.32581079519764
 30
0.0
 11
30.34050693434213
 21
12.0710168664343
 31
0.0
  0
HATCH
  5
79E2
330
2
100
AcDbEntity
  8
0
100
AcDbHatch
 10
0.0
 20
0.0
 30
0.0
210
0.0
220
0.0
230
1.0
  2
ANSI37
 70
     0
 71
     0
 91
        2
 92
        7
 72
     1
 73
     1
 93
       36
 10
30.23310419819015
 20
12.40907139572591
 42
-0.7725978076390306
 10
30.24778451877987
 20
12.43411423014318
 42
0.3431487919939772
 10
30.259160585399
 20
12.43873838527617
 42
0.0
 10
30.26849552077166
 20
12.45490696762708
 42
0.1316524975866234
 10
30.26956731754137
 20
12.4589069676271
 42
0.0
 10
30.26956731754137
 20
12.47776337408764
 42
0.4142135623732251
 10
30.26156731754139
 20
12.48576337408764
 42
0.0
 10
30.07256731754143
 20
12.48576337408764
 42
0.4142135623730951
 10
30.06456731754145
 20
12.47776337408764
 42
0.0
 10
30.06456731754145
 20
12.45890696762711
 42
0.1316524975867365
 10
30.06563911431118
 20
12.45490696762708
 42
0.0
 10
30.07497404968388
 20
12.43873838527612
 42
0.3431487919938694
 10
30.08635011630298
 20
12.43411423014315
 42
-0.7725978076389934
 10
30.10103043689267
 20
12.4090713957259
 42
0.0
 10
30.01069876855254
 20
12.31873972738577
 42
-0.6681786379195998
 10
29.99362770074069
 20
12.32581079519764
 42
0.0
 10
29.99362770074069
 20
12.0710168664343
 42
-0.6681786379193648
 10
30.01069876855254
 20
12.07808793424617
 42
0.0
 10
30.10103043689267
 20
11.98775626590605
 42
-0.7725978076389625
 10
30.08635011630295
 20
11.96271343148881
 42
0.3431487919941874
 10
30.07497404968385
 20
11.95808927635583
 42
0.0
 10
30.06563911431115
 20
11.94192069400485
 42
0.1316524975865931
 10
30.06456731754145
 20
11.93792069400484
 42
0.0
 10
30.06456731754145
 20
11.9190642875443
 42
0.4142135623730951
 10
30.07256731754143
 20
11.9110642875443
 42
0.0
 10
30.26156731754139
 20
11.9110642875443
 42
0.4142135623732251
 10
30.26956731754137
 20
11.9190642875443
 42
0.0
 10
30.26956731754137
 20
11.93792069400484
 42
0.1316524975866234
 10
30.26849552077166
 20
11.94192069400486
 42
0.0
 10
30.25916058539903
 20
11.95808927635575
 42
0.3431487919941009
 10
30.2477845187799
 20
11.96271343148872
 42
-0.7725978076391972
 10
30.23310419819012
 20
11.98775626590603
 42
0.0
 10
30.32343586653027
 20
12.07808793424617
 42
-0.6681786379189261
 10
30.34050693434213
 20
12.0710168664343
 42
0.0
 10
30.34050693434213
 20
12.32581079519764
 42
-0.6681786379190888
 10
30.32343586653027
 20
12.31873972738579
 42
0.0
 97
        0
 92
       22
 72
     1
 73
     1
 93
       12
 10
30.22733258731188
 20
12.29166267100389
 42
0.0
 10
30.25099464703141
 20
12.27864138214366
 42
-0.2734560415961063
 10
30.28206731754148
 20
12.22607514194538
 42
0.0
 10
30.28206731754148
 20
12.17090297688634
 42
-0.2734560434247475
 10
30.25099464667363
 20
12.11833673649121
 42
0.0
 10
30.22733258532838
 20
12.10531544694618
 42
-0.256980507113151
 10
30.10680204578685
 20
12.10531544776661
 42
0.0
 10
30.08313998769376
 20
12.11833673594167
 42
-0.27345603976678
 10
30.05206731754154
 20
12.17090297594298
 42
0.0
 10
30.05206731754152
 20
12.22607514194561
 42
-0.2734560415951508
 10
30.08313998805141
 20
12.27864138214379
 42
0.0
 10
30.10680204777015
 20
12.29166267100366
 42
-0.2569805071137288
 97
        0
 75
     0
 76
     1
 52
0.0
 41
0.5
 77
     0
 78
     2
 53
45.0
 43
17.25907881998
 44
2.703452062410036
 45
-0.0441941738241592
 46
0.0441941738241592
 79
     0
 53
135.0
 43
17.25907881998
 44
2.703452062410036
 45
-0.0441941738241592
 46
-0.0441941738241592
 79
     0
 47
0.0059641903077434
 98
        2
 10
30.18906719759679
 20
12.35831178063253
 10
30.18906719759679
 20
12.35831178063253
  0
LWPOLYLINE
  5
79E4
330
2
100
AcDbEntity
  8
0
100
AcDbPolyline
 90
       12
 70
     1
 43
0.0
 10
9.347727551329597
 20
14.95316172469834
 42
0.2734560415951634
 10
9.295161311131408
 20
14.98423439520825
 10
9.23998914512876
 20
14.98423439520822
 42
0.2734560397667185
 10
9.187422905127476
 20
14.953161725056
 10
9.174401616542184
 20
14.92949966621749
 42
0.2569805071132461
 10
9.174401616542184
 20
14.80896912667593
 10
9.18742290567701
 20
14.78530706607613
 42
0.2734560434246889
 10
9.239989146072133
 20
14.75423439520828
 10
9.295161311131181
 20
14.75423439520828
 42
0.2734560415960701
 10
9.347727551329455
 20
14.78530706571836
 10
9.360748840189643
 20
14.8089691254378
 42
0.2569805071137504
 10
9.360748840189529
 20
14.92949966497956
  0
LINE
  5
79E5
330
2
100
AcDbEntity
  8
0
100
AcDbLine
 10
9.394896964383463
 20
15.04267401200907
 30
0.0
 11
9.140103035620086
 21
15.0426740120091
 31
0.0
  0
LINE
  5
79E6
330
2
100
AcDbEntity
  8
0
100
AcDbLine
 10
9.394896964383463
 20
14.69579477840763
 30
0.0
 11
9.140103035620086
 21
14.69579477840763
 31
0.0
  0
HATCH
  5
79E7
330
2
100
AcDbEntity
  8
0
100
AcDbHatch
 10
0.0
 20
0.0
 30
0.0
210
0.0
220
0.0
230
1.0
  2
ANSI37
 70
     0
 71
     0
 91
        2
 92
        7
 72
     1
 73
     1
 93
       36
 10
9.554849543273434
 20
14.96373439520833
 42
0.4142135623731602
 10
9.546849543273438
 20
14.97173439520834
 42
0.0
 10
9.527993136812909
 20
14.97173439520834
 42
0.1316524975866911
 10
9.52399313681289
 20
14.97066259843861
 42
0.0
 10
9.507824554461933
 20
14.96132766306591
 42
0.3431487919940096
 10
9.503200399328946
 20
14.94995159644681
 42
-0.772597807639021
 10
9.478157564911697
 20
14.93527127585709
 42
0.0
 10
9.38782589657157
 20
15.02560294419722
 42
-0.6681786379179844
 10
9.394896964383434
 20
15.04267401200907
 42
0.0
 10
9.140103035620114
 20
15.0426740120091
 42
-0.6681786379194287
 10
9.147174103431979
 20
15.02560294419724
 42
0.0
 10
9.056842435091851
 20
14.93527127585709
 42
-0.7725978076392864
 10
9.031799600674602
 20
14.94995159644681
 42
0.3431487919940582
 10
9.027175445541644
 20
14.96132766306591
 42
0.0
 10
9.011006863190658
 20
14.97066259843861
 42
0.1316524975867212
 10
9.007006863190639
 20
14.97173439520834
 42
0.0
 10
8.988150456730096
 20
14.97173439520834
 42
0.4142135623728999
 10
8.9801504567301
 20
14.96373439520833
 42
0.0
 10
8.9801504567301
 20
14.7747343952084
 42
0.4142135623728999
 10
8.988150456730096
 20
14.76673439520839
 42
0.0
 10
9.007006863190639
 20
14.76673439520839
 42
0.1316524975866909
 10
9.011006863190658
 20
14.76780619197809
 42
0.0
 10
9.02717544554153
 20
14.77714112735073
 42
0.3431487919941009
 10
9.031799600674531
 20
14.78851719396989
 42
-0.7725978076396432
 10
9.056842435091823
 20
14.80319751455964
 42
0.0
 10
9.147174103431979
 20
14.71286584621948
 42
-0.6681786379188615
 10
9.1401030356201
 20
14.69579477840763
 42
0.0
 10
9.394896964383434
 20
14.69579477840763
 42
-0.6681786379192815
 10
9.38782589657157
 20
14.71286584621948
 42
0.0
 10
9.478157564911711
 20
14.80319751455961
 42
-0.7725978076390591
 10
9.503200399328974
 20
14.78851719396989
 42
0.3431487919942358
 10
9.507824554461961
 20
14.77714112735078
 42
0.0
 10
9.52399313681289
 20
14.76780619197809
 42
0.1316524975866909
 10
9.527993136812909
 20
14.76673439520839
 42
0.0
 10
9.546849543273438
 20
14.76673439520839
 42
0.4142135623731602
 10
9.554849543273434
 20
14.7747343952084
 42
0.0
 97
        0
 92
       22
 72
     1
 73
     1
 93
       12
 10
9.360748840189671
 20
14.80896912543788
 42
0.0
 10
9.347727551329455
 20
14.78530706571836
 42
-0.2734560415960066
 10
9.295161311131209
 20
14.75423439520828
 42
0.0
 10
9.239989146072161
 20
14.75423439520828
 42
-0.2734560434247244
 10
9.187422905677024
 20
14.7853070660761
 42
0.0
 10
9.174401616131973
 20
14.80896912742135
 42
-0.256980507113445
 10
9.174401616952451
 20
14.92949966696302
 42
0.0
 10
9.18742290512749
 20
14.95316172505603
 42
-0.273456039766497
 10
9.23998914512876
 20
14.98423439520822
 42
0.0
 10
9.295161311131408
 20
14.98423439520825
 42
-0.273456041595227
 10
9.347727551329597
 20
14.95316172469834
 42
0.0
 10
9.360748840189472
 20
14.92949966497964
 42
-0.2569805071137505
 97
        0
 75
     0
 76
     1
 52
0.0
 41
0.5
 77
     0
 78
     2
 53
45.0
 43
-29.56161258008803
 44
-9.29980419320934
 45
-0.0441941738241592
 46
0.0441941738241592
 79
     0
 53
135.0
 43
-29.56161258008803
 44
-9.29980419320934
 45
-0.0441941738241592
 46
-0.0441941738241592
 79
     0
 47
0.0056494520707463
 98
        2
 10
9.418197421660295
 20
14.86745536873492
 10
9.418197421660295
 20
14.86745536873492
  0
LWPOLYLINE
  5
79E8
330
2
100
AcDbEntity
  8
0
100
AcDbPolyline
 90
       12
 70
     1
 43
0.0
 10
26.70314672320941
 20
15.82648930596578
 42
0.2734560415951634
 10
26.65058048301123
 20
15.85756197647568
 10
26.59540831700858
 20
15.85756197647565
 42
0.2734560397667185
 10
26.54284207700726
 20
15.82648930632344
 10
26.529820788422
 20
15.80282724748492
 42
0.2569805071132461
 10
26.529820788422
 20
15.68229670794336
 10
26.54284207755683
 20
15.65863464734356
 42
0.2734560434246889
 10
26.59540831795195
 20
15.62756197647572
 10
26.650580483011
 20
15.62756197647572
 42
0.2734560415960701
 10
26.70314672320927
 20
15.65863464698579
 10
26.71616801206943
 20
15.68229670670523
 42
0.2569805071137504
 10
26.71616801206932
 20
15.80282724624699
  0
LINE
  5
79E9
330
2
100
AcDbEntity
  8
0
100
AcDbLine
 10
26.75031613626325
 20
15.9160015932765
 30
0.0
 11
26.49552220749987
 21
15.91600159327653
 31
0.0
  0
LINE
  5
79EA
330
2
100
AcDbEntity
  8
0
100
AcDbLine
 10
26.75031613626325
 20
15.56912235967506
 30
0.0
 11
26.49552220749987
 21
15.56912235967506
 31
0.0
  0
HATCH
  5
79EB
330
2
100
AcDbEntity
  8
0
100
AcDbHatch
 10
0.0
 20
0.0
 30
0.0
210
0.0
220
0.0
230
1.0
  2
ANSI37
 70
     0
 71
     0
 91
        2
 92
        7
 72
     1
 73
     1
 93
       36
 10
26.91026871515325
 20
15.83706197647576
 42
0.4142135623731602
 10
26.90226871515324
 20
15.84506197647577
 42
0.0
 10
26.88341230869273
 20
15.84506197647577
 42
0.1316524975866911
 10
26.87941230869271
 20
15.84399017970604
 42
0.0
 10
26.86324372634172
 20
15.83465524433335
 42
0.3431487919940096
 10
26.85861957120875
 20
15.82327917771424
 42
-0.772597807639021
 10
26.83357673679152
 20
15.80859885712452
 42
0.0
 10
26.74324506845136
 20
15.89893052546465
 42
-0.6681786379179844
 10
26.75031613626322
 20
15.9160015932765
 42
0.0
 10
26.49552220749991
 20
15.91600159327653
 42
-0.6681786379194287
 10
26.5025932753118
 20
15.89893052546468
 42
0.0
 10
26.41226160697164
 20
15.80859885712452
 42
-0.7725978076392864
 10
26.38721877255441
 20
15.82327917771424
 42
0.3431487919940582
 10
26.38259461742143
 20
15.83465524433335
 42
0.0
 10
26.36642603507045
 20
15.84399017970604
 42
0.1316524975867212
 10
26.36242603507043
 20
15.84506197647577
 42
0.0
 10
26.34356962860989
 20
15.84506197647577
 42
0.4142135623728999
 10
26.3355696286099
 20
15.83706197647576
 42
0.0
 10
26.3355696286099
 20
15.64806197647583
 42
0.4142135623728999
 10
26.34356962860989
 20
15.64006197647582
 42
0.0
 10
26.36242603507043
 20
15.64006197647582
 42
0.1316524975866909
 10
26.36642603507045
 20
15.64113377324552
 42
0.0
 10
26.38259461742135
 20
15.65046870861816
 42
0.3431487919941009
 10
26.38721877255432
 20
15.66184477523733
 42
-0.7725978076396432
 10
26.41226160697164
 20
15.67652509582707
 42
0.0
 10
26.50259327531177
 20
15.58619342748692
 42
-0.6681786379188615
 10
26.49552220749991
 20
15.56912235967506
 42
0.0
 10
26.75031613626322
 20
15.56912235967506
 42
-0.6681786379192815
 10
26.74324506845139
 20
15.58619342748692
 42
0.0
 10
26.83357673679152
 20
15.67652509582704
 42
-0.7725978076390591
 10
26.85861957120878
 20
15.66184477523733
 42
0.3431487919942358
 10
26.86324372634178
 20
15.65046870861822
 42
0.0
 10
26.87941230869271
 20
15.64113377324552
 42
0.1316524975866909
 10
26.88341230869273
 20
15.64006197647582
 42
0.0
 10
26.90226871515324
 20
15.64006197647582
 42
0.4142135623731602
 10
26.91026871515325
 20
15.64806197647583
 42
0.0
 97
        0
 92
       22
 72
     1
 73
     1
 93
       12
 10
26.71616801206949
 20
15.68229670670531
 42
0.0
 10
26.70314672320927
 20
15.65863464698579
 42
-0.2734560415960066
 10
26.650580483011
 20
15.62756197647572
 42
0.0
 10
26.59540831795198
 20
15.62756197647572
 42
-0.2734560434247244
 10
26.54284207755683
 20
15.65863464734353
 42
0.0
 10
26.52982078801179
 20
15.68229670868878
 42
-0.256980507113445
 10
26.52982078883224
 20
15.80282724823045
 42
0.0
 10
26.5428420770073
 20
15.82648930632347
 42
-0.273456039766497
 10
26.59540831700855
 20
15.85756197647565
 42
0.0
 10
26.6505804830112
 20
15.85756197647568
 42
-0.273456041595227
 10
26.70314672320941
 20
15.82648930596578
 42
0.0
 10
26.71616801206929
 20
15.80282724624708
 42
-0.2569805071137505
 97
        0
 75
     0
 76
     1
 52
0.0
 41
0.5
 77
     0
 78
     2
 53
45.0
 43
-12.20619340820821
 44
-8.426476611941907
 45
-0.0441941738241592
 46
0.0441941738241592
 79
     0
 53
135.0
 43
-12.20619340820821
 44
-8.426476611941907
 45
-0.0441941738241592
 46
-0.0441941738241592
 79
     0
 47
0.0056494520707463
 98
        2
 10
26.77361659354011
 20
15.74078295000235
 10
26.77361659354011
 20
15.74078295000235
  0
MTEXT
  5
7F02
102
{ACAD_XDICTIONARY
360
7F03
102
}
330
2
100
AcDbEntity
  8
TEXT
100
AcDbMText
 10
1.000000084398437
 20
2.0
 30
0.0
 40
0.375
 41
15.4571868900598
 71
     1
 72
     5
  1
ENGINEERING CHANGE:  97910-095 (MARCH 2017)\PFILE NAME:  KCDE100 SHEET 03 OF 03.DWG
 73
     1
 44
1.0
1001
ACAD
1000
ACAD_MTEXT_COLUMN_INFO_BEGIN
1070
    75
1070
     2
1070
    79
1070
     0
1070
    76
1070
     1
1070
    78
1070
     0
1070
    48
1040
15.4571868900598
1070
    49
1040
1.25
1070
    50
1070
     1
1040
0.0
1000
ACAD_MTEXT_COLUMN_INFO_END
1000
MTEXTBEGIN
1070
    73
1070
     1
1070
    44
1040
1.0
1070
    74
1070
     0
1000
MTEXTEND
  0
INSERT
  5
8115
330
2
100
AcDbEntity
  8
0
100
AcDbBlockReference
  2
Kawneer Logo English
 10
1.0
 20
2.5
 30
0.0
 41
5.337
 42
5.337
 43
5.337
  0
ENDSEC
  0
SECTION
  2
OBJECTS
  0
DICTIONARY
  5
9
330
0
100
AcDbDictionary
281
     1
  3
ACAD_CIP_PREVIOUS_PRODUCT_INFO
350
7EDC
  3
ACAD_COLOR
350
7AA9
  3
ACAD_FIELDLIST
350
7F00
  3
ACAD_GROUP
350
49
  3
ACAD_LAYOUT
350
D
  3
ACAD_MATERIAL
350
7AA8
  3
ACAD_MLEADERSTYLE
350
7E65
  3
ACAD_MLINESTYLE
350
4A
  3
ACAD_PLOTSETTINGS
350
4B
  3
ACAD_PLOTSTYLENAME
350
8
  3
ACAD_SCALELIST
350
7E53
  3
ACAD_TABLESTYLE
350
7E10
  3
ACAD_VISUALSTYLE
350
7E3A
  3
AcadDim
350
37F3
  3
ACDB_RECOMPOSE_DATA
350
8172
  3
AcDbVariableDictionary
350
422D
  3
DWGPROPS
350
8173
  0
DICTIONARY
  5
7E9D
330
3C
100
AcDbDictionary
280
     1
281
     1
  0
DICTIONARY
  5
15
330
14
100
AcDbDictionary
280
     1
281
     1
  3
ACAD_LAYERFILTERS
360
16
  3
ACAD_LAYERSTATES
360
7E86
  0
DICTIONARY
  5
7F09
330
6
100
AcDbDictionary
280
     1
281
     1
  3
ADSK_XREC_LAYER_RECONCILED
360
7F0A
  0
DICTIONARY
  5
7F0B
330
7AFE
100
AcDbDictionary
280
     1
281
     1
  3
ADSK_XREC_LAYER_RECONCILED
360
7F0C
  0
DICTIONARY
  5
7F0D
330
7AFF
100
AcDbDictionary
280
     1
281
     1
  3
ADSK_XREC_LAYER_RECONCILED
360
7F0E
  0
DICTIONARY
  5
7F0F
330
7B00
100
AcDbDictionary
280
     1
281
     1
  3
ADSK_XREC_LAYER_RECONCILED
360
7F10
  0
DICTIONARY
  5
7F11
330
7B01
100
AcDbDictionary
280
     1
281
     1
  3
ADSK_XREC_LAYER_RECONCILED
360
7F12
  0
DICTIONARY
  5
7F13
330
7B02
100
AcDbDictionary
280
     1
281
     1
  3
ADSK_XREC_LAYER_RECONCILED
360
7F14
  0
DICTIONARY
  5
7EF1
330
7EF0
100
AcDbDictionary
280
     1
281
     1
  3
ADSK_XREC_LAYER_RECONCILED
360
7F17
  0
DICTIONARY
  5
3
330
2
100
AcDbDictionary
280
     1
281
     1
  3
ACAD_LAYOUTSELFREF
360
4
  0
DICTIONARY
  5
F
330
E
100
AcDbDictionary
280
     1
281
     1
  3
ACAD_LAYOUTSELFREF
360
10
  0
DICTIONARY
  5
8111
330
8107
100
AcDbDictionary
280
     1
281
     1
  3
ACAD_SORTENTS
360
8112
  0
DICTIONARY
  5
8170
330
8108
100
AcDbDictionary
280
     1
281
     1
  3
ACAD_MTEXT_2008_RT
360
8171
  0
DICTIONARY
  5
7F03
330
7F02
100
AcDbDictionary
280
     1
281
     1
  0
XRECORD
  5
7EDC
102
{ACAD_REACTORS
330
9
102
}
330
9
100
AcDbXrecord
280
     1
300
ACD
300
2012
300
85730ACD_2012_0F
  0
DICTIONARY
  5
7AA9
102
{ACAD_REACTORS
330
9
102
}
330
9
100
AcDbDictionary
281
     1
  0
FIELDLIST
  5
7F00
102
{ACAD_REACTORS
330
9
102
}
330
9
100
AcDbIdSet
 90
        0
100
AcDbFieldList
  0
DICTIONARY
  5
49
102
{ACAD_REACTORS
330
9
102
}
330
9
100
AcDbDictionary
281
     1
  0
DICTIONARY
  5
D
102
{ACAD_REACTORS
330
9
102
}
330
9
100
AcDbDictionary
281
     1
  3
Layout1
350
13
  3
Model
350
C
  0
DICTIONARY
  5
7AA8
102
{ACAD_REACTORS
330
9
102
}
330
9
100
AcDbDictionary
281
     1
  3
ByBlock
350
7E2A
  3
ByLayer
350
7E22
  3
Global
350
7E32
  0
DICTIONARY
  5
7E65
102
{ACAD_REACTORS
330
9
102
}
330
9
100
AcDbDictionary
281
     1
  3
Standard
350
7E66
  0
DICTIONARY
  5
4A
102
{ACAD_REACTORS
330
9
102
}
330
9
100
AcDbDictionary
281
     1
  3
STANDARD
350
4C
  0
DICTIONARY
  5
4B
102
{ACAD_REACTORS
330
9
102
}
330
9
100
AcDbDictionary
281
     1
  0
ACDBDICTIONARYWDFLT
  5
8
102
{ACAD_REACTORS
330
9
102
}
330
9
100
AcDbDictionary
281
     1
  3
Normal
350
7
100
AcDbDictionaryWithDefault
340
7
  0
DICTIONARY
  5
7E53
102
{ACAD_REACTORS
330
9
102
}
330
9
100
AcDbDictionary
281
     1
  3
A0
350
7E54
  3
A1
350
80E5
  3
A2
350
80E6
  3
A3
350
80E7
  3
A4
350
80E8
  3
A5
350
80E9
  3
A6
350
80EA
  3
A7
350
80EB
  3
A8
350
80EC
  3
A9
350
80ED
  3
B0
350
80EE
  3
B1
350
80EF
  3
B2
350
80F0
  3
B3
350
80F1
  3
B4
350
80F2
  3
B5
350
80F3
  3
B6
350
80F4
  0
DICTIONARY
  5
7E10
102
{ACAD_REACTORS
330
9
102
}
330
9
100
AcDbDictionary
281
     1
  3
Standard
350
7E11
  0
DICTIONARY
  5
7E3A
102
{ACAD_REACTORS
330
9
102
}
330
9
100
AcDbDictionary
281
     1
  3
2dWireframe
350
7E40
  3
3D Hidden
350
8105
  3
3dWireframe
350
8106
  3
Basic
350
7E3F
  3
Brighten
350
7E46
  3
ColorChange
350
7E4A
  3
Conceptual
350
7E43
  3
Dim
350
7E45
  3
EdgeColorOff
350
7E52
  3
Facepattern
350
7E49
  3
Flat
350
7E3B
  3
FlatWithEdges
350
7E3C
  3
Gouraud
350
7E3D
  3
GouraudWithEdges
350
7E3E
  3
Hidden
350
7E42
  3
JitterOff
350
7E50
  3
Linepattern
350
7E48
  3
OverhangOff
350
7E51
  3
Realistic
350
7E44
  3
Shaded
350
7E4F
  3
Shaded with edges
350
7E4E
  3
Shades of Gray
350
7E4B
  3
Sketchy
350
7E4C
  3
Thicken
350
7E47
  3
Wireframe
350
7E41
  3
X-Ray
350
7E4D
  0
XRECORD
  5
37F3
102
{ACAD_REACTORS
330
9
102
}
330
9
100
AcDbXrecord
280
     1
 90
   990106
  3

 60
     0
 61
     0
 62
     1
 63
     3
 64
     0
 65
     0
 66
     0
 67
     3
 68
     1
 69
     0
 70
     0
 71
     0
 72
     0
 40
0.0
170
     0
  0
XRECORD
  5
8172
102
{ACAD_REACTORS
330
9
102
}
330
9
100
AcDbXrecord
280
     1
 90
        1
330
7E11
330
7F02
330
8108
  0
DICTIONARY
  5
422D
102
{ACAD_REACTORS
330
9
102
}
330
9
100
AcDbDictionary
281
     1
  3
CANNOSCALE
350
7ED5
  3
CMLEADERSTYLE
350
7ED4
  3
CTABLESTYLE
350
7E1A
  3
DIMASSOC
350
7E0D
  3
INDEXCTL
350
7ED6
  3
LAYEREVAL
350
8162
  3
LAYERNOTIFY
350
8163
  3
LIGHTINGUNITS
350
8161
  3
MSLTSCALE
350
8160
  3
PROJECTNAME
350
7E0E
  3
SORTENTS
350
422E
  3
XCLIPFRAME
350
816E
  0
XRECORD
  5
8173
102
{ACAD_REACTORS
330
9
102
}
330
9
100
AcDbXrecord
280
     1
  1
DWGPROPS COOKIE
  2

  3

  4

  6

  7

  8
quadiss
  9

300
=
301
=
302
=
303
=
304
=
305
=
306
=
307
=
308
=
309
=
 40
3.623021342592592
 41
2450525.426291088
 42
2457809.478597106
  1

 90
        0
  0
DICTIONARY
  5
16
102
{ACAD_REACTORS
330
15
102
}
330
15
100
AcDbDictionary
280
     1
281
     1
  0
DICTIONARY
  5
7E86
102
{ACAD_REACTORS
330
15
102
}
330
15
100
AcDbDictionary
281
     1
  0
XRECORD
  5
7F0A
102
{ACAD_REACTORS
330
7F09
102
}
330
7F09
100
AcDbXrecord
280
     1
290
     1
  0
XRECORD
  5
7F0C
102
{ACAD_REACTORS
330
7F0B
102
}
330
7F0B
100
AcDbXrecord
280
     1
290
     1
  0
XRECORD
  5
7F0E
102
{ACAD_REACTORS
330
7F0D
102
}
330
7F0D
100
AcDbXrecord
280
     1
290
     1
  0
XRECORD
  5
7F10
102
{ACAD_REACTORS
330
7F0F
102
}
330
7F0F
100
AcDbXrecord
280
     1
290
     1
  0
XRECORD
  5
7F12
102
{ACAD_REACTORS
330
7F11
102
}
330
7F11
100
AcDbXrecord
280
     1
290
     1
  0
XRECORD
  5
7F14
102
{ACAD_REACTORS
330
7F13
102
}
330
7F13
100
AcDbXrecord
280
     1
290
     1
  0
XRECORD
  5
7F17
102
{ACAD_REACTORS
330
7EF1
102
}
330
7EF1
100
AcDbXrecord
280
     1
290
     1
  0
XRECORD
  5
4
102
{ACAD_REACTORS
330
3
102
}
330
3
100
AcDbXrecord
280
     1
340
2
  0
XRECORD
  5
10
102
{ACAD_REACTORS
330
F
102
}
330
F
100
AcDbXrecord
280
     1
340
E
  0
SORTENTSTABLE
  5
8112
102
{ACAD_REACTORS
330
8111
102
}
330
8111
100
AcDbSortentsTable
330
8107
  0
XRECORD
  5
8171
102
{ACAD_REACTORS
330
8170
102
}
330
8170
100
AcDbXrecord
280
     1
 40
102645.0
  1
\pxqr;{\fArial TUR|b0|i0|c0|p34;\T1.05;AN ARCONIC COMPANY}
  0
LAYOUT
  5
13
102
{ACAD_XDICTIONARY
360
8176
102
}
102
{ACAD_REACTORS
330
D
102
}
330
D
100
AcDbPlotSettings
  1

  2
\\KAWNEER\xerox.Scarborough.Kawneer
  4

  6

 40
0.0
 41
0.0
 42
0.0
 43
0.0
 44
0.0
 45
0.0
 46
0.0
 47
0.0
 48
0.0
 49
0.0
140
0.0
141
0.0
142
1.0
143
1.0
 70
   688
 72
     0
 73
     0
 74
     5
  7
hp5000n.ctb
 75
    16
147
1.0
148
0.0
149
0.0
100
AcDbLayout
  1
Layout1
 70
     0
 71
     1
 10
0.0
 20
0.0
 11
12.0
 21
9.0
 12
0.0
 22
0.0
 32
0.0
 14
1.000000000000000E+20
 24
1.000000000000000E+20
 34
1.000000000000000E+20
 15
-1.000000000000000E+20
 25
-1.000000000000000E+20
 35
-1.000000000000000E+20
146
0.0
 13
0.0
 23
0.0
 33
0.0
 16
1.0
 26
0.0
 36
0.0
 17
0.0
 27
1.0
 37
0.0
 76
     0
330
E
  0
LAYOUT
  5
C
102
{ACAD_XDICTIONARY
360
8174
102
}
102
{ACAD_REACTORS
330
D
102
}
330
D
100
AcDbPlotSettings
  1

  2
Drafting 11x17.pc3
  4
ANSI_B_(11.00_x_17.00_Inches)
  6

 40
5.027082920074462
 41
5.027082920074462
 42
9.26043701171875
 43
5.027069091796875
 44
279.3999938964844
 45
431.7999877929687
 46
27.178
 47
0.0
 48
216.2759996899226
 49
-62.21999998200257
140
266.210265858118
141
-40.98138145238175
142
1.0
143
5.492707310258873
 70
 28340
 72
     0
 73
     1
 74
     1
  7
hp5000n.ctb
 75
     0
147
0.1820595825545399
148
0.0834192175726798
149
0.0434523110089003
100
AcDbLayout
  1
Model
 70
     1
 71
     0
 10
0.0
 20
0.0
 11
12.0
 21
9.0
 12
0.0
 22
0.0
 32
0.0
 14
0.0
 24
0.0
 34
0.0
 15
0.0
 25
0.0
 35
0.0
146
0.0
 13
0.0
 23
0.0
 33
0.0
 16
1.0
 26
0.0
 36
0.0
 17
0.0
 27
1.0
 37
0.0
 76
     0
330
2
331
7E20
  0
MATERIAL
  5
7E2A
102
{ACAD_XDICTIONARY
360
7E2B
102
}
102
{ACAD_REACTORS
330
7AA8
102
}
330
7AA8
100
AcDbMaterial
  1
ByBlock
 72
     0
 43
0.0208333333333333
 43
0.0
 43
0.0
 43
0.0
 43
0.0
 43
0.0208333333333333
 43
0.0
 43
0.0
 43
0.0
 43
0.0
 43
1.0
 43
0.0
 43
0.0
 43
0.0
 43
0.0
 43
1.0
 77
     0
 47
0.0208333333333333
 47
0.0
 47
0.0
 47
0.0
 47
0.0
 47
0.0208333333333333
 47
0.0
 47
0.0
 47
0.0
 47
0.0
 47
1.0
 47
0.0
 47
0.0
 47
0.0
 47
0.0
 47
1.0
171
     0
 49
0.0208333333333333
 49
0.0
 49
0.0
 49
0.0
 49
0.0
 49
0.0208333333333333
 49
0.0
 49
0.0
 49
0.0
 49
0.0
 49
1.0
 49
0.0
 49
0.0
 49
0.0
 49
0.0
 49
1.0
175
     0
142
0.0208333333333333
142
0.0
142
0.0
142
0.0
142
0.0
142
0.0208333333333333
142
0.0
142
0.0
142
0.0
142
0.0
142
1.0
142
0.0
142
0.0
142
0.0
142
0.0
142
1.0
179
     0
144
0.0208333333333333
144
0.0
144
0.0
144
0.0
144
0.0
144
0.0208333333333333
144
0.0
144
0.0
144
0.0
144
0.0
144
1.0
144
0.0
144
0.0
144
0.0
144
0.0
144
1.0
147
0.0208333333333333
147
0.0
147
0.0
147
0.0
147
0.0
147
0.0208333333333333
147
0.0
147
0.0
147
0.0
147
0.0
147
1.0
147
0.0
147
0.0
147
0.0
147
0.0
147
1.0
  0
MATERIAL
  5
7E22
102
{ACAD_XDICTIONARY
360
7E23
102
}
102
{ACAD_REACTORS
330
7AA8
102
}
330
7AA8
100
AcDbMaterial
  1
ByLayer
 72
     0
 43
0.0208333333333333
 43
0.0
 43
0.0
 43
0.0
 43
0.0
 43
0.0208333333333333
 43
0.0
 43
0.0
 43
0.0
 43
0.0
 43
1.0
 43
0.0
 43
0.0
 43
0.0
 43
0.0
 43
1.0
 77
     0
 47
0.0208333333333333
 47
0.0
 47
0.0
 47
0.0
 47
0.0
 47
0.0208333333333333
 47
0.0
 47
0.0
 47
0.0
 47
0.0
 47
1.0
 47
0.0
 47
0.0
 47
0.0
 47
0.0
 47
1.0
171
     0
 49
0.0208333333333333
 49
0.0
 49
0.0
 49
0.0
 49
0.0
 49
0.0208333333333333
 49
0.0
 49
0.0
 49
0.0
 49
0.0
 49
1.0
 49
0.0
 49
0.0
 49
0.0
 49
0.0
 49
1.0
175
     0
142
0.0208333333333333
142
0.0
142
0.0
142
0.0
142
0.0
142
0.0208333333333333
142
0.0
142
0.0
142
0.0
142
0.0
142
1.0
142
0.0
142
0.0
142
0.0
142
0.0
142
1.0
179
     0
144
0.0208333333333333
144
0.0
144
0.0
144
0.0
144
0.0
144
0.0208333333333333
144
0.0
144
0.0
144
0.0
144
0.0
144
1.0
144
0.0
144
0.0
144
0.0
144
0.0
144
1.0
147
0.0208333333333333
147
0.0
147
0.0
147
0.0
147
0.0
147
0.0208333333333333
147
0.0
147
0.0
147
0.0
147
0.0
147
1.0
147
0.0
147
0.0
147
0.0
147
0.0
147
1.0
  0
MATERIAL
  5
7E32
102
{ACAD_XDICTIONARY
360
7E33
102
}
102
{ACAD_REACTORS
330
7AA8
102
}
330
7AA8
100
AcDbMaterial
  1
Global
 72
     0
 43
0.0208333333333333
 43
0.0
 43
0.0
 43
0.0
 43
0.0
 43
0.0208333333333333
 43
0.0
 43
0.0
 43
0.0
 43
0.0
 43
1.0
 43
0.0
 43
0.0
 43
0.0
 43
0.0
 43
1.0
 77
     0
 47
0.0208333333333333
 47
0.0
 47
0.0
 47
0.0
 47
0.0
 47
0.0208333333333333
 47
0.0
 47
0.0
 47
0.0
 47
0.0
 47
1.0
 47
0.0
 47
0.0
 47
0.0
 47
0.0
 47
1.0
171
     0
 49
0.0208333333333333
 49
0.0
 49
0.0
 49
0.0
 49
0.0
 49
0.0208333333333333
 49
0.0
 49
0.0
 49
0.0
 49
0.0
 49
1.0
 49
0.0
 49
0.0
 49
0.0
 49
0.0
 49
1.0
175
     0
142
0.0208333333333333
142
0.0
142
0.0
142
0.0
142
0.0
142
0.0208333333333333
142
0.0
142
0.0
142
0.0
142
0.0
142
1.0
142
0.0
142
0.0
142
0.0
142
0.0
142
1.0
179
     0
144
0.0208333333333333
144
0.0
144
0.0
144
0.0
144
0.0
144
0.0208333333333333
144
0.0
144
0.0
144
0.0
144
0.0
144
1.0
144
0.0
144
0.0
144
0.0
144
0.0
144
1.0
147
0.0208333333333333
147
0.0
147
0.0
147
0.0
147
0.0
147
0.0208333333333333
147
0.0
147
0.0
147
0.0
147
0.0
147
1.0
147
0.0
147
0.0
147
0.0
147
0.0
147
1.0
  0
MLEADERSTYLE
  5
7E66
102
{ACAD_REACTORS
330
7E65
102
}
330
7E65
100
AcDbMLeaderStyle
170
     2
171
     1
172
     0
 90
        2
 40
0.0
 41
0.0
173
     1
 91
-1056964608
340
38
 92
       -2
290
     1
 42
0.09
291
     1
 43
0.36
  3
Standard
 44
0.18
300

342
35
174
     1
178
     6
175
     1
176
     0
 93
-1056964608
 45
0.18
292
     0
297
     0
 46
0.18
 94
-1056964608
 47
1.0
 49
1.0
140
1.0
293
     1
141
0.0
294
     1
177
     0
142
1.0
295
     0
296
     0
143
0.125
1001
ACAD_MLEADERVER
1070
     2
  0
MLINESTYLE
  5
4C
102
{ACAD_REACTORS
330
4A
102
}
330
4A
100
AcDbMlineStyle
  2
STANDARD
 70
     0
  3

 62
   256
 51
90.0
 52
90.0
 71
     2
 49
0.5
 62
   256
  6
BYLAYER
 49
-0.5
 62
   256
  6
BYLAYER
  0
ACDBPLACEHOLDER
  5
7
102
{ACAD_REACTORS
330
8
102
}
330
8
  0
SCALE
  5
7E54
102
{ACAD_REACTORS
330
7E53
102
}
330
7E53
100
AcDbScale
 70
     0
300
1:1
140
1.0
141
1.0
290
     1
  0
SCALE
  5
80E5
102
{ACAD_REACTORS
330
7E53
102
}
330
7E53
100
AcDbScale
 70
     0
300
1/128" = 1'-0"
140
0.0078125
141
12.0
290
     0
  0
SCALE
  5
80E6
102
{ACAD_REACTORS
330
7E53
102
}
330
7E53
100
AcDbScale
 70
     0
300
1/64" = 1'-0"
140
0.015625
141
12.0
290
     0
  0
SCALE
  5
80E7
102
{ACAD_REACTORS
330
7E53
102
}
330
7E53
100
AcDbScale
 70
     0
300
1/32" = 1'-0"
140
0.03125
141
12.0
290
     0
  0
SCALE
  5
80E8
102
{ACAD_REACTORS
330
7E53
102
}
330
7E53
100
AcDbScale
 70
     0
300
1/16" = 1'-0"
140
0.0625
141
12.0
290
     0
  0
SCALE
  5
80E9
102
{ACAD_REACTORS
330
7E53
102
}
330
7E53
100
AcDbScale
 70
     0
300
3/32" = 1'-0"
140
0.09375
141
12.0
290
     0
  0
SCALE
  5
80EA
102
{ACAD_REACTORS
330
7E53
102
}
330
7E53
100
AcDbScale
 70
     0
300
1/8" = 1'-0"
140
0.125
141
12.0
290
     0
  0
SCALE
  5
80EB
102
{ACAD_REACTORS
330
7E53
102
}
330
7E53
100
AcDbScale
 70
     0
300
3/16" = 1'-0"
140
0.1875
141
12.0
290
     0
  0
SCALE
  5
80EC
102
{ACAD_REACTORS
330
7E53
102
}
330
7E53
100
AcDbScale
 70
     0
300
1/4" = 1'-0"
140
0.25
141
12.0
290
     0
  0
SCALE
  5
80ED
102
{ACAD_REACTORS
330
7E53
102
}
330
7E53
100
AcDbScale
 70
     0
300
3/8" = 1'-0"
140
0.375
141
12.0
290
     0
  0
SCALE
  5
80EE
102
{ACAD_REACTORS
330
7E53
102
}
330
7E53
100
AcDbScale
 70
     0
300
1/2" = 1'-0"
140
0.5
141
12.0
290
     0
  0
SCALE
  5
80EF
102
{ACAD_REACTORS
330
7E53
102
}
330
7E53
100
AcDbScale
 70
     0
300
3/4" = 1'-0"
140
0.75
141
12.0
290
     0
  0
SCALE
  5
80F0
102
{ACAD_REACTORS
330
7E53
102
}
330
7E53
100
AcDbScale
 70
     0
300
1" = 1'-0"
140
1.0
141
12.0
290
     0
  0
SCALE
  5
80F1
102
{ACAD_REACTORS
330
7E53
102
}
330
7E53
100
AcDbScale
 70
     0
300
1-1/2" = 1'-0"
140
1.5
141
12.0
290
     0
  0
SCALE
  5
80F2
102
{ACAD_REACTORS
330
7E53
102
}
330
7E53
100
AcDbScale
 70
     0
300
3" = 1'-0"
140
3.0
141
12.0
290
     0
  0
SCALE
  5
80F3
102
{ACAD_REACTORS
330
7E53
102
}
330
7E53
100
AcDbScale
 70
     0
300
6" = 1'-0"
140
6.0
141
12.0
290
     0
  0
SCALE
  5
80F4
102
{ACAD_REACTORS
330
7E53
102
}
330
7E53
100
AcDbScale
 70
     0
300
1'-0" = 1'-0"
140
12.0
141
12.0
290
     0
  0
TABLESTYLE
  5
7E11
102
{ACAD_XDICTIONARY
360
7E95
102
}
102
{ACAD_REACTORS
330
7E10
102
}
330
7E10
100
AcDbTableStyle
  3
Standard
 70
     0
 71
     0
 40
0.06
 41
0.06
280
     0
281
     0
  7
STANDARD
140
0.18
170
     2
 62
     0
 63
     7
283
     0
274
    -2
284
     1
 64
     0
275
    -2
285
     1
 65
     0
276
    -2
286
     1
 66
     0
277
    -2
287
     1
 67
     0
278
    -2
288
     1
 68
     0
279
    -2
289
     1
 69
     0
  7
STANDARD
140
0.25
170
     5
 62
     0
 63
     7
283
     0
274
    -2
284
     1
 64
     0
275
    -2
285
     1
 65
     0
276
    -2
286
     1
 66
     0
277
    -2
287
     1
 67
     0
278
    -2
288
     1
 68
     0
279
    -2
289
     1
 69
     0
  7
STANDARD
140
0.18
170
     5
 62
     0
 63
     7
283
     0
274
    -2
284
     1
 64
     0
275
    -2
285
     1
 65
     0
276
    -2
286
     1
 66
     0
277
    -2
287
     1
 67
     0
278
    -2
288
     1
 68
     0
279
    -2
289
     1
 69
     0
  0
VISUALSTYLE
  5
7E40
102
{ACAD_XDICTIONARY
360
8186
102
}
102
{ACAD_REACTORS
330
7E3A
102
}
330
7E3A
100
AcDbVisualStyle
  2
2dWireframe
 70
     4
 71
     0
 72
     2
 73
     0
 90
        0
 40
-0.6
 41
-30.0
 62
     5
 63
     7
 74
     1
 91
        4
 64
     7
 65
   257
 75
     1
175
     1
 42
1.0
 92
        0
 66
   257
 43
1.0
 76
     1
 77
     6
 78
     2
 67
     7
 79
     5
170
     0
171
     0
290
     0
174
     0
 93
        1
 44
0.0
173
     0
291
     0
 45
0.0
1001
ACAD
1000
AcDbSavedByObjectVersion
1070
     0
  0
VISUALSTYLE
  5
8105
102
{ACAD_XDICTIONARY
360
81AC
102
}
102
{ACAD_REACTORS
330
7E3A
102
}
330
7E3A
100
AcDbVisualStyle
  2
3D Hidden
 70
     6
 71
     1
 72
     2
 73
     2
 90
        0
 40
-0.6
 41
-30.0
 62
     5
 63
     7
 74
     2
 91
        2
 64
     7
 65
   257
 75
     2
175
     1
 42
40.0
 92
        0
 66
   257
 43
1.0
 76
     1
 77
     6
 78
     2
 67
     7
 79
     3
170
     0
171
     0
290
     0
174
     0
 93
        1
 44
0.0
173
     0
291
     0
 45
0.0
1001
ACAD
1000
AcDbSavedByObjectVersion
1070
     0
  0
VISUALSTYLE
  5
8106
102
{ACAD_XDICTIONARY
360
81AE
102
}
102
{ACAD_REACTORS
330
7E3A
102
}
330
7E3A
100
AcDbVisualStyle
  2
3dWireframe
 70
     5
 71
     0
 72
     2
 73
     0
 90
        0
 40
-0.6
 41
-30.0
 62
     5
 63
     7
 74
     1
 91
        4
 64
     7
 65
   257
 75
     1
175
     1
 42
1.0
 92
        0
 66
   257
 43
1.0
 76
     1
 77
     6
 78
     2
 67
     7
 79
     5
170
     0
171
     0
290
     0
174
     0
 93
        1
 44
0.0
173
     0
291
     0
 45
0.0
1001
ACAD
1000
AcDbSavedByObjectVersion
1070
     0
  0
VISUALSTYLE
  5
7E3F
102
{ACAD_XDICTIONARY
360
8184
102
}
102
{ACAD_REACTORS
330
7E3A
102
}
330
7E3A
100
AcDbVisualStyle
  2
Basic
 70
     7
 71
     1
 72
     0
 73
     1
 90
        0
 40
-0.6
 41
-30.0
 62
     5
 63
     7
 74
     0
 91
        4
 64
     7
 65
   257
 75
     1
175
     1
 42
1.0
 92
        8
 66
     7
 43
1.0
 76
     1
 77
     6
 78
     2
 67
     7
 79
     5
170
     0
171
     0
290
     0
174
     0
 93
        1
 44
0.0
173
     0
291
     1
 45
0.0
1001
ACAD
1000
AcDbSavedByObjectVersion
1070
     0
  0
VISUALSTYLE
  5
7E46
102
{ACAD_XDICTIONARY
360
8192
102
}
102
{ACAD_REACTORS
330
7E3A
102
}
330
7E3A
100
AcDbVisualStyle
  2
Brighten
 70
    12
 71
     2
 72
     2
 73
     0
 90
        0
 40
-0.6
 41
-30.0
 62
     5
 63
     7
 74
     1
 91
        4
 64
     7
 65
   257
 75
     1
175
     1
 42
1.0
 92
        8
 66
     7
 43
1.0
 76
     1
 77
     6
 78
     2
 67
     7
 79
     5
170
     0
171
     0
290
     0
174
     0
 93
        1
 44
50.0
173
     0
291
     1
 45
0.0
1001
ACAD
1000
AcDbSavedByObjectVersion
1070
     0
  0
VISUALSTYLE
  5
7E4A
102
{ACAD_XDICTIONARY
360
819A
102
}
102
{ACAD_REACTORS
330
7E3A
102
}
330
7E3A
100
AcDbVisualStyle
  2
ColorChange
 70
    16
 71
     2
 72
     2
 73
     3
 90
        0
 40
-0.6
 41
-30.0
 62
     5
 63
     8
 74
     1
 91
        4
 64
     7
 65
   257
 75
     1
175
     1
 42
1.0
 92
        8
 66
     8
 43
1.0
 76
     1
 77
     6
 78
     2
 67
     7
 79
     5
170
     0
171
     0
290
     0
174
     0
 93
        1
 44
0.0
173
     0
291
     1
 45
0.0
1001
ACAD
1000
AcDbSavedByObjectVersion
1070
     0
  0
VISUALSTYLE
  5
7E43
102
{ACAD_XDICTIONARY
360
818C
102
}
102
{ACAD_REACTORS
330
7E3A
102
}
330
7E3A
100
AcDbVisualStyle
  2
Conceptual
 70
     9
 71
     3
 72
     2
 73
     0
 90
        0
 40
-0.6
 41
-30.0
 62
     5
 63
     7
 74
     2
 91
        2
 64
     7
 65
   257
 75
     1
175
     1
 42
179.0
 92
        8
 66
     7
 43
1.0
 76
     1
 77
     6
 78
     2
 67
     7
 79
     3
170
     0
171
     0
290
     0
174
     0
 93
        1
 44
0.0
173
     0
291
     0
 45
0.0
1001
ACAD
1000
AcDbSavedByObjectVersion
1070
     0
  0
VISUALSTYLE
  5
7E45
102
{ACAD_XDICTIONARY
360
8190
102
}
102
{ACAD_REACTORS
330
7E3A
102
}
330
7E3A
100
AcDbVisualStyle
  2
Dim
 70
    11
 71
     2
 72
     2
 73
     0
 90
        0
 40
-0.6
 41
-30.0
 62
     5
 63
     7
 74
     1
 91
        4
 64
     7
 65
   257
 75
     1
175
     1
 42
1.0
 92
        8
 66
     7
 43
1.0
 76
     1
 77
     6
 78
     2
 67
     7
 79
     5
170
     0
171
     0
290
     0
174
     0
 93
        1
 44
-50.0
173
     0
291
     1
 45
0.0
1001
ACAD
1000
AcDbSavedByObjectVersion
1070
     0
  0
VISUALSTYLE
  5
7E52
102
{ACAD_XDICTIONARY
360
81AA
102
}
102
{ACAD_REACTORS
330
7E3A
102
}
330
7E3A
100
AcDbVisualStyle
  2
EdgeColorOff
 70
    22
 71
     2
 72
     2
 73
     0
 90
        0
 40
-0.6
 41
-30.0
 62
     5
 63
     7
 74
     1
 91
        4
 64
     7
 65
   257
 75
     1
175
     1
 42
1.0
 92
        8
 66
     7
 43
1.0
 76
     1
 77
     6
 78
     2
 67
     7
 79
     5
170
     0
171
     0
290
     0
174
     0
 93
        1
 44
0.0
173
     0
291
     1
 45
0.0
1001
ACAD
1000
AcDbSavedByObjectVersion
1070
     0
  0
VISUALSTYLE
  5
7E49
102
{ACAD_XDICTIONARY
360
8198
102
}
102
{ACAD_REACTORS
330
7E3A
102
}
330
7E3A
100
AcDbVisualStyle
  2
Facepattern
 70
    15
 71
     2
 72
     2
 73
     0
 90
        0
 40
-0.6
 41
-30.0
 62
     5
 63
     7
 74
     1
 91
        4
 64
     7
 65
   257
 75
     1
175
     1
 42
1.0
 92
        8
 66
     7
 43
1.0
 76
     1
 77
     6
 78
     2
 67
     7
 79
     5
170
     0
171
     0
290
     0
174
     0
 93
        1
 44
0.0
173
     0
291
     1
 45
0.0
1001
ACAD
1000
AcDbSavedByObjectVersion
1070
     0
  0
VISUALSTYLE
  5
7E3B
102
{ACAD_XDICTIONARY
360
817C
102
}
102
{ACAD_REACTORS
330
7E3A
102
}
330
7E3A
100
AcDbVisualStyle
  2
Flat
 70
     0
 71
     2
 72
     1
 73
     1
 90
        2
 40
-0.6
 41
30.0
 62
     5
 63
     7
 74
     0
 91
        0
 64
     7
 65
   257
 75
     1
175
     1
 42
1.0
 92
        8
 66
     7
 43
1.0
 76
     1
 77
     6
 78
     2
 67
     7
 79
     5
170
     0
171
     0
290
     0
174
     0
 93
       13
 44
0.0
173
     0
291
     1
 45
0.0
1001
ACAD
1000
AcDbSavedByObjectVersion
1070
     0
  0
VISUALSTYLE
  5
7E3C
102
{ACAD_XDICTIONARY
360
817E
102
}
102
{ACAD_REACTORS
330
7E3A
102
}
330
7E3A
100
AcDbVisualStyle
  2
FlatWithEdges
 70
     1
 71
     2
 72
     1
 73
     1
 90
        2
 40
-0.6
 41
30.0
 62
     5
 63
     7
 74
     1
 91
        0
 64
     7
 65
   257
 75
     1
175
     1
 42
1.0
 92
        0
 66
   257
 43
1.0
 76
     1
 77
     6
 78
     2
 67
     7
 79
     5
170
     0
171
     0
290
     0
174
     0
 93
       13
 44
0.0
173
     0
291
     1
 45
0.0
1001
ACAD
1000
AcDbSavedByObjectVersion
1070
     0
  0
VISUALSTYLE
  5
7E3D
102
{ACAD_XDICTIONARY
360
8180
102
}
102
{ACAD_REACTORS
330
7E3A
102
}
330
7E3A
100
AcDbVisualStyle
  2
Gouraud
 70
     2
 71
     2
 72
     2
 73
     1
 90
        2
 40
-0.6
 41
30.0
 62
     5
 63
     7
 74
     0
 91
        0
 64
     7
 65
   257
 75
     1
175
     1
 42
1.0
 92
        0
 66
     7
 43
1.0
 76
     1
 77
     6
 78
     2
 67
     7
 79
     5
170
     0
171
     0
290
     0
174
     0
 93
       13
 44
0.0
173
     0
291
     1
 45
0.0
1001
ACAD
1000
AcDbSavedByObjectVersion
1070
     0
  0
VISUALSTYLE
  5
7E3E
102
{ACAD_XDICTIONARY
360
8182
102
}
102
{ACAD_REACTORS
330
7E3A
102
}
330
7E3A
100
AcDbVisualStyle
  2
GouraudWithEdges
 70
     3
 71
     2
 72
     2
 73
     1
 90
        2
 40
-0.6
 41
30.0
 62
     5
 63
     7
 74
     1
 91
        0
 64
     7
 65
   257
 75
     1
175
     1
 42
1.0
 92
        0
 66
   257
 43
1.0
 76
     1
 77
     6
 78
     2
 67
     7
 79
     5
170
     0
171
     0
290
     0
174
     0
 93
       13
 44
0.0
173
     0
291
     1
 45
0.0
1001
ACAD
1000
AcDbSavedByObjectVersion
1070
     0
  0
VISUALSTYLE
  5
7E42
102
{ACAD_XDICTIONARY
360
818A
102
}
102
{ACAD_REACTORS
330
7E3A
102
}
330
7E3A
100
AcDbVisualStyle
  2
Hidden
 70
     6
 71
     1
 72
     2
 73
     2
 90
        0
 40
-0.6
 41
-30.0
 62
     5
 63
     7
 74
     2
 91
        2
 64
     7
 65
   257
 75
     2
175
     1
 42
40.0
 92
        0
 66
   257
 43
1.0
 76
     1
 77
     6
 78
     2
 67
     7
 79
     3
170
     0
171
     0
290
     0
174
     0
 93
        1
 44
0.0
173
     0
291
     0
 45
0.0
1001
ACAD
1000
AcDbSavedByObjectVersion
1070
     0
  0
VISUALSTYLE
  5
7E50
102
{ACAD_XDICTIONARY
360
81A6
102
}
102
{ACAD_REACTORS
330
7E3A
102
}
330
7E3A
100
AcDbVisualStyle
  2
JitterOff
 70
    20
 71
     2
 72
     2
 73
     0
 90
        0
 40
-0.6
 41
-30.0
 62
     5
 63
     7
 74
     1
 91
        4
 64
     7
 65
   257
 75
     1
175
     1
 42
1.0
 92
       10
 66
     7
 43
1.0
 76
     1
 77
     6
 78
     2
 67
     7
 79
     5
170
     0
171
     0
290
     0
174
     0
 93
        1
 44
0.0
173
     0
291
     1
 45
0.0
1001
ACAD
1000
AcDbSavedByObjectVersion
1070
     0
  0
VISUALSTYLE
  5
7E48
102
{ACAD_XDICTIONARY
360
8196
102
}
102
{ACAD_REACTORS
330
7E3A
102
}
330
7E3A
100
AcDbVisualStyle
  2
Linepattern
 70
    14
 71
     2
 72
     2
 73
     0
 90
        0
 40
-0.6
 41
-30.0
 62
     5
 63
     7
 74
     1
 91
        4
 64
     7
 65
   257
 75
     7
175
     7
 42
1.0
 92
        8
 66
     7
 43
1.0
 76
     1
 77
     6
 78
     2
 67
     7
 79
     5
170
     0
171
     0
290
     0
174
     0
 93
        1
 44
0.0
173
     0
291
     1
 45
0.0
1001
ACAD
1000
AcDbSavedByObjectVersion
1070
     0
  0
VISUALSTYLE
  5
7E51
102
{ACAD_XDICTIONARY
360
81A8
102
}
102
{ACAD_REACTORS
330
7E3A
102
}
330
7E3A
100
AcDbVisualStyle
  2
OverhangOff
 70
    21
 71
     2
 72
     2
 73
     0
 90
        0
 40
-0.6
 41
-30.0
 62
     5
 63
     7
 74
     1
 91
        4
 64
     7
 65
   257
 75
     1
175
     1
 42
1.0
 92
        9
 66
     7
 43
1.0
 76
     1
 77
     6
 78
     2
 67
     7
 79
     5
170
     0
171
     0
290
     0
174
     0
 93
        1
 44
0.0
173
     0
291
     1
 45
0.0
1001
ACAD
1000
AcDbSavedByObjectVersion
1070
     0
  0
VISUALSTYLE
  5
7E44
102
{ACAD_XDICTIONARY
360
818E
102
}
102
{ACAD_REACTORS
330
7E3A
102
}
330
7E3A
100
AcDbVisualStyle
  2
Realistic
 70
     8
 71
     2
 72
     2
 73
     0
 90
        2
 40
-0.6
 41
30.0
 62
     5
 63
     7
 74
     0
 91
        0
 64
     7
 65
   257
 75
     1
175
     1
 42
1.0
 92
        8
 66
   257
 43
1.0
 76
     1
 77
     6
 78
     2
 67
     7
 79
     3
170
     0
171
     0
290
     0
174
     0
 93
       13
 44
0.0
173
     0
291
     0
 45
0.0
1001
ACAD
1000
AcDbSavedByObjectVersion
1070
     0
  0
VISUALSTYLE
  5
7E4F
102
{ACAD_XDICTIONARY
360
81A4
102
}
102
{ACAD_REACTORS
330
7E3A
102
}
330
7E3A
100
AcDbVisualStyle
  2
Shaded
 70
    27
 71
     2
 72
     2
 73
     1
 90
        2
 40
-0.6
 41
30.0
 62
     5
 63
     7
 74
     0
 91
        4
 64
     7
 65
   257
 75
     1
175
     1
 42
1.0
 92
        8
 66
   257
 43
1.0
 76
     1
 77
     6
 78
     2
 67
     8
 79
     3
170
     0
171
     0
290
     0
174
     0
 93
        5
 44
0.0
173
     0
291
     0
 45
0.0
1001
ACAD
1000
AcDbSavedByObjectVersion
1070
     0
  0
VISUALSTYLE
  5
7E4E
102
{ACAD_XDICTIONARY
360
81A2
102
}
102
{ACAD_REACTORS
330
7E3A
102
}
330
7E3A
100
AcDbVisualStyle
  2
Shaded with edges
 70
    26
 71
     2
 72
     2
 73
     1
 90
        2
 40
-0.6
 41
30.0
 62
     5
 63
     7
 74
     1
 91
       10
 64
     7
 65
   257
 75
     2
175
     1
 42
1.0
 92
        8
 66
   257
 43
1.0
 76
     1
 77
     6
 78
     2
 67
     7
 79
     3
170
     0
171
     0
290
     0
174
     0
 93
        5
 44
0.0
173
     0
291
     0
 45
0.0
1001
ACAD
1000
AcDbSavedByObjectVersion
1070
     0
  0
VISUALSTYLE
  5
7E4B
102
{ACAD_XDICTIONARY
360
819C
102
}
102
{ACAD_REACTORS
330
7E3A
102
}
330
7E3A
100
AcDbVisualStyle
  2
Shades of Gray
 70
    23
 71
     2
 72
     2
 73
     3
 90
        0
 40
-0.6
 41
-30.0
 62
     5
 63
     7
 74
     2
 91
        2
 64
     7
 65
     7
 75
     1
175
     1
 42
40.0
 92
        8
 66
     7
 43
1.0
 76
     1
 77
     6
 78
     2
 67
     7
 79
     3
170
     0
171
     0
290
     0
174
     0
 93
        1
 44
0.0
173
     0
291
     0
 45
0.0
1001
ACAD
1000
AcDbSavedByObjectVersion
1070
     0
  0
VISUALSTYLE
  5
7E4C
102
{ACAD_XDICTIONARY
360
819E
102
}
102
{ACAD_REACTORS
330
7E3A
102
}
330
7E3A
100
AcDbVisualStyle
  2
Sketchy
 70
    24
 71
     1
 72
     2
 73
     2
 90
        0
 40
-0.6
 41
-30.0
 62
     5
 63
     7
 74
     2
 91
        2
 64
     7
 65
     7
 75
     1
175
     1
 42
40.0
 92
       11
 66
     7
 43
1.0
 76
     1
 77
     6
 78
     2
 67
     7
 79
     6
170
     0
171
     0
290
     0
174
     0
 93
        1
 44
0.0
173
     0
291
     0
 45
0.0
1001
ACAD
1000
AcDbSavedByObjectVersion
1070
     0
  0
VISUALSTYLE
  5
7E47
102
{ACAD_XDICTIONARY
360
8194
102
}
102
{ACAD_REACTORS
330
7E3A
102
}
330
7E3A
100
AcDbVisualStyle
  2
Thicken
 70
    13
 71
     2
 72
     2
 73
     0
 90
        0
 40
-0.6
 41
-30.0
 62
     5
 63
     7
 74
     1
 91
        4
 64
     7
 65
   257
 75
     1
175
     1
 42
1.0
 92
       12
 66
     7
 43
1.0
 76
     1
 77
     6
 78
     2
 67
     7
 79
     5
170
     0
171
     0
290
     0
174
     0
 93
        1
 44
0.0
173
     0
291
     1
 45
0.0
1001
ACAD
1000
AcDbSavedByObjectVersion
1070
     0
  0
VISUALSTYLE
  5
7E41
102
{ACAD_XDICTIONARY
360
8188
102
}
102
{ACAD_REACTORS
330
7E3A
102
}
330
7E3A
100
AcDbVisualStyle
  2
Wireframe
 70
     5
 71
     0
 72
     2
 73
     0
 90
        0
 40
-0.6
 41
-30.0
 62
     5
 63
     7
 74
     1
 91
        4
 64
     7
 65
   257
 75
     1
175
     1
 42
1.0
 92
        0
 66
   257
 43
1.0
 76
     1
 77
     6
 78
     2
 67
     7
 79
     3
170
     0
171
     0
290
     0
174
     0
 93
        1
 44
0.0
173
     0
291
     0
 45
0.0
1001
ACAD
1000
AcDbSavedByObjectVersion
1070
     0
  0
VISUALSTYLE
  5
7E4D
102
{ACAD_XDICTIONARY
360
81A0
102
}
102
{ACAD_REACTORS
330
7E3A
102
}
330
7E3A
100
AcDbVisualStyle
  2
X-Ray
 70
    25
 71
     2
 72
     2
 73
     1
 90
        1
 40
0.5
 41
-30.0
 62
     5
 63
     7
 74
     1
 91
        0
 64
     7
 65
   257
 75
     1
175
     1
 42
1.0
 92
        8
 66
     7
 43
1.0
 76
     1
 77
     6
 78
     2
 67
     7
 79
     3
170
     0
171
     0
290
     0
174
     0
 93
       13
 44
0.0
173
     0
291
     0
 45
0.0
1001
ACAD
1000
AcDbSavedByObjectVersion
1070
     0
  0
DICTIONARYVAR
  5
7ED5
102
{ACAD_REACTORS
330
422D
102
}
330
422D
100
DictionaryVariables
280
     0
  1
1:1
  0
DICTIONARYVAR
  5
7ED4
102
{ACAD_REACTORS
330
422D
102
}
330
422D
100
DictionaryVariables
280
     0
  1
STANDARD
  0
DICTIONARYVAR
  5
7E1A
102
{ACAD_REACTORS
330
422D
102
}
330
422D
100
DictionaryVariables
280
     0
  1
STANDARD
  0
DICTIONARYVAR
  5
7E0D
102
{ACAD_REACTORS
330
422D
102
}
330
422D
100
DictionaryVariables
280
     0
  1
1
  0
DICTIONARYVAR
  5
7ED6
102
{ACAD_REACTORS
330
422D
102
}
330
422D
100
DictionaryVariables
280
     0
  1
0
  0
DICTIONARYVAR
  5
8162
102
{ACAD_REACTORS
330
422D
102
}
330
422D
100
DictionaryVariables
280
     0
  1
1
  0
DICTIONARYVAR
  5
8163
102
{ACAD_REACTORS
330
422D
102
}
330
422D
100
DictionaryVariables
280
     0
  1
15
  0
DICTIONARYVAR
  5
8161
102
{ACAD_REACTORS
330
422D
102
}
330
422D
100
DictionaryVariables
280
     0
  1
0
  0
DICTIONARYVAR
  5
8160
102
{ACAD_REACTORS
330
422D
102
}
330
422D
100
DictionaryVariables
280
     0
  1
0
  0
DICTIONARYVAR
  5
7E0E
102
{ACAD_REACTORS
330
422D
102
}
330
422D
100
DictionaryVariables
280
     0
  1

  0
DICTIONARYVAR
  5
422E
102
{ACAD_REACTORS
330
422D
102
}
330
422D
100
DictionaryVariables
280
     0
  1
96
  0
DICTIONARYVAR
  5
816E
102
{ACAD_REACTORS
330
422D
102
}
330
422D
100
DictionaryVariables
280
     0
  1
2
  0
DICTIONARY
  5
8176
330
13
100
AcDbDictionary
280
     1
281
     1
  3
ACAD_XREC_ROUNDTRIP
360
8177
  0
DICTIONARY
  5
8174
330
C
100
AcDbDictionary
280
     1
281
     1
  3
ACAD_XREC_ROUNDTRIP
360
8175
  0
DICTIONARY
  5
7E2B
330
7E2A
100
AcDbDictionary
280
     1
281
     1
  3
ACAD_XREC_ROUNDTRIP
360
817A
  3
BUMPTILE
360
7E2D
  3
DIFFUSETILE
360
7E2C
  3
OPACITYTILE
360
7E30
  3
REFLECTIONTILE
360
7E2F
  3
REFRACTIONTILE
360
7E31
  3
SPECULARTILE
360
7E2E
  0
DICTIONARY
  5
7E23
330
7E22
100
AcDbDictionary
280
     1
281
     1
  3
ACAD_XREC_ROUNDTRIP
360
8179
  3
BUMPTILE
360
7E25
  3
DIFFUSETILE
360
7E24
  3
OPACITYTILE
360
7E28
  3
REFLECTIONTILE
360
7E27
  3
REFRACTIONTILE
360
7E29
  3
SPECULARTILE
360
7E26
  0
DICTIONARY
  5
7E33
330
7E32
100
AcDbDictionary
280
     1
281
     1
  3
ACAD_XREC_ROUNDTRIP
360
817B
  3
BUMPTILE
360
7E35
  3
DIFFUSETILE
360
7E34
  3
OPACITYTILE
360
7E38
  3
REFLECTIONTILE
360
7E37
  3
REFRACTIONTILE
360
7E39
  3
SPECULARTILE
360
7E36
  0
DICTIONARY
  5
7E95
330
7E11
100
AcDbDictionary
280
     1
281
     1
  3
ACAD_ROUNDTRIP_2008_TABLESTYLE_CELLSTYLEMAP
360
816F
  3
ACAD_XREC_ROUNDTRIP
360
8178
  0
DICTIONARY
  5
8186
330
7E40
100
AcDbDictionary
280
     1
281
     1
  3
ACAD_XREC_ROUNDTRIP
360
8187
  0
DICTIONARY
  5
81AC
330
8105
100
AcDbDictionary
280
     1
281
     1
  3
ACAD_XREC_ROUNDTRIP
360
81AD
  0
DICTIONARY
  5
81AE
330
8106
100
AcDbDictionary
280
     1
281
     1
  3
ACAD_XREC_ROUNDTRIP
360
81AF
  0
DICTIONARY
  5
8184
330
7E3F
100
AcDbDictionary
280
     1
281
     1
  3
ACAD_XREC_ROUNDTRIP
360
8185
  0
DICTIONARY
  5
8192
330
7E46
100
AcDbDictionary
280
     1
281
     1
  3
ACAD_XREC_ROUNDTRIP
360
8193
  0
DICTIONARY
  5
819A
330
7E4A
100
AcDbDictionary
280
     1
281
     1
  3
ACAD_XREC_ROUNDTRIP
360
819B
  0
DICTIONARY
  5
818C
330
7E43
100
AcDbDictionary
280
     1
281
     1
  3
ACAD_XREC_ROUNDTRIP
360
818D
  0
DICTIONARY
  5
8190
330
7E45
100
AcDbDictionary
280
     1
281
     1
  3
ACAD_XREC_ROUNDTRIP
360
8191
  0
DICTIONARY
  5
81AA
330
7E52
100
AcDbDictionary
280
     1
281
     1
  3
ACAD_XREC_ROUNDTRIP
360
81AB
  0
DICTIONARY
  5
8198
330
7E49
100
AcDbDictionary
280
     1
281
     1
  3
ACAD_XREC_ROUNDTRIP
360
8199
  0
DICTIONARY
  5
817C
330
7E3B
100
AcDbDictionary
280
     1
281
     1
  3
ACAD_XREC_ROUNDTRIP
360
817D
  0
DICTIONARY
  5
817E
330
7E3C
100
AcDbDictionary
280
     1
281
     1
  3
ACAD_XREC_ROUNDTRIP
360
817F
  0
DICTIONARY
  5
8180
330
7E3D
100
AcDbDictionary
280
     1
281
     1
  3
ACAD_XREC_ROUNDTRIP
360
8181
  0
DICTIONARY
  5
8182
330
7E3E
100
AcDbDictionary
280
     1
281
     1
  3
ACAD_XREC_ROUNDTRIP
360
8183
  0
DICTIONARY
  5
818A
330
7E42
100
AcDbDictionary
280
     1
281
     1
  3
ACAD_XREC_ROUNDTRIP
360
818B
  0
DICTIONARY
  5
81A6
330
7E50
100
AcDbDictionary
280
     1
281
     1
  3
ACAD_XREC_ROUNDTRIP
360
81A7
  0
DICTIONARY
  5
8196
330
7E48
100
AcDbDictionary
280
     1
281
     1
  3
ACAD_XREC_ROUNDTRIP
360
8197
  0
DICTIONARY
  5
81A8
330
7E51
100
AcDbDictionary
280
     1
281
     1
  3
ACAD_XREC_ROUNDTRIP
360
81A9
  0
DICTIONARY
  5
818E
330
7E44
100
AcDbDictionary
280
     1
281
     1
  3
ACAD_XREC_ROUNDTRIP
360
818F
  0
DICTIONARY
  5
81A4
330
7E4F
100
AcDbDictionary
280
     1
281
     1
  3
ACAD_XREC_ROUNDTRIP
360
81A5
  0
DICTIONARY
  5
81A2
330
7E4E
100
AcDbDictionary
280
     1
281
     1
  3
ACAD_XREC_ROUNDTRIP
360
81A3
  0
DICTIONARY
  5
819C
330
7E4B
100
AcDbDictionary
280
     1
281
     1
  3
ACAD_XREC_ROUNDTRIP
360
819D
  0
DICTIONARY
  5
819E
330
7E4C
100
AcDbDictionary
280
     1
281
     1
  3
ACAD_XREC_ROUNDTRIP
360
819F
  0
DICTIONARY
  5
8194
330
7E47
100
AcDbDictionary
280
     1
281
     1
  3
ACAD_XREC_ROUNDTRIP
360
8195
  0
DICTIONARY
  5
8188
330
7E41
100
AcDbDictionary
280
     1
281
     1
  3
ACAD_XREC_ROUNDTRIP
360
8189
  0
DICTIONARY
  5
81A0
330
7E4D
100
AcDbDictionary
280
     1
281
     1
  3
ACAD_XREC_ROUNDTRIP
360
81A1
  0
XRECORD
  5
8177
102
{ACAD_REACTORS
330
8176
102
}
330
8176
100
AcDbXrecord
280
     1
102
SHADEPLOT
 70
     0
102
SHADEPLOTRESLEVEL
 70
     2
102
SHADEPLOTCUSTOMDPI
 70
   300
  0
XRECORD
  5
8175
102
{ACAD_REACTORS
330
8174
102
}
330
8174
100
AcDbXrecord
280
     1
102
SHADEPLOT
 70
     0
102
SHADEPLOTRESLEVEL
 70
     2
102
SHADEPLOTCUSTOMDPI
 70
   300
  0
XRECORD
  5
817A
102
{ACAD_REACTORS
330
7E2B
102
}
330
7E2B
100
AcDbXrecord
280
     1
102
MATERIAL
148
0.0
149
0.0
149
0.0
 93
        0
 94
      127
282
     0
 72
     0
 77
     0
171
     0
175
     0
179
     0
273
     0
  0
XRECORD
  5
7E2D
102
{ACAD_REACTORS
330
7E2B
102
}
330
7E2B
100
AcDbXrecord
280
     1
270
     1
271
     1
  0
XRECORD
  5
7E2C
102
{ACAD_REACTORS
330
7E2B
102
}
330
7E2B
100
AcDbXrecord
280
     1
270
     1
271
     1
  0
XRECORD
  5
7E30
102
{ACAD_REACTORS
330
7E2B
102
}
330
7E2B
100
AcDbXrecord
280
     1
270
     1
271
     1
  0
XRECORD
  5
7E2F
102
{ACAD_REACTORS
330
7E2B
102
}
330
7E2B
100
AcDbXrecord
280
     1
270
     1
271
     1
  0
XRECORD
  5
7E31
102
{ACAD_REACTORS
330
7E2B
102
}
330
7E2B
100
AcDbXrecord
280
     1
270
     1
271
     1
  0
XRECORD
  5
7E2E
102
{ACAD_REACTORS
330
7E2B
102
}
330
7E2B
100
AcDbXrecord
280
     1
270
     1
271
     1
  0
XRECORD
  5
8179
102
{ACAD_REACTORS
330
7E23
102
}
330
7E23
100
AcDbXrecord
280
     1
102
MATERIAL
148
0.0
149
0.0
149
0.0
 93
        0
 94
      127
282
     0
 72
     0
 77
     0
171
     0
175
     0
179
     0
273
     0
  0
XRECORD
  5
7E25
102
{ACAD_REACTORS
330
7E23
102
}
330
7E23
100
AcDbXrecord
280
     1
270
     1
271
     1
  0
XRECORD
  5
7E24
102
{ACAD_REACTORS
330
7E23
102
}
330
7E23
100
AcDbXrecord
280
     1
270
     1
271
     1
  0
XRECORD
  5
7E28
102
{ACAD_REACTORS
330
7E23
102
}
330
7E23
100
AcDbXrecord
280
     1
270
     1
271
     1
  0
XRECORD
  5
7E27
102
{ACAD_REACTORS
330
7E23
102
}
330
7E23
100
AcDbXrecord
280
     1
270
     1
271
     1
  0
XRECORD
  5
7E29
102
{ACAD_REACTORS
330
7E23
102
}
330
7E23
100
AcDbXrecord
280
     1
270
     1
271
     1
  0
XRECORD
  5
7E26
102
{ACAD_REACTORS
330
7E23
102
}
330
7E23
100
AcDbXrecord
280
     1
270
     1
271
     1
  0
XRECORD
  5
817B
102
{ACAD_REACTORS
330
7E33
102
}
330
7E33
100
AcDbXrecord
280
     1
102
MATERIAL
148
0.0
149
0.0
149
0.0
 93
        0
 94
      127
282
     0
 72
     0
 77
     0
171
     0
175
     0
179
     0
273
     0
  0
XRECORD
  5
7E35
102
{ACAD_REACTORS
330
7E33
102
}
330
7E33
100
AcDbXrecord
280
     1
270
     1
271
     1
  0
XRECORD
  5
7E34
102
{ACAD_REACTORS
330
7E33
102
}
330
7E33
100
AcDbXrecord
280
     1
270
     1
271
     1
  0
XRECORD
  5
7E38
102
{ACAD_REACTORS
330
7E33
102
}
330
7E33
100
AcDbXrecord
280
     1
270
     1
271
     1
  0
XRECORD
  5
7E37
102
{ACAD_REACTORS
330
7E33
102
}
330
7E33
100
AcDbXrecord
280
     1
270
     1
271
     1
  0
XRECORD
  5
7E39
102
{ACAD_REACTORS
330
7E33
102
}
330
7E33
100
AcDbXrecord
280
     1
270
     1
271
     1
  0
XRECORD
  5
7E36
102
{ACAD_REACTORS
330
7E33
102
}
330
7E33
100
AcDbXrecord
280
     1
270
     1
271
     1
  0
CELLSTYLEMAP
  5
816F
102
{ACAD_REACTORS
330
7E95
102
}
330
7E95
100
AcDbCellStyleMap
 90
        3
300
CELLSTYLE
  1
TABLEFORMAT_BEGIN
 90
        5
170
     1
 91
        0
 92
    32768
 62
   257
 93
        1
300
CONTENTFORMAT
  1
CONTENTFORMAT_BEGIN
 90
        0
 91
        0
 92
        4
 93
        0
300

 40
0.0
140
1.0
 94
        5
 62
     0
340
35
144
0.25
309
CONTENTFORMAT_END
171
     0
 94
        6
 95
        1
302
GRIDFORMAT
  1
GRIDFORMAT_BEGIN
 90
        0
 91
        1
 62
     0
 92
       -2
340
0
 93
        0
 40
0.045
309
GRIDFORMAT_END
 95
        2
302
GRIDFORMAT
  1
GRIDFORMAT_BEGIN
 90
        0
 91
        1
 62
     0
 92
       -2
340
0
 93
        0
 40
0.045
309
GRIDFORMAT_END
 95
        4
302
GRIDFORMAT
  1
GRIDFORMAT_BEGIN
 90
        0
 91
        1
 62
     0
 92
       -2
340
0
 93
        0
 40
0.045
309
GRIDFORMAT_END
 95
        8
302
GRIDFORMAT
  1
GRIDFORMAT_BEGIN
 90
        0
 91
        1
 62
     0
 92
       -2
340
0
 93
        0
 40
0.045
309
GRIDFORMAT_END
 95
       16
302
GRIDFORMAT
  1
GRIDFORMAT_BEGIN
 90
        0
 91
        1
 62
     0
 92
       -2
340
0
 93
        0
 40
0.045
309
GRIDFORMAT_END
 95
       32
302
GRIDFORMAT
  1
GRIDFORMAT_BEGIN
 90
        0
 91
        1
 62
     0
 92
       -2
340
0
 93
        0
 40
0.045
309
GRIDFORMAT_END
309
TABLEFORMAT_END
  1
CELLSTYLE_BEGIN
 90
        1
 91
        1
300
_TITLE
309
CELLSTYLE_END
300
CELLSTYLE
  1
TABLEFORMAT_BEGIN
 90
        5
170
     1
 91
        0
 92
        0
 62
   257
 93
        1
300
CONTENTFORMAT
  1
CONTENTFORMAT_BEGIN
 90
        0
 91
        0
 92
        4
 93
        0
300

 40
0.0
140
1.0
 94
        5
 62
     0
340
35
144
0.18
309
CONTENTFORMAT_END
171
     0
 94
        6
 95
        1
302
GRIDFORMAT
  1
GRIDFORMAT_BEGIN
 90
        0
 91
        1
 62
     0
 92
       -2
340
0
 93
        0
 40
0.045
309
GRIDFORMAT_END
 95
        2
302
GRIDFORMAT
  1
GRIDFORMAT_BEGIN
 90
        0
 91
        1
 62
     0
 92
       -2
340
0
 93
        0
 40
0.045
309
GRIDFORMAT_END
 95
        4
302
GRIDFORMAT
  1
GRIDFORMAT_BEGIN
 90
        0
 91
        1
 62
     0
 92
       -2
340
0
 93
        0
 40
0.045
309
GRIDFORMAT_END
 95
        8
302
GRIDFORMAT
  1
GRIDFORMAT_BEGIN
 90
        0
 91
        1
 62
     0
 92
       -2
340
0
 93
        0
 40
0.045
309
GRIDFORMAT_END
 95
       16
302
GRIDFORMAT
  1
GRIDFORMAT_BEGIN
 90
        0
 91
        1
 62
     0
 92
       -2
340
0
 93
        0
 40
0.045
309
GRIDFORMAT_END
 95
       32
302
GRIDFORMAT
  1
GRIDFORMAT_BEGIN
 90
        0
 91
        1
 62
     0
 92
       -2
340
0
 93
        0
 40
0.045
309
GRIDFORMAT_END
309
TABLEFORMAT_END
  1
CELLSTYLE_BEGIN
 90
        2
 91
        1
300
_HEADER
309
CELLSTYLE_END
300
CELLSTYLE
  1
TABLEFORMAT_BEGIN
 90
        5
170
     1
 91
        0
 92
        0
 62
   257
 93
        1
300
CONTENTFORMAT
  1
CONTENTFORMAT_BEGIN
 90
        0
 91
        0
 92
        4
 93
        0
300

 40
0.0
140
1.0
 94
        2
 62
     0
340
35
144
0.18
309
CONTENTFORMAT_END
171
     0
 94
        6
 95
        1
302
GRIDFORMAT
  1
GRIDFORMAT_BEGIN
 90
        0
 91
        1
 62
     0
 92
       -2
340
0
 93
        0
 40
0.045
309
GRIDFORMAT_END
 95
        2
302
GRIDFORMAT
  1
GRIDFORMAT_BEGIN
 90
        0
 91
        1
 62
     0
 92
       -2
340
0
 93
        0
 40
0.045
309
GRIDFORMAT_END
 95
        4
302
GRIDFORMAT
  1
GRIDFORMAT_BEGIN
 90
        0
 91
        1
 62
     0
 92
       -2
340
0
 93
        0
 40
0.045
309
GRIDFORMAT_END
 95
        8
302
GRIDFORMAT
  1
GRIDFORMAT_BEGIN
 90
        0
 91
        1
 62
     0
 92
       -2
340
0
 93
        0
 40
0.045
309
GRIDFORMAT_END
 95
       16
302
GRIDFORMAT
  1
GRIDFORMAT_BEGIN
 90
        0
 91
        1
 62
     0
 92
       -2
340
0
 93
        0
 40
0.045
309
GRIDFORMAT_END
 95
       32
302
GRIDFORMAT
  1
GRIDFORMAT_BEGIN
 90
        0
 91
        1
 62
     0
 92
       -2
340
0
 93
        0
 40
0.045
309
GRIDFORMAT_END
309
TABLEFORMAT_END
  1
CELLSTYLE_BEGIN
 90
        3
 91
        2
300
_DATA
309
CELLSTYLE_END
  0
XRECORD
  5
8178
102
{ACAD_REACTORS
330
7E95
102
}
330
7E95
100
AcDbXrecord
280
     1
102
ACAD_ROUNDTRIP_PRE2007_TABLESTYLE
 90
        4
 91
        0
  1

 92
        4
 93
        0
  2

 94
        4
 95
        0
  3

  0
XRECORD
  5
8187
102
{ACAD_REACTORS
330
8186
102
}
330
8186
100
AcDbXrecord
280
     1
102
RTVSPropertyOp0
 70
     1
102
RTVSPropertyOp1
 70
     1
102
RTVSPropertyOp2
 70
     1
102
RTVSPropertyOp3
 70
     1
102
RTVSPropertyOp4
 70
     1
102
RTVSPropertyOp5
 70
     1
102
RTVSPropertyOp6
 70
     1
102
RTVSPropertyOp7
 70
     1
102
RTVSPropertyOp8
 70
     1
102
RTVSPropertyOp9
 70
     1
102
RTVSPropertyOp10
 70
     1
102
RTVSPropertyOp11
 70
     1
102
RTVSPropertyOp12
 70
     1
102
RTVSPropertyOp13
 70
     1
102
RTVSPropertyOp14
 70
     1
102
RTVSPropertyOp15
 70
     1
102
RTVSPropertyOp16
 70
     1
102
RTVSPropertyOp17
 70
     1
102
RTVSPropertyOp18
 70
     1
102
RTVSPropertyOp19
 70
     1
102
RTVSPropertyOp20
 70
     1
102
RTVSPropertyOp21
 70
     1
102
RTVSPropertyOp22
 70
     1
102
RTVSPropertyOp23
 70
     1
102
RTVSPropertyOp24
 70
     1
102
RTVSPropertyOp25
 70
     1
102
RTVSPropertyOp26
 70
     1
102
RTVSPropertyOp27
 70
     1
102
RTVSPropertyOp28
 70
     1
102
RTVSPropertyOp29
 70
     1
102
RTVSPropertyOp30
 70
     1
102
RTVSPropertyOp31
 70
     1
102
RTVSPropertyOp32
 70
     1
  0
XRECORD
  5
81AD
102
{ACAD_REACTORS
330
81AC
102
}
330
81AC
100
AcDbXrecord
280
     1
102
RTVSPropertyOp0
 70
     1
102
RTVSPropertyOp1
 70
     1
102
RTVSPropertyOp2
 70
     1
102
RTVSPropertyOp3
 70
     1
102
RTVSPropertyOp4
 70
     1
102
RTVSPropertyOp5
 70
     1
102
RTVSPropertyOp6
 70
     1
102
RTVSPropertyOp7
 70
     1
102
RTVSPropertyOp8
 70
     1
102
RTVSPropertyOp9
 70
     1
102
RTVSPropertyOp10
 70
     1
102
RTVSPropertyOp11
 70
     1
102
RTVSPropertyOp12
 70
     1
102
RTVSPropertyOp13
 70
     1
102
RTVSPropertyOp14
 70
     1
102
RTVSPropertyOp15
 70
     1
102
RTVSPropertyOp16
 70
     1
102
RTVSPropertyOp17
 70
     1
102
RTVSPropertyOp18
 70
     1
102
RTVSPropertyOp19
 70
     1
102
RTVSPropertyOp20
 70
     1
102
RTVSPropertyOp21
 70
     1
102
RTVSPropertyOp22
 70
     1
102
RTVSPropertyOp23
 70
     1
102
RTVSPropertyOp24
 70
     1
102
RTVSPropertyOp25
 70
     1
102
RTVSPropertyOp26
 70
     1
102
RTVSPropertyOp27
 70
     1
102
RTVSPropertyOp28
 70
     1
102
RTVSPropertyOp29
 70
     1
102
RTVSPropertyOp30
 70
     1
102
RTVSPropertyOp31
 70
     1
102
RTVSPropertyOp32
 70
     1
  0
XRECORD
  5
81AF
102
{ACAD_REACTORS
330
81AE
102
}
330
81AE
100
AcDbXrecord
280
     1
102
RTVSPropertyOp0
 70
     1
102
RTVSPropertyOp1
 70
     1
102
RTVSPropertyOp2
 70
     1
102
RTVSPropertyOp3
 70
     1
102
RTVSPropertyOp4
 70
     1
102
RTVSPropertyOp5
 70
     1
102
RTVSPropertyOp6
 70
     1
102
RTVSPropertyOp7
 70
     1
102
RTVSPropertyOp8
 70
     1
102
RTVSPropertyOp9
 70
     1
102
RTVSPropertyOp10
 70
     1
102
RTVSPropertyOp11
 70
     1
102
RTVSPropertyOp12
 70
     1
102
RTVSPropertyOp13
 70
     1
102
RTVSPropertyOp14
 70
     1
102
RTVSPropertyOp15
 70
     1
102
RTVSPropertyOp16
 70
     1
102
RTVSPropertyOp17
 70
     1
102
RTVSPropertyOp18
 70
     1
102
RTVSPropertyOp19
 70
     1
102
RTVSPropertyOp20
 70
     1
102
RTVSPropertyOp21
 70
     1
102
RTVSPropertyOp22
 70
     1
102
RTVSPropertyOp23
 70
     1
102
RTVSPropertyOp24
 70
     1
102
RTVSPropertyOp25
 70
     1
102
RTVSPropertyOp26
 70
     1
102
RTVSPropertyOp27
 70
     1
102
RTVSPropertyOp28
 70
     1
102
RTVSPropertyOp29
 70
     1
102
RTVSPropertyOp30
 70
     1
102
RTVSPropertyOp31
 70
     1
102
RTVSPropertyOp32
 70
     1
  0
XRECORD
  5
8185
102
{ACAD_REACTORS
330
8184
102
}
330
8184
100
AcDbXrecord
280
     1
102
RTVSPropertyOp0
 70
     1
102
RTVSPropertyOp1
 70
     1
102
RTVSPropertyOp2
 70
     1
102
RTVSPropertyOp3
 70
     1
102
RTVSPropertyOp4
 70
     1
102
RTVSPropertyOp5
 70
     1
102
RTVSPropertyOp6
 70
     1
102
RTVSPropertyOp7
 70
     1
102
RTVSPropertyOp8
 70
     1
102
RTVSPropertyOp9
 70
     1
102
RTVSPropertyOp10
 70
     1
102
RTVSPropertyOp11
 70
     1
102
RTVSPropertyOp12
 70
     1
102
RTVSPropertyOp13
 70
     1
102
RTVSPropertyOp14
 70
     1
102
RTVSPropertyOp15
 70
     1
102
RTVSPropertyOp16
 70
     1
102
RTVSPropertyOp17
 70
     1
102
RTVSPropertyOp18
 70
     1
102
RTVSPropertyOp19
 70
     1
102
RTVSPropertyOp20
 70
     1
102
RTVSPropertyOp21
 70
     1
102
RTVSPropertyOp22
 70
     1
102
RTVSPropertyOp23
 70
     1
102
RTVSPropertyOp24
 70
     1
102
RTVSPropertyOp25
 70
     1
102
RTVSPropertyOp26
 70
     1
102
RTVSPropertyOp27
 70
     1
102
RTVSPropertyOp28
 70
     1
102
RTVSPropertyOp29
 70
     1
102
RTVSPropertyOp30
 70
     1
102
RTVSPropertyOp31
 70
     1
102
RTVSPropertyOp32
 70
     1
  0
XRECORD
  5
8193
102
{ACAD_REACTORS
330
8192
102
}
330
8192
100
AcDbXrecord
280
     1
102
RTVSPropertyOp0
 70
     1
102
RTVSPropertyOp1
 70
     1
102
RTVSPropertyOp2
 70
     1
102
RTVSPropertyOp3
 70
     1
102
RTVSPropertyOp4
 70
     1
102
RTVSPropertyOp5
 70
     1
102
RTVSPropertyOp6
 70
     1
102
RTVSPropertyOp7
 70
     1
102
RTVSPropertyOp8
 70
     1
102
RTVSPropertyOp9
 70
     1
102
RTVSPropertyOp10
 70
     1
102
RTVSPropertyOp11
 70
     1
102
RTVSPropertyOp12
 70
     1
102
RTVSPropertyOp13
 70
     1
102
RTVSPropertyOp14
 70
     1
102
RTVSPropertyOp15
 70
     1
102
RTVSPropertyOp16
 70
     1
102
RTVSPropertyOp17
 70
     1
102
RTVSPropertyOp18
 70
     1
102
RTVSPropertyOp19
 70
     1
102
RTVSPropertyOp20
 70
     1
102
RTVSPropertyOp21
 70
     1
102
RTVSPropertyOp22
 70
     1
102
RTVSPropertyOp23
 70
     1
102
RTVSPropertyOp24
 70
     1
102
RTVSPropertyOp25
 70
     1
102
RTVSPropertyOp26
 70
     1
102
RTVSPropertyOp27
 70
     1
102
RTVSPropertyOp28
 70
     1
102
RTVSPropertyOp29
 70
     1
102
RTVSPropertyOp30
 70
     1
102
RTVSPropertyOp31
 70
     1
102
RTVSPropertyOp32
 70
     1
  0
XRECORD
  5
819B
102
{ACAD_REACTORS
330
819A
102
}
330
819A
100
AcDbXrecord
280
     1
102
RTVSPropertyOp0
 70
     1
102
RTVSPropertyOp1
 70
     1
102
RTVSPropertyOp2
 70
     1
102
RTVSPropertyOp3
 70
     1
102
RTVSPropertyOp4
 70
     1
102
RTVSPropertyOp5
 70
     1
102
RTVSPropertyOp6
 70
     1
102
RTVSPropertyOp7
 70
     1
102
RTVSPropertyOp8
 70
     1
102
RTVSPropertyOp9
 70
     1
102
RTVSPropertyOp10
 70
     1
102
RTVSPropertyOp11
 70
     1
102
RTVSPropertyOp12
 70
     1
102
RTVSPropertyOp13
 70
     1
102
RTVSPropertyOp14
 70
     1
102
RTVSPropertyOp15
 70
     1
102
RTVSPropertyOp16
 70
     1
102
RTVSPropertyOp17
 70
     1
102
RTVSPropertyOp18
 70
     1
102
RTVSPropertyOp19
 70
     1
102
RTVSPropertyOp20
 70
     1
102
RTVSPropertyOp21
 70
     1
102
RTVSPropertyOp22
 70
     1
102
RTVSPropertyOp23
 70
     1
102
RTVSPropertyOp24
 70
     1
102
RTVSPropertyOp25
 70
     1
102
RTVSPropertyOp26
 70
     1
102
RTVSPropertyOp27
 70
     1
102
RTVSPropertyOp28
 70
     1
102
RTVSPropertyOp29
 70
     1
102
RTVSPropertyOp30
 70
     1
102
RTVSPropertyOp31
 70
     1
102
RTVSPropertyOp32
 70
     1
  0
XRECORD
  5
818D
102
{ACAD_REACTORS
330
818C
102
}
330
818C
100
AcDbXrecord
280
     1
102
RTVSPropertyOp0
 70
     1
102
RTVSPropertyOp1
 70
     1
102
RTVSPropertyOp2
 70
     1
102
RTVSPropertyOp3
 70
     1
102
RTVSPropertyOp4
 70
     1
102
RTVSPropertyOp5
 70
     1
102
RTVSPropertyOp6
 70
     1
102
RTVSPropertyOp7
 70
     1
102
RTVSPropertyOp8
 70
     1
102
RTVSPropertyOp9
 70
     1
102
RTVSPropertyOp10
 70
     1
102
RTVSPropertyOp11
 70
     1
102
RTVSPropertyOp12
 70
     1
102
RTVSPropertyOp13
 70
     1
102
RTVSPropertyOp14
 70
     1
102
RTVSPropertyOp15
 70
     1
102
RTVSPropertyOp16
 70
     1
102
RTVSPropertyOp17
 70
     1
102
RTVSPropertyOp18
 70
     1
102
RTVSPropertyOp19
 70
     1
102
RTVSPropertyOp20
 70
     1
102
RTVSPropertyOp21
 70
     1
102
RTVSPropertyOp22
 70
     1
102
RTVSPropertyOp23
 70
     1
102
RTVSPropertyOp24
 70
     1
102
RTVSPropertyOp25
 70
     1
102
RTVSPropertyOp26
 70
     1
102
RTVSPropertyOp27
 70
     1
102
RTVSPropertyOp28
 70
     1
102
RTVSPropertyOp29
 70
     1
102
RTVSPropertyOp30
 70
     1
102
RTVSPropertyOp31
 70
     1
102
RTVSPropertyOp32
 70
     1
  0
XRECORD
  5
8191
102
{ACAD_REACTORS
330
8190
102
}
330
8190
100
AcDbXrecord
280
     1
102
RTVSPropertyOp0
 70
     1
102
RTVSPropertyOp1
 70
     1
102
RTVSPropertyOp2
 70
     1
102
RTVSPropertyOp3
 70
     1
102
RTVSPropertyOp4
 70
     1
102
RTVSPropertyOp5
 70
     1
102
RTVSPropertyOp6
 70
     1
102
RTVSPropertyOp7
 70
     1
102
RTVSPropertyOp8
 70
     1
102
RTVSPropertyOp9
 70
     1
102
RTVSPropertyOp10
 70
     1
102
RTVSPropertyOp11
 70
     1
102
RTVSPropertyOp12
 70
     1
102
RTVSPropertyOp13
 70
     1
102
RTVSPropertyOp14
 70
     1
102
RTVSPropertyOp15
 70
     1
102
RTVSPropertyOp16
 70
     1
102
RTVSPropertyOp17
 70
     1
102
RTVSPropertyOp18
 70
     1
102
RTVSPropertyOp19
 70
     1
102
RTVSPropertyOp20
 70
     1
102
RTVSPropertyOp21
 70
     1
102
RTVSPropertyOp22
 70
     1
102
RTVSPropertyOp23
 70
     1
102
RTVSPropertyOp24
 70
     1
102
RTVSPropertyOp25
 70
     1
102
RTVSPropertyOp26
 70
     1
102
RTVSPropertyOp27
 70
     1
102
RTVSPropertyOp28
 70
     1
102
RTVSPropertyOp29
 70
     1
102
RTVSPropertyOp30
 70
     1
102
RTVSPropertyOp31
 70
     1
102
RTVSPropertyOp32
 70
     1
  0
XRECORD
  5
81AB
102
{ACAD_REACTORS
330
81AA
102
}
330
81AA
100
AcDbXrecord
280
     1
102
RTVSPropertyOp0
 70
     0
102
RTVSPropertyOp1
 70
     0
102
RTVSPropertyOp2
 70
     0
102
RTVSPropertyOp3
 70
     0
102
RTVSPropertyOp4
 70
     0
102
RTVSPropertyOp5
 70
     0
102
RTVSPropertyOp6
 70
     0
102
RTVSPropertyOp7
 70
     0
102
RTVSPropertyOp8
 70
     0
102
RTVSPropertyOp9
 70
     0
102
RTVSPropertyOp10
 70
     0
102
RTVSPropertyOp11
 70
     0
102
RTVSPropertyOp12
 70
     0
102
RTVSPropertyOp13
 70
     0
102
RTVSPropertyOp14
 70
     2
102
RTVSPropertyOp15
 70
     0
102
RTVSPropertyOp16
 70
     0
102
RTVSPropertyOp17
 70
     0
102
RTVSPropertyOp18
 70
     0
102
RTVSPropertyOp19
 70
     0
102
RTVSPropertyOp20
 70
     0
102
RTVSPropertyOp21
 70
     0
102
RTVSPropertyOp22
 70
     0
102
RTVSPropertyOp23
 70
     0
102
RTVSPropertyOp24
 70
     0
102
RTVSPropertyOp25
 70
     0
102
RTVSPropertyOp26
 70
     0
102
RTVSPropertyOp27
 70
     0
102
RTVSPropertyOp28
 70
     1
102
RTVSPropertyOp29
 70
     1
102
RTVSPropertyOp30
 70
     1
102
RTVSPropertyOp31
 70
     1
102
RTVSPropertyOp32
 70
     1
  0
XRECORD
  5
8199
102
{ACAD_REACTORS
330
8198
102
}
330
8198
100
AcDbXrecord
280
     1
102
RTVSPropertyOp0
 70
     1
102
RTVSPropertyOp1
 70
     1
102
RTVSPropertyOp2
 70
     1
102
RTVSPropertyOp3
 70
     1
102
RTVSPropertyOp4
 70
     1
102
RTVSPropertyOp5
 70
     1
102
RTVSPropertyOp6
 70
     1
102
RTVSPropertyOp7
 70
     1
102
RTVSPropertyOp8
 70
     1
102
RTVSPropertyOp9
 70
     1
102
RTVSPropertyOp10
 70
     1
102
RTVSPropertyOp11
 70
     1
102
RTVSPropertyOp12
 70
     1
102
RTVSPropertyOp13
 70
     1
102
RTVSPropertyOp14
 70
     1
102
RTVSPropertyOp15
 70
     1
102
RTVSPropertyOp16
 70
     1
102
RTVSPropertyOp17
 70
     1
102
RTVSPropertyOp18
 70
     1
102
RTVSPropertyOp19
 70
     1
102
RTVSPropertyOp20
 70
     1
102
RTVSPropertyOp21
 70
     1
102
RTVSPropertyOp22
 70
     1
102
RTVSPropertyOp23
 70
     1
102
RTVSPropertyOp24
 70
     1
102
RTVSPropertyOp25
 70
     1
102
RTVSPropertyOp26
 70
     1
102
RTVSPropertyOp27
 70
     1
102
RTVSPropertyOp28
 70
     1
102
RTVSPropertyOp29
 70
     1
102
RTVSPropertyOp30
 70
     1
102
RTVSPropertyOp31
 70
     1
102
RTVSPropertyOp32
 70
     1
  0
XRECORD
  5
817D
102
{ACAD_REACTORS
330
817C
102
}
330
817C
100
AcDbXrecord
280
     1
102
RTVSPropertyOp0
 70
     1
102
RTVSPropertyOp1
 70
     1
102
RTVSPropertyOp2
 70
     1
102
RTVSPropertyOp3
 70
     1
102
RTVSPropertyOp4
 70
     1
102
RTVSPropertyOp5
 70
     1
102
RTVSPropertyOp6
 70
     1
102
RTVSPropertyOp7
 70
     1
102
RTVSPropertyOp8
 70
     1
102
RTVSPropertyOp9
 70
     1
102
RTVSPropertyOp10
 70
     1
102
RTVSPropertyOp11
 70
     1
102
RTVSPropertyOp12
 70
     1
102
RTVSPropertyOp13
 70
     1
102
RTVSPropertyOp14
 70
     1
102
RTVSPropertyOp15
 70
     1
102
RTVSPropertyOp16
 70
     1
102
RTVSPropertyOp17
 70
     1
102
RTVSPropertyOp18
 70
     1
102
RTVSPropertyOp19
 70
     1
102
RTVSPropertyOp20
 70
     1
102
RTVSPropertyOp21
 70
     1
102
RTVSPropertyOp22
 70
     1
102
RTVSPropertyOp23
 70
     1
102
RTVSPropertyOp24
 70
     1
102
RTVSPropertyOp25
 70
     1
102
RTVSPropertyOp26
 70
     1
102
RTVSPropertyOp27
 70
     1
102
RTVSPropertyOp28
 70
     1
102
RTVSPropertyOp29
 70
     1
102
RTVSPropertyOp30
 70
     1
102
RTVSPropertyOp31
 70
     1
102
RTVSPropertyOp32
 70
     1
  0
XRECORD
  5
817F
102
{ACAD_REACTORS
330
817E
102
}
330
817E
100
AcDbXrecord
280
     1
102
RTVSPropertyOp0
 70
     1
102
RTVSPropertyOp1
 70
     1
102
RTVSPropertyOp2
 70
     1
102
RTVSPropertyOp3
 70
     1
102
RTVSPropertyOp4
 70
     1
102
RTVSPropertyOp5
 70
     1
102
RTVSPropertyOp6
 70
     1
102
RTVSPropertyOp7
 70
     1
102
RTVSPropertyOp8
 70
     1
102
RTVSPropertyOp9
 70
     1
102
RTVSPropertyOp10
 70
     1
102
RTVSPropertyOp11
 70
     1
102
RTVSPropertyOp12
 70
     1
102
RTVSPropertyOp13
 70
     1
102
RTVSPropertyOp14
 70
     1
102
RTVSPropertyOp15
 70
     1
102
RTVSPropertyOp16
 70
     1
102
RTVSPropertyOp17
 70
     1
102
RTVSPropertyOp18
 70
     1
102
RTVSPropertyOp19
 70
     1
102
RTVSPropertyOp20
 70
     1
102
RTVSPropertyOp21
 70
     1
102
RTVSPropertyOp22
 70
     1
102
RTVSPropertyOp23
 70
     1
102
RTVSPropertyOp24
 70
     1
102
RTVSPropertyOp25
 70
     1
102
RTVSPropertyOp26
 70
     1
102
RTVSPropertyOp27
 70
     1
102
RTVSPropertyOp28
 70
     1
102
RTVSPropertyOp29
 70
     1
102
RTVSPropertyOp30
 70
     1
102
RTVSPropertyOp31
 70
     1
102
RTVSPropertyOp32
 70
     1
  0
XRECORD
  5
8181
102
{ACAD_REACTORS
330
8180
102
}
330
8180
100
AcDbXrecord
280
     1
102
RTVSPropertyOp0
 70
     1
102
RTVSPropertyOp1
 70
     1
102
RTVSPropertyOp2
 70
     1
102
RTVSPropertyOp3
 70
     1
102
RTVSPropertyOp4
 70
     1
102
RTVSPropertyOp5
 70
     1
102
RTVSPropertyOp6
 70
     1
102
RTVSPropertyOp7
 70
     1
102
RTVSPropertyOp8
 70
     1
102
RTVSPropertyOp9
 70
     1
102
RTVSPropertyOp10
 70
     1
102
RTVSPropertyOp11
 70
     1
102
RTVSPropertyOp12
 70
     1
102
RTVSPropertyOp13
 70
     1
102
RTVSPropertyOp14
 70
     1
102
RTVSPropertyOp15
 70
     1
102
RTVSPropertyOp16
 70
     1
102
RTVSPropertyOp17
 70
     1
102
RTVSPropertyOp18
 70
     1
102
RTVSPropertyOp19
 70
     1
102
RTVSPropertyOp20
 70
     1
102
RTVSPropertyOp21
 70
     1
102
RTVSPropertyOp22
 70
     1
102
RTVSPropertyOp23
 70
     1
102
RTVSPropertyOp24
 70
     1
102
RTVSPropertyOp25
 70
     1
102
RTVSPropertyOp26
 70
     1
102
RTVSPropertyOp27
 70
     1
102
RTVSPropertyOp28
 70
     1
102
RTVSPropertyOp29
 70
     1
102
RTVSPropertyOp30
 70
     1
102
RTVSPropertyOp31
 70
     1
102
RTVSPropertyOp32
 70
     1
  0
XRECORD
  5
8183
102
{ACAD_REACTORS
330
8182
102
}
330
8182
100
AcDbXrecord
280
     1
102
RTVSPropertyOp0
 70
     1
102
RTVSPropertyOp1
 70
     1
102
RTVSPropertyOp2
 70
     1
102
RTVSPropertyOp3
 70
     1
102
RTVSPropertyOp4
 70
     1
102
RTVSPropertyOp5
 70
     1
102
RTVSPropertyOp6
 70
     1
102
RTVSPropertyOp7
 70
     1
102
RTVSPropertyOp8
 70
     1
102
RTVSPropertyOp9
 70
     1
102
RTVSPropertyOp10
 70
     1
102
RTVSPropertyOp11
 70
     1
102
RTVSPropertyOp12
 70
     1
102
RTVSPropertyOp13
 70
     1
102
RTVSPropertyOp14
 70
     1
102
RTVSPropertyOp15
 70
     1
102
RTVSPropertyOp16
 70
     1
102
RTVSPropertyOp17
 70
     1
102
RTVSPropertyOp18
 70
     1
102
RTVSPropertyOp19
 70
     1
102
RTVSPropertyOp20
 70
     1
102
RTVSPropertyOp21
 70
     1
102
RTVSPropertyOp22
 70
     1
102
RTVSPropertyOp23
 70
     1
102
RTVSPropertyOp24
 70
     1
102
RTVSPropertyOp25
 70
     1
102
RTVSPropertyOp26
 70
     1
102
RTVSPropertyOp27
 70
     1
102
RTVSPropertyOp28
 70
     1
102
RTVSPropertyOp29
 70
     1
102
RTVSPropertyOp30
 70
     1
102
RTVSPropertyOp31
 70
     1
102
RTVSPropertyOp32
 70
     1
  0
XRECORD
  5
818B
102
{ACAD_REACTORS
330
818A
102
}
330
818A
100
AcDbXrecord
280
     1
102
RTVSPropertyOp0
 70
     1
102
RTVSPropertyOp1
 70
     1
102
RTVSPropertyOp2
 70
     1
102
RTVSPropertyOp3
 70
     1
102
RTVSPropertyOp4
 70
     1
102
RTVSPropertyOp5
 70
     1
102
RTVSPropertyOp6
 70
     1
102
RTVSPropertyOp7
 70
     1
102
RTVSPropertyOp8
 70
     1
102
RTVSPropertyOp9
 70
     1
102
RTVSPropertyOp10
 70
     1
102
RTVSPropertyOp11
 70
     1
102
RTVSPropertyOp12
 70
     1
102
RTVSPropertyOp13
 70
     1
102
RTVSPropertyOp14
 70
     1
102
RTVSPropertyOp15
 70
     1
102
RTVSPropertyOp16
 70
     1
102
RTVSPropertyOp17
 70
     1
102
RTVSPropertyOp18
 70
     1
102
RTVSPropertyOp19
 70
     1
102
RTVSPropertyOp20
 70
     1
102
RTVSPropertyOp21
 70
     1
102
RTVSPropertyOp22
 70
     1
102
RTVSPropertyOp23
 70
     1
102
RTVSPropertyOp24
 70
     1
102
RTVSPropertyOp25
 70
     1
102
RTVSPropertyOp26
 70
     1
102
RTVSPropertyOp27
 70
     1
102
RTVSPropertyOp28
 70
     1
102
RTVSPropertyOp29
 70
     1
102
RTVSPropertyOp30
 70
     1
102
RTVSPropertyOp31
 70
     1
102
RTVSPropertyOp32
 70
     1
  0
XRECORD
  5
81A7
102
{ACAD_REACTORS
330
81A6
102
}
330
81A6
100
AcDbXrecord
280
     1
102
RTVSPropertyOp0
 70
     0
102
RTVSPropertyOp1
 70
     0
102
RTVSPropertyOp2
 70
     0
102
RTVSPropertyOp3
 70
     0
102
RTVSPropertyOp4
 70
     0
102
RTVSPropertyOp5
 70
     0
102
RTVSPropertyOp6
 70
     0
102
RTVSPropertyOp7
 70
     0
102
RTVSPropertyOp8
 70
     0
102
RTVSPropertyOp9
 70
     0
102
RTVSPropertyOp10
 70
     0
102
RTVSPropertyOp11
 70
     0
102
RTVSPropertyOp12
 70
     0
102
RTVSPropertyOp13
 70
     0
102
RTVSPropertyOp14
 70
     2
102
RTVSPropertyOp15
 70
     0
102
RTVSPropertyOp16
 70
     0
102
RTVSPropertyOp17
 70
     0
102
RTVSPropertyOp18
 70
     0
102
RTVSPropertyOp19
 70
     0
102
RTVSPropertyOp20
 70
     0
102
RTVSPropertyOp21
 70
     0
102
RTVSPropertyOp22
 70
     0
102
RTVSPropertyOp23
 70
     0
102
RTVSPropertyOp24
 70
     0
102
RTVSPropertyOp25
 70
     0
102
RTVSPropertyOp26
 70
     0
102
RTVSPropertyOp27
 70
     0
102
RTVSPropertyOp28
 70
     1
102
RTVSPropertyOp29
 70
     1
102
RTVSPropertyOp30
 70
     1
102
RTVSPropertyOp31
 70
     1
102
RTVSPropertyOp32
 70
     1
  0
XRECORD
  5
8197
102
{ACAD_REACTORS
330
8196
102
}
330
8196
100
AcDbXrecord
280
     1
102
RTVSPropertyOp0
 70
     1
102
RTVSPropertyOp1
 70
     1
102
RTVSPropertyOp2
 70
     1
102
RTVSPropertyOp3
 70
     1
102
RTVSPropertyOp4
 70
     1
102
RTVSPropertyOp5
 70
     1
102
RTVSPropertyOp6
 70
     1
102
RTVSPropertyOp7
 70
     1
102
RTVSPropertyOp8
 70
     1
102
RTVSPropertyOp9
 70
     1
102
RTVSPropertyOp10
 70
     1
102
RTVSPropertyOp11
 70
     1
102
RTVSPropertyOp12
 70
     1
102
RTVSPropertyOp13
 70
     1
102
RTVSPropertyOp14
 70
     1
102
RTVSPropertyOp15
 70
     1
102
RTVSPropertyOp16
 70
     1
102
RTVSPropertyOp17
 70
     1
102
RTVSPropertyOp18
 70
     1
102
RTVSPropertyOp19
 70
     1
102
RTVSPropertyOp20
 70
     1
102
RTVSPropertyOp21
 70
     1
102
RTVSPropertyOp22
 70
     1
102
RTVSPropertyOp23
 70
     1
102
RTVSPropertyOp24
 70
     1
102
RTVSPropertyOp25
 70
     1
102
RTVSPropertyOp26
 70
     1
102
RTVSPropertyOp27
 70
     1
102
RTVSPropertyOp28
 70
     1
102
RTVSPropertyOp29
 70
     1
102
RTVSPropertyOp30
 70
     1
102
RTVSPropertyOp31
 70
     1
102
RTVSPropertyOp32
 70
     1
  0
XRECORD
  5
81A9
102
{ACAD_REACTORS
330
81A8
102
}
330
81A8
100
AcDbXrecord
280
     1
102
RTVSPropertyOp0
 70
     0
102
RTVSPropertyOp1
 70
     0
102
RTVSPropertyOp2
 70
     0
102
RTVSPropertyOp3
 70
     0
102
RTVSPropertyOp4
 70
     0
102
RTVSPropertyOp5
 70
     0
102
RTVSPropertyOp6
 70
     0
102
RTVSPropertyOp7
 70
     0
102
RTVSPropertyOp8
 70
     0
102
RTVSPropertyOp9
 70
     0
102
RTVSPropertyOp10
 70
     0
102
RTVSPropertyOp11
 70
     0
102
RTVSPropertyOp12
 70
     0
102
RTVSPropertyOp13
 70
     0
102
RTVSPropertyOp14
 70
     2
102
RTVSPropertyOp15
 70
     0
102
RTVSPropertyOp16
 70
     0
102
RTVSPropertyOp17
 70
     0
102
RTVSPropertyOp18
 70
     0
102
RTVSPropertyOp19
 70
     0
102
RTVSPropertyOp20
 70
     0
102
RTVSPropertyOp21
 70
     0
102
RTVSPropertyOp22
 70
     0
102
RTVSPropertyOp23
 70
     0
102
RTVSPropertyOp24
 70
     0
102
RTVSPropertyOp25
 70
     0
102
RTVSPropertyOp26
 70
     0
102
RTVSPropertyOp27
 70
     0
102
RTVSPropertyOp28
 70
     1
102
RTVSPropertyOp29
 70
     1
102
RTVSPropertyOp30
 70
     1
102
RTVSPropertyOp31
 70
     1
102
RTVSPropertyOp32
 70
     1
  0
XRECORD
  5
818F
102
{ACAD_REACTORS
330
818E
102
}
330
818E
100
AcDbXrecord
280
     1
102
RTVSPropertyOp0
 70
     1
102
RTVSPropertyOp1
 70
     1
102
RTVSPropertyOp2
 70
     1
102
RTVSPropertyOp3
 70
     1
102
RTVSPropertyOp4
 70
     1
102
RTVSPropertyOp5
 70
     1
102
RTVSPropertyOp6
 70
     1
102
RTVSPropertyOp7
 70
     1
102
RTVSPropertyOp8
 70
     1
102
RTVSPropertyOp9
 70
     1
102
RTVSPropertyOp10
 70
     1
102
RTVSPropertyOp11
 70
     1
102
RTVSPropertyOp12
 70
     1
102
RTVSPropertyOp13
 70
     1
102
RTVSPropertyOp14
 70
     1
102
RTVSPropertyOp15
 70
     1
102
RTVSPropertyOp16
 70
     1
102
RTVSPropertyOp17
 70
     1
102
RTVSPropertyOp18
 70
     1
102
RTVSPropertyOp19
 70
     1
102
RTVSPropertyOp20
 70
     1
102
RTVSPropertyOp21
 70
     1
102
RTVSPropertyOp22
 70
     1
102
RTVSPropertyOp23
 70
     1
102
RTVSPropertyOp24
 70
     1
102
RTVSPropertyOp25
 70
     1
102
RTVSPropertyOp26
 70
     1
102
RTVSPropertyOp27
 70
     1
102
RTVSPropertyOp28
 70
     1
102
RTVSPropertyOp29
 70
     1
102
RTVSPropertyOp30
 70
     1
102
RTVSPropertyOp31
 70
     1
102
RTVSPropertyOp32
 70
     1
  0
XRECORD
  5
81A5
102
{ACAD_REACTORS
330
81A4
102
}
330
81A4
100
AcDbXrecord
280
     1
102
RTVSPropertyOp0
 70
     1
102
RTVSPropertyOp1
 70
     1
102
RTVSPropertyOp2
 70
     1
102
RTVSPropertyOp3
 70
     1
102
RTVSPropertyOp4
 70
     1
102
RTVSPropertyOp5
 70
     1
102
RTVSPropertyOp6
 70
     1
102
RTVSPropertyOp7
 70
     1
102
RTVSPropertyOp8
 70
     1
102
RTVSPropertyOp9
 70
     1
102
RTVSPropertyOp10
 70
     1
102
RTVSPropertyOp11
 70
     1
102
RTVSPropertyOp12
 70
     1
102
RTVSPropertyOp13
 70
     1
102
RTVSPropertyOp14
 70
     1
102
RTVSPropertyOp15
 70
     1
102
RTVSPropertyOp16
 70
     1
102
RTVSPropertyOp17
 70
     1
102
RTVSPropertyOp18
 70
     1
102
RTVSPropertyOp19
 70
     1
102
RTVSPropertyOp20
 70
     1
102
RTVSPropertyOp21
 70
     1
102
RTVSPropertyOp22
 70
     1
102
RTVSPropertyOp23
 70
     1
102
RTVSPropertyOp24
 70
     1
102
RTVSPropertyOp25
 70
     1
102
RTVSPropertyOp26
 70
     1
102
RTVSPropertyOp27
 70
     1
102
RTVSPropertyOp28
 70
     1
102
RTVSPropertyOp29
 70
     1
102
RTVSPropertyOp30
 70
     1
102
RTVSPropertyOp31
 70
     1
102
RTVSPropertyOp32
 70
     1
  0
XRECORD
  5
81A3
102
{ACAD_REACTORS
330
81A2
102
}
330
81A2
100
AcDbXrecord
280
     1
102
RTVSPropertyOp0
 70
     1
102
RTVSPropertyOp1
 70
     1
102
RTVSPropertyOp2
 70
     1
102
RTVSPropertyOp3
 70
     1
102
RTVSPropertyOp4
 70
     1
102
RTVSPropertyOp5
 70
     1
102
RTVSPropertyOp6
 70
     1
102
RTVSPropertyOp7
 70
     1
102
RTVSPropertyOp8
 70
     1
102
RTVSPropertyOp9
 70
     1
102
RTVSPropertyOp10
 70
     1
102
RTVSPropertyOp11
 70
     1
102
RTVSPropertyOp12
 70
     1
102
RTVSPropertyOp13
 70
     1
102
RTVSPropertyOp14
 70
     1
102
RTVSPropertyOp15
 70
     1
102
RTVSPropertyOp16
 70
     1
102
RTVSPropertyOp17
 70
     1
102
RTVSPropertyOp18
 70
     1
102
RTVSPropertyOp19
 70
     1
102
RTVSPropertyOp20
 70
     1
102
RTVSPropertyOp21
 70
     1
102
RTVSPropertyOp22
 70
     1
102
RTVSPropertyOp23
 70
     1
102
RTVSPropertyOp24
 70
     1
102
RTVSPropertyOp25
 70
     1
102
RTVSPropertyOp26
 70
     1
102
RTVSPropertyOp27
 70
     1
102
RTVSPropertyOp28
 70
     1
102
RTVSPropertyOp29
 70
     1
102
RTVSPropertyOp30
 70
     1
102
RTVSPropertyOp31
 70
     1
102
RTVSPropertyOp32
 70
     1
  0
XRECORD
  5
819D
102
{ACAD_REACTORS
330
819C
102
}
330
819C
100
AcDbXrecord
280
     1
102
RTVSPropertyOp0
 70
     1
102
RTVSPropertyOp1
 70
     1
102
RTVSPropertyOp2
 70
     1
102
RTVSPropertyOp3
 70
     1
102
RTVSPropertyOp4
 70
     1
102
RTVSPropertyOp5
 70
     1
102
RTVSPropertyOp6
 70
     1
102
RTVSPropertyOp7
 70
     1
102
RTVSPropertyOp8
 70
     1
102
RTVSPropertyOp9
 70
     1
102
RTVSPropertyOp10
 70
     1
102
RTVSPropertyOp11
 70
     1
102
RTVSPropertyOp12
 70
     1
102
RTVSPropertyOp13
 70
     1
102
RTVSPropertyOp14
 70
     1
102
RTVSPropertyOp15
 70
     1
102
RTVSPropertyOp16
 70
     1
102
RTVSPropertyOp17
 70
     1
102
RTVSPropertyOp18
 70
     1
102
RTVSPropertyOp19
 70
     1
102
RTVSPropertyOp20
 70
     1
102
RTVSPropertyOp21
 70
     1
102
RTVSPropertyOp22
 70
     1
102
RTVSPropertyOp23
 70
     1
102
RTVSPropertyOp24
 70
     1
102
RTVSPropertyOp25
 70
     1
102
RTVSPropertyOp26
 70
     1
102
RTVSPropertyOp27
 70
     1
102
RTVSPropertyOp28
 70
     1
102
RTVSPropertyOp29
 70
     1
102
RTVSPropertyOp30
 70
     1
102
RTVSPropertyOp31
 70
     1
102
RTVSPropertyOp32
 70
     1
  0
XRECORD
  5
819F
102
{ACAD_REACTORS
330
819E
102
}
330
819E
100
AcDbXrecord
280
     1
102
RTVSPropertyOp0
 70
     1
102
RTVSPropertyOp1
 70
     1
102
RTVSPropertyOp2
 70
     1
102
RTVSPropertyOp3
 70
     1
102
RTVSPropertyOp4
 70
     1
102
RTVSPropertyOp5
 70
     1
102
RTVSPropertyOp6
 70
     1
102
RTVSPropertyOp7
 70
     1
102
RTVSPropertyOp8
 70
     1
102
RTVSPropertyOp9
 70
     1
102
RTVSPropertyOp10
 70
     1
102
RTVSPropertyOp11
 70
     1
102
RTVSPropertyOp12
 70
     1
102
RTVSPropertyOp13
 70
     1
102
RTVSPropertyOp14
 70
     1
102
RTVSPropertyOp15
 70
     1
102
RTVSPropertyOp16
 70
     1
102
RTVSPropertyOp17
 70
     1
102
RTVSPropertyOp18
 70
     1
102
RTVSPropertyOp19
 70
     1
102
RTVSPropertyOp20
 70
     1
102
RTVSPropertyOp21
 70
     1
102
RTVSPropertyOp22
 70
     1
102
RTVSPropertyOp23
 70
     1
102
RTVSPropertyOp24
 70
     1
102
RTVSPropertyOp25
 70
     1
102
RTVSPropertyOp26
 70
     1
102
RTVSPropertyOp27
 70
     1
102
RTVSPropertyOp28
 70
     1
102
RTVSPropertyOp29
 70
     1
102
RTVSPropertyOp30
 70
     1
102
RTVSPropertyOp31
 70
     1
102
RTVSPropertyOp32
 70
     1
  0
XRECORD
  5
8195
102
{ACAD_REACTORS
330
8194
102
}
330
8194
100
AcDbXrecord
280
     1
102
RTVSPropertyOp0
 70
     1
102
RTVSPropertyOp1
 70
     1
102
RTVSPropertyOp2
 70
     1
102
RTVSPropertyOp3
 70
     1
102
RTVSPropertyOp4
 70
     1
102
RTVSPropertyOp5
 70
     1
102
RTVSPropertyOp6
 70
     1
102
RTVSPropertyOp7
 70
     1
102
RTVSPropertyOp8
 70
     1
102
RTVSPropertyOp9
 70
     1
102
RTVSPropertyOp10
 70
     1
102
RTVSPropertyOp11
 70
     1
102
RTVSPropertyOp12
 70
     1
102
RTVSPropertyOp13
 70
     1
102
RTVSPropertyOp14
 70
     1
102
RTVSPropertyOp15
 70
     1
102
RTVSPropertyOp16
 70
     1
102
RTVSPropertyOp17
 70
     1
102
RTVSPropertyOp18
 70
     1
102
RTVSPropertyOp19
 70
     1
102
RTVSPropertyOp20
 70
     1
102
RTVSPropertyOp21
 70
     1
102
RTVSPropertyOp22
 70
     1
102
RTVSPropertyOp23
 70
     1
102
RTVSPropertyOp24
 70
     1
102
RTVSPropertyOp25
 70
     1
102
RTVSPropertyOp26
 70
     1
102
RTVSPropertyOp27
 70
     1
102
RTVSPropertyOp28
 70
     1
102
RTVSPropertyOp29
 70
     1
102
RTVSPropertyOp30
 70
     1
102
RTVSPropertyOp31
 70
     1
102
RTVSPropertyOp32
 70
     1
  0
XRECORD
  5
8189
102
{ACAD_REACTORS
330
8188
102
}
330
8188
100
AcDbXrecord
280
     1
102
RTVSPropertyOp0
 70
     1
102
RTVSPropertyOp1
 70
     1
102
RTVSPropertyOp2
 70
     1
102
RTVSPropertyOp3
 70
     1
102
RTVSPropertyOp4
 70
     1
102
RTVSPropertyOp5
 70
     1
102
RTVSPropertyOp6
 70
     1
102
RTVSPropertyOp7
 70
     1
102
RTVSPropertyOp8
 70
     1
102
RTVSPropertyOp9
 70
     1
102
RTVSPropertyOp10
 70
     1
102
RTVSPropertyOp11
 70
     1
102
RTVSPropertyOp12
 70
     1
102
RTVSPropertyOp13
 70
     1
102
RTVSPropertyOp14
 70
     1
102
RTVSPropertyOp15
 70
     1
102
RTVSPropertyOp16
 70
     1
102
RTVSPropertyOp17
 70
     1
102
RTVSPropertyOp18
 70
     1
102
RTVSPropertyOp19
 70
     1
102
RTVSPropertyOp20
 70
     1
102
RTVSPropertyOp21
 70
     1
102
RTVSPropertyOp22
 70
     1
102
RTVSPropertyOp23
 70
     1
102
RTVSPropertyOp24
 70
     1
102
RTVSPropertyOp25
 70
     1
102
RTVSPropertyOp26
 70
     1
102
RTVSPropertyOp27
 70
     1
102
RTVSPropertyOp28
 70
     1
102
RTVSPropertyOp29
 70
     1
102
RTVSPropertyOp30
 70
     1
102
RTVSPropertyOp31
 70
     1
102
RTVSPropertyOp32
 70
     1
  0
XRECORD
  5
81A1
102
{ACAD_REACTORS
330
81A0
102
}
330
81A0
100
AcDbXrecord
280
     1
102
RTVSPropertyOp0
 70
     1
102
RTVSPropertyOp1
 70
     1
102
RTVSPropertyOp2
 70
     1
102
RTVSPropertyOp3
 70
     1
102
RTVSPropertyOp4
 70
     1
102
RTVSPropertyOp5
 70
     1
102
RTVSPropertyOp6
 70
     1
102
RTVSPropertyOp7
 70
     1
102
RTVSPropertyOp8
 70
     1
102
RTVSPropertyOp9
 70
     1
102
RTVSPropertyOp10
 70
     1
102
RTVSPropertyOp11
 70
     1
102
RTVSPropertyOp12
 70
     1
102
RTVSPropertyOp13
 70
     1
102
RTVSPropertyOp14
 70
     1
102
RTVSPropertyOp15
 70
     1
102
RTVSPropertyOp16
 70
     1
102
RTVSPropertyOp17
 70
     1
102
RTVSPropertyOp18
 70
     1
102
RTVSPropertyOp19
 70
     1
102
RTVSPropertyOp20
 70
     1
102
RTVSPropertyOp21
 70
     1
102
RTVSPropertyOp22
 70
     1
102
RTVSPropertyOp23
 70
     1
102
RTVSPropertyOp24
 70
     1
102
RTVSPropertyOp25
 70
     1
102
RTVSPropertyOp26
 70
     1
102
RTVSPropertyOp27
 70
     1
102
RTVSPropertyOp28
 70
     1
102
RTVSPropertyOp29
 70
     1
102
RTVSPropertyOp30
 70
     1
102
RTVSPropertyOp31
 70
     1
102
RTVSPropertyOp32
 70
     1
  0
ENDSEC
  0
EOF
