  0
SECTION
  2
HEADER
  9
$ACADVER
  1
AC1015
  9
$ACADMAINTVER
 70
    20
  9
$DWGCODEPAGE
  3
ANSI_1252
  9
$INSBASE
 10
0.0599999999999881
 20
0.06
 30
0.0
  9
$EXTMIN
 10
0.0
 20
0.0
 30
0.0
  9
$EXTMAX
 10
40.36089655615614
 20
21.66680746792249
 30
0.0
  9
$LIMMIN
 10
0.0
 20
0.0
  9
$LIMMAX
 10
40.36089655615614
 20
19.42789949708283
  9
$ORTHOMODE
 70
     0
  9
$REGENMODE
 70
     1
  9
$FILLMODE
 70
     1
  9
$QTEXTMODE
 70
     0
  9
$MIRRTEXT
 70
     0
  9
$LTSCALE
 40
2.0
  9
$ATTMODE
 70
     1
  9
$TEXTSIZE
 40
0.25
  9
$TRACEWID
 40
0.05
  9
$TEXTSTYLE
  7
ROMAND
  9
$CLAYER
  8
0
  9
$CELTYPE
  6
BYLAYER
  9
$CECOLOR
 62
   256
  9
$CELTSCALE
 40
1.0
  9
$DISPSILH
 70
     0
  9
$DIMSCALE
 40
2.0
  9
$DIMASZ
 40
0.125
  9
$DIMEXO
 40
0.125
  9
$DIMDLI
 40
0.0
  9
$DIMRND
 40
0.0
  9
$DIMDLE
 40
0.0
  9
$DIMEXE
 40
0.0625
  9
$DIMTP
 40
0.0
  9
$DIMTM
 40
0.0
  9
$DIMTXT
 40
0.125
  9
$DIMCEN
 40
0.0625
  9
$DIMTSZ
 40
0.0
  9
$DIMTOL
 70
     0
  9
$DIMLIM
 70
     0
  9
$DIMTIH
 70
     0
  9
$DIMTOH
 70
     0
  9
$DIMSE1
 70
     0
  9
$DIMSE2
 70
     0
  9
$DIMTAD
 70
     1
  9
$DIMZIN
 70
     1
  9
$DIMBLK
  1

  9
$DIMASO
 70
     1
  9
$DIMSHO
 70
     0
  9
$DIMPOST
  1
"
  9
$DIMAPOST
  1

  9
$DIMALT
 70
     0
  9
$DIMALTD
 70
     2
  9
$DIMALTF
 40
25.4
  9
$DIMLFAC
 40
1.0
  9
$DIMTOFL
 70
     1
  9
$DIMTVP
 40
0.0
  9
$DIMTIX
 70
     1
  9
$DIMSOXD
 70
     0
  9
$DIMSAH
 70
     1
  9
$DIMBLK1
  1
OBLIQUE
  9
$DIMBLK2
  1
OBLIQUE
  9
$DIMSTYLE
  2
STANDARD
  9
$DIMCLRD
 70
     0
  9
$DIMCLRE
 70
     0
  9
$DIMCLRT
 70
     0
  9
$DIMTFAC
 40
1.0
  9
$DIMGAP
 40
0.0625
  9
$DIMJUST
 70
     0
  9
$DIMSD1
 70
     0
  9
$DIMSD2
 70
     0
  9
$DIMTOLJ
 70
     1
  9
$DIMTZIN
 70
     8
  9
$DIMALTZ
 70
     8
  9
$DIMALTTZ
 70
     8
  9
$DIMUPT
 70
     0
  9
$DIMDEC
 70
     5
  9
$DIMTDEC
 70
     5
  9
$DIMALTU
 70
     2
  9
$DIMALTTD
 70
     2
  9
$DIMTXSTY
  7
ROMAND
  9
$DIMAUNIT
 70
     1
  9
$DIMADEC
 70
     1
  9
$DIMALTRND
 40
0.0
  9
$DIMAZIN
 70
     0
  9
$DIMDSEP
 70
    46
  9
$DIMATFIT
 70
     3
  9
$DIMFRAC
 70
     2
  9
$DIMLDRBLK
  1

  9
$DIMLUNIT
 70
     5
  9
$DIMLWD
 70
    -2
  9
$DIMLWE
 70
    -2
  9
$DIMTMOVE
 70
     2
  9
$LUNITS
 70
     2
  9
$LUPREC
 70
     5
  9
$SKETCHINC
 40
0.1
  9
$FILLETRAD
 40
0.0
  9
$AUNITS
 70
     1
  9
$AUPREC
 70
     4
  9
$MENU
  1
acad
  9
$ELEVATION
 40
0.0
  9
$PELEVATION
 40
0.0
  9
$THICKNESS
 40
0.0
  9
$LIMCHECK
 70
     0
  9
$CHAMFERA
 40
0.0
  9
$CHAMFERB
 40
0.0
  9
$CHAMFERC
 40
0.0
  9
$CHAMFERD
 40
0.0
  9
$SKPOLY
 70
     0
  9
$TDCREATE
 40
2450525.426291088
  9
$TDUCREATE
 40
2450525.634624421
  9
$TDUPDATE
 40
2457809.478747292
  9
$TDUUPDATE
 40
2457809.687080625
  9
$TDINDWG
 40
2.9839885648
  9
$TDUSRTIMER
 40
2.9839885648
  9
$USRTIMER
 70
     1
  9
$ANGBASE
 50
0.0
  9
$ANGDIR
 70
     0
  9
$PDMODE
 70
     0
  9
$PDSIZE
 40
0.0
  9
$PLINEWID
 40
0.0
  9
$SPLFRAME
 70
     0
  9
$SPLINETYPE
 70
     6
  9
$SPLINESEGS
 70
     8
  9
$HANDSEED
  5
80F0
  9
$SURFTAB1
 70
     6
  9
$SURFTAB2
 70
     6
  9
$SURFTYPE
 70
     6
  9
$SURFU
 70
     6
  9
$SURFV
 70
     6
  9
$UCSBASE
  2

  9
$UCSNAME
  2

  9
$UCSORG
 10
0.0
 20
0.0
 30
0.0
  9
$UCSXDIR
 10
1.0
 20
0.0
 30
0.0
  9
$UCSYDIR
 10
0.0
 20
1.0
 30
0.0
  9
$UCSORTHOREF
  2

  9
$UCSORTHOVIEW
 70
     0
  9
$UCSORGTOP
 10
0.0
 20
0.0
 30
0.0
  9
$UCSORGBOTTOM
 10
0.0
 20
0.0
 30
0.0
  9
$UCSORGLEFT
 10
0.0
 20
0.0
 30
0.0
  9
$UCSORGRIGHT
 10
0.0
 20
0.0
 30
0.0
  9
$UCSORGFRONT
 10
0.0
 20
0.0
 30
0.0
  9
$UCSORGBACK
 10
0.0
 20
0.0
 30
0.0
  9
$PUCSBASE
  2

  9
$PUCSNAME
  2

  9
$PUCSORG
 10
0.0
 20
0.0
 30
0.0
  9
$PUCSXDIR
 10
1.0
 20
0.0
 30
0.0
  9
$PUCSYDIR
 10
0.0
 20
1.0
 30
0.0
  9
$PUCSORTHOREF
  2

  9
$PUCSORTHOVIEW
 70
     0
  9
$PUCSORGTOP
 10
0.0
 20
0.0
 30
0.0
  9
$PUCSORGBOTTOM
 10
0.0
 20
0.0
 30
0.0
  9
$PUCSORGLEFT
 10
0.0
 20
0.0
 30
0.0
  9
$PUCSORGRIGHT
 10
0.0
 20
0.0
 30
0.0
  9
$PUCSORGFRONT
 10
0.0
 20
0.0
 30
0.0
  9
$PUCSORGBACK
 10
0.0
 20
0.0
 30
0.0
  9
$USERI1
 70
     0
  9
$USERI2
 70
     0
  9
$USERI3
 70
     0
  9
$USERI4
 70
     0
  9
$USERI5
 70
     0
  9
$USERR1
 40
0.0
  9
$USERR2
 40
0.0
  9
$USERR3
 40
0.0
  9
$USERR4
 40
0.0
  9
$USERR5
 40
0.0
  9
$WORLDVIEW
 70
     0
  9
$SHADEDGE
 70
     3
  9
$SHADEDIF
 70
    70
  9
$TILEMODE
 70
     1
  9
$MAXACTVP
 70
    16
  9
$PINSBASE
 10
0.0
 20
0.0
 30
0.0
  9
$PLIMCHECK
 70
     0
  9
$PEXTMIN
 10
1.000000000000000E+20
 20
1.000000000000000E+20
 30
1.000000000000000E+20
  9
$PEXTMAX
 10
-1.000000000000000E+20
 20
-1.000000000000000E+20
 30
-1.000000000000000E+20
  9
$PLIMMIN
 10
0.0
 20
0.0
  9
$PLIMMAX
 10
12.0
 20
9.0
  9
$UNITMODE
 70
     0
  9
$VISRETAIN
 70
     0
  9
$PLINEGEN
 70
     0
  9
$PSLTSCALE
 70
     0
  9
$TREEDEPTH
 70
  3020
  9
$CMLSTYLE
  2
STANDARD
  9
$CMLJUST
 70
     0
  9
$CMLSCALE
 40
1.0
  9
$PROXYGRAPHICS
 70
     1
  9
$MEASUREMENT
 70
     0
  9
$CELWEIGHT
370
    -1
  9
$ENDCAPS
280
     0
  9
$JOINSTYLE
280
     0
  9
$LWDISPLAY
290
     0
  9
$INSUNITS
 70
     0
  9
$HYPERLINKBASE
  1

  9
$STYLESHEET
  1
hp5000n.ctb
  9
$XEDIT
290
     1
  9
$CEPSNTYPE
380
     0
  9
$PSTYLEMODE
290
     1
  9
$FINGERPRINTGUID
  2

  9
$VERSIONGUID
  2
{52AA4A87-19C2-4175-9B2F-BDFB0AA45BFE}
  9
$EXTNAMES
290
     1
  9
$PSVPSCALE
 40
0.0
  9
$OLESTARTUP
290
     0
  0
ENDSEC
  0
SECTION
  2
CLASSES
  0
CLASS
  1
DICTIONARYVAR
  2
AcDbDictionaryVar
  3
ObjectDBX Classes
 90
        0
280
     0
281
     0
  0
CLASS
  1
ACDBDICTIONARYWDFLT
  2
AcDbDictionaryWithDefault
  3
ObjectDBX Classes
 90
        0
280
     0
281
     0
  0
CLASS
  1
ACDBPLACEHOLDER
  2
AcDbPlaceHolder
  3
ObjectDBX Classes
 90
        0
280
     0
281
     0
  0
CLASS
  1
LAYOUT
  2
AcDbLayout
  3
ObjectDBX Classes
 90
        0
280
     0
281
     0
  0
CLASS
  1
PLOTSETTINGS
  2
AcDbPlotSettings
  3
ObjectDBX Classes
 90
    32768
280
     0
281
     0
  0
CLASS
  1
TABLESTYLE
  2
AcDbTableStyle
  3
ObjectDBX Classes
 90
     4095
280
     0
281
     0
  0
CLASS
  1
MATERIAL
  2
AcDbMaterial
  3
ObjectDBX Classes
 90
     1153
280
     0
281
     0
  0
CLASS
  1
VISUALSTYLE
  2
AcDbVisualStyle
  3
ObjectDBX Classes
 90
     4095
280
     0
281
     0
  0
CLASS
  1
SCALE
  2
AcDbScale
  3
ObjectDBX Classes
 90
     1153
280
     0
281
     0
  0
CLASS
  1
MLEADERSTYLE
  2
AcDbMLeaderStyle
  3
ACDB_MLEADERSTYLE_CLASS
 90
     4095
280
     0
281
     0
  0
CLASS
  1
SORTENTSTABLE
  2
AcDbSortentsTable
  3
ObjectDBX Classes
 90
        0
280
     0
281
     0
  0
CLASS
  1
CELLSTYLEMAP
  2
AcDbCellStyleMap
  3
ObjectDBX Classes
 90
     1152
280
     0
281
     0
  0
CLASS
  1
EXACXREFPANELOBJECT
  2
ExAcXREFPanelObject
  3
EXAC_ESW
 90
     1025
280
     0
281
     0
  0
CLASS
  1
NPOCOLLECTION
  2
AcDbImpNonPersistentObjectsCollection
  3
ObjectDBX Classes
 90
     1153
280
     0
281
     0
  0
CLASS
  1
FIELD
  2
AcDbField
  3
ObjectDBX Classes
 90
    33920
280
     0
281
     0
  0
CLASS
  1
FIELDLIST
  2
AcDbFieldList
  3
ObjectDBX Classes
 90
     1152
280
     0
281
     0
  0
ENDSEC
  0
SECTION
  2
TABLES
  0
TABLE
  2
VPORT
  5
3C
102
{ACAD_XDICTIONARY
360
7861
102
}
330
0
100
AcDbSymbolTable
 70
     1
  0
VPORT
  5
77D7
330
3C
100
AcDbSymbolTableRecord
100
AcDbViewportTableRecord
  2
*Active
 70
     0
 10
0.0
 20
0.0
 11
1.0
 21
1.0
 12
49.20619146560055
 22
14.03627699914336
 13
0.0
 23
0.0
 14
1.0
 24
1.0
 15
0.0
 25
0.0
 16
0.0
 26
0.0
 36
1.0
 17
0.0
 27
0.0
 37
0.0
 40
28.2256415702882
 41
3.716019417475727
 42
50.0
 43
0.0
 44
0.0
 50
0.0
 51
0.0
 71
     0
 72
   100
 73
     1
 74
     0
 75
     0
 76
     0
 77
     0
 78
     0
281
     0
 65
     1
110
0.0
120
0.0
130
0.0
111
1.0
121
0.0
131
0.0
112
0.0
122
1.0
132
0.0
 79
     0
146
0.0
1001
ACAD_NAV_VCDISPLAY
1070
     3
  0
ENDTAB
  0
TABLE
  2
LTYPE
  5
37
330
0
100
AcDbSymbolTable
 70
     4
  0
LTYPE
  5
38
330
37
100
AcDbSymbolTableRecord
100
AcDbLinetypeTableRecord
  2
BYBLOCK
 70
     0
  3

 72
    65
 73
     0
 40
0.0
  0
LTYPE
  5
39
330
37
100
AcDbSymbolTableRecord
100
AcDbLinetypeTableRecord
  2
BYLAYER
 70
     0
  3

 72
    65
 73
     0
 40
0.0
  0
LTYPE
  5
A
330
37
100
AcDbSymbolTableRecord
100
AcDbLinetypeTableRecord
  2
CONTINUOUS
 70
     0
  3
Solid line
 72
    65
 73
     0
 40
0.0
  0
LTYPE
  5
193
330
37
100
AcDbSymbolTableRecord
100
AcDbLinetypeTableRecord
  2
HIDDEN2
 70
     0
  3
_ _ _ _ _ _ _ _ _ _ _ _ _ _ _ _ _ _ _ _ _ _ _ _
 72
    65
 73
     2
 40
0.1875
 49
0.125
 74
     0
 49
-0.0625
 74
     0
  0
LTYPE
  5
802F
330
37
100
AcDbSymbolTableRecord
100
AcDbLinetypeTableRecord
  2
DASHED
 70
     0
  3
Dashed __ __ __ __ __ __ __ __ __ __ __ __ __ _
 72
    65
 73
     2
 40
0.75
 49
0.5
 74
     0
 49
-0.25
 74
     0
  0
LTYPE
  5
8030
330
37
100
AcDbSymbolTableRecord
100
AcDbLinetypeTableRecord
  2
DOT
 70
     0
  3
Dot . . . . . . . . . . . . . . . . . . . . . .
 72
    65
 73
     2
 40
0.25
 49
0.0
 74
     0
 49
-0.25
 74
     0
  0
ENDTAB
  0
TABLE
  2
LAYER
  5
14
102
{ACAD_XDICTIONARY
360
15
102
}
330
0
100
AcDbSymbolTable
 70
     9
  0
LAYER
  5
6
102
{ACAD_XDICTIONARY
360
784C
102
}
330
14
100
AcDbSymbolTableRecord
100
AcDbLayerTableRecord
  2
0
 70
     0
 62
     7
  6
CONTINUOUS
370
    -3
390
7
  0
LAYER
  5
5A
330
14
100
AcDbSymbolTableRecord
100
AcDbLayerTableRecord
  2
DEFPOINTS
 70
     0
 62
     7
  6
CONTINUOUS
290
     0
370
    -3
390
7
  0
LAYER
  5
7552
102
{ACAD_XDICTIONARY
360
784E
102
}
330
14
100
AcDbSymbolTableRecord
100
AcDbLayerTableRecord
  2
R-SWTS-DET1
 70
     0
 62
     1
  6
CONTINUOUS
370
    -3
390
7
  0
LAYER
  5
7553
102
{ACAD_XDICTIONARY
360
7850
102
}
330
14
100
AcDbSymbolTableRecord
100
AcDbLayerTableRecord
  2
R-ANNO-DIMS
 70
     0
 62
     3
  6
CONTINUOUS
370
    -3
390
7
  0
LAYER
  5
7554
102
{ACAD_XDICTIONARY
360
7852
102
}
330
14
100
AcDbSymbolTableRecord
100
AcDbLayerTableRecord
  2
R-SWTS-DET2
 70
     0
 62
     4
  6
CONTINUOUS
370
    -3
390
7
  0
LAYER
  5
7555
102
{ACAD_XDICTIONARY
360
7854
102
}
330
14
100
AcDbSymbolTableRecord
100
AcDbLayerTableRecord
  2
R-SWTS-DET3
 70
     0
 62
     5
  6
CONTINUOUS
370
    -3
390
7
  0
LAYER
  5
7556
102
{ACAD_XDICTIONARY
360
7856
102
}
330
14
100
AcDbSymbolTableRecord
100
AcDbLayerTableRecord
  2
PART_NUMBERS
 70
     0
 62
     6
  6
CONTINUOUS
370
    -3
390
7
  0
LAYER
  5
7932
102
{ACAD_XDICTIONARY
360
7933
102
}
330
14
100
AcDbSymbolTableRecord
100
AcDbLayerTableRecord
  2
TEXT
 70
     0
 62
     3
  6
CONTINUOUS
370
    -3
390
7
  0
LAYER
  5
8031
330
14
100
AcDbSymbolTableRecord
100
AcDbLayerTableRecord
  2
Kawneer Logo-English
 70
     0
 62
     7
  6
CONTINUOUS
370
    -3
390
7
1001
AcAecLayerStandard
1000

1000

1001
AcCmTransparency
1071
        0
  0
ENDTAB
  0
TABLE
  2
STYLE
  5
34
330
0
100
AcDbSymbolTable
 70
     2
  0
STYLE
  5
35
330
34
100
AcDbSymbolTableRecord
100
AcDbTextStyleTableRecord
  2
STANDARD
 70
     0
 40
0.0
 41
1.0
 50
0.0
 71
     0
 42
0.2
  3
arial.ttf
  4

1001
ACAD
1000
Arial
1071
       34
  0
STYLE
  5
42
330
34
100
AcDbSymbolTableRecord
100
AcDbTextStyleTableRecord
  2
ROMAND
 70
     0
 40
0.0
 41
1.0
 50
0.0
 71
     0
 42
0.25
  3
arial.ttf
  4

1001
ACAD
1000
Arial
1071
       34
  0
ENDTAB
  0
TABLE
  2
VIEW
  5
3A
330
0
100
AcDbSymbolTable
 70
     0
  0
ENDTAB
  0
TABLE
  2
UCS
  5
3B
330
0
100
AcDbSymbolTable
 70
     0
  0
ENDTAB
  0
TABLE
  2
APPID
  5
3E
330
0
100
AcDbSymbolTable
 70
    15
  0
APPID
  5
3F
330
3E
100
AcDbSymbolTableRecord
100
AcDbRegAppTableRecord
  2
ACAD
 70
     0
  0
APPID
  5
78A6
330
3E
100
AcDbSymbolTableRecord
100
AcDbRegAppTableRecord
  2
ACAD_NAV_VCDISPLAY
 70
     0
  0
APPID
  5
8032
330
3E
100
AcDbSymbolTableRecord
100
AcDbRegAppTableRecord
  2
ACAD_EXEMPT_FROM_CAD_STANDARDS
 70
     0
  0
APPID
  5
8033
330
3E
100
AcDbSymbolTableRecord
100
AcDbRegAppTableRecord
  2
GradientColor1ACI
 70
     0
  0
APPID
  5
8034
330
3E
100
AcDbSymbolTableRecord
100
AcDbRegAppTableRecord
  2
GradientColor2ACI
 70
     0
  0
APPID
  5
8035
330
3E
100
AcDbSymbolTableRecord
100
AcDbRegAppTableRecord
  2
ACAD_MLEADERVER
 70
     0
  0
APPID
  5
8036
330
3E
100
AcDbSymbolTableRecord
100
AcDbRegAppTableRecord
  2
ACAD_PSEXT
 70
     0
  0
APPID
  5
8037
330
3E
100
AcDbSymbolTableRecord
100
AcDbRegAppTableRecord
  2
ACAD_DSTYLE_DIMJAG
 70
     0
  0
APPID
  5
8038
330
3E
100
AcDbSymbolTableRecord
100
AcDbRegAppTableRecord
  2
ACAD_DSTYLE_DIMTALN
 70
     0
  0
APPID
  5
8039
330
3E
100
AcDbSymbolTableRecord
100
AcDbRegAppTableRecord
  2
ACAD_DSTYLE_DIMBREAK
 70
     0
  0
APPID
  5
803A
330
3E
100
AcDbSymbolTableRecord
100
AcDbRegAppTableRecord
  2
AcDbDynamicBlockGUID
 70
     0
  0
APPID
  5
803B
330
3E
100
AcDbSymbolTableRecord
100
AcDbRegAppTableRecord
  2
ACAUTHENVIRON
 70
     0
  0
APPID
  5
803C
330
3E
100
AcDbSymbolTableRecord
100
AcDbRegAppTableRecord
  2
AcDbDynamicBlockTrueName
 70
     0
  0
APPID
  5
803D
330
3E
100
AcDbSymbolTableRecord
100
AcDbRegAppTableRecord
  2
AcAecLayerStandard
 70
     0
  0
APPID
  5
803E
330
3E
100
AcDbSymbolTableRecord
100
AcDbRegAppTableRecord
  2
AcCmTransparency
 70
     0
  0
ENDTAB
  0
TABLE
  2
DIMSTYLE
  5
40
330
0
100
AcDbSymbolTable
 70
     2
100
AcDbDimStyleTable
 71
     2
340
41
340
47
  0
DIMSTYLE
105
41
102
{ACAD_REACTORS
330
6123
330
6132
330
617E
330
617F
330
61D4
330
61EC
330
6248
330
624A
330
7172
330
7181
102
}
330
40
100
AcDbSymbolTableRecord
100
AcDbDimStyleTableRecord
  2
STANDARD
 70
     0
  3
"
 40
2.0
 41
0.125
 42
0.125
 43
0.0
 44
0.0625
 73
     0
 74
     0
 77
     1
 78
     1
140
0.125
141
0.0625
147
0.0625
172
     1
173
     1
174
     1
179
     1
271
     5
272
     5
275
     1
276
     2
277
     5
279
     2
284
     8
285
     8
286
     8
340
42
343
43
344
43
  0
DIMSTYLE
105
47
102
{ACAD_REACTORS
330
6153
330
6167
330
617C
330
617D
330
61FB
330
620F
330
6249
330
624B
102
}
330
40
100
AcDbSymbolTableRecord
100
AcDbDimStyleTableRecord
  2
Open-end
 70
     0
  3
"
 40
2.0
 41
0.125
 42
0.125
 43
0.0
 44
0.0625
 73
     0
 74
     0
 76
     1
 77
     1
 78
     1
140
0.125
141
0.0625
147
0.0625
172
     1
173
     1
174
     1
179
     1
271
     5
272
     5
275
     1
276
     2
277
     5
279
     2
284
     8
285
     8
286
     8
340
42
343
43
  0
ENDTAB
  0
TABLE
  2
BLOCK_RECORD
  5
1
330
0
100
AcDbSymbolTable
 70
    20
  0
BLOCK_RECORD
  5
2
102
{ACAD_XDICTIONARY
360
3
102
}
330
1
100
AcDbSymbolTableRecord
100
AcDbBlockTableRecord
  2
*MODEL_SPACE
340
C
  0
BLOCK_RECORD
  5
E
102
{ACAD_XDICTIONARY
360
F
102
}
330
1
100
AcDbSymbolTableRecord
100
AcDbBlockTableRecord
  2
*PAPER_SPACE
340
13
  0
BLOCK_RECORD
  5
43
330
1
100
AcDbSymbolTableRecord
100
AcDbBlockTableRecord
  2
_OBLIQUE
340
0
102
{BLKREFS
331
771F
331
7720
331
7729
331
772A
331
7731
331
773C
331
773D
331
7744
331
774D
331
774E
331
7755
331
775D
331
7768
331
7769
331
7771
331
7772
331
777A
331
777B
331
7785
331
7786
331
778D
331
7795
331
779D
331
77A5
331
77AE
331
77AF
331
77B9
331
77BA
102
}
  0
BLOCK_RECORD
  5
6124
330
1
100
AcDbSymbolTableRecord
100
AcDbBlockTableRecord
  2
*D1
340
0
  0
BLOCK_RECORD
  5
6133
330
1
100
AcDbSymbolTableRecord
100
AcDbBlockTableRecord
  2
*D2
340
0
  0
BLOCK_RECORD
  5
6154
330
1
100
AcDbSymbolTableRecord
100
AcDbBlockTableRecord
  2
*D3
340
0
  0
BLOCK_RECORD
  5
6168
330
1
100
AcDbSymbolTableRecord
100
AcDbBlockTableRecord
  2
*D4
340
0
  0
BLOCK_RECORD
  5
6180
330
1
100
AcDbSymbolTableRecord
100
AcDbBlockTableRecord
  2
*D5
340
0
  0
BLOCK_RECORD
  5
618E
330
1
100
AcDbSymbolTableRecord
100
AcDbBlockTableRecord
  2
*D6
340
0
  0
BLOCK_RECORD
  5
619A
330
1
100
AcDbSymbolTableRecord
100
AcDbBlockTableRecord
  2
*D7
340
0
  0
BLOCK_RECORD
  5
61A5
330
1
100
AcDbSymbolTableRecord
100
AcDbBlockTableRecord
  2
*D8
340
0
  0
BLOCK_RECORD
  5
61D5
330
1
100
AcDbSymbolTableRecord
100
AcDbBlockTableRecord
  2
*D9
340
0
  0
BLOCK_RECORD
  5
61ED
330
1
100
AcDbSymbolTableRecord
100
AcDbBlockTableRecord
  2
*D10
340
0
  0
BLOCK_RECORD
  5
61FC
330
1
100
AcDbSymbolTableRecord
100
AcDbBlockTableRecord
  2
*D11
340
0
  0
BLOCK_RECORD
  5
6210
330
1
100
AcDbSymbolTableRecord
100
AcDbBlockTableRecord
  2
*D12
340
0
  0
BLOCK_RECORD
  5
624C
330
1
100
AcDbSymbolTableRecord
100
AcDbBlockTableRecord
  2
*D13
340
0
  0
BLOCK_RECORD
  5
6258
330
1
100
AcDbSymbolTableRecord
100
AcDbBlockTableRecord
  2
*D14
340
0
  0
BLOCK_RECORD
  5
6266
330
1
100
AcDbSymbolTableRecord
100
AcDbBlockTableRecord
  2
*D15
340
0
  0
BLOCK_RECORD
  5
6271
330
1
100
AcDbSymbolTableRecord
100
AcDbBlockTableRecord
  2
*D16
340
0
  0
BLOCK_RECORD
  5
7173
330
1
100
AcDbSymbolTableRecord
100
AcDbBlockTableRecord
  2
*D17
340
0
  0
BLOCK_RECORD
  5
7182
330
1
100
AcDbSymbolTableRecord
100
AcDbBlockTableRecord
  2
*D18
340
0
  0
BLOCK_RECORD
  5
8041
102
{ACAD_XDICTIONARY
360
804B
102
}
330
1
100
AcDbSymbolTableRecord
100
AcDbBlockTableRecord
  2
Kawneer Logo English
340
0
102
{BLKREFS
331
804F
102
}
1001
ACAD
1000
DesignCenter Data
1002
{
1070
     1
1070
     1
1002
}
  0
ENDTAB
  0
ENDSEC
  0
SECTION
  2
BLOCKS
  0
BLOCK
  5
5
330
2
100
AcDbEntity
  8
0
100
AcDbBlockBegin
  2
*MODEL_SPACE
 70
     0
 10
0.0
 20
0.0
 30
0.0
  3
*MODEL_SPACE
  1

  0
ENDBLK
  5
B
330
2
100
AcDbEntity
  8
0
100
AcDbBlockEnd
  0
BLOCK
  5
11
330
E
100
AcDbEntity
 67
     1
  8
0
100
AcDbBlockBegin
  2
*PAPER_SPACE
 70
     0
 10
0.0
 20
0.0
 30
0.0
  3
*PAPER_SPACE
  1

  0
ENDBLK
  5
12
330
E
100
AcDbEntity
 67
     1
  8
0
100
AcDbBlockEnd
  0
BLOCK
  5
45
330
43
100
AcDbEntity
  8
0
100
AcDbBlockBegin
  2
_OBLIQUE
 70
     0
 10
0.0
 20
0.0
 30
0.0
  3
_OBLIQUE
  1

  0
LINE
  5
44
330
43
100
AcDbEntity
  8
0
  6
ByBlock
 62
     0
100
AcDbLine
 10
-0.5
 20
-0.5
 30
0.0
 11
0.5
 21
0.5
 31
0.0
  0
ENDBLK
  5
46
330
43
100
AcDbEntity
  8
0
100
AcDbBlockEnd
  0
BLOCK
  5
6130
330
6124
100
AcDbEntity
  8
0
100
AcDbBlockBegin
  2
*D1
 70
     1
 10
0.0
 20
0.0
 30
0.0
  3
*D1
  1

  0
LINE
  5
77B4
330
6124
100
AcDbEntity
  8
R-ANNO-DIMS
 62
     0
370
    -2
100
AcDbLine
 10
8.692928381856347
 20
12.07308500392773
 30
0.0
 11
2.75209217248789
 21
12.07308500392774
 31
0.0
  0
LINE
  5
77B5
330
6124
100
AcDbEntity
  8
R-ANNO-DIMS
 62
     0
370
    -2
100
AcDbLine
 10
4.127092172487891
 20
13.57308500392773
 30
0.0
 11
2.752092172487891
 21
13.57308500392773
 31
0.0
  0
LINE
  5
77B6
330
6124
100
AcDbEntity
  8
R-ANNO-DIMS
 62
     0
370
    -2
100
AcDbLine
 10
2.877092172487891
 20
12.07308500392774
 30
0.0
 11
2.877092172487891
 21
11.82308500392774
 31
0.0
  0
LINE
  5
77B7
330
6124
100
AcDbEntity
  8
R-ANNO-DIMS
 62
     0
370
    -2
100
AcDbLine
 10
2.877092172487891
 20
13.57308500392773
 30
0.0
 11
2.877092172487891
 21
13.82308500392773
 31
0.0
  0
LINE
  5
77B8
330
6124
100
AcDbEntity
  8
R-ANNO-DIMS
 62
     0
370
    -2
100
AcDbLine
 10
2.877092172487891
 20
12.07308500392774
 30
0.0
 11
2.877092172487891
 21
13.57308500392773
 31
0.0
  0
INSERT
  5
77B9
330
6124
100
AcDbEntity
  8
R-ANNO-DIMS
 62
     0
370
    -2
100
AcDbBlockReference
  2
_OBLIQUE
 10
2.877092172487891
 20
12.07308500392774
 30
0.0
 41
0.25
 42
0.25
 43
0.25
 50
90.0
  0
INSERT
  5
77BA
330
6124
100
AcDbEntity
  8
R-ANNO-DIMS
 62
     0
370
    -2
100
AcDbBlockReference
  2
_OBLIQUE
 10
2.877092172487891
 20
13.57308500392773
 30
0.0
 41
0.25
 42
0.25
 43
0.25
 50
270.0
  0
MTEXT
  5
77BB
330
6124
100
AcDbEntity
  8
R-ANNO-DIMS
 62
     0
100
AcDbMText
 10
2.561615982011699
 20
12.82308500392773
 30
0.0
 40
0.25
 41
0.0
 71
     5
 72
     1
  1
\A1;1 1/2"
  7
ROMAND
 11
0.0000000000000001
 21
1.0
 31
0.0
 73
     1
 44
1.0
1001
ACAD
1000
MTEXTBEGIN
1070
    73
1070
     1
1070
    44
1040
1.0
1070
    74
1070
     0
1000
MTEXTEND
  0
POINT
  5
77BC
330
6124
100
AcDbEntity
  8
DEFPOINTS
 62
     0
100
AcDbPoint
 10
8.942928381856347
 20
12.07308500392773
 30
0.0
  0
POINT
  5
77BD
330
6124
100
AcDbEntity
  8
DEFPOINTS
 62
     0
100
AcDbPoint
 10
4.377092172487891
 20
13.57308500392773
 30
0.0
  0
POINT
  5
77BE
330
6124
100
AcDbEntity
  8
DEFPOINTS
 62
     0
100
AcDbPoint
 10
2.877092172487891
 20
13.57308500392773
 30
0.0
  0
ENDBLK
  5
6131
330
6124
100
AcDbEntity
  8
0
100
AcDbBlockEnd
  0
BLOCK
  5
613D
330
6133
100
AcDbEntity
  8
0
100
AcDbBlockBegin
  2
*D2
 70
     1
 10
0.0
 20
0.0
 30
0.0
  3
*D2
  1

  0
LINE
  5
77AB
330
6133
100
AcDbEntity
  8
R-ANNO-DIMS
 62
     0
370
    -2
100
AcDbLine
 10
4.127092172487891
 20
13.57308500392773
 30
0.0
 11
2.002076527513678
 21
13.57308500392773
 31
0.0
  0
LINE
  5
77AC
330
6133
100
AcDbEntity
  8
R-ANNO-DIMS
 62
     0
370
    -2
100
AcDbLine
 10
4.127076527513679
 20
18.57308500392973
 30
0.0
 11
2.002076527513679
 21
18.57308500392973
 31
0.0
  0
LINE
  5
77AD
330
6133
100
AcDbEntity
  8
R-ANNO-DIMS
 62
     0
370
    -2
100
AcDbLine
 10
2.127076527513678
 20
13.57308500392773
 30
0.0
 11
2.127076527513679
 21
18.57308500392973
 31
0.0
  0
INSERT
  5
77AE
330
6133
100
AcDbEntity
  8
R-ANNO-DIMS
 62
     0
370
    -2
100
AcDbBlockReference
  2
_OBLIQUE
 10
2.127076527513678
 20
13.57308500392773
 30
0.0
 41
0.25
 42
0.25
 43
0.25
 50
270.0
  0
INSERT
  5
77AF
330
6133
100
AcDbEntity
  8
R-ANNO-DIMS
 62
     0
370
    -2
100
AcDbBlockReference
  2
_OBLIQUE
 10
2.127076527513679
 20
18.57308500392973
 30
0.0
 41
0.25
 42
0.25
 43
0.25
 50
90.0
  0
MTEXT
  5
77B0
330
6133
100
AcDbEntity
  8
R-ANNO-DIMS
 62
     0
100
AcDbMText
 10
1.853267003704152
 20
16.07308500392873
 30
0.0
 40
0.25
 41
0.0
 71
     5
 72
     1
  1
\A1;5"
  7
ROMAND
 11
0.0000000000000001
 21
1.0
 31
0.0
 73
     1
 44
1.0
1001
ACAD
1000
MTEXTBEGIN
1070
    73
1070
     1
1070
    44
1040
1.0
1070
    74
1070
     0
1000
MTEXTEND
  0
POINT
  5
77B1
330
6133
100
AcDbEntity
  8
DEFPOINTS
 62
     0
100
AcDbPoint
 10
4.377092172487891
 20
13.57308500392773
 30
0.0
  0
POINT
  5
77B2
330
6133
100
AcDbEntity
  8
DEFPOINTS
 62
     0
100
AcDbPoint
 10
4.377076527513679
 20
18.57308500392973
 30
0.0
  0
POINT
  5
77B3
330
6133
100
AcDbEntity
  8
DEFPOINTS
 62
     0
100
AcDbPoint
 10
2.127076527513679
 20
18.57308500392973
 30
0.0
  0
ENDBLK
  5
613E
330
6133
100
AcDbEntity
  8
0
100
AcDbBlockEnd
  0
BLOCK
  5
615D
330
6154
100
AcDbEntity
  8
0
100
AcDbBlockBegin
  2
*D3
 70
     1
 10
0.0
 20
0.0
 30
0.0
  3
*D3
  1

  0
LINE
  5
77A3
330
6154
100
AcDbEntity
  8
R-ANNO-DIMS
 62
     0
370
    -2
100
AcDbLine
 10
4.127092172487891
 20
13.57308500392773
 30
0.0
 11
2.002076527513623
 21
13.57308500392773
 31
0.0
  0
LINE
  5
77A4
330
6154
100
AcDbEntity
  8
R-ANNO-DIMS
 62
     0
370
    -2
100
AcDbLine
 10
2.127076527513623
 20
13.57308500392773
 30
0.0
 11
2.127076527513622
 21
10.32224879455923
 31
0.0
  0
INSERT
  5
77A5
330
6154
100
AcDbEntity
  8
R-ANNO-DIMS
 62
     0
370
    -2
100
AcDbBlockReference
  2
_OBLIQUE
 10
2.127076527513623
 20
13.57308500392773
 30
0.0
 41
0.25
 42
0.25
 43
0.25
 50
90.0
  0
SOLID
  5
77A6
330
6154
100
AcDbEntity
  8
R-ANNO-DIMS
 62
     0
100
AcDbTrace
 10
2.085409860846956
 20
10.32224879455923
 30
0.0
 11
2.168743194180289
 21
10.32224879455923
 31
0.0
 12
2.127076527513622
 22
10.07224879455923
 32
0.0
 13
2.127076527513622
 23
10.07224879455923
 33
0.0
  0
MTEXT
  5
77A7
330
6154
100
AcDbEntity
  8
R-ANNO-DIMS
 62
     0
100
AcDbMText
 10
1.877076527513621
 20
11.94766689924348
 30
0.0
 40
0.25
 41
0.0
 71
     5
 72
     1
  1
\A1;F.W.
  7
ROMAND
 11
0.0000000000000001
 21
1.0
 31
0.0
 73
     1
 44
1.0
1001
ACAD
1000
MTEXTBEGIN
1070
    73
1070
     1
1070
    44
1040
1.0
1070
    74
1070
     0
1000
MTEXTEND
  0
POINT
  5
77A8
330
6154
100
AcDbEntity
  8
DEFPOINTS
 62
     0
100
AcDbPoint
 10
4.377092172487891
 20
13.57308500392773
 30
0.0
  0
POINT
  5
77A9
330
6154
100
AcDbEntity
  8
DEFPOINTS
 62
     0
100
AcDbPoint
 10
7.627928381856406
 20
10.07224879455923
 30
0.0
  0
POINT
  5
77AA
330
6154
100
AcDbEntity
  8
DEFPOINTS
 62
     0
100
AcDbPoint
 10
2.127076527513622
 20
10.07224879455923
 30
0.0
  0
ENDBLK
  5
615E
330
6154
100
AcDbEntity
  8
0
100
AcDbBlockEnd
  0
BLOCK
  5
6171
330
6168
100
AcDbEntity
  8
0
100
AcDbBlockBegin
  2
*D4
 70
     1
 10
0.0
 20
0.0
 30
0.0
  3
*D4
  1

  0
LINE
  5
779B
330
6168
100
AcDbEntity
  8
R-ANNO-DIMS
 62
     0
370
    -2
100
AcDbLine
 10
8.692928381856347
 20
12.07308500392773
 30
0.0
 11
2.752092172487892
 21
12.07308500392774
 31
0.0
  0
LINE
  5
779C
330
6168
100
AcDbEntity
  8
R-ANNO-DIMS
 62
     0
370
    -2
100
AcDbLine
 10
2.877092172487892
 20
12.07308500392774
 30
0.0
 11
2.877092172487891
 21
10.32224879455923
 31
0.0
  0
INSERT
  5
779D
330
6168
100
AcDbEntity
  8
R-ANNO-DIMS
 62
     0
370
    -2
100
AcDbBlockReference
  2
_OBLIQUE
 10
2.877092172487892
 20
12.07308500392774
 30
0.0
 41
0.25
 42
0.25
 43
0.25
 50
90.0
  0
SOLID
  5
779E
330
6168
100
AcDbEntity
  8
R-ANNO-DIMS
 62
     0
100
AcDbTrace
 10
2.835425505821225
 20
10.32224879455923
 30
0.0
 11
2.918758839154558
 21
10.32224879455923
 31
0.0
 12
2.877092172487891
 22
10.07224879455923
 32
0.0
 13
2.877092172487891
 23
10.07224879455923
 33
0.0
  0
MTEXT
  5
779F
330
6168
100
AcDbEntity
  8
R-ANNO-DIMS
 62
     0
100
AcDbMText
 10
2.62709217248789
 20
11.19766689924348
 30
0.0
 40
0.25
 41
0.0
 71
     5
 72
     1
  1
\A1;D.L.O.
  7
ROMAND
 11
0.0000000000000001
 21
1.0
 31
0.0
 73
     1
 44
1.0
1001
ACAD
1000
MTEXTBEGIN
1070
    73
1070
     1
1070
    44
1040
1.0
1070
    74
1070
     0
1000
MTEXTEND
  0
POINT
  5
77A0
330
6168
100
AcDbEntity
  8
DEFPOINTS
 62
     0
100
AcDbPoint
 10
8.942928381856347
 20
12.07308500392773
 30
0.0
  0
POINT
  5
77A1
330
6168
100
AcDbEntity
  8
DEFPOINTS
 62
     0
100
AcDbPoint
 10
7.627928381856406
 20
10.07224879455923
 30
0.0
  0
POINT
  5
77A2
330
6168
100
AcDbEntity
  8
DEFPOINTS
 62
     0
100
AcDbPoint
 10
2.877092172487891
 20
10.07224879455923
 30
0.0
  0
ENDBLK
  5
6172
330
6168
100
AcDbEntity
  8
0
100
AcDbBlockEnd
  0
BLOCK
  5
618C
330
6180
100
AcDbEntity
  8
0
100
AcDbBlockBegin
  2
*D5
 70
     1
 10
0.0
 20
0.0
 30
0.0
  3
*D5
  1

  0
LINE
  5
7780
330
6180
100
AcDbEntity
  8
R-ANNO-DIMS
 62
     0
370
    -2
100
AcDbLine
 10
6.377928381856349
 20
14.38808500392773
 30
0.0
 11
6.377928381856349
 21
8.447248794559229
 31
0.0
  0
LINE
  5
7781
330
6180
100
AcDbEntity
  8
R-ANNO-DIMS
 62
     0
370
    -2
100
AcDbLine
 10
7.877928381856349
 20
9.822248794559229
 30
0.0
 11
7.877928381856349
 21
8.447248794559229
 31
0.0
  0
LINE
  5
7782
330
6180
100
AcDbEntity
  8
R-ANNO-DIMS
 62
     0
370
    -2
100
AcDbLine
 10
6.377928381856349
 20
8.572248794559229
 30
0.0
 11
6.127928381856349
 21
8.572248794559229
 31
0.0
  0
LINE
  5
7783
330
6180
100
AcDbEntity
  8
R-ANNO-DIMS
 62
     0
370
    -2
100
AcDbLine
 10
7.877928381856349
 20
8.572248794559229
 30
0.0
 11
8.127928381856349
 21
8.572248794559229
 31
0.0
  0
LINE
  5
7784
330
6180
100
AcDbEntity
  8
R-ANNO-DIMS
 62
     0
370
    -2
100
AcDbLine
 10
6.377928381856349
 20
8.572248794559229
 30
0.0
 11
7.877928381856349
 21
8.572248794559229
 31
0.0
  0
INSERT
  5
7785
330
6180
100
AcDbEntity
  8
R-ANNO-DIMS
 62
     0
370
    -2
100
AcDbBlockReference
  2
_OBLIQUE
 10
6.377928381856349
 20
8.572248794559229
 30
0.0
 41
0.25
 42
0.25
 43
0.25
  0
INSERT
  5
7786
330
6180
100
AcDbEntity
  8
R-ANNO-DIMS
 62
     0
370
    -2
100
AcDbBlockReference
  2
_OBLIQUE
 10
7.877928381856349
 20
8.572248794559229
 30
0.0
 41
0.25
 42
0.25
 43
0.25
 50
180.0
  0
MTEXT
  5
7787
330
6180
100
AcDbEntity
  8
R-ANNO-DIMS
 62
     0
100
AcDbMText
 10
7.127928381856349
 20
8.887724985035418
 30
0.0
 40
0.25
 41
0.0
 71
     5
 72
     1
  1
\A1;1 1/2"
  7
ROMAND
 73
     1
 44
1.0
1001
ACAD
1000
MTEXTBEGIN
1070
    73
1070
     1
1070
    44
1040
1.0
1070
    74
1070
     0
1000
MTEXTEND
  0
POINT
  5
7788
330
6180
100
AcDbEntity
  8
DEFPOINTS
 62
     0
100
AcDbPoint
 10
6.377928381856349
 20
14.63808500392772
 30
0.0
  0
POINT
  5
7789
330
6180
100
AcDbEntity
  8
DEFPOINTS
 62
     0
100
AcDbPoint
 10
7.877928381856349
 20
10.07224879455923
 30
0.0
  0
POINT
  5
778A
330
6180
100
AcDbEntity
  8
DEFPOINTS
 62
     0
100
AcDbPoint
 10
7.877928381856349
 20
8.572248794559229
 30
0.0
  0
ENDBLK
  5
618D
330
6180
100
AcDbEntity
  8
0
100
AcDbBlockEnd
  0
BLOCK
  5
6198
330
618E
100
AcDbEntity
  8
0
100
AcDbBlockBegin
  2
*D6
 70
     1
 10
0.0
 20
0.0
 30
0.0
  3
*D6
  1

  0
LINE
  5
7777
330
618E
100
AcDbEntity
  8
R-ANNO-DIMS
 62
     0
370
    -2
100
AcDbLine
 10
7.877928381856349
 20
9.822248794559229
 30
0.0
 11
7.877928381856349
 21
7.697233149585031
 31
0.0
  0
LINE
  5
7778
330
618E
100
AcDbEntity
  8
R-ANNO-DIMS
 62
     0
370
    -2
100
AcDbLine
 10
12.87792838185839
 20
9.822233149585031
 30
0.0
 11
12.87792838185839
 21
7.697233149585031
 31
0.0
  0
LINE
  5
7779
330
618E
100
AcDbEntity
  8
R-ANNO-DIMS
 62
     0
370
    -2
100
AcDbLine
 10
7.877928381856349
 20
7.822233149585031
 30
0.0
 11
12.87792838185839
 21
7.822233149585031
 31
0.0
  0
INSERT
  5
777A
330
618E
100
AcDbEntity
  8
R-ANNO-DIMS
 62
     0
370
    -2
100
AcDbBlockReference
  2
_OBLIQUE
 10
7.877928381856349
 20
7.822233149585031
 30
0.0
 41
0.25
 42
0.25
 43
0.25
 50
180.0
  0
INSERT
  5
777B
330
618E
100
AcDbEntity
  8
R-ANNO-DIMS
 62
     0
370
    -2
100
AcDbBlockReference
  2
_OBLIQUE
 10
12.87792838185839
 20
7.822233149585031
 30
0.0
 41
0.25
 42
0.25
 43
0.25
  0
MTEXT
  5
777C
330
618E
100
AcDbEntity
  8
R-ANNO-DIMS
 62
     0
100
AcDbMText
 10
10.37792838185737
 20
8.096042673394554
 30
0.0
 40
0.25
 41
0.0
 71
     5
 72
     1
  1
\A1;5"
  7
ROMAND
 73
     1
 44
1.0
1001
ACAD
1000
MTEXTBEGIN
1070
    73
1070
     1
1070
    44
1040
1.0
1070
    74
1070
     0
1000
MTEXTEND
  0
POINT
  5
777D
330
618E
100
AcDbEntity
  8
DEFPOINTS
 62
     0
100
AcDbPoint
 10
7.877928381856349
 20
10.07224879455923
 30
0.0
  0
POINT
  5
777E
330
618E
100
AcDbEntity
  8
DEFPOINTS
 62
     0
100
AcDbPoint
 10
12.87792838185839
 20
10.07223314958503
 30
0.0
  0
POINT
  5
777F
330
618E
100
AcDbEntity
  8
DEFPOINTS
 62
     0
100
AcDbPoint
 10
12.87792838185839
 20
7.822233149585031
 30
0.0
  0
ENDBLK
  5
6199
330
618E
100
AcDbEntity
  8
0
100
AcDbBlockEnd
  0
BLOCK
  5
61A3
330
619A
100
AcDbEntity
  8
0
100
AcDbBlockBegin
  2
*D7
 70
     1
 10
0.0
 20
0.0
 30
0.0
  3
*D7
  1

  0
LINE
  5
778B
330
619A
100
AcDbEntity
  8
R-ANNO-DIMS
 62
     0
370
    -2
100
AcDbLine
 10
7.877928381856349
 20
9.822248794559229
 30
0.0
 11
7.877928381856349
 21
7.697233149584988
 31
0.0
  0
LINE
  5
778C
330
619A
100
AcDbEntity
  8
R-ANNO-DIMS
 62
     0
370
    -2
100
AcDbLine
 10
7.877928381856349
 20
7.822233149584988
 30
0.0
 11
4.627092172487891
 21
7.822233149584988
 31
0.0
  0
INSERT
  5
778D
330
619A
100
AcDbEntity
  8
R-ANNO-DIMS
 62
     0
370
    -2
100
AcDbBlockReference
  2
_OBLIQUE
 10
7.877928381856349
 20
7.822233149584988
 30
0.0
 41
0.25
 42
0.25
 43
0.25
  0
SOLID
  5
778E
330
619A
100
AcDbEntity
  8
R-ANNO-DIMS
 62
     0
100
AcDbTrace
 10
4.627092172487891
 20
7.863899816251655
 30
0.0
 11
4.627092172487891
 21
7.780566482918321
 31
0.0
 12
4.377092172487891
 22
7.822233149584988
 32
0.0
 13
4.377092172487891
 23
7.822233149584988
 33
0.0
  0
MTEXT
  5
778F
330
619A
100
AcDbEntity
  8
R-ANNO-DIMS
 62
     0
100
AcDbMText
 10
6.25251027717212
 20
8.072233149584988
 30
0.0
 40
0.25
 41
0.0
 71
     5
 72
     1
  1
\A1;F.W.
  7
ROMAND
 73
     1
 44
1.0
1001
ACAD
1000
MTEXTBEGIN
1070
    73
1070
     1
1070
    44
1040
1.0
1070
    74
1070
     0
1000
MTEXTEND
  0
POINT
  5
7790
330
619A
100
AcDbEntity
  8
DEFPOINTS
 62
     0
100
AcDbPoint
 10
7.877928381856349
 20
10.07224879455923
 30
0.0
  0
POINT
  5
7791
330
619A
100
AcDbEntity
  8
DEFPOINTS
 62
     0
100
AcDbPoint
 10
4.377092172487891
 20
13.32308500392774
 30
0.0
  0
POINT
  5
7792
330
619A
100
AcDbEntity
  8
DEFPOINTS
 62
     0
100
AcDbPoint
 10
4.377092172487891
 20
7.822233149584988
 30
0.0
  0
ENDBLK
  5
61A4
330
619A
100
AcDbEntity
  8
0
100
AcDbBlockEnd
  0
BLOCK
  5
61AE
330
61A5
100
AcDbEntity
  8
0
100
AcDbBlockBegin
  2
*D8
 70
     1
 10
0.0
 20
0.0
 30
0.0
  3
*D8
  1

  0
LINE
  5
7793
330
61A5
100
AcDbEntity
  8
R-ANNO-DIMS
 62
     0
370
    -2
100
AcDbLine
 10
6.377928381856349
 20
14.38808500392773
 30
0.0
 11
6.377928381856349
 21
8.447248794559229
 31
0.0
  0
LINE
  5
7794
330
61A5
100
AcDbEntity
  8
R-ANNO-DIMS
 62
     0
370
    -2
100
AcDbLine
 10
6.377928381856349
 20
8.572248794559229
 30
0.0
 11
4.627092172487891
 21
8.572248794559229
 31
0.0
  0
INSERT
  5
7795
330
61A5
100
AcDbEntity
  8
R-ANNO-DIMS
 62
     0
370
    -2
100
AcDbBlockReference
  2
_OBLIQUE
 10
6.377928381856349
 20
8.572248794559229
 30
0.0
 41
0.25
 42
0.25
 43
0.25
  0
SOLID
  5
7796
330
61A5
100
AcDbEntity
  8
R-ANNO-DIMS
 62
     0
100
AcDbTrace
 10
4.627092172487891
 20
8.613915461225895
 30
0.0
 11
4.627092172487891
 21
8.530582127892563
 31
0.0
 12
4.377092172487891
 22
8.572248794559229
 32
0.0
 13
4.377092172487891
 23
8.572248794559229
 33
0.0
  0
MTEXT
  5
7797
330
61A5
100
AcDbEntity
  8
R-ANNO-DIMS
 62
     0
100
AcDbMText
 10
5.50251027717212
 20
8.822248794559229
 30
0.0
 40
0.25
 41
0.0
 71
     5
 72
     1
  1
\A1;D.L.O.
  7
ROMAND
 73
     1
 44
1.0
1001
ACAD
1000
MTEXTBEGIN
1070
    73
1070
     1
1070
    44
1040
1.0
1070
    74
1070
     0
1000
MTEXTEND
  0
POINT
  5
7798
330
61A5
100
AcDbEntity
  8
DEFPOINTS
 62
     0
100
AcDbPoint
 10
6.377928381856349
 20
14.63808500392772
 30
0.0
  0
POINT
  5
7799
330
61A5
100
AcDbEntity
  8
DEFPOINTS
 62
     0
100
AcDbPoint
 10
4.377092172487891
 20
13.32308500392774
 30
0.0
  0
POINT
  5
779A
330
61A5
100
AcDbEntity
  8
DEFPOINTS
 62
     0
100
AcDbPoint
 10
4.377092172487891
 20
8.572248794559229
 30
0.0
  0
ENDBLK
  5
61AF
330
61A5
100
AcDbEntity
  8
0
100
AcDbBlockEnd
  0
BLOCK
  5
61DF
330
61D5
100
AcDbEntity
  8
0
100
AcDbBlockBegin
  2
*D9
 70
     1
 10
0.0
 20
0.0
 30
0.0
  3
*D9
  1

  0
LINE
  5
776E
330
61D5
100
AcDbEntity
  8
R-ANNO-DIMS
 62
     0
370
    -2
100
AcDbLine
 10
23.45250648569174
 20
14.99244889999794
 30
0.0
 11
21.40729073528087
 21
14.99244889999794
 31
0.0
  0
LINE
  5
776F
330
61D5
100
AcDbEntity
  8
R-ANNO-DIMS
 62
     0
370
    -2
100
AcDbLine
 10
28.45250648569373
 20
9.992448899995949
 30
0.0
 11
21.40729073528087
 21
9.992448899995951
 31
0.0
  0
LINE
  5
7770
330
61D5
100
AcDbEntity
  8
R-ANNO-DIMS
 62
     0
370
    -2
100
AcDbLine
 10
21.53229073528087
 20
14.99244889999794
 30
0.0
 11
21.53229073528087
 21
9.992448899995951
 31
0.0
  0
INSERT
  5
7771
330
61D5
100
AcDbEntity
  8
R-ANNO-DIMS
 62
     0
370
    -2
100
AcDbBlockReference
  2
_OBLIQUE
 10
21.53229073528087
 20
14.99244889999794
 30
0.0
 41
0.25
 42
0.25
 43
0.25
 50
90.0
  0
INSERT
  5
7772
330
61D5
100
AcDbEntity
  8
R-ANNO-DIMS
 62
     0
370
    -2
100
AcDbBlockReference
  2
_OBLIQUE
 10
21.53229073528087
 20
9.992448899995951
 30
0.0
 41
0.25
 42
0.25
 43
0.25
 50
270.0
  0
MTEXT
  5
7773
330
61D5
100
AcDbEntity
  8
R-ANNO-DIMS
 62
     0
100
AcDbMText
 10
21.25848121147134
 20
12.49244889999695
 30
0.0
 40
0.25
 41
0.0
 71
     5
 72
     1
  1
\A1;5"
  7
ROMAND
 11
0.0000000000000001
 21
1.0
 31
0.0
 73
     1
 44
1.0
1001
ACAD
1000
MTEXTBEGIN
1070
    73
1070
     1
1070
    44
1040
1.0
1070
    74
1070
     0
1000
MTEXTEND
  0
POINT
  5
7774
330
61D5
100
AcDbEntity
  8
DEFPOINTS
 62
     0
100
AcDbPoint
 10
23.70250648569174
 20
14.99244889999794
 30
0.0
  0
POINT
  5
7775
330
61D5
100
AcDbEntity
  8
DEFPOINTS
 62
     0
100
AcDbPoint
 10
28.70250648569373
 20
9.992448899995949
 30
0.0
  0
POINT
  5
7776
330
61D5
100
AcDbEntity
  8
DEFPOINTS
 62
     0
100
AcDbPoint
 10
21.53229073528087
 20
9.992448899995951
 30
0.0
  0
ENDBLK
  5
61E0
330
61D5
100
AcDbEntity
  8
0
100
AcDbBlockEnd
  0
BLOCK
  5
61F9
330
61ED
100
AcDbEntity
  8
0
100
AcDbBlockBegin
  2
*D10
 70
     1
 10
0.0
 20
0.0
 30
0.0
  3
*D10
  1

  0
LINE
  5
7763
330
61ED
100
AcDbEntity
  8
R-ANNO-DIMS
 62
     0
370
    -2
100
AcDbLine
 10
23.45250648569174
 20
14.99244889999794
 30
0.0
 11
22.15729073528087
 21
14.99244889999794
 31
0.0
  0
LINE
  5
7764
330
61ED
100
AcDbEntity
  8
R-ANNO-DIMS
 62
     0
370
    -2
100
AcDbLine
 10
24.51750648569174
 20
16.49259704565441
 30
0.0
 11
22.15729073528087
 21
16.49259704565442
 31
0.0
  0
LINE
  5
7765
330
61ED
100
AcDbEntity
  8
R-ANNO-DIMS
 62
     0
370
    -2
100
AcDbLine
 10
22.28229073528087
 20
14.99244889999794
 30
0.0
 11
22.28229073528087
 21
14.74244889999794
 31
0.0
  0
LINE
  5
7766
330
61ED
100
AcDbEntity
  8
R-ANNO-DIMS
 62
     0
370
    -2
100
AcDbLine
 10
22.28229073528087
 20
16.49259704565442
 30
0.0
 11
22.28229073528087
 21
16.74259704565441
 31
0.0
  0
LINE
  5
7767
330
61ED
100
AcDbEntity
  8
R-ANNO-DIMS
 62
     0
370
    -2
100
AcDbLine
 10
22.28229073528087
 20
14.99244889999794
 30
0.0
 11
22.28229073528087
 21
16.49259704565442
 31
0.0
  0
INSERT
  5
7768
330
61ED
100
AcDbEntity
  8
R-ANNO-DIMS
 62
     0
370
    -2
100
AcDbBlockReference
  2
_OBLIQUE
 10
22.28229073528087
 20
14.99244889999794
 30
0.0
 41
0.25
 42
0.25
 43
0.25
 50
90.0
  0
INSERT
  5
7769
330
61ED
100
AcDbEntity
  8
R-ANNO-DIMS
 62
     0
370
    -2
100
AcDbBlockReference
  2
_OBLIQUE
 10
22.28229073528087
 20
16.49259704565442
 30
0.0
 41
0.25
 42
0.25
 43
0.25
 50
270.0
  0
MTEXT
  5
776A
330
61ED
100
AcDbEntity
  8
R-ANNO-DIMS
 62
     0
100
AcDbMText
 10
21.96681454480467
 20
15.74252297282618
 30
0.0
 40
0.25
 41
0.0
 71
     5
 72
     1
  1
\A1;1 1/2"
  7
ROMAND
 11
0.0000000000000001
 21
1.0
 31
0.0
 73
     1
 44
1.0
1001
ACAD
1000
MTEXTBEGIN
1070
    73
1070
     1
1070
    44
1040
1.0
1070
    74
1070
     0
1000
MTEXTEND
  0
POINT
  5
776B
330
61ED
100
AcDbEntity
  8
DEFPOINTS
 62
     0
100
AcDbPoint
 10
23.70250648569174
 20
14.99244889999794
 30
0.0
  0
POINT
  5
776C
330
61ED
100
AcDbEntity
  8
DEFPOINTS
 62
     0
100
AcDbPoint
 10
24.76750648569174
 20
16.49259704565441
 30
0.0
  0
POINT
  5
776D
330
61ED
100
AcDbEntity
  8
DEFPOINTS
 62
     0
100
AcDbPoint
 10
22.28229073528087
 20
16.49259704565442
 30
0.0
  0
ENDBLK
  5
61FA
330
61ED
100
AcDbEntity
  8
0
100
AcDbBlockEnd
  0
BLOCK
  5
6205
330
61FC
100
AcDbEntity
  8
0
100
AcDbBlockBegin
  2
*D11
 70
     1
 10
0.0
 20
0.0
 30
0.0
  3
*D11
  1

  0
LINE
  5
775B
330
61FC
100
AcDbEntity
  8
R-ANNO-DIMS
 62
     0
370
    -2
100
AcDbLine
 10
23.45250648569174
 20
14.99244889999794
 30
0.0
 11
21.40729073528087
 21
14.99244889999794
 31
0.0
  0
LINE
  5
775C
330
61FC
100
AcDbEntity
  8
R-ANNO-DIMS
 62
     0
370
    -2
100
AcDbLine
 10
21.53229073528087
 20
14.99244889999794
 30
0.0
 11
21.53229073528087
 21
18.24343325502296
 31
0.0
  0
INSERT
  5
775D
330
61FC
100
AcDbEntity
  8
R-ANNO-DIMS
 62
     0
370
    -2
100
AcDbBlockReference
  2
_OBLIQUE
 10
21.53229073528087
 20
14.99244889999794
 30
0.0
 41
0.25
 42
0.25
 43
0.25
 50
270.0
  0
SOLID
  5
775E
330
61FC
100
AcDbEntity
  8
R-ANNO-DIMS
 62
     0
100
AcDbTrace
 10
21.4906240686142
 20
18.24343325502296
 30
0.0
 11
21.57395740194754
 21
18.24343325502296
 31
0.0
 12
21.53229073528087
 22
18.49343325502296
 32
0.0
 13
21.53229073528087
 23
18.49343325502296
 33
0.0
  0
MTEXT
  5
775F
330
61FC
100
AcDbEntity
  8
R-ANNO-DIMS
 62
     0
100
AcDbMText
 10
21.28229073528086
 20
16.61794107751045
 30
0.0
 40
0.25
 41
0.0
 71
     5
 72
     1
  1
\A1;F.W.
  7
ROMAND
 11
0.0000000000000001
 21
1.0
 31
0.0
 73
     1
 44
1.0
1001
ACAD
1000
MTEXTBEGIN
1070
    73
1070
     1
1070
    44
1040
1.0
1070
    74
1070
     0
1000
MTEXTEND
  0
POINT
  5
7760
330
61FC
100
AcDbEntity
  8
DEFPOINTS
 62
     0
100
AcDbPoint
 10
23.70250648569174
 20
14.99244889999794
 30
0.0
  0
POINT
  5
7761
330
61FC
100
AcDbEntity
  8
DEFPOINTS
 62
     0
100
AcDbPoint
 10
23.45250648569174
 20
18.49343325502296
 30
0.0
  0
POINT
  5
7762
330
61FC
100
AcDbEntity
  8
DEFPOINTS
 62
     0
100
AcDbPoint
 10
21.53229073528087
 20
18.49343325502296
 30
0.0
  0
ENDBLK
  5
6206
330
61FC
100
AcDbEntity
  8
0
100
AcDbBlockEnd
  0
BLOCK
  5
6219
330
6210
100
AcDbEntity
  8
0
100
AcDbBlockBegin
  2
*D12
 70
     1
 10
0.0
 20
0.0
 30
0.0
  3
*D12
  1

  0
LINE
  5
7753
330
6210
100
AcDbEntity
  8
R-ANNO-DIMS
 62
     0
370
    -2
100
AcDbLine
 10
24.51750648569174
 20
16.49259704565441
 30
0.0
 11
22.15729073528087
 21
16.49259704565442
 31
0.0
  0
LINE
  5
7754
330
6210
100
AcDbEntity
  8
R-ANNO-DIMS
 62
     0
370
    -2
100
AcDbLine
 10
22.28229073528087
 20
16.49259704565442
 30
0.0
 11
22.28229073528087
 21
18.24343325502296
 31
0.0
  0
INSERT
  5
7755
330
6210
100
AcDbEntity
  8
R-ANNO-DIMS
 62
     0
370
    -2
100
AcDbBlockReference
  2
_OBLIQUE
 10
22.28229073528087
 20
16.49259704565442
 30
0.0
 41
0.25
 42
0.25
 43
0.25
 50
270.0
  0
SOLID
  5
7756
330
6210
100
AcDbEntity
  8
R-ANNO-DIMS
 62
     0
100
AcDbTrace
 10
22.2406240686142
 20
18.24343325502296
 30
0.0
 11
22.32395740194753
 21
18.24343325502296
 31
0.0
 12
22.28229073528087
 22
18.49343325502296
 32
0.0
 13
22.28229073528087
 23
18.49343325502296
 33
0.0
  0
MTEXT
  5
7757
330
6210
100
AcDbEntity
  8
R-ANNO-DIMS
 62
     0
100
AcDbMText
 10
22.03229073528087
 20
17.36801515033869
 30
0.0
 40
0.25
 41
0.0
 71
     5
 72
     1
  1
\A1;D.L.O.
  7
ROMAND
 11
0.0000000000000001
 21
1.0
 31
0.0
 73
     1
 44
1.0
1001
ACAD
1000
MTEXTBEGIN
1070
    73
1070
     1
1070
    44
1040
1.0
1070
    74
1070
     0
1000
MTEXTEND
  0
POINT
  5
7758
330
6210
100
AcDbEntity
  8
DEFPOINTS
 62
     0
100
AcDbPoint
 10
24.76750648569174
 20
16.49259704565441
 30
0.0
  0
POINT
  5
7759
330
6210
100
AcDbEntity
  8
DEFPOINTS
 62
     0
100
AcDbPoint
 10
23.45250648569174
 20
18.49343325502296
 30
0.0
  0
POINT
  5
775A
330
6210
100
AcDbEntity
  8
DEFPOINTS
 62
     0
100
AcDbPoint
 10
22.28229073528087
 20
18.49343325502296
 30
0.0
  0
ENDBLK
  5
621A
330
6210
100
AcDbEntity
  8
0
100
AcDbBlockEnd
  0
BLOCK
  5
6256
330
624C
100
AcDbEntity
  8
0
100
AcDbBlockBegin
  2
*D13
 70
     1
 10
0.0
 20
0.0
 30
0.0
  3
*D13
  1

  0
LINE
  5
774A
330
624C
100
AcDbEntity
  8
R-ANNO-DIMS
 62
     0
370
    -2
100
AcDbLine
 10
28.70250648569373
 20
9.742448899995935
 30
0.0
 11
28.70250648569373
 21
7.697233149585031
 31
0.0
  0
LINE
  5
774B
330
624C
100
AcDbEntity
  8
R-ANNO-DIMS
 62
     0
370
    -2
100
AcDbLine
 10
23.70250648569174
 20
14.74244889999789
 30
0.0
 11
23.70250648569174
 21
7.697233149585031
 31
0.0
  0
LINE
  5
774C
330
624C
100
AcDbEntity
  8
R-ANNO-DIMS
 62
     0
370
    -2
100
AcDbLine
 10
28.70250648569373
 20
7.822233149585031
 30
0.0
 11
23.70250648569174
 21
7.822233149585031
 31
0.0
  0
INSERT
  5
774D
330
624C
100
AcDbEntity
  8
R-ANNO-DIMS
 62
     0
370
    -2
100
AcDbBlockReference
  2
_OBLIQUE
 10
28.70250648569373
 20
7.822233149585031
 30
0.0
 41
0.25
 42
0.25
 43
0.25
  0
INSERT
  5
774E
330
624C
100
AcDbEntity
  8
R-ANNO-DIMS
 62
     0
370
    -2
100
AcDbBlockReference
  2
_OBLIQUE
 10
23.70250648569174
 20
7.822233149585031
 30
0.0
 41
0.25
 42
0.25
 43
0.25
 50
180.0
  0
MTEXT
  5
774F
330
624C
100
AcDbEntity
  8
R-ANNO-DIMS
 62
     0
100
AcDbMText
 10
26.20250648569274
 20
8.096042673394554
 30
0.0
 40
0.25
 41
0.0
 71
     5
 72
     1
  1
\A1;5"
  7
ROMAND
 73
     1
 44
1.0
1001
ACAD
1000
MTEXTBEGIN
1070
    73
1070
     1
1070
    44
1040
1.0
1070
    74
1070
     0
1000
MTEXTEND
  0
POINT
  5
7750
330
624C
100
AcDbEntity
  8
DEFPOINTS
 62
     0
100
AcDbPoint
 10
28.70250648569373
 20
9.992448899995935
 30
0.0
  0
POINT
  5
7751
330
624C
100
AcDbEntity
  8
DEFPOINTS
 62
     0
100
AcDbPoint
 10
23.70250648569174
 20
14.99244889999789
 30
0.0
  0
POINT
  5
7752
330
624C
100
AcDbEntity
  8
DEFPOINTS
 62
     0
100
AcDbPoint
 10
23.70250648569174
 20
7.822233149585031
 30
0.0
  0
ENDBLK
  5
6257
330
624C
100
AcDbEntity
  8
0
100
AcDbBlockEnd
  0
BLOCK
  5
6264
330
6258
100
AcDbEntity
  8
0
100
AcDbBlockBegin
  2
*D14
 70
     1
 10
0.0
 20
0.0
 30
0.0
  3
*D14
  1

  0
LINE
  5
7737
330
6258
100
AcDbEntity
  8
R-ANNO-DIMS
 62
     0
370
    -2
100
AcDbLine
 10
28.70250648569373
 20
9.742448899995935
 30
0.0
 11
28.70250648569373
 21
8.447233149585045
 31
0.0
  0
LINE
  5
7738
330
6258
100
AcDbEntity
  8
R-ANNO-DIMS
 62
     0
370
    -2
100
AcDbLine
 10
30.20265463135018
 20
10.80744889999593
 30
0.0
 11
30.20265463135018
 21
8.447233149585045
 31
0.0
  0
LINE
  5
7739
330
6258
100
AcDbEntity
  8
R-ANNO-DIMS
 62
     0
370
    -2
100
AcDbLine
 10
28.70250648569373
 20
8.572233149585045
 30
0.0
 11
28.45250648569373
 21
8.572233149585045
 31
0.0
  0
LINE
  5
773A
330
6258
100
AcDbEntity
  8
R-ANNO-DIMS
 62
     0
370
    -2
100
AcDbLine
 10
30.20265463135018
 20
8.572233149585045
 30
0.0
 11
30.45265463135019
 21
8.572233149585045
 31
0.0
  0
LINE
  5
773B
330
6258
100
AcDbEntity
  8
R-ANNO-DIMS
 62
     0
370
    -2
100
AcDbLine
 10
28.70250648569373
 20
8.572233149585045
 30
0.0
 11
30.20265463135018
 21
8.572233149585045
 31
0.0
  0
INSERT
  5
773C
330
6258
100
AcDbEntity
  8
R-ANNO-DIMS
 62
     0
370
    -2
100
AcDbBlockReference
  2
_OBLIQUE
 10
28.70250648569373
 20
8.572233149585045
 30
0.0
 41
0.25
 42
0.25
 43
0.25
  0
INSERT
  5
773D
330
6258
100
AcDbEntity
  8
R-ANNO-DIMS
 62
     0
370
    -2
100
AcDbBlockReference
  2
_OBLIQUE
 10
30.20265463135018
 20
8.572233149585045
 30
0.0
 41
0.25
 42
0.25
 43
0.25
 50
180.0
  0
MTEXT
  5
773E
330
6258
100
AcDbEntity
  8
R-ANNO-DIMS
 62
     0
100
AcDbMText
 10
29.45258055852196
 20
8.887709340061235
 30
0.0
 40
0.25
 41
0.0
 71
     5
 72
     1
  1
\A1;1 1/2"
  7
ROMAND
 73
     1
 44
1.0
1001
ACAD
1000
MTEXTBEGIN
1070
    73
1070
     1
1070
    44
1040
1.0
1070
    74
1070
     0
1000
MTEXTEND
  0
POINT
  5
773F
330
6258
100
AcDbEntity
  8
DEFPOINTS
 62
     0
100
AcDbPoint
 10
28.70250648569373
 20
9.992448899995935
 30
0.0
  0
POINT
  5
7740
330
6258
100
AcDbEntity
  8
DEFPOINTS
 62
     0
100
AcDbPoint
 10
30.20265463135018
 20
11.05744889999593
 30
0.0
  0
POINT
  5
7741
330
6258
100
AcDbEntity
  8
DEFPOINTS
 62
     0
100
AcDbPoint
 10
30.20265463135018
 20
8.572233149585045
 30
0.0
  0
ENDBLK
  5
6265
330
6258
100
AcDbEntity
  8
0
100
AcDbBlockEnd
  0
BLOCK
  5
626F
330
6266
100
AcDbEntity
  8
0
100
AcDbBlockBegin
  2
*D15
 70
     1
 10
0.0
 20
0.0
 30
0.0
  3
*D15
  1

  0
LINE
  5
7742
330
6266
100
AcDbEntity
  8
R-ANNO-DIMS
 62
     0
370
    -2
100
AcDbLine
 10
28.70250648569373
 20
9.742448899995935
 30
0.0
 11
28.70250648569373
 21
7.697233149585045
 31
0.0
  0
LINE
  5
7743
330
6266
100
AcDbEntity
  8
R-ANNO-DIMS
 62
     0
370
    -2
100
AcDbLine
 10
28.70250648569373
 20
7.822233149585045
 30
0.0
 11
31.95349084071876
 21
7.822233149585045
 31
0.0
  0
INSERT
  5
7744
330
6266
100
AcDbEntity
  8
R-ANNO-DIMS
 62
     0
370
    -2
100
AcDbBlockReference
  2
_OBLIQUE
 10
28.70250648569373
 20
7.822233149585045
 30
0.0
 41
0.25
 42
0.25
 43
0.25
 50
180.0
  0
SOLID
  5
7745
330
6266
100
AcDbEntity
  8
R-ANNO-DIMS
 62
     0
100
AcDbTrace
 10
31.95349084071876
 20
7.863899816251712
 30
0.0
 11
31.95349084071876
 21
7.780566482918378
 31
0.0
 12
32.20349084071876
 22
7.822233149585045
 32
0.0
 13
32.20349084071876
 23
7.822233149585045
 33
0.0
  0
MTEXT
  5
7746
330
6266
100
AcDbEntity
  8
R-ANNO-DIMS
 62
     0
100
AcDbMText
 10
30.32799866320625
 20
8.072233149585045
 30
0.0
 40
0.25
 41
0.0
 71
     5
 72
     1
  1
\A1;F.W.
  7
ROMAND
 73
     1
 44
1.0
1001
ACAD
1000
MTEXTBEGIN
1070
    73
1070
     1
1070
    44
1040
1.0
1070
    74
1070
     0
1000
MTEXTEND
  0
POINT
  5
7747
330
6266
100
AcDbEntity
  8
DEFPOINTS
 62
     0
100
AcDbPoint
 10
28.70250648569373
 20
9.992448899995935
 30
0.0
  0
POINT
  5
7748
330
6266
100
AcDbEntity
  8
DEFPOINTS
 62
     0
100
AcDbPoint
 10
32.20349084071876
 20
9.742448899995935
 30
0.0
  0
POINT
  5
7749
330
6266
100
AcDbEntity
  8
DEFPOINTS
 62
     0
100
AcDbPoint
 10
32.20349084071876
 20
7.822233149585045
 30
0.0
  0
ENDBLK
  5
6270
330
6266
100
AcDbEntity
  8
0
100
AcDbBlockEnd
  0
BLOCK
  5
627A
330
6271
100
AcDbEntity
  8
0
100
AcDbBlockBegin
  2
*D16
 70
     1
 10
0.0
 20
0.0
 30
0.0
  3
*D16
  1

  0
LINE
  5
772F
330
6271
100
AcDbEntity
  8
R-ANNO-DIMS
 62
     0
370
    -2
100
AcDbLine
 10
30.20265463135018
 20
10.80744889999593
 30
0.0
 11
30.20265463135018
 21
8.447233149585045
 31
0.0
  0
LINE
  5
7730
330
6271
100
AcDbEntity
  8
R-ANNO-DIMS
 62
     0
370
    -2
100
AcDbLine
 10
30.20265463135018
 20
8.572233149585045
 30
0.0
 11
31.95349084071876
 21
8.572233149585045
 31
0.0
  0
INSERT
  5
7731
330
6271
100
AcDbEntity
  8
R-ANNO-DIMS
 62
     0
370
    -2
100
AcDbBlockReference
  2
_OBLIQUE
 10
30.20265463135018
 20
8.572233149585045
 30
0.0
 41
0.25
 42
0.25
 43
0.25
 50
180.0
  0
SOLID
  5
7732
330
6271
100
AcDbEntity
  8
R-ANNO-DIMS
 62
     0
100
AcDbTrace
 10
31.95349084071876
 20
8.613899816251711
 30
0.0
 11
31.95349084071876
 21
8.530566482918379
 31
0.0
 12
32.20349084071876
 22
8.572233149585045
 32
0.0
 13
32.20349084071876
 23
8.572233149585045
 33
0.0
  0
MTEXT
  5
7733
330
6271
100
AcDbEntity
  8
R-ANNO-DIMS
 62
     0
100
AcDbMText
 10
31.07807273603447
 20
8.822233149585045
 30
0.0
 40
0.25
 41
0.0
 71
     5
 72
     1
  1
\A1;D.L.O.
  7
ROMAND
 73
     1
 44
1.0
1001
ACAD
1000
MTEXTBEGIN
1070
    73
1070
     1
1070
    44
1040
1.0
1070
    74
1070
     0
1000
MTEXTEND
  0
POINT
  5
7734
330
6271
100
AcDbEntity
  8
DEFPOINTS
 62
     0
100
AcDbPoint
 10
30.20265463135018
 20
11.05744889999593
 30
0.0
  0
POINT
  5
7735
330
6271
100
AcDbEntity
  8
DEFPOINTS
 62
     0
100
AcDbPoint
 10
32.20349084071876
 20
9.742448899995935
 30
0.0
  0
POINT
  5
7736
330
6271
100
AcDbEntity
  8
DEFPOINTS
 62
     0
100
AcDbPoint
 10
32.20349084071876
 20
8.572233149585045
 30
0.0
  0
ENDBLK
  5
627B
330
6271
100
AcDbEntity
  8
0
100
AcDbBlockEnd
  0
BLOCK
  5
717F
330
7173
100
AcDbEntity
  8
0
100
AcDbBlockBegin
  2
*D17
 70
     1
 10
0.0
 20
0.0
 30
0.0
  3
*D17
  1

  0
LINE
  5
7724
330
7173
100
AcDbEntity
  8
R-ANNO-DIMS
 62
     0
370
    -2
100
AcDbLine
 10
7.253076527510302
 20
18.8080850039299
 30
0.0
 11
7.253076527510302
 21
19.4330850039299
 31
0.0
  0
LINE
  5
7725
330
7173
100
AcDbEntity
  8
R-ANNO-DIMS
 62
     0
370
    -2
100
AcDbLine
 10
7.87807652751286
 20
18.8080850039299
 30
0.0
 11
7.87807652751286
 21
19.4330850039299
 31
0.0
  0
LINE
  5
7726
330
7173
100
AcDbEntity
  8
R-ANNO-DIMS
 62
     0
370
    -2
100
AcDbLine
 10
7.253076527510302
 20
19.3080850039299
 30
0.0
 11
7.003076527510302
 21
19.3080850039299
 31
0.0
  0
LINE
  5
7727
330
7173
100
AcDbEntity
  8
R-ANNO-DIMS
 62
     0
370
    -2
100
AcDbLine
 10
7.87807652751286
 20
19.3080850039299
 30
0.0
 11
8.12807652751286
 21
19.3080850039299
 31
0.0
  0
LINE
  5
7728
330
7173
100
AcDbEntity
  8
R-ANNO-DIMS
 62
     0
370
    -2
100
AcDbLine
 10
7.253076527510302
 20
19.3080850039299
 30
0.0
 11
7.87807652751286
 21
19.3080850039299
 31
0.0
  0
INSERT
  5
7729
330
7173
100
AcDbEntity
  8
R-ANNO-DIMS
 62
     0
370
    -2
100
AcDbBlockReference
  2
_OBLIQUE
 10
7.253076527510302
 20
19.3080850039299
 30
0.0
 41
0.25
 42
0.25
 43
0.25
  0
INSERT
  5
772A
330
7173
100
AcDbEntity
  8
R-ANNO-DIMS
 62
     0
370
    -2
100
AcDbBlockReference
  2
_OBLIQUE
 10
7.87807652751286
 20
19.3080850039299
 30
0.0
 41
0.25
 42
0.25
 43
0.25
 50
180.0
  0
MTEXT
  5
772B
330
7173
100
AcDbEntity
  8
R-ANNO-DIMS
 62
     0
100
AcDbMText
 10
7.565576527511581
 20
19.62356119440609
 30
0.0
 40
0.25
 41
0.0
 71
     5
 72
     1
  1
\A1;5/8"
  7
ROMAND
 73
     1
 44
1.0
1001
ACAD
1000
MTEXTBEGIN
1070
    73
1070
     1
1070
    44
1040
1.0
1070
    74
1070
     0
1000
MTEXTEND
  0
POINT
  5
772C
330
7173
100
AcDbEntity
  8
DEFPOINTS
 62
     0
100
AcDbPoint
 10
7.253076527510302
 20
18.5580850039299
 30
0.0
  0
POINT
  5
772D
330
7173
100
AcDbEntity
  8
DEFPOINTS
 62
     0
100
AcDbPoint
 10
7.87807652751286
 20
18.5580850039299
 30
0.0
  0
POINT
  5
772E
330
7173
100
AcDbEntity
  8
DEFPOINTS
 62
     0
100
AcDbPoint
 10
7.87807652751286
 20
19.3080850039299
 30
0.0
  0
ENDBLK
  5
7180
330
7173
100
AcDbEntity
  8
0
100
AcDbBlockEnd
  0
BLOCK
  5
718E
330
7182
100
AcDbEntity
  8
0
100
AcDbBlockBegin
  2
*D18
 70
     1
 10
0.0
 20
0.0
 30
0.0
  3
*D18
  1

  0
LINE
  5
771B
330
7182
100
AcDbEntity
  8
R-ANNO-DIMS
 62
     0
370
    -2
100
AcDbLine
 10
13.11292838185852
 20
12.94823314958166
 30
0.0
 11
13.73792838185852
 21
12.94823314958166
 31
0.0
  0
LINE
  5
771C
330
7182
100
AcDbEntity
  8
R-ANNO-DIMS
 62
     0
370
    -2
100
AcDbLine
 10
13.11292838185852
 20
13.57323314958422
 30
0.0
 11
13.73792838185852
 21
13.57323314958422
 31
0.0
  0
LINE
  5
771D
330
7182
100
AcDbEntity
  8
R-ANNO-DIMS
 62
     0
370
    -2
100
AcDbLine
 10
13.61292838185852
 20
12.94823314958166
 30
0.0
 11
13.61292838185852
 21
13.57323314958422
 31
0.0
  0
MTEXT
  5
771E
330
7182
100
AcDbEntity
  8
R-ANNO-DIMS
 62
     0
100
AcDbMText
 10
13.29745219138233
 20
12.36946386041315
 30
0.0
 40
0.25
 41
0.0
 71
     5
 72
     1
  1
\A1;5/8"
  7
ROMAND
 11
0.0000000000000001
 21
1.0
 31
0.0
 73
     1
 44
1.0
1001
ACAD
1000
MTEXTBEGIN
1070
    73
1070
     1
1070
    44
1040
1.0
1070
    74
1070
     0
1000
MTEXTEND
  0
INSERT
  5
771F
330
7182
100
AcDbEntity
  8
R-ANNO-DIMS
 62
     0
370
    -2
100
AcDbBlockReference
  2
_OBLIQUE
 10
13.61292838185852
 20
12.94823314958166
 30
0.0
 41
0.25
 42
0.25
 43
0.25
 50
270.0
  0
INSERT
  5
7720
330
7182
100
AcDbEntity
  8
R-ANNO-DIMS
 62
     0
370
    -2
100
AcDbBlockReference
  2
_OBLIQUE
 10
13.61292838185852
 20
13.57323314958422
 30
0.0
 41
0.25
 42
0.25
 43
0.25
 50
90.0
  0
POINT
  5
7721
330
7182
100
AcDbEntity
  8
DEFPOINTS
 62
     0
100
AcDbPoint
 10
12.86292838185852
 20
12.94823314958166
 30
0.0
  0
POINT
  5
7722
330
7182
100
AcDbEntity
  8
DEFPOINTS
 62
     0
100
AcDbPoint
 10
12.86292838185852
 20
13.57323314958422
 30
0.0
  0
POINT
  5
7723
330
7182
100
AcDbEntity
  8
DEFPOINTS
 62
     0
100
AcDbPoint
 10
13.61292838185852
 20
13.57323314958422
 30
0.0
  0
ENDBLK
  5
718F
330
7182
100
AcDbEntity
  8
0
100
AcDbBlockEnd
  0
BLOCK
  5
804D
330
8041
100
AcDbEntity
  8
0
100
AcDbBlockBegin
  2
Kawneer Logo English
 70
     0
 10
0.0
 20
0.0
 30
0.0
  3
Kawneer Logo English
  1

  0
MTEXT
  5
8042
102
{ACAD_XDICTIONARY
360
80B0
102
}
330
8041
100
AcDbEntity
  8
Kawneer Logo-English
100
AcDbMText
 10
1.510096758583198
 20
0.0372523876656778
 30
0.0
 40
0.036
 41
0.6125900866323382
 71
     3
 72
     5
  1
{\fArial TUR|b0|i0|c0|p34;\T1.05;AN ARCONIC COMPANY}
 73
     1
 44
1.0
1001
ACAD
1000
ACAD_MTEXT_COLUMN_INFO_BEGIN
1070
    75
1070
     2
1070
    79
1070
     0
1070
    76
1070
     1
1070
    78
1070
     0
1070
    48
1040
0.6125900866323382
1070
    49
1040
1.0
1070
    50
1070
     1
1040
0.0
1000
ACAD_MTEXT_COLUMN_INFO_END
1000
MTEXTBEGIN
1070
    73
1070
     1
1070
    44
1040
1.0
1070
    74
1070
     0
1000
MTEXTEND
  0
HATCH
  5
8043
330
8041
100
AcDbEntity
  8
Kawneer Logo-English
100
AcDbHatch
 10
0.0
 20
0.0
 30
0.0
210
0.0
220
0.0
230
1.0
  2
SOLID
 70
     1
 71
     0
 91
        1
 92
        1
 93
       81
 72
     1
 10
0.2706169776412204
 20
0.0336337282279411
 11
0.2687512969786691
 21
0.0350329887248546
 72
     1
 10
0.2687512969786696
 20
0.0350329887248547
 11
0.2633408230572721
 21
0.039137486182467
 72
     1
 10
0.2633408230572729
 20
0.0391374861824669
 11
0.2550385441089194
 21
0.0453875164020133
 72
     1
 10
0.2550385441089191
 20
0.0453875164020132
 11
0.2442175962661241
 21
0.053596511317238
 72
     1
 10
0.2442175962661235
 20
0.0535965113172379
 11
0.2314376837276472
 21
0.0632980507625037
 72
     1
 10
0.2314376837276479
 20
0.0632980507625037
 11
0.2172585106922595
 21
0.0741189986052996
 72
     1
 10
0.2172585106922598
 20
0.0741189986052996
 11
0.2019599292593419
 21
0.0856862187131167
 72
     1
 10
0.201959929259341
 20
0.0856862187131167
 11
0.1862882116939105
 21
0.0976265749534437
 72
     1
 10
0.1862882116939102
 20
0.0976265749534437
 11
0.1706164941284813
 21
0.1095669311937706
 72
     1
 10
0.1706164941284811
 20
0.1095669311937709
 11
0.1553179126955632
 21
0.1211341513015875
 72
     1
 10
0.1553179126955642
 20
0.1211341513015876
 11
0.1411387396601757
 21
0.131955099144384
 72
     1
 10
0.1411387396601755
 20
0.1319550991443839
 11
0.1284521111548274
 21
0.141749922622777
 72
     1
 10
0.1284521111548278
 20
0.1417499226227768
 11
0.117631163312031
 21
0.1499589175380016
 72
     1
 10
0.1176311633120304
 20
0.1499589175380017
 11
0.1094221683968068
 21
0.1563022317906752
 72
     1
 10
0.1094221683968062
 20
0.1563022317906754
 11
0.1041049785085351
 21
0.1604067292482882
 72
     1
 10
0.1041049785085351
 20
0.1604067292482878
 11
0.1023325818791119
 21
0.1618992737783286
 72
     1
 10
0.1023325818791116
 20
0.1618992737783289
 11
0.1043848306079176
 21
0.1636716704077524
 72
     1
 10
0.1043848306079194
 20
0.1636716704077524
 11
0.1100751566286996
 21
0.1683358720641301
 72
     1
 10
0.1100751566286986
 20
0.1683358720641301
 11
0.1189371397758159
 21
0.1757053106812067
 72
     1
 10
0.1189371397758161
 20
0.1757053106812067
 11
0.1304110758505067
 21
0.1851269980270901
 72
     1
 10
0.1304110758505059
 20
0.1851269980270902
 11
0.1439372606540007
 21
0.1963210820023967
 72
     1
 10
0.1439372606540017
 20
0.1963210820023967
 11
0.1589559899875385
 21
0.2087278584083611
 72
     1
 10
0.1589559899875379
 20
0.2087278584083611
 11
0.1750941277186041
 21
0.2220674751456017
 72
     1
 10
0.1750941277186047
 20
0.2220674751456017
 11
0.19169868561531
 21
0.2358735120484796
 72
     1
 10
0.1916986856153105
 20
0.2358735120484796
 11
0.208303243512014
 21
0.2495862649182301
 72
     1
 10
0.2083032435120131
 20
0.2495862649182304
 11
0.2244413812430811
 21
0.2628325976223432
 72
     1
 10
0.2244413812430812
 20
0.2628325976223429
 11
0.239460110576618
 21
0.2753326580614352
 72
     1
 10
0.2394601105766174
 20
0.2753326580614351
 11
0.2529862953801122
 21
0.2864334580036143
 72
     1
 10
0.2529862953801132
 20
0.2864334580036143
 11
0.2643669474216756
 21
0.2958551453494973
 72
     1
 10
0.2643669474216757
 20
0.2958551453494973
 11
0.2731356465356649
 21
0.3031312999334466
 72
     1
 10
0.273135646535664
 20
0.3031312999334466
 11
0.2788259725564443
 21
0.3077955015898243
 72
     1
 10
0.278825972556445
 20
0.3077955015898246
 11
0.2807849372521245
 21
0.3094746141861208
 72
     1
 10
0.2807849372521249
 20
0.3094746141861205
 11
0.2798520969208501
 21
0.3094746141861205
 72
     1
 10
0.2798520969208496
 20
0.3094746141861205
 11
0.2769602918938953
 21
0.3095678982192478
 72
     1
 10
0.2769602918938943
 20
0.3095678982192481
 11
0.2724826583037715
 21
0.3095678982192481
 72
     1
 10
0.2724826583037729
 20
0.3095678982192481
 11
0.2666057642167363
 21
0.3095678982192481
 72
     1
 10
0.266605764216735
 20
0.3095678982192481
 11
0.2597027457652953
 21
0.3095678982192481
 72
     1
 10
0.2597027457652956
 20
0.3095678982192481
 11
0.2519601710157094
 21
0.3095678982192481
 72
     1
 10
0.2519601710157104
 20
0.3095678982192481
 11
0.2437511761004851
 21
0.3095678982192481
 72
     1
 10
0.243751176100484
 20
0.3095678982192481
 11
0.2351690450527495
 21
0.3095678982192481
 72
     1
 10
0.2351690450527495
 20
0.3095678982192481
 11
0.2266801980381413
 21
0.3095678982192481
 72
     1
 10
0.2266801980381423
 20
0.3095678982192481
 11
0.2183779190897905
 21
0.3094746141861208
 72
     1
 10
0.2183779190897899
 20
0.3094746141861205
 11
0.2106353443402037
 21
0.3094746141861205
 72
     1
 10
0.2106353443402029
 20
0.3094746141861205
 11
0.2037323258887632
 21
0.3094746141861205
 72
     1
 10
0.203732325888764
 20
0.3094746141861205
 11
0.1978554318017273
 21
0.3094746141861205
 72
     1
 10
0.1978554318017278
 20
0.3094746141861205
 11
0.1932845141784786
 21
0.3094746141861205
 72
     1
 10
0.1932845141784787
 20
0.3094746141861205
 11
0.1903927091515244
 21
0.3094746141861205
 72
     1
 10
0.1903927091515234
 20
0.3094746141861205
 11
0.1893665847871204
 21
0.3094746141861205
 72
     1
 10
0.1893665847871206
 20
0.3094746141861205
 11
0.1879673242902067
 21
0.3077955015898243
 72
     1
 10
0.1879673242902076
 20
0.3077955015898246
 11
0.1841426789319786
 21
0.3030380159003196
 72
     1
 10
0.1841426789319787
 20
0.3030380159003192
 11
0.1780792167786874
 21
0.29576186131637
 72
     1
 10
0.1780792167786873
 20
0.29576186131637
 11
0.170243357995973
 21
0.2862468899373593
 72
     1
 10
0.170243357995973
 20
0.2862468899373593
 11
0.1610082387163447
 21
0.2750528059620528
 72
     1
 10
0.1610082387163438
 20
0.2750528059620528
 11
0.1507469950723126
 21
0.2624594614898328
 72
     1
 10
0.1507469950723133
 20
0.2624594614898328
 11
0.1396461951301336
 21
0.2491198447525922
 72
     1
 10
0.1396461951301333
 20
0.2491198447525922
 11
0.1282655430885727
 21
0.2352205238165866
 72
     1
 10
0.1282655430885726
 20
0.2352205238165868
 11
0.1168848910470102
 21
0.2214144869137089
 72
     1
 10
0.1168848910470102
 20
0.2214144869137087
 11
0.1058773751379587
 21
0.2079815861433408
 72
     1
 10
0.105877375137958
 20
0.2079815861433408
 11
0.0955228474608004
 21
0.1954815257042486
 72
     1
 10
0.0955228474608019
 20
0.1954815257042488
 11
0.0862877281811736
 21
0.1842874417289424
 72
     1
 10
0.0862877281811727
 20
0.1842874417289424
 11
0.0784518693984583
 21
0.1747724703499316
 72
     1
 10
0.0784518693984584
 20
0.1747724703499314
 11
0.0723884072451672
 21
0.1674963157659821
 72
     1
 10
0.0723884072451671
 20
0.1674963157659822
 11
0.0685637618869363
 21
0.1627388300764767
 72
     1
 10
0.0685637618869364
 20
0.1627388300764767
 11
0.0671645013900242
 21
0.1611530015133082
 72
     1
 10
0.0671645013900251
 20
0.1611530015133082
 11
0.0680040576881734
 21
0.1596604569832674
 72
     1
 10
0.0680040576881726
 20
0.1596604569832674
 11
0.0704294425494878
 21
0.1556492435587824
 72
     1
 10
0.0704294425494871
 20
0.1556492435587824
 11
0.0742540879077179
 21
0.1493059293061089
 72
     1
 10
0.0742540879077192
 20
0.1493059293061089
 11
0.0791048576303511
 21
0.1411902184240116
 72
     1
 10
0.0791048576303508
 20
0.1411902184240116
 11
0.0848884676842594
 21
0.1314886789787458
 72
     1
 10
0.0848884676842596
 20
0.1314886789787459
 11
0.0913250659700619
 21
0.1207610151690772
 72
     1
 10
0.0913250659700613
 20
0.1207610151690775
 11
0.0982280844214992
 21
0.1091937950612604
 72
     1
 10
0.0982280844214985
 20
0.1091937950612603
 11
0.1053176709391927
 21
0.0973467228540611
 72
     1
 10
0.105317670939193
 20
0.0973467228540612
 11
0.1124072574568872
 21
0.0854996506468619
 72
     1
 10
0.1124072574568871
 20
0.0854996506468617
 11
0.1193102759083267
 21
0.0739324305390446
 72
     1
 10
0.1193102759083278
 20
0.0739324305390448
 11
0.1257468741941283
 21
0.0632047667293762
 72
     1
 10
0.1257468741941277
 20
0.063204766729376
 11
0.1315304842480362
 21
0.0535032272841102
 72
     1
 10
0.1315304842480365
 20
0.0535032272841104
 11
0.1363812539706702
 21
0.0453875164020132
 72
     1
 10
0.1363812539706699
 20
0.0453875164020132
 11
0.1402058993288989
 21
0.0391374861824667
 72
     1
 10
0.1402058993288988
 20
0.0391374861824669
 11
0.1426312841902157
 21
0.0350329887248546
 72
     1
 10
0.1426312841902164
 20
0.0350329887248547
 11
0.1434708404883648
 21
0.0336337282279412
 72
     1
 10
0.143470840488364
 20
0.0336337282279411
 11
0.2706169776412211
 21
0.0336337282279411
 97
        0
 75
     0
 76
     1
 98
        1
 10
-0.3743130907707726
 20
-0.2500502867693841
1001
ACAD
1010
0.0
1020
0.0
1030
0.0
  0
HATCH
  5
8044
330
8041
100
AcDbEntity
  8
Kawneer Logo-English
100
AcDbHatch
 10
0.0
 20
0.0
 30
0.0
210
0.0
220
0.0
230
1.0
  2
SOLID
 70
     1
 71
     0
 91
        1
 92
        1
 93
       18
 72
     1
 10
0.0001865656044393
 20
0.2563959993365415
 11
-0.0000000024618153
 21
0.113671428651383
 72
     1
 10
-0.0000000024618159
 20
0.1136714286513832
 11
0.0012126899688416
 21
0.1152572572145516
 72
     1
 10
0.0012126899688421
 20
0.1152572572145516
 11
0.0045709151614355
 21
0.1197348908046738
 72
     1
 10
0.004570915161435
 20
0.119734890804674
 11
0.0098881050497044
 21
0.1268244773223682
 72
     1
 10
0.0098881050497044
 20
0.1268244773223682
 11
0.0166978394680158
 21
0.1359663125688683
 72
     1
 10
0.016697839468016
 20
0.1359663125688683
 11
0.0248135503501131
 21
0.1467872604116651
 72
     1
 10
0.024813550350113
 20
0.1467872604116652
 11
0.0338621015634867
 21
0.1588209006851195
 72
     1
 10
0.0338621015634872
 20
0.1588209006851194
 11
0.0434703569756247
 21
0.1716940972567221
 72
     1
 10
0.0434703569756247
 20
0.1716940972567224
 11
0.0534517485202732
 21
0.1850337139939626
 72
     1
 10
0.0534517485202724
 20
0.1850337139939624
 11
0.0634331400649208
 21
0.1983733307312025
 72
     1
 10
0.0634331400649222
 20
0.1983733307312024
 11
0.0730413954770597
 21
0.2112465273028051
 72
     1
 10
0.0730413954770595
 20
0.2112465273028053
 11
0.0820899466904331
 21
0.2233734516093873
 72
     1
 10
0.0820899466904321
 20
0.2233734516093873
 11
0.0902056575725293
 21
0.2341943994521837
 72
     1
 10
0.0902056575725308
 20
0.2341943994521837
 11
0.0970153919908422
 21
0.2433362346986839
 72
     1
 10
0.0970153919908405
 20
0.2433362346986839
 11
0.1022392978459834
 21
0.2503325371832507
 72
     1
 10
0.1022392978459843
 20
0.2503325371832508
 11
0.1056908070717041
 21
0.2549034548065008
 72
     1
 10
0.1056908070717046
 20
0.254903454806501
 11
0.1069034995023621
 21
0.2564892833696694
 72
     1
 10
0.1069034995023625
 20
0.2564892833696695
 11
0.0001865656044399
 21
0.2563959993365418
 97
        0
 75
     0
 76
     1
 98
        1
 10
-0.3743130907707726
 20
-0.2500502867693841
1001
ACAD
1010
0.0
1020
0.0
1030
0.0
  0
HATCH
  5
8045
330
8041
100
AcDbEntity
  8
Kawneer Logo-English
100
AcDbHatch
 10
0.0
 20
0.0
 30
0.0
210
0.0
220
0.0
230
1.0
  2
SOLID
 70
     1
 71
     0
 91
        2
 92
       16
 93
       76
 72
     1
 10
1.358402087941634
 20
0.1650709309046659
 11
1.358402087941634
 21
0.16796273593162
 72
     1
 10
1.358402087941634
 20
0.1679627359316202
 11
1.358402087941634
 21
0.1729067896873803
 72
     1
 10
1.358402087941634
 20
0.1729067896873803
 11
1.358402087941634
 21
0.1791568199069267
 72
     1
 10
1.358402087941634
 20
0.1791568199069267
 11
1.358402087941634
 21
0.1861531223914932
 72
     1
 10
1.358402087941634
 20
0.186153122391493
 11
1.358402087941634
 21
0.1931494248760595
 72
     1
 10
1.358402087941634
 20
0.1931494248760596
 11
1.358402087941634
 21
0.1994927391287338
 72
     1
 10
1.358402087941634
 20
0.1994927391287336
 11
1.358402087941634
 21
0.2044367928844937
 72
     1
 10
1.358402087941634
 20
0.2044367928844937
 11
1.358402087941634
 21
0.2072353138783208
 72
     1
 10
1.358402087941634
 20
0.2072353138783208
 11
1.359894632471676
 21
0.2072353138783208
 72
     1
 10
1.359894632471676
 20
0.2072353138783208
 11
1.362693153465502
 21
0.2072353138783208
 72
     1
 10
1.362693153465502
 20
0.2072353138783208
 11
1.366424514790605
 21
0.2072353138783208
 72
     1
 10
1.366424514790606
 20
0.2072353138783208
 11
1.371088716446983
 21
0.2072353138783208
 72
     1
 10
1.371088716446982
 20
0.2072353138783208
 11
1.376405906335254
 21
0.2072353138783208
 72
     1
 10
1.376405906335254
 20
0.2072353138783208
 11
1.382282800422289
 21
0.2072353138783208
 72
     1
 10
1.38228280042229
 20
0.2072353138783208
 11
1.388346262575581
 21
0.2072353138783208
 72
     1
 10
1.388346262575579
 20
0.2072353138783208
 11
1.394596292795125
 21
0.2072353138783208
 72
     1
 10
1.394596292795125
 20
0.2072353138783208
 11
1.400753038981545
 21
0.2072353138783208
 72
     1
 10
1.400753038981546
 20
0.2072353138783208
 11
1.406723217101709
 21
0.2072353138783208
 72
     1
 10
1.406723217101708
 20
0.2072353138783208
 11
1.412320259089362
 21
0.2072353138783208
 72
     1
 10
1.412320259089362
 20
0.2072353138783208
 11
1.417264312845122
 21
0.2072353138783208
 72
     1
 10
1.417264312845123
 20
0.2072353138783208
 11
1.421368810302735
 21
0.2072353138783208
 72
     1
 10
1.421368810302734
 20
0.2072353138783208
 11
1.424540467429071
 21
0.2072353138783208
 72
     1
 10
1.424540467429072
 20
0.2072353138783208
 11
1.426592716157878
 21
0.2072353138783208
 72
     1
 10
1.426592716157878
 20
0.2072353138783208
 11
1.427338988422898
 21
0.2072353138783208
 72
     1
 10
1.427338988422898
 20
0.2072353138783208
 11
1.430977065714873
 21
0.207142029845193
 72
     1
 10
1.430977065714872
 20
0.207142029845193
 11
1.434335290907465
 21
0.2068621777458102
 72
     1
 10
1.434335290907465
 20
0.2068621777458102
 11
1.435921119470633
 21
0.2066756096795552
 72
     1
 10
1.435921119470633
 20
0.206675609679555
 11
1.437413664000673
 21
0.2063957575801723
 72
     1
 10
1.437413664000674
 20
0.2063957575801723
 11
1.438906208530714
 21
0.2061159054807895
 72
     1
 10
1.438906208530714
 20
0.2061159054807898
 11
1.440398753060756
 21
0.2056494853151523
 72
     1
 10
1.440398753060756
 20
0.2056494853151521
 11
1.441704729524542
 21
0.2050897811163865
 72
     1
 10
1.441704729524542
 20
0.2050897811163866
 11
1.443010705988328
 21
0.204530076917621
 72
     1
 10
1.443010705988329
 20
0.204530076917621
 11
1.444223398418986
 21
0.2036905206194736
 72
     1
 10
1.444223398418985
 20
0.2036905206194736
 11
1.445436090849643
 21
0.2028509643213252
 72
     1
 10
1.445436090849643
 20
0.2028509643213252
 11
1.446555499247174
 21
0.2018248399569224
 72
     1
 10
1.446555499247173
 20
0.2018248399569223
 11
1.447581623611576
 21
0.2007054315593917
 72
     1
 10
1.447581623611578
 20
0.2007054315593915
 11
1.448607747975981
 21
0.1993061710624781
 72
     1
 10
1.448607747975981
 20
0.1993061710624781
 11
1.449540588307258
 21
0.1978136265324374
 72
     1
 10
1.449540588307256
 20
0.1978136265324373
 11
1.450380144605403
 21
0.1961345139361415
 72
     1
 10
1.450380144605404
 20
0.1961345139361415
 11
1.451126416870426
 21
0.1944554013398453
 72
     1
 10
1.451126416870426
 20
0.1944554013398454
 11
1.451592837036063
 21
0.1929628568098046
 72
     1
 10
1.451592837036062
 20
0.1929628568098046
 11
1.451965973168573
 21
0.1913770282466361
 72
     1
 10
1.451965973168574
 20
0.1913770282466361
 11
1.452245825267955
 21
0.1899777677497231
 72
     1
 10
1.452245825267954
 20
0.1899777677497231
 11
1.452432393334211
 21
0.188671791285937
 72
     1
 10
1.452432393334211
 20
0.1886717912859369
 11
1.452432393334211
 21
0.1874590988552789
 72
     1
 10
1.452432393334211
 20
0.1874590988552789
 11
1.452525677367338
 21
0.1863396904577482
 72
     1
 10
1.452525677367337
 20
0.1863396904577481
 11
1.452432393334211
 21
0.1844740097951972
 72
     1
 10
1.452432393334211
 20
0.1844740097951974
 11
1.452245825267955
 21
0.1827948971989012
 72
     1
 10
1.452245825267954
 20
0.1827948971989009
 11
1.451872689135445
 21
0.1810225005694773
 72
     1
 10
1.451872689135446
 20
0.1810225005694774
 11
1.451406268969809
 21
0.1794366720063093
 72
     1
 10
1.451406268969809
 20
0.1794366720063094
 11
1.450846564771043
 21
0.1779441274762682
 72
     1
 10
1.450846564771041
 20
0.1779441274762681
 11
1.450100292506021
 21
0.1764515829462274
 72
     1
 10
1.450100292506023
 20
0.1764515829462275
 11
1.449260736207875
 21
0.1750523224493141
 72
     1
 10
1.449260736207873
 20
0.1750523224493139
 11
1.448327895876597
 21
0.1737463459855283
 72
     1
 10
1.448327895876596
 20
0.1737463459855281
 11
1.44702191941281
 21
0.1723470854886151
 72
     1
 10
1.447021919412811
 20
0.1723470854886151
 11
1.445715942949025
 21
0.1711343930579568
 72
     1
 10
1.445715942949026
 20
0.1711343930579568
 11
1.444316682452114
 21
0.1700149846604262
 72
     1
 10
1.444316682452114
 20
0.1700149846604259
 11
1.442824137922072
 21
0.168988860296023
 72
     1
 10
1.442824137922072
 20
0.168988860296023
 11
1.441238309358904
 21
0.1682425880310024
 72
     1
 10
1.441238309358902
 20
0.1682425880310024
 11
1.439559196762608
 21
0.1674963157659821
 72
     1
 10
1.439559196762608
 20
0.1674963157659822
 11
1.437880084166311
 21
0.1669366115672166
 72
     1
 10
1.437880084166311
 20
0.1669366115672167
 11
1.436107687536888
 21
0.1664701914015788
 72
     1
 10
1.436107687536888
 20
0.1664701914015789
 11
1.434242006874337
 21
0.166003771235941
 72
     1
 10
1.434242006874337
 20
0.1660037712359412
 11
1.432376326211786
 21
0.1657239191365588
 72
     1
 10
1.432376326211785
 20
0.1657239191365585
 11
1.430417361516107
 21
0.1655373510703035
 72
     1
 10
1.430417361516108
 20
0.1655373510703037
 11
1.428458396820429
 21
0.1653507830040482
 72
     1
 10
1.428458396820428
 20
0.1653507830040482
 11
1.424353899362817
 21
0.1651642149377932
 72
     1
 10
1.424353899362817
 20
0.1651642149377932
 11
1.420156117872077
 21
0.1650709309046658
 72
     1
 10
1.420156117872076
 20
0.1650709309046659
 11
1.41773073301076
 21
0.1650709309046659
 72
     1
 10
1.417730733010761
 20
0.1650709309046659
 11
1.411107566658704
 21
0.1650709309046659
 72
     1
 10
1.411107566658702
 20
0.1650709309046659
 11
1.401779163345947
 21
0.1650709309046659
 72
     1
 10
1.401779163345949
 20
0.1650709309046659
 11
1.390958215503152
 21
0.1650709309046659
 72
     1
 10
1.390958215503152
 20
0.1650709309046659
 11
1.379950699594101
 21
0.1650709309046659
 72
     1
 10
1.379950699594099
 20
0.1650709309046659
 11
1.369969308049451
 21
0.1650709309046659
 72
     1
 10
1.369969308049451
 20
0.1650709309046659
 11
1.362320017332992
 21
0.1650709309046659
 72
     1
 10
1.362320017332992
 20
0.1650709309046659
 11
1.358402087941635
 21
0.1650709309046659
 97
        0
 92
        1
 93
      107
 72
     1
 10
1.443756978253348
 20
0.1485596570410883
 11
1.446928635379685
 21
0.1492126452729816
 72
     1
 10
1.446928635379685
 20
0.1492126452729817
 11
1.449540588307256
 21
0.1498656335048746
 72
     1
 10
1.449540588307256
 20
0.1498656335048745
 11
1.451872689135445
 21
0.1506119057698948
 72
     1
 10
1.451872689135446
 20
0.1506119057698946
 11
1.45401822189738
 21
0.1514514620680426
 72
     1
 10
1.45401822189738
 20
0.1514514620680425
 11
1.455883902559929
 21
0.1521977343330632
 72
     1
 10
1.455883902559929
 20
0.1521977343330631
 11
1.457563015156225
 21
0.1530372906312111
 72
     1
 10
1.457563015156225
 20
0.1530372906312111
 11
1.459148843719394
 21
0.1539701309624869
 72
     1
 10
1.459148843719394
 20
0.1539701309624866
 11
1.460641388249434
 21
0.1549029712937624
 72
     1
 10
1.460641388249434
 20
0.1549029712937622
 11
1.462133932779476
 21
0.155835811625038
 72
     1
 10
1.462133932779476
 20
0.155835811625038
 11
1.463439909243262
 21
0.1568619359894408
 72
     1
 10
1.463439909243262
 20
0.1568619359894408
 11
1.464745885707048
 21
0.1579813443869714
 72
     1
 10
1.464745885707047
 20
0.1579813443869716
 11
1.465865294104579
 21
0.1591007527845022
 72
     1
 10
1.465865294104579
 20
0.1591007527845025
 11
1.466984702502109
 21
0.1602201611820331
 72
     1
 10
1.466984702502108
 20
0.1602201611820328
 11
1.468010826866511
 21
0.1613395695795634
 72
     1
 10
1.468010826866511
 20
0.1613395695795637
 11
1.468943667197788
 21
0.1625522620102216
 72
     1
 10
1.468943667197788
 20
0.1625522620102216
 11
1.469876507529063
 21
0.1636716704077522
 72
     1
 10
1.469876507529063
 20
0.1636716704077524
 11
1.470622779794084
 21
0.1648843628384107
 72
     1
 10
1.470622779794084
 20
0.1648843628384107
 11
1.471462336092232
 21
0.1661903393021964
 72
     1
 10
1.471462336092232
 20
0.1661903393021967
 11
1.472115324324125
 21
0.1674030317328546
 72
     1
 10
1.472115324324124
 20
0.1674030317328546
 11
1.472768312556016
 21
0.1686157241635125
 72
     1
 10
1.472768312556017
 20
0.1686157241635125
 11
1.473328016754783
 21
0.1699217006272986
 72
     1
 10
1.473328016754782
 20
0.1699217006272989
 11
1.47379443692042
 21
0.1711343930579568
 72
     1
 10
1.47379443692042
 20
0.1711343930579568
 11
1.474260857086057
 21
0.1724403695217425
 72
     1
 10
1.474260857086058
 20
0.1724403695217424
 11
1.474727277251697
 21
0.1736530619524008
 72
     1
 10
1.474727277251697
 20
0.173653061952401
 11
1.475380265483589
 21
0.1760784468137175
 72
     1
 10
1.475380265483588
 20
0.1760784468137173
 11
1.475846685649225
 21
0.1785038316750338
 72
     1
 10
1.475846685649226
 20
0.1785038316750335
 11
1.476219821781737
 21
0.1808359325032223
 72
     1
 10
1.476219821781738
 20
0.1808359325032223
 11
1.47649967388112
 21
0.1830747492982838
 72
     1
 10
1.47649967388112
 20
0.1830747492982838
 11
1.476592957914248
 21
0.1851269980270901
 72
     1
 10
1.476592957914248
 20
0.1851269980270902
 11
1.476686241947374
 21
0.1870859627227688
 72
     1
 10
1.476686241947375
 20
0.1870859627227687
 11
1.476592957914249
 21
0.1888583593521923
 72
     1
 10
1.476592957914248
 20
0.1888583593521922
 11
1.476499673881119
 21
0.1906307559816158
 72
     1
 10
1.47649967388112
 20
0.1906307559816159
 11
1.476406389847991
 21
0.1924031526110394
 72
     1
 10
1.476406389847991
 20
0.1924031526110394
 11
1.476126537748608
 21
0.1940822652073352
 72
     1
 10
1.476126537748608
 20
0.1940822652073352
 11
1.475846685649226
 21
0.195761377803631
 72
     1
 10
1.475846685649226
 20
0.1957613778036309
 11
1.475566833549843
 21
0.1974404903999272
 72
     1
 10
1.475566833549843
 20
0.1974404903999272
 11
1.475100413384206
 21
0.1990263189630953
 72
     1
 10
1.475100413384205
 20
0.1990263189630952
 11
1.474633993218568
 21
0.2006121475262637
 72
     1
 10
1.474633993218568
 20
0.2006121475262639
 11
1.47416757305293
 21
0.2021046920563051
 72
     1
 10
1.474167573052932
 20
0.2021046920563049
 11
1.473514584821038
 21
0.2035972365863457
 72
     1
 10
1.473514584821037
 20
0.2035972365863459
 11
1.472954880622271
 21
0.2050897811163867
 72
     1
 10
1.472954880622272
 20
0.2050897811163866
 11
1.472208608357252
 21
0.2064890416133
 72
     1
 10
1.472208608357252
 20
0.2064890416133001
 11
1.471462336092232
 21
0.2078883021102135
 72
     1
 10
1.471462336092232
 20
0.2078883021102136
 11
1.470622779794083
 21
0.2091942785739993
 72
     1
 10
1.470622779794084
 20
0.2091942785739991
 11
1.469783223495935
 21
0.2105002550377848
 72
     1
 10
1.469783223495934
 20
0.2105002550377851
 11
1.468850383164659
 21
0.2118062315015707
 72
     1
 10
1.468850383164661
 20
0.2118062315015709
 11
1.467917542833386
 21
0.2130189239322288
 72
     1
 10
1.467917542833385
 20
0.2130189239322289
 11
1.466891418468982
 21
0.2141383323297595
 72
     1
 10
1.466891418468982
 20
0.2141383323297595
 11
1.465772010071451
 21
0.2153510247604178
 72
     1
 10
1.46577201007145
 20
0.215351024760418
 11
1.464652601673919
 21
0.2163771491248209
 72
     1
 10
1.46465260167392
 20
0.2163771491248209
 11
1.463533193276389
 21
0.2174032734892238
 72
     1
 10
1.463533193276389
 20
0.2174032734892238
 11
1.462227216812603
 21
0.2184293978536266
 72
     1
 10
1.462227216812602
 20
0.2184293978536266
 11
1.461014524381945
 21
0.2193622381849024
 72
     1
 10
1.461014524381946
 20
0.2193622381849023
 11
1.459615263885032
 21
0.2202950785161781
 72
     1
 10
1.459615263885031
 20
0.2202950785161782
 11
1.458309287421245
 21
0.2211346348143262
 72
     1
 10
1.458309287421246
 20
0.221134634814326
 11
1.456816742891206
 21
0.221974191112474
 72
     1
 10
1.456816742891206
 20
0.2219741911124738
 11
1.455417482394292
 21
0.2227204633774945
 72
     1
 10
1.455417482394291
 20
0.2227204633774944
 11
1.453831653831122
 21
0.2233734516093874
 72
     1
 10
1.453831653831123
 20
0.2233734516093873
 11
1.452339109301082
 21
0.2240264398412803
 72
     1
 10
1.452339109301082
 20
0.2240264398412803
 11
1.450659996704785
 21
0.2245861440400459
 72
     1
 10
1.450659996704787
 20
0.2245861440400457
 11
1.44907416814162
 21
0.2251458482388108
 72
     1
 10
1.449074168141619
 20
0.2251458482388109
 11
1.447301771512194
 21
0.2256122684044489
 72
     1
 10
1.447301771512194
 20
0.2256122684044488
 11
1.445249522783388
 21
0.2261719726032139
 72
     1
 10
1.445249522783388
 20
0.226171972603214
 11
1.44329055808771
 21
0.2265451087357246
 72
     1
 10
1.443290558087712
 20
0.2265451087357244
 11
1.441145025325778
 21
0.2269182448682345
 72
     1
 10
1.441145025325776
 20
0.2269182448682345
 11
1.438906208530714
 21
0.2271980969676173
 72
     1
 10
1.438906208530714
 20
0.2271980969676173
 11
1.436387539636271
 21
0.2273846650338724
 72
     1
 10
1.436387539636271
 20
0.2273846650338724
 11
1.433495734609316
 21
0.2275712331001274
 72
     1
 10
1.433495734609317
 20
0.2275712331001274
 11
1.430044225383597
 21
0.2276645171332552
 72
     1
 10
1.430044225383597
 20
0.2276645171332549
 11
1.42612629599224
 21
0.2277578011663822
 72
     1
 10
1.42612629599224
 20
0.2277578011663825
 11
1.426033011959112
 21
0.2277578011663825
 72
     1
 10
1.426033011959111
 20
0.2277578011663825
 11
1.33489451159349
 21
0.2277578011663825
 72
     1
 10
1.334894511593491
 20
0.2277578011663825
 11
1.334894511593491
 21
0.0926825211976832
 72
     1
 10
1.334894511593491
 20
0.0926825211976832
 11
1.358588656007891
 21
0.0926825211976832
 72
     1
 10
1.358588656007891
 20
0.0926825211976832
 11
1.358588656007891
 21
0.0947347699264896
 72
     1
 10
1.358588656007891
 20
0.0947347699264896
 11
1.358588656007891
 21
0.1001452438478876
 72
     1
 10
1.358588656007891
 20
0.1001452438478875
 11
1.358588656007891
 21
0.1079811026306024
 72
     1
 10
1.358588656007891
 20
0.1079811026306024
 11
1.358588656007891
 21
0.1170296538439752
 72
     1
 10
1.358588656007891
 20
0.1170296538439753
 11
1.358588656007891
 21
0.1262647731236032
 72
     1
 10
1.358588656007891
 20
0.1262647731236031
 11
1.358588656007891
 21
0.1347536201382103
 72
     1
 10
1.358588656007891
 20
0.1347536201382104
 11
1.358588656007891
 21
0.1412835024571394
 72
     1
 10
1.358588656007891
 20
0.1412835024571393
 11
1.358588656007891
 21
0.1448282957159864
 72
     1
 10
1.358588656007891
 20
0.1448282957159865
 11
1.362320017332992
 21
0.1448282957159865
 72
     1
 10
1.362320017332992
 20
0.1448282957159865
 11
1.369409603850688
 21
0.1448282957159865
 72
     1
 10
1.369409603850688
 20
0.1448282957159865
 11
1.378738007163443
 21
0.1448282957159865
 72
     1
 10
1.378738007163443
 20
0.1448282957159865
 11
1.388999250807475
 21
0.1448282957159865
 72
     1
 10
1.388999250807473
 20
0.1448282957159865
 11
1.399260494451505
 21
0.1448282957159865
 72
     1
 10
1.399260494451506
 20
0.1448282957159865
 11
1.408215761631749
 21
0.1448282957159865
 72
     1
 10
1.408215761631748
 20
0.1448282957159865
 11
1.414745643950677
 21
0.1448282957159865
 72
     1
 10
1.414745643950678
 20
0.1448282957159865
 11
1.41773073301076
 21
0.1448282957159865
 72
     1
 10
1.417730733010761
 20
0.1448282957159865
 11
1.420062833838949
 21
0.1420297747221594
 72
     1
 10
1.420062833838949
 20
0.1420297747221597
 11
1.425193455660966
 21
0.1359663125688683
 72
     1
 10
1.425193455660965
 20
0.1359663125688683
 11
1.432283042178659
 21
0.1275707495873888
 72
     1
 10
1.432283042178659
 20
0.1275707495873886
 11
1.440305469027628
 21
0.1180557782083779
 72
     1
 10
1.440305469027629
 20
0.1180557782083781
 11
1.448234611843471
 21
0.1087273748956225
 72
     1
 10
1.448234611843471
 20
0.1087273748956225
 11
1.455044346261782
 21
0.1006116640135252
 72
     1
 10
1.455044346261782
 20
0.1006116640135252
 11
1.459895115984414
 21
0.0948280539596167
 72
     1
 10
1.459895115984414
 20
0.0948280539596169
 11
1.461760796646965
 21
0.0926825211976832
 72
     1
 10
1.461760796646967
 20
0.0926825211976832
 11
1.49254452757906
 21
0.0926825211976832
 72
     1
 10
1.492544527579059
 20
0.0926825211976832
 11
1.490678846916508
 21
0.0948280539596169
 72
     1
 10
1.490678846916508
 20
0.0948280539596169
 11
1.48564150912762
 21
0.100518379980398
 72
     1
 10
1.48564150912762
 20
0.1005183799803981
 11
1.478458638576797
 21
0.1088206589287502
 72
     1
 10
1.478458638576798
 20
0.1088206589287502
 11
1.470063075595318
 21
0.1183356303077609
 72
     1
 10
1.470063075595317
 20
0.118335630307761
 11
1.461480944547582
 21
0.1282237378192818
 72
     1
 10
1.461480944547582
 20
0.1282237378192818
 11
1.453551801731739
 21
0.1372722890326546
 72
     1
 10
1.45355180173174
 20
0.1372722890326546
 11
1.447395055545323
 21
0.1444551595834761
 72
     1
 10
1.447395055545323
 20
0.1444551595834759
 11
1.443756978253349
 21
0.1485596570410882
 97
        0
 75
     0
 76
     1
 98
        1
 10
-0.3743130907707726
 20
-0.2500502867693841
1001
ACAD
1010
0.0
1020
0.0
1030
0.0
  0
HATCH
  5
8046
330
8041
100
AcDbEntity
  8
Kawneer Logo-English
100
AcDbHatch
 10
0.0
 20
0.0
 30
0.0
210
0.0
220
0.0
230
1.0
  2
SOLID
 70
     1
 71
     0
 91
        1
 92
        1
 93
       87
 72
     1
 10
1.205602841678699
 20
0.1525708704655737
 11
1.207468522341251
 21
0.1525708704655737
 72
     1
 10
1.207468522341252
 20
0.1525708704655737
 11
1.211199883666355
 21
0.1525708704655737
 72
     1
 10
1.211199883666355
 20
0.1525708704655737
 11
1.216517073554626
 21
0.1525708704655737
 72
     1
 10
1.216517073554626
 20
0.1525708704655737
 11
1.223046955873555
 21
0.1525708704655737
 72
     1
 10
1.223046955873553
 20
0.1525708704655737
 11
1.230602962556885
 21
0.1525708704655737
 72
     1
 10
1.230602962556885
 20
0.1525708704655737
 11
1.238998525538365
 21
0.1525708704655737
 72
     1
 10
1.238998525538365
 20
0.1525708704655737
 11
1.247767224652354
 21
0.1525708704655737
 72
     1
 10
1.247767224652355
 20
0.1525708704655737
 11
1.256815775865728
 21
0.1525708704655737
 72
     1
 10
1.256815775865729
 20
0.1525708704655737
 11
1.265771043045974
 21
0.1525708704655737
 72
     1
 10
1.265771043045973
 20
0.1525708704655737
 11
1.274446458126836
 21
0.1525708704655737
 72
     1
 10
1.274446458126837
 20
0.1525708704655737
 11
1.282562169008935
 21
0.1525708704655737
 72
     1
 10
1.282562169008935
 20
0.1525708704655737
 11
1.289745039559756
 21
0.1525708704655737
 72
     1
 10
1.289745039559755
 20
0.1525708704655737
 11
1.295808501713046
 21
0.1525708704655737
 72
     1
 10
1.295808501713046
 20
0.1525708704655737
 11
1.300472703369423
 21
0.1525708704655737
 72
     1
 10
1.300472703369423
 20
0.1525708704655737
 11
1.303457792429505
 21
0.1525708704655737
 72
     1
 10
1.303457792429505
 20
0.1525708704655737
 11
1.304483916793908
 21
0.1525708704655737
 72
     1
 10
1.304483916793908
 20
0.1525708704655737
 11
1.304483916793908
 21
0.1730000737205081
 72
     1
 10
1.304483916793908
 20
0.1730000737205078
 11
1.303457792429505
 21
0.1730000737205078
 72
     1
 10
1.303457792429505
 20
0.1730000737205078
 11
1.300472703369423
 21
0.1730000737205078
 72
     1
 10
1.300472703369423
 20
0.1730000737205078
 11
1.295808501713045
 21
0.1730000737205078
 72
     1
 10
1.295808501713046
 20
0.1730000737205078
 11
1.289745039559754
 21
0.1730000737205078
 72
     1
 10
1.289745039559755
 20
0.1730000737205078
 11
1.282562169008934
 21
0.1730000737205078
 72
     1
 10
1.282562169008935
 20
0.1730000737205078
 11
1.274446458126837
 21
0.1730000737205078
 72
     1
 10
1.274446458126837
 20
0.1730000737205078
 11
1.265771043045975
 21
0.1730000737205078
 72
     1
 10
1.265771043045973
 20
0.1730000737205078
 11
1.256815775865728
 21
0.1730000737205078
 72
     1
 10
1.256815775865729
 20
0.1730000737205078
 11
1.247767224652355
 21
0.1730000737205078
 72
     1
 10
1.247767224652355
 20
0.1730000737205078
 11
1.238998525538365
 21
0.1730000737205078
 72
     1
 10
1.238998525538365
 20
0.1730000737205078
 11
1.230602962556885
 21
0.1730000737205078
 72
     1
 10
1.230602962556885
 20
0.1730000737205078
 11
1.223046955873553
 21
0.1730000737205078
 72
     1
 10
1.223046955873553
 20
0.1730000737205078
 11
1.216517073554625
 21
0.1730000737205078
 72
     1
 10
1.216517073554626
 20
0.1730000737205078
 11
1.211199883666355
 21
0.1730000737205078
 72
     1
 10
1.211199883666355
 20
0.1730000737205078
 11
1.207468522341252
 21
0.1730000737205078
 72
     1
 10
1.207468522341252
 20
0.1730000737205078
 11
1.205602841678701
 21
0.1730000737205078
 72
     1
 10
1.205602841678699
 20
0.1730000737205078
 11
1.205602841678699
 21
0.1754254585818243
 72
     1
 10
1.205602841678699
 20
0.1754254585818245
 11
1.205602841678699
 21
0.1794366720063095
 72
     1
 10
1.205602841678699
 20
0.1794366720063094
 11
1.205602841678699
 21
0.1843807257620694
 72
     1
 10
1.205602841678699
 20
0.1843807257620694
 11
1.205602841678699
 21
0.1898844837165951
 72
     1
 10
1.205602841678699
 20
0.1898844837165951
 11
1.205602841678699
 21
0.1952949576379935
 72
     1
 10
1.205602841678699
 20
0.1952949576379937
 11
1.205602841678699
 21
0.2003322954268815
 72
     1
 10
1.205602841678699
 20
0.2003322954268814
 11
1.205602841678699
 21
0.2042502248182386
 72
     1
 10
1.205602841678699
 20
0.2042502248182386
 11
1.205602841678699
 21
0.206675609679555
 72
     1
 10
1.205602841678699
 20
0.206675609679555
 11
1.207468522341251
 21
0.206675609679555
 72
     1
 10
1.207468522341252
 20
0.206675609679555
 11
1.211293167699483
 21
0.206675609679555
 72
     1
 10
1.211293167699483
 20
0.206675609679555
 11
1.21670364162088
 21
0.206675609679555
 72
     1
 10
1.216703641620879
 20
0.206675609679555
 11
1.223420092006063
 21
0.206675609679555
 72
     1
 10
1.223420092006064
 20
0.206675609679555
 11
1.231255950788778
 21
0.206675609679555
 72
     1
 10
1.231255950788778
 20
0.206675609679555
 11
1.239744797803386
 21
0.206675609679555
 72
     1
 10
1.239744797803385
 20
0.206675609679555
 11
1.248886633049885
 21
0.206675609679555
 72
     1
 10
1.248886633049885
 20
0.206675609679555
 11
1.258121752329513
 21
0.206675609679555
 72
     1
 10
1.258121752329514
 20
0.206675609679555
 11
1.267356871609143
 21
0.206675609679555
 72
     1
 10
1.267356871609142
 20
0.206675609679555
 11
1.276218854756259
 21
0.206675609679555
 72
     1
 10
1.276218854756259
 20
0.206675609679555
 11
1.284521133704611
 21
0.206675609679555
 72
     1
 10
1.284521133704611
 20
0.206675609679555
 11
1.291890572321688
 21
0.206675609679555
 72
     1
 10
1.291890572321688
 20
0.206675609679555
 11
1.298140602541234
 21
0.206675609679555
 72
     1
 10
1.298140602541234
 20
0.206675609679555
 11
1.30289808823074
 21
0.206675609679555
 72
     1
 10
1.30289808823074
 20
0.206675609679555
 11
1.305976461323949
 21
0.206675609679555
 72
     1
 10
1.305976461323949
 20
0.206675609679555
 11
1.30709586972148
 21
0.206675609679555
 72
     1
 10
1.307095869721479
 20
0.206675609679555
 11
1.307095869721479
 21
0.2277578011663822
 72
     1
 10
1.307095869721479
 20
0.2277578011663825
 11
1.304577200827036
 21
0.2277578011663825
 72
     1
 10
1.304577200827037
 20
0.2277578011663825
 11
1.182188549363684
 21
0.2277578011663825
 72
     1
 10
1.182188549363684
 20
0.2277578011663825
 11
1.182188549363684
 21
0.0926825211976832
 72
     1
 10
1.182188549363684
 20
0.0926825211976832
 11
1.311853355410986
 21
0.0926825211976832
 72
     1
 10
1.311853355410985
 20
0.0926825211976832
 11
1.311853355410985
 21
0.113671428651383
 72
     1
 10
1.311853355410985
 20
0.1136714286513832
 11
1.310733947013454
 21
0.1136714286513832
 72
     1
 10
1.310733947013455
 20
0.1136714286513832
 11
1.307469005853991
 21
0.1136714286513832
 72
     1
 10
1.307469005853991
 20
0.1136714286513832
 11
1.302431668065102
 21
0.1136714286513832
 72
     1
 10
1.302431668065103
 20
0.1136714286513832
 11
1.295901785746174
 21
0.1136714286513832
 72
     1
 10
1.295901785746174
 20
0.1136714286513832
 11
1.288159210996586
 21
0.1136714286513832
 72
     1
 10
1.288159210996587
 20
0.1136714286513832
 11
1.279483795915724
 21
0.1136714286513832
 72
     1
 10
1.279483795915723
 20
0.1136714286513832
 11
1.270155392602968
 21
0.1136714286513832
 72
     1
 10
1.270155392602969
 20
0.1136714286513832
 11
1.260547137190832
 21
0.1136714286513832
 72
     1
 10
1.260547137190831
 20
0.1136714286513832
 11
1.250752313712437
 21
0.1136714286513832
 72
     1
 10
1.250752313712437
 20
0.1136714286513832
 11
1.241330626366554
 21
0.1136714286513832
 72
     1
 10
1.241330626366555
 20
0.1136714286513832
 11
1.23237535918631
 21
0.1136714286513832
 72
     1
 10
1.232375359186308
 20
0.1136714286513832
 11
1.224166364271082
 21
0.1136714286513832
 72
     1
 10
1.224166364271083
 20
0.1136714286513832
 11
1.217170061786517
 21
0.1136714286513832
 72
     1
 10
1.217170061786517
 20
0.1136714286513832
 11
1.211479735765737
 21
0.1136714286513832
 72
     1
 10
1.211479735765737
 20
0.1136714286513832
 11
1.20756180637438
 21
0.1136714286513832
 72
     1
 10
1.207561806374379
 20
0.1136714286513832
 11
1.2056028416787
 21
0.1136714286513832
 72
     1
 10
1.205602841678699
 20
0.1136714286513832
 11
1.205602841678699
 21
0.1163766656120825
 72
     1
 10
1.205602841678699
 20
0.1163766656120823
 11
1.205602841678699
 21
0.1209475832353323
 72
     1
 10
1.205602841678699
 20
0.1209475832353325
 11
1.205602841678699
 21
0.1267311932892411
 72
     1
 10
1.205602841678699
 20
0.1267311932892408
 11
1.205602841678699
 21
0.1330745075419143
 72
     1
 10
1.205602841678699
 20
0.1330745075419144
 11
1.205602841678699
 21
0.1395111058277156
 72
     1
 10
1.205602841678699
 20
0.1395111058277158
 11
1.205602841678699
 21
0.1452947158816239
 72
     1
 10
1.205602841678699
 20
0.145294715881624
 11
1.205602841678699
 21
0.1498656335048746
 72
     1
 10
1.205602841678699
 20
0.1498656335048745
 11
1.205602841678699
 21
0.1525708704655738
 97
        0
 75
     0
 76
     1
 98
        1
 10
-0.3743130907707726
 20
-0.2500502867693841
1001
ACAD
1010
0.0
1020
0.0
1030
0.0
  0
HATCH
  5
8047
330
8041
100
AcDbEntity
  8
Kawneer Logo-English
100
AcDbHatch
 10
0.0
 20
0.0
 30
0.0
210
0.0
220
0.0
230
1.0
  2
SOLID
 70
     1
 71
     0
 91
        1
 92
        1
 93
       87
 72
     1
 10
1.049352086190046
 20
0.1525708704655737
 11
1.051217766852597
 21
0.1525708704655737
 72
     1
 10
1.051217766852596
 20
0.1525708704655737
 11
1.054949128177699
 21
0.1525708704655737
 72
     1
 10
1.0549491281777
 20
0.1525708704655737
 11
1.060173034032843
 21
0.1525708704655737
 72
     1
 10
1.060173034032843
 20
0.1525708704655737
 11
1.0667962003849
 21
0.1525708704655737
 72
     1
 10
1.0667962003849
 20
0.1525708704655737
 11
1.074352207068231
 21
0.1525708704655737
 72
     1
 10
1.074352207068232
 20
0.1525708704655737
 11
1.082747770049711
 21
0.1525708704655737
 72
     1
 10
1.082747770049711
 20
0.1525708704655737
 11
1.0915164691637
 21
0.1525708704655737
 72
     1
 10
1.091516469163701
 20
0.1525708704655737
 11
1.100565020377075
 21
0.1525708704655737
 72
     1
 10
1.100565020377073
 20
0.1525708704655737
 11
1.109520287557319
 21
0.1525708704655737
 72
     1
 10
1.10952028755732
 20
0.1525708704655737
 11
1.118195702638183
 21
0.1525708704655737
 72
     1
 10
1.118195702638182
 20
0.1525708704655737
 11
1.126218129487151
 21
0.1525708704655737
 72
     1
 10
1.126218129487152
 20
0.1525708704655737
 11
1.133401000037974
 21
0.1525708704655737
 72
     1
 10
1.133401000037974
 20
0.1525708704655737
 11
1.139557746224391
 21
0.1525708704655737
 72
     1
 10
1.139557746224392
 20
0.1525708704655737
 11
1.14422194788077
 21
0.1525708704655737
 72
     1
 10
1.144221947880769
 20
0.1525708704655737
 11
1.147207036940851
 21
0.1525708704655737
 72
     1
 10
1.147207036940852
 20
0.1525708704655737
 11
1.148233161305255
 21
0.1525708704655737
 72
     1
 10
1.148233161305255
 20
0.1525708704655737
 11
1.148233161305255
 21
0.1730000737205081
 72
     1
 10
1.148233161305255
 20
0.1730000737205078
 11
1.147207036940852
 21
0.1730000737205078
 72
     1
 10
1.147207036940852
 20
0.1730000737205078
 11
1.14422194788077
 21
0.1730000737205078
 72
     1
 10
1.144221947880769
 20
0.1730000737205078
 11
1.139557746224391
 21
0.1730000737205078
 72
     1
 10
1.139557746224392
 20
0.1730000737205078
 11
1.133494284071101
 21
0.1730000737205078
 72
     1
 10
1.133494284071101
 20
0.1730000737205078
 11
1.126218129487152
 21
0.1730000737205078
 72
     1
 10
1.126218129487152
 20
0.1730000737205078
 11
1.118195702638183
 21
0.1730000737205078
 72
     1
 10
1.118195702638182
 20
0.1730000737205078
 11
1.10952028755732
 21
0.1730000737205078
 72
     1
 10
1.10952028755732
 20
0.1730000737205078
 11
1.100565020377074
 21
0.1730000737205078
 72
     1
 10
1.100565020377073
 20
0.1730000737205078
 11
1.0915164691637
 21
0.1730000737205078
 72
     1
 10
1.091516469163701
 20
0.1730000737205078
 11
1.082747770049712
 21
0.1730000737205078
 72
     1
 10
1.082747770049711
 20
0.1730000737205078
 11
1.074352207068231
 21
0.1730000737205078
 72
     1
 10
1.074352207068232
 20
0.1730000737205078
 11
1.0667962003849
 21
0.1730000737205078
 72
     1
 10
1.0667962003849
 20
0.1730000737205078
 11
1.060173034032843
 21
0.1730000737205078
 72
     1
 10
1.060173034032843
 20
0.1730000737205078
 11
1.054949128177701
 21
0.1730000737205078
 72
     1
 10
1.0549491281777
 20
0.1730000737205078
 11
1.051217766852597
 21
0.1730000737205078
 72
     1
 10
1.051217766852596
 20
0.1730000737205078
 11
1.049352086190045
 21
0.1730000737205078
 72
     1
 10
1.049352086190046
 20
0.1730000737205078
 11
1.049352086190046
 21
0.1754254585818243
 72
     1
 10
1.049352086190046
 20
0.1754254585818245
 11
1.049352086190046
 21
0.1794366720063095
 72
     1
 10
1.049352086190046
 20
0.1794366720063094
 11
1.049352086190046
 21
0.1843807257620694
 72
     1
 10
1.049352086190046
 20
0.1843807257620694
 11
1.049352086190046
 21
0.1898844837165951
 72
     1
 10
1.049352086190046
 20
0.1898844837165951
 11
1.049352086190046
 21
0.1952949576379935
 72
     1
 10
1.049352086190046
 20
0.1952949576379937
 11
1.049352086190046
 21
0.2003322954268815
 72
     1
 10
1.049352086190046
 20
0.2003322954268814
 11
1.049352086190046
 21
0.2042502248182386
 72
     1
 10
1.049352086190046
 20
0.2042502248182386
 11
1.049352086190046
 21
0.206675609679555
 72
     1
 10
1.049352086190046
 20
0.206675609679555
 11
1.051217766852597
 21
0.206675609679555
 72
     1
 10
1.051217766852596
 20
0.206675609679555
 11
1.055042412210825
 21
0.206675609679555
 72
     1
 10
1.055042412210827
 20
0.206675609679555
 11
1.060452886132226
 21
0.206675609679555
 72
     1
 10
1.060452886132225
 20
0.206675609679555
 11
1.067169336517409
 21
0.206675609679555
 72
     1
 10
1.06716933651741
 20
0.206675609679555
 11
1.075005195300124
 21
0.206675609679555
 72
     1
 10
1.075005195300123
 20
0.206675609679555
 11
1.083494042314731
 21
0.206675609679555
 72
     1
 10
1.083494042314732
 20
0.206675609679555
 11
1.092542593528105
 21
0.206675609679555
 72
     1
 10
1.092542593528106
 20
0.206675609679555
 11
1.10187099684086
 21
0.206675609679555
 72
     1
 10
1.101870996840861
 20
0.206675609679555
 11
1.111106116120489
 21
0.206675609679555
 72
     1
 10
1.111106116120488
 20
0.206675609679555
 11
1.119968099267605
 21
0.206675609679555
 72
     1
 10
1.119968099267605
 20
0.206675609679555
 11
1.128270378215957
 21
0.206675609679555
 72
     1
 10
1.128270378215957
 20
0.206675609679555
 11
1.135639816833034
 21
0.206675609679555
 72
     1
 10
1.135639816833034
 20
0.206675609679555
 11
1.14188984705258
 21
0.206675609679555
 72
     1
 10
1.141889847052581
 20
0.206675609679555
 11
1.146647332742086
 21
0.206675609679555
 72
     1
 10
1.146647332742086
 20
0.206675609679555
 11
1.149725705835295
 21
0.206675609679555
 72
     1
 10
1.149725705835296
 20
0.206675609679555
 11
1.150845114232827
 21
0.206675609679555
 72
     1
 10
1.150845114232826
 20
0.206675609679555
 11
1.150845114232826
 21
0.2277578011663822
 72
     1
 10
1.150845114232826
 20
0.2277578011663825
 11
1.148326445338383
 21
0.2277578011663825
 72
     1
 10
1.148326445338383
 20
0.2277578011663825
 11
1.025937793875031
 21
0.2277578011663825
 72
     1
 10
1.025937793875032
 20
0.2277578011663825
 11
1.025937793875032
 21
0.0926825211976832
 72
     1
 10
1.025937793875032
 20
0.0926825211976832
 11
1.155602599922332
 21
0.0926825211976832
 72
     1
 10
1.155602599922332
 20
0.0926825211976832
 11
1.155602599922332
 21
0.113671428651383
 72
     1
 10
1.155602599922332
 20
0.1136714286513832
 11
1.154483191524801
 21
0.1136714286513832
 72
     1
 10
1.154483191524799
 20
0.1136714286513832
 11
1.151218250365336
 21
0.1136714286513832
 72
     1
 10
1.151218250365338
 20
0.1136714286513832
 11
1.146180912576449
 21
0.1136714286513832
 72
     1
 10
1.146180912576449
 20
0.1136714286513832
 11
1.13965103025752
 21
0.1136714286513832
 72
     1
 10
1.13965103025752
 20
0.1136714286513832
 11
1.131908455507932
 21
0.1136714286513832
 72
     1
 10
1.131908455507931
 20
0.1136714286513832
 11
1.12323304042707
 21
0.1136714286513832
 72
     1
 10
1.123233040427071
 20
0.1136714286513832
 11
1.113904637114314
 21
0.1136714286513832
 72
     1
 10
1.113904637114314
 20
0.1136714286513832
 11
1.104296381702177
 21
0.1136714286513832
 72
     1
 10
1.104296381702177
 20
0.1136714286513832
 11
1.094501558223783
 21
0.1136714286513832
 72
     1
 10
1.094501558223784
 20
0.1136714286513832
 11
1.085079870877901
 21
0.1136714286513832
 72
     1
 10
1.085079870877899
 20
0.1136714286513832
 11
1.076124603697654
 21
0.1136714286513832
 72
     1
 10
1.076124603697655
 20
0.1136714286513832
 11
1.067915608782429
 21
0.1136714286513832
 72
     1
 10
1.067915608782429
 20
0.1136714286513832
 11
1.060919306297863
 21
0.1136714286513832
 72
     1
 10
1.060919306297863
 20
0.1136714286513832
 11
1.055228980277083
 21
0.1136714286513832
 72
     1
 10
1.055228980277082
 20
0.1136714286513832
 11
1.051311050885725
 21
0.1136714286513832
 72
     1
 10
1.051311050885726
 20
0.1136714286513832
 11
1.049352086190046
 21
0.1136714286513832
 72
     1
 10
1.049352086190046
 20
0.1136714286513832
 11
1.049352086190046
 21
0.1163766656120825
 72
     1
 10
1.049352086190046
 20
0.1163766656120823
 11
1.049352086190046
 21
0.1209475832353323
 72
     1
 10
1.049352086190046
 20
0.1209475832353325
 11
1.049352086190046
 21
0.1267311932892411
 72
     1
 10
1.049352086190046
 20
0.1267311932892408
 11
1.049352086190046
 21
0.1330745075419143
 72
     1
 10
1.049352086190046
 20
0.1330745075419144
 11
1.049352086190046
 21
0.1395111058277156
 72
     1
 10
1.049352086190046
 20
0.1395111058277158
 11
1.049352086190046
 21
0.1452947158816239
 72
     1
 10
1.049352086190046
 20
0.145294715881624
 11
1.049352086190046
 21
0.1498656335048746
 72
     1
 10
1.049352086190046
 20
0.1498656335048745
 11
1.049352086190046
 21
0.1525708704655738
 97
        0
 75
     0
 76
     1
 98
        1
 10
-0.3743130907707726
 20
-0.2500502867693841
1001
ACAD
1010
0.0
1020
0.0
1030
0.0
  0
HATCH
  5
8048
330
8041
100
AcDbEntity
  8
Kawneer Logo-English
100
AcDbHatch
 10
0.0
 20
0.0
 30
0.0
210
0.0
220
0.0
230
1.0
  2
SOLID
 70
     1
 71
     0
 91
        1
 92
        1
 93
       42
 72
     1
 10
0.9725793269260698
 20
0.2277578011663825
 11
0.9725793269260698
 21
0.1354998924032311
 72
     1
 10
0.9725793269260698
 20
0.1354998924032311
 11
0.9729524630585808
 21
0.1264513411898582
 72
     1
 10
0.9729524630585796
 20
0.1264513411898583
 11
0.9729524630585796
 21
0.1255185008585825
 72
     1
 10
0.9729524630585796
 20
0.1255185008585824
 11
0.9731390311248343
 21
0.1238393882622866
 72
     1
 10
0.9731390311248349
 20
0.1238393882622866
 11
0.9717397706279211
 21
0.1254252168254551
 72
     1
 10
0.97173977062792
 20
0.1254252168254551
 11
0.9710867823960281
 21
0.1262647731236031
 72
     1
 10
0.9710867823960294
 20
0.1262647731236031
 11
0.9641837639445897
 21
0.1339140638400625
 72
     1
 10
0.9641837639445899
 20
0.1339140638400624
 11
0.8755639324734129
 21
0.2277578011663823
 72
     1
 10
0.8755639324734115
 20
0.2277578011663825
 11
0.8529891964565429
 21
0.2277578011663825
 72
     1
 10
0.8529891964565434
 20
0.2277578011663825
 11
0.8529891964565434
 21
0.0926825211976832
 72
     1
 10
0.8529891964565434
 20
0.0926825211976832
 11
0.8756572165065401
 21
0.0926825211976832
 72
     1
 10
0.875657216506541
 20
0.0926825211976832
 11
0.875657216506541
 21
0.1927762887435495
 72
     1
 10
0.875657216506541
 20
0.1927762887435495
 11
0.875657216506541
 21
0.1931494248760597
 72
     1
 10
0.875657216506541
 20
0.1931494248760596
 11
0.8755639324734129
 21
0.193988981174208
 72
     1
 10
0.8755639324734115
 20
0.1939889811742079
 11
0.8754706484402849
 21
0.1952949576379935
 72
     1
 10
0.8754706484402859
 20
0.1952949576379937
 11
0.8753773644071577
 21
0.1967875021680344
 72
     1
 10
0.875377364407158
 20
0.1967875021680343
 11
0.8755639324734126
 21
0.1965076500686515
 72
     1
 10
0.8755639324734115
 20
0.1965076500686517
 11
0.8756572165065396
 21
0.1963210820023967
 72
     1
 10
0.875657216506541
 20
0.1963210820023967
 11
0.8764967728046894
 21
0.1954815257042487
 72
     1
 10
0.8764967728046887
 20
0.1954815257042488
 11
0.8781758854009835
 21
0.1936158450416976
 72
     1
 10
0.8781758854009842
 20
0.1936158450416973
 11
0.8797617139641527
 21
0.1917501643791464
 72
     1
 10
0.879761713964152
 20
0.1917501643791466
 11
0.8805079862291723
 21
0.1909106080809982
 72
     1
 10
0.8805079862291727
 20
0.190910608080998
 11
0.8816273946267036
 21
0.1897911996834678
 72
     1
 10
0.8816273946267028
 20
0.1897911996834681
 11
0.884519199653657
 21
0.1867128265902584
 72
     1
 10
0.8845191996536581
 20
0.1867128265902582
 11
0.8891834013100353
 21
0.1818620568676254
 72
     1
 10
0.889183401310035
 20
0.1818620568676252
 11
0.8951535794301982
 21
0.1756120266480794
 72
     1
 10
0.8951535794301985
 20
0.1756120266480794
 11
0.9021498819147662
 21
0.1681493039978751
 72
     1
 10
0.9021498819147669
 20
0.1681493039978752
 11
0.9099857406974814
 21
0.1598470250495227
 72
     1
 10
0.9099857406974813
 20
0.1598470250495225
 11
0.9183813036789613
 21
0.1509850419024051
 72
     1
 10
0.9183813036789612
 20
0.1509850419024052
 11
0.9271500027929521
 21
0.1418432066559046
 72
     1
 10
0.9271500027929509
 20
0.1418432066559046
 11
0.9358254178738118
 21
0.1326080873762767
 72
     1
 10
0.9358254178738132
 20
0.1326080873762767
 11
0.9442209808552931
 21
0.1237461042291589
 72
     1
 10
0.9442209808552931
 20
0.1237461042291589
 11
0.9520568396380092
 21
0.1154438252808068
 72
     1
 10
0.9520568396380092
 20
0.1154438252808068
 11
0.9590531421225751
 21
0.1079811026306025
 72
     1
 10
0.959053142122574
 20
0.1079811026306024
 11
0.9650233202427372
 21
0.101731072411056
 72
     1
 10
0.9650233202427376
 20
0.101731072411056
 11
0.9695942378659868
 21
0.0968803026884232
 72
     1
 10
0.9695942378659871
 20
0.096880302688423
 11
0.9725793269260696
 21
0.0938019295952138
 72
     1
 10
0.9725793269260698
 20
0.093801929595214
 11
0.9736054512904727
 21
0.0926825211976834
 72
     1
 10
0.9736054512904726
 20
0.0926825211976832
 11
0.9952473469760661
 21
0.0926825211976832
 72
     1
 10
0.9952473469760651
 20
0.0926825211976832
 11
0.9952473469760651
 21
0.2277578011663825
 72
     1
 10
0.9952473469760651
 20
0.2277578011663825
 11
0.9927286780816201
 21
0.2277578011663825
 72
     1
 10
0.9927286780816203
 20
0.2277578011663825
 11
0.9725793269260686
 21
0.2277578011663825
 97
        0
 75
     0
 76
     1
 98
        1
 10
-0.3743130907707726
 20
-0.2500502867693841
1001
ACAD
1010
0.0
1020
0.0
1030
0.0
  0
HATCH
  5
8049
330
8041
100
AcDbEntity
  8
Kawneer Logo-English
100
AcDbHatch
 10
0.0
 20
0.0
 30
0.0
210
0.0
220
0.0
230
1.0
  2
SOLID
 70
     1
 71
     0
 91
        2
 92
       16
 93
       32
 72
     1
 10
0.5269615006757409
 20
0.144641727649731
 11
0.5290137494045469
 21
0.148652941074216
 72
     1
 10
0.5290137494045464
 20
0.1486529410742159
 11
0.5322786905640116
 21
0.1551828233931449
 72
     1
 10
0.532278690564012
 20
0.1551828233931452
 11
0.5364764720547521
 21
0.1633918183083696
 72
     1
 10
0.5364764720547526
 20
0.1633918183083696
 11
0.5409541056448736
 21
0.1722538014554874
 72
     1
 10
0.5409541056448726
 20
0.1722538014554873
 11
0.545338455201869
 21
0.1808359325032223
 72
     1
 10
0.5453384552018701
 20
0.1808359325032223
 11
0.5490698165269726
 21
0.1882053711202994
 72
     1
 10
0.549069816526973
 20
0.1882053711202996
 11
0.5515884854214162
 21
0.1932427089091875
 72
     1
 10
0.5515884854214148
 20
0.1932427089091872
 11
0.5526146097858177
 21
0.1952016736048658
 72
     1
 10
0.5526146097858194
 20
0.1952016736048658
 11
0.552801177852074
 21
0.195761377803631
 72
     1
 10
0.5528011778520723
 20
0.1957613778036309
 11
0.5533608820508379
 21
0.1970673542674166
 72
     1
 10
0.5533608820508378
 20
0.1970673542674169
 11
0.5542004383489863
 21
0.1990263189630955
 72
     1
 10
0.5542004383489872
 20
0.1990263189630952
 11
0.5550399946471356
 21
0.2012651357581567
 72
     1
 10
0.5550399946471352
 20
0.2012651357581567
 11
0.5555064148127727
 21
0.2001457273606265
 72
     1
 10
0.5555064148127729
 20
0.2001457273606264
 11
0.5560661190115385
 21
0.198933034929968
 72
     1
 10
0.5560661190115379
 20
0.198933034929968
 11
0.5567191072434298
 21
0.197533774433055
 72
     1
 10
0.5567191072434304
 20
0.197533774433055
 11
0.5574653795084506
 21
0.1959479458698865
 72
     1
 10
0.557465379508451
 20
0.1959479458698865
 11
0.5583049358065995
 21
0.1942688332735902
 72
     1
 10
0.5583049358065986
 20
0.1942688332735903
 11
0.5606370366347874
 21
0.1896046316172126
 72
     1
 10
0.5606370366347871
 20
0.1896046316172126
 11
0.5639952618273804
 21
0.1828881812320289
 72
     1
 10
0.5639952618273814
 20
0.1828881812320287
 11
0.5680064752518651
 21
0.1748657543830587
 72
     1
 10
0.5680064752518637
 20
0.1748657543830589
 11
0.57239082480886
 21
0.1661903393021966
 72
     1
 10
0.5723908248088612
 20
0.1661903393021967
 11
0.5765886062996012
 21
0.1577947763207168
 72
     1
 10
0.5765886062996
 20
0.1577947763207165
 11
0.5803199676247008
 21
0.1503320536705122
 72
     1
 10
0.5803199676247015
 20
0.1503320536705122
 11
0.5831184886185295
 21
0.144641727649731
 72
     1
 10
0.5831184886185295
 20
0.144641727649731
 11
0.5791072751940441
 21
0.144641727649731
 72
     1
 10
0.5791072751940436
 20
0.144641727649731
 11
0.5724841088419869
 21
0.144641727649731
 72
     1
 10
0.5724841088419872
 20
0.144641727649731
 11
0.5641818298936356
 21
0.144641727649731
 72
     1
 10
0.5641818298936352
 20
0.144641727649731
 11
0.5550399946471351
 21
0.144641727649731
 72
     1
 10
0.5550399946471352
 20
0.144641727649731
 11
0.5458981594006351
 21
0.144641727649731
 72
     1
 10
0.5458981594006352
 20
0.144641727649731
 11
0.5375958804522815
 21
0.144641727649731
 72
     1
 10
0.5375958804522814
 20
0.144641727649731
 11
0.5310659981333528
 21
0.144641727649731
 72
     1
 10
0.5310659981333524
 20
0.144641727649731
 11
0.5269615006757405
 21
0.144641727649731
 97
        0
 92
        1
 93
      141
 72
     1
 10
0.5656743744236757
 20
0.2277578011663825
 11
0.544405614870593
 21
0.2277578011663825
 72
     1
 10
0.544405614870593
 20
0.2277578011663825
 11
0.4748157261574382
 21
0.0934287934627039
 72
     1
 10
0.4748157261574378
 20
0.0934287934627039
 11
0.4729500454948865
 21
0.0955743262246376
 72
     1
 10
0.4729500454948874
 20
0.0955743262246376
 11
0.4699649564348049
 21
0.0991191194834847
 72
     1
 10
0.4699649564348043
 20
0.0991191194834847
 11
0.4661403110765752
 21
0.1036900371067346
 72
     1
 10
0.4661403110765754
 20
0.1036900371067347
 11
0.4615693934533244
 21
0.1091005110281331
 72
     1
 10
0.461569393453325
 20
0.109100511028133
 11
0.456345487598182
 21
0.1152572572145517
 72
     1
 10
0.4563454875981812
 20
0.1152572572145516
 11
0.4506551615774008
 21
0.1219737075997353
 72
     1
 10
0.4506551615774015
 20
0.1219737075997354
 11
0.4447782674903648
 21
0.1290632941174296
 72
     1
 10
0.4447782674903636
 20
0.1290632941174296
 11
0.4387148053370722
 21
0.1362461646682511
 72
     1
 10
0.4387148053370727
 20
0.1362461646682512
 11
0.4326513431837832
 21
0.1433357511859454
 72
     1
 10
0.4326513431837844
 20
0.1433357511859453
 11
0.4268677331298759
 21
0.1502387696373844
 72
     1
 10
0.4268677331298756
 20
0.1502387696373844
 11
0.4214572592084763
 21
0.1566753679231857
 72
     1
 10
0.4214572592084754
 20
0.1566753679231858
 11
0.4165132054527153
 21
0.1625522620102216
 72
     1
 10
0.4165132054527163
 20
0.1625522620102216
 11
0.4123154239619763
 21
0.1674963157659821
 72
     1
 10
0.4123154239619753
 20
0.1674963157659822
 11
0.4088639147362555
 21
0.1715075291904667
 72
     1
 10
0.4088639147362568
 20
0.1715075291904669
 11
0.4065318139080681
 21
0.1743993342174211
 72
     1
 10
0.4065318139080665
 20
0.1743993342174211
 11
0.405319121477409
 21
0.1757985947143345
 72
     1
 10
0.4053191214774104
 20
0.1757985947143345
 11
0.4067183819743243
 21
0.1769180031118651
 72
     1
 10
0.4067183819743235
 20
0.1769180031118651
 11
0.4094236189350213
 21
0.1788769678075437
 72
     1
 10
0.4094236189350218
 20
0.1788769678075437
 11
0.4132482642932526
 21
0.1816754888013702
 72
     1
 10
0.4132482642932525
 20
0.1816754888013703
 11
0.4179124659496298
 21
0.1852202820602174
 72
     1
 10
0.417912465949629
 20
0.1852202820602174
 11
0.4232296558379
 21
0.189138211451575
 72
     1
 10
0.4232296558379001
 20
0.1891382114515751
 11
0.4291065499249351
 21
0.1935225610085696
 72
     1
 10
0.4291065499249367
 20
0.1935225610085698
 11
0.4352632961113562
 21
0.1981867626649482
 72
     1
 10
0.4352632961113554
 20
0.1981867626649479
 11
0.4416066103640296
 21
0.2028509643213252
 72
     1
 10
0.4416066103640293
 20
0.2028509643213252
 11
0.4479499246167016
 21
0.2076084500108307
 72
     1
 10
0.4479499246167018
 20
0.2076084500108307
 11
0.4540133867699932
 21
0.2120860836009535
 72
     1
 10
0.4540133867699927
 20
0.2120860836009535
 11
0.4596104287576467
 21
0.2162838650916932
 72
     1
 10
0.4596104287576468
 20
0.216283865091693
 11
0.4646477665465351
 21
0.2200152264167952
 72
     1
 10
0.464647766546535
 20
0.2200152264167951
 11
0.4689388320704013
 21
0.223186883543132
 72
     1
 10
0.4689388320704016
 20
0.2231868835431323
 11
0.4721104891967386
 21
0.2256122684044488
 72
     1
 10
0.4721104891967376
 20
0.2256122684044488
 11
0.4742560219586717
 21
0.2271980969676172
 72
     1
 10
0.4742560219586727
 20
0.2271980969676173
 11
0.475002294223693
 21
0.2277578011663825
 72
     1
 10
0.4750022942236929
 20
0.2277578011663825
 11
0.4674462875403612
 21
0.2277578011663825
 72
     1
 10
0.4674462875403611
 20
0.2277578011663825
 11
0.4395543616352215
 21
0.2277578011663825
 72
     1
 10
0.439554361635222
 20
0.2277578011663825
 11
0.4386215213039473
 21
0.2270115289013622
 72
     1
 10
0.4386215213039466
 20
0.2270115289013622
 11
0.4359162843432469
 21
0.2250525642056836
 72
     1
 10
0.4359162843432465
 20
0.2250525642056836
 11
0.4318117868856346
 21
0.2220674751456017
 72
     1
 10
0.4318117868856351
 20
0.2220674751456017
 11
0.4264013129642376
 21
0.2180562617211167
 72
     1
 10
0.4264013129642379
 20
0.2180562617211168
 11
0.4200579987115638
 21
0.2132987760316117
 72
     1
 10
0.4200579987115641
 20
0.2132987760316114
 11
0.4128751281607416
 21
0.2079815861433408
 72
     1
 10
0.4128751281607408
 20
0.2079815861433408
 11
0.4051325534111546
 21
0.20229126012256
 72
     1
 10
0.4051325534111552
 20
0.20229126012256
 11
0.397016842529058
 21
0.1963210820023964
 72
     1
 10
0.3970168425290583
 20
0.1963210820023967
 11
0.3889011316469611
 21
0.1903509038822331
 72
     1
 10
0.3889011316469611
 20
0.190350903882233
 11
0.3808787047979902
 21
0.1844740097951972
 72
     1
 10
0.3808787047979898
 20
0.1844740097951974
 11
0.3733226981146581
 21
0.1787836837744166
 72
     1
 10
0.373322698114658
 20
0.1787836837744166
 11
0.3663263956300919
 21
0.173653061952401
 72
     1
 10
0.3663263956300931
 20
0.173653061952401
 11
0.3601696494436735
 21
0.169082144329151
 72
     1
 10
0.3601696494436726
 20
0.1690821443291508
 11
0.3550390276216579
 21
0.1653507830040483
 72
     1
 10
0.3550390276216584
 20
0.1653507830040482
 11
0.3513076662965558
 21
0.1625522620102218
 72
     1
 10
0.3513076662965551
 20
0.1625522620102216
 11
0.3490688495014928
 21
0.1609664334470531
 72
     1
 10
0.3490688495014926
 20
0.1609664334470531
 11
0.3490688495014926
 21
0.1631119662089868
 72
     1
 10
0.3490688495014926
 20
0.1631119662089868
 11
0.3490688495014926
 21
0.1662836233353237
 72
     1
 10
0.3490688495014926
 20
0.1662836233353238
 11
0.3490688495014926
 21
0.1702948367598088
 72
     1
 10
0.3490688495014926
 20
0.1702948367598088
 11
0.3490688495014926
 21
0.1749590384161865
 72
     1
 10
0.3490688495014926
 20
0.1749590384161865
 11
0.3490688495014926
 21
0.1801829442713294
 72
     1
 10
0.3490688495014926
 20
0.1801829442713296
 11
0.3490688495014926
 21
0.185779986258983
 72
     1
 10
0.3490688495014926
 20
0.1857799862589829
 11
0.3490688495014926
 21
0.1916568803460187
 72
     1
 10
0.3490688495014926
 20
0.1916568803460186
 11
0.3490688495014926
 21
0.1975337744330549
 72
     1
 10
0.3490688495014926
 20
0.197533774433055
 11
0.3490688495014926
 21
0.2033173844869632
 72
     1
 10
0.3490688495014926
 20
0.2033173844869631
 11
0.3490688495014926
 21
0.2088211424414888
 72
     1
 10
0.3490688495014926
 20
0.2088211424414888
 11
0.3490688495014926
 21
0.2139517642635044
 72
     1
 10
0.3490688495014926
 20
0.2139517642635044
 11
0.3490688495014926
 21
0.2185226818867544
 72
     1
 10
0.3490688495014926
 20
0.2185226818867545
 11
0.3490688495014926
 21
0.2222540432118567
 72
     1
 10
0.3490688495014926
 20
0.2222540432118567
 11
0.3490688495014926
 21
0.2252391322719387
 72
     1
 10
0.3490688495014926
 20
0.2252391322719387
 11
0.3490688495014926
 21
0.2271048129344895
 72
     1
 10
0.3490688495014926
 20
0.2271048129344895
 11
0.3490688495014926
 21
0.2277578011663825
 72
     1
 10
0.3490688495014926
 20
0.2277578011663825
 11
0.3258411252527322
 21
0.2277578011663825
 72
     1
 10
0.3258411252527336
 20
0.2277578011663825
 11
0.3258411252527336
 21
0.0926825211976832
 72
     1
 10
0.3258411252527336
 20
0.0926825211976832
 11
0.3486957133689848
 21
0.0926825211976832
 72
     1
 10
0.3486957133689845
 20
0.0926825211976832
 11
0.3486957133689845
 21
0.0943616337939795
 72
     1
 10
0.3486957133689845
 20
0.0943616337939795
 11
0.3486957133689845
 21
0.0988392673841017
 72
     1
 10
0.3486957133689845
 20
0.0988392673841017
 11
0.3486957133689845
 21
0.1051825816367752
 72
     1
 10
0.3486957133689845
 20
0.1051825816367753
 11
0.3486957133689845
 21
0.1125520202538523
 72
     1
 10
0.3486957133689845
 20
0.1125520202538524
 11
0.3486957133689845
 21
0.1200147429040567
 72
     1
 10
0.3486957133689845
 20
0.1200147429040567
 11
0.3486957133689845
 21
0.1267311932892408
 72
     1
 10
0.3486957133689845
 20
0.1267311932892408
 11
0.3486957133689845
 21
0.1317685310781287
 72
     1
 10
0.3486957133689845
 20
0.1317685310781289
 11
0.3486957133689845
 21
0.1342871999725727
 72
     1
 10
0.3486957133689845
 20
0.1342871999725725
 11
0.3507479620977905
 21
0.1356864604694859
 72
     1
 10
0.35074796209779
 20
0.1356864604694859
 11
0.3548524595554018
 21
0.1387648335626952
 72
     1
 10
0.3548524595554015
 20
0.1387648335626952
 11
0.3605427855761835
 21
0.1428693310203079
 72
     1
 10
0.3605427855761842
 20
0.1428693310203079
 11
0.3668860998288565
 21
0.1476268167098129
 72
     1
 10
0.3668860998288568
 20
0.1476268167098129
 11
0.373322698114659
 21
0.1522910183661906
 72
     1
 10
0.373322698114658
 20
0.1522910183661908
 11
0.3791995922016947
 21
0.1565820838900582
 72
     1
 10
0.3791995922016946
 20
0.1565820838900582
 11
0.3836772257918156
 21
0.1599403090826502
 72
     1
 10
0.3836772257918159
 20
0.1599403090826503
 11
0.386195894686261
 21
0.1618059897452011
 72
     1
 10
0.3861958946862609
 20
0.1618059897452011
 11
0.3873153030837921
 21
0.1604067292482882
 72
     1
 10
0.3873153030837915
 20
0.1604067292482878
 11
0.3894608358457238
 21
0.1577947763207163
 72
     1
 10
0.3894608358457248
 20
0.1577947763207165
 11
0.3925392089389353
 21
0.1541566990287417
 72
     1
 10
0.3925392089389348
 20
0.1541566990287417
 11
0.396457138330292
 21
0.149492497372364
 72
     1
 10
0.3964571383302933
 20
0.149492497372364
 11
0.4009347719204161
 21
0.1442685915172211
 72
     1
 10
0.4009347719204146
 20
0.1442685915172209
 11
0.4057855416430466
 21
0.138391697430185
 72
     1
 10
0.4057855416430463
 20
0.1383916974301853
 11
0.4109161634650628
 21
0.1322349512437666
 72
     1
 10
0.410916163465064
 20
0.1322349512437666
 11
0.4162333533533335
 21
0.1259849210242201
 72
     1
 10
0.4162333533533334
 20
0.1259849210242201
 11
0.4215505432416044
 21
0.1196416067715466
 72
     1
 10
0.4215505432416045
 20
0.1196416067715466
 11
0.4265878810304927
 21
0.113671428651383
 72
     1
 10
0.4265878810304931
 20
0.1136714286513832
 11
0.4312520826868704
 21
0.1079811026306024
 72
     1
 10
0.4312520826868696
 20
0.1079811026306024
 11
0.4355431482107378
 21
0.1029437648417141
 72
     1
 10
0.435543148210738
 20
0.1029437648417139
 11
0.4390879414695842
 21
0.0987459833509739
 72
     1
 10
0.4390879414695843
 20
0.0987459833509741
 11
0.4417931784302841
 21
0.0954810421915098
 72
     1
 10
0.4417931784302845
 20
0.0954810421915096
 11
0.4435655750597076
 21
0.0934287934627037
 72
     1
 10
0.4435655750597074
 20
0.0934287934627039
 11
0.4442185632915993
 21
0.0926825211976832
 72
     1
 10
0.4442185632915985
 20
0.0926825211976832
 11
0.4743493059918004
 21
0.0926825211976832
 72
     1
 10
0.4743493059918001
 20
0.0926825211976832
 11
0.4753754303562029
 21
0.0926825211976832
 72
     1
 10
0.4753754303562033
 20
0.0926825211976832
 11
0.5008419714000258
 21
0.0926825211976832
 72
     1
 10
0.5008419714000265
 20
0.0926825211976832
 11
0.5014949596319184
 21
0.0939884976614689
 72
     1
 10
0.501494959631919
 20
0.0939884976614688
 11
0.5031740722282155
 21
0.0973467228540609
 72
     1
 10
0.503174072228215
 20
0.0973467228540612
 11
0.5055061730564038
 21
0.1021042085435666
 72
     1
 10
0.505506173056403
 20
0.1021042085435665
 11
0.5083046940502291
 21
0.1077012505312196
 72
     1
 10
0.5083046940502292
 20
0.1077012505312194
 11
0.5111032150440553
 21
0.1134848605851279
 72
     1
 10
0.5111032150440549
 20
0.1134848605851281
 11
0.5137151679716264
 21
0.1186154824071433
 72
     1
 10
0.5137151679716277
 20
0.1186154824071433
 11
0.5156741326673071
 21
0.1226266958316283
 72
     1
 10
0.5156741326673076
 20
0.122626695831628
 11
0.5167002570317104
 21
0.1247722285935621
 72
     1
 10
0.5167002570317103
 20
0.1247722285935622
 11
0.5180062334954961
 21
0.1247722285935622
 72
     1
 10
0.5180062334954961
 20
0.1247722285935622
 11
0.5207114704561957
 21
0.1247722285935622
 72
     1
 10
0.5207114704561944
 20
0.1247722285935622
 11
0.5246293998475517
 21
0.1247722285935622
 72
     1
 10
0.5246293998475525
 20
0.1247722285935622
 11
0.5295734536033125
 21
0.1247722285935622
 72
     1
 10
0.5295734536033115
 20
0.1247722285935622
 11
0.5352637796240919
 21
0.1247722285935622
 72
     1
 10
0.5352637796240929
 20
0.1247722285935622
 11
0.5415138098436386
 21
0.1247722285935622
 72
     1
 10
0.5415138098436394
 20
0.1247722285935622
 11
0.5482302602288245
 21
0.1247722285935622
 72
     1
 10
0.5482302602288236
 20
0.1247722285935622
 11
0.5551332786802616
 21
0.1247722285935622
 72
     1
 10
0.5551332786802608
 20
0.1247722285935622
 11
0.5620362971317004
 21
0.1247722285935622
 72
     1
 10
0.5620362971317015
 20
0.1247722285935622
 11
0.5687527475168847
 21
0.1247722285935622
 72
     1
 10
0.5687527475168839
 20
0.1247722285935622
 11
0.5750027777364317
 21
0.1247722285935622
 72
     1
 10
0.5750027777364322
 20
0.1247722285935622
 11
0.5806931037572126
 21
0.1247722285935622
 72
     1
 10
0.5806931037572119
 20
0.1247722285935622
 11
0.585637157512972
 21
0.1247722285935622
 72
     1
 10
0.5856371575129727
 20
0.1247722285935622
 11
0.5895550869043299
 21
0.1247722285935622
 72
     1
 10
0.5895550869043289
 20
0.1247722285935622
 11
0.5922603238650286
 21
0.1247722285935622
 72
     1
 10
0.5922603238650291
 20
0.1247722285935622
 11
0.5935663003288148
 21
0.1247722285935622
 72
     1
 10
0.5935663003288148
 20
0.1247722285935622
 11
0.5945924246932176
 21
0.1226266958316281
 72
     1
 10
0.5945924246932175
 20
0.122626695831628
 11
0.5965513893888953
 21
0.1186154824071431
 72
     1
 10
0.5965513893888957
 20
0.1186154824071433
 11
0.5991633423164672
 21
0.1134848605851281
 72
     1
 10
0.5991633423164667
 20
0.1134848605851281
 11
0.6019618633102946
 21
0.1077012505312196
 72
     1
 10
0.6019618633102959
 20
0.1077012505312194
 11
0.604760384304122
 21
0.1021042085435664
 72
     1
 10
0.6047603843041221
 20
0.1021042085435665
 11
0.6070924851323109
 21
0.0973467228540611
 72
     1
 10
0.6070924851323101
 20
0.0973467228540612
 11
0.6087715977286067
 21
0.0939884976614691
 72
     1
 10
0.6087715977286062
 20
0.0939884976614688
 11
0.609424585960498
 21
0.0926825211976832
 72
     1
 10
0.6094245859604986
 20
0.0926825211976832
 11
0.6363836715343633
 21
0.0926825211976832
 72
     1
 10
0.6363836715343641
 20
0.0926825211976832
 11
0.5671669189537184
 21
0.2277578011663825
 72
     1
 10
0.5671669189537179
 20
0.2277578011663825
 11
0.5656743744236758
 21
0.2277578011663825
 97
        0
 75
     0
 76
     1
 98
        1
 10
-0.3743130907707726
 20
-0.2500502867693841
1001
ACAD
1010
0.0
1020
0.0
1030
0.0
  0
HATCH
  5
804A
330
8041
100
AcDbEntity
  8
Kawneer Logo-English
100
AcDbHatch
 10
0.0
 20
0.0
 30
0.0
210
0.0
220
0.0
230
1.0
  2
SOLID
 70
     1
 71
     0
 91
        1
 92
        1
 93
       69
 72
     1
 10
0.8092389849197205
 20
0.2277578011663825
 11
0.778921674153266
 21
0.1309289747799811
 72
     1
 10
0.778921674153267
 20
0.1309289747799809
 11
0.7781754018882468
 21
0.1287834420180468
 72
     1
 10
0.7781754018882468
 20
0.1287834420180467
 11
0.7776156976894812
 21
0.1270110453886236
 72
     1
 10
0.7776156976894813
 20
0.1270110453886237
 11
0.7771492775238438
 21
0.1253319327923275
 72
     1
 10
0.7771492775238436
 20
0.1253319327923274
 11
0.7766828573582045
 21
0.1238393882622867
 72
     1
 10
0.7766828573582046
 20
0.1238393882622866
 11
0.7764030052588217
 21
0.1248655126266895
 72
     1
 10
0.776403005258822
 20
0.1248655126266896
 11
0.7761231531594392
 21
0.1259849210242202
 72
     1
 10
0.7761231531594391
 20
0.1259849210242201
 11
0.7759365850931844
 21
0.1268244773223681
 72
     1
 10
0.7759365850931843
 20
0.1268244773223682
 11
0.7758433010600562
 21
0.1271976134548783
 72
     1
 10
0.7758433010600552
 20
0.1271976134548783
 11
0.7755634489606744
 21
0.1280371697530267
 72
     1
 10
0.775563448960674
 20
0.1280371697530267
 11
0.7750970287950349
 21
0.1291565781505569
 72
     1
 10
0.7750970287950363
 20
0.1291565781505568
 11
0.773977620397507
 21
0.1323282352768938
 72
     1
 10
0.7739776203975062
 20
0.1323282352768939
 11
0.7721119397349549
 21
0.1372722890326544
 72
     1
 10
0.7721119397349554
 20
0.1372722890326546
 11
0.7697798389067666
 21
0.1436156032853281
 72
     1
 10
0.769779838906767
 20
0.1436156032853281
 11
0.7670746019460673
 21
0.1511716099686602
 72
     1
 10
0.7670746019460668
 20
0.15117160996866
 11
0.7639962288528581
 21
0.1595671729501399
 72
     1
 10
0.7639962288528582
 20
0.15956717295014
 11
0.7606380036602665
 21
0.1686157241635125
 72
     1
 10
0.7606380036602652
 20
0.1686157241635125
 11
0.7572797784676718
 21
0.1778508434431408
 72
     1
 10
0.7572797784676726
 20
0.1778508434431408
 11
0.753921553275081
 21
0.187179246755896
 72
     1
 10
0.7539215532750814
 20
0.1871792467558961
 11
0.7505633280824898
 21
0.1962277979692689
 72
     1
 10
0.7505633280824902
 20
0.1962277979692689
 11
0.7474849549892814
 21
0.2046233609507488
 72
     1
 10
0.7474849549892797
 20
0.2046233609507488
 11
0.74477971802858
 21
0.2121793676340809
 72
     1
 10
0.7447797180285814
 20
0.2121793676340809
 11
0.7424476172003926
 21
0.2185226818867544
 72
     1
 10
0.7424476172003929
 20
0.2185226818867545
 11
0.7405819365378416
 21
0.2234667356425151
 72
     1
 10
0.7405819365378408
 20
0.2234667356425151
 11
0.7394625281403098
 21
0.2266383927688516
 72
     1
 10
0.7394625281403103
 20
0.2266383927688516
 11
0.7390893920078009
 21
0.2277578011663822
 72
     1
 10
0.7390893920078004
 20
0.2277578011663825
 11
0.7191266089185034
 21
0.2277578011663825
 72
     1
 10
0.7191266089185029
 20
0.2277578011663825
 11
0.6843316645619254
 21
0.1336342117406798
 72
     1
 10
0.6843316645619267
 20
0.1336342117406795
 11
0.6832122561643957
 21
0.130649122680598
 72
     1
 10
0.6832122561643961
 20
0.1306491226805981
 11
0.6823726998662476
 21
0.1282237378192816
 72
     1
 10
0.6823726998662468
 20
0.1282237378192818
 11
0.6817197116343549
 21
0.1260782050573481
 72
     1
 10
0.6817197116343552
 20
0.1260782050573481
 11
0.6811600074355896
 21
0.1241192403616695
 72
     1
 10
0.6811600074355884
 20
0.1241192403616695
 11
0.6808801553362055
 21
0.1250520806929446
 72
     1
 10
0.6808801553362059
 20
0.1250520806929445
 11
0.6805070192036949
 21
0.1261714890904751
 72
     1
 10
0.680507019203696
 20
0.1261714890904752
 11
0.6802271671043131
 21
0.1272908974880058
 72
     1
 10
0.680227167104313
 20
0.1272908974880061
 11
0.6798540309718037
 21
0.1286901579849195
 72
     1
 10
0.6798540309718031
 20
0.1286901579849194
 11
0.6794808948392922
 21
0.12980956638245
 72
     1
 10
0.6794808948392932
 20
0.1298095663824503
 11
0.6784547704748904
 21
0.1328879394756595
 72
     1
 10
0.67845477047489
 20
0.1328879394756595
 11
0.6769622259448497
 21
0.1378319932314196
 72
     1
 10
0.6769622259448496
 20
0.1378319932314196
 11
0.6750032612491701
 21
0.1441753074840938
 72
     1
 10
0.6750032612491697
 20
0.1441753074840937
 11
0.6725778763878547
 21
0.1516380301342981
 72
     1
 10
0.6725778763878556
 20
0.1516380301342981
 11
0.6699659234602841
 21
0.160033593115778
 72
     1
 10
0.6699659234602829
 20
0.160033593115778
 11
0.6671674024664549
 21
0.168988860296023
 72
     1
 10
0.6671674024664554
 20
0.168988860296023
 11
0.6642755974395012
 21
0.1782239795756509
 72
     1
 10
0.6642755974395019
 20
0.178223979575651
 11
0.6613837924125477
 21
0.1874590988552789
 72
     1
 10
0.6613837924125466
 20
0.1874590988552789
 11
0.6585852714187205
 21
0.1964143660355239
 72
     1
 10
0.6585852714187204
 20
0.1964143660355237
 11
0.6559733184911489
 21
0.2047166449838762
 72
     1
 10
0.6559733184911494
 20
0.2047166449838765
 11
0.6536412176629606
 21
0.2122726516672082
 72
     1
 10
0.6536412176629614
 20
0.2122726516672082
 11
0.6515889689341538
 21
0.2186159659198823
 72
     1
 10
0.6515889689341537
 20
0.2186159659198821
 11
0.6500964244041133
 21
0.2234667356425149
 72
     1
 10
0.6500964244041132
 20
0.2234667356425151
 11
0.6490703000397104
 21
0.2266383927688516
 72
     1
 10
0.6490703000397105
 20
0.2266383927688516
 11
0.6487904479403276
 21
0.2277578011663822
 72
     1
 10
0.648790447940328
 20
0.2277578011663825
 11
0.6237903270621445
 21
0.2277578011663825
 72
     1
 10
0.6237903270621437
 20
0.2277578011663825
 11
0.6676338226320932
 21
0.0926825211976832
 72
     1
 10
0.6676338226320926
 20
0.0926825211976832
 11
0.6922608073777669
 21
0.0926825211976832
 72
     1
 10
0.6922608073777666
 20
0.0926825211976832
 11
0.726029627369941
 21
0.1855001341596003
 72
     1
 10
0.7260296273699423
 20
0.1855001341596003
 11
0.7269624677012189
 21
0.1882986551534267
 72
     1
 10
0.7269624677012177
 20
0.1882986551534266
 11
0.7278020239993661
 21
0.1906307559816158
 72
     1
 10
0.727802023999367
 20
0.1906307559816159
 11
0.7284550122312589
 21
0.1927762887435496
 72
     1
 10
0.7284550122312581
 20
0.1927762887435495
 11
0.7290147164300237
 21
0.1947352534392281
 72
     1
 10
0.7290147164300232
 20
0.1947352534392282
 11
0.7298542727281716
 21
0.192216584544784
 72
     1
 10
0.729854272728173
 20
0.1922165845447839
 11
0.7306938290263214
 21
0.1894180635509575
 72
     1
 10
0.7306938290263206
 20
0.1894180635509575
 11
0.7318132374238499
 21
0.1863396904577483
 72
     1
 10
0.7318132374238511
 20
0.1863396904577481
 11
0.7331192138876387
 21
0.1827016131657736
 72
     1
 10
0.7331192138876382
 20
0.1827016131657737
 11
0.7654887733828987
 21
0.0926825211976834
 72
     1
 10
0.7654887733828986
 20
0.0926825211976832
 11
0.7895560539298075
 21
0.0926825211976832
 72
     1
 10
0.7895560539298075
 20
0.0926825211976832
 11
0.8341458217647785
 21
0.2277578011663825
 72
     1
 10
0.8341458217647783
 20
0.2277578011663825
 11
0.830601028505932
 21
0.2277578011663825
 72
     1
 10
0.8306010285059324
 20
0.2277578011663825
 11
0.8092389849197216
 21
0.2277578011663825
 97
        0
 75
     0
 76
     1
 98
        1
 10
-0.3743130907707726
 20
-0.2500502867693841
1001
ACAD
1010
0.0
1020
0.0
1030
0.0
  0
ENDBLK
  5
804E
330
8041
100
AcDbEntity
  8
0
100
AcDbBlockEnd
  0
ENDSEC
  0
SECTION
  2
ENTITIES
  0
CIRCLE
  5
1F1F
330
2
100
AcDbEntity
  8
R-SWTS-DET2
100
AcDbCircle
 10
30.02400648569295
 20
11.18484082989866
 30
0.0
 40
0.0503284406763105
  0
LWPOLYLINE
  5
1F20
330
2
100
AcDbEntity
  8
R-SWTS-DET2
  6
HIDDEN2
100
AcDbPolyline
 90
       18
 70
     1
 43
0.0
 10
29.34250648569474
 20
12.2917729608945
 10
29.34250648569474
 20
12.5467729608945
 42
0.4142135623730951
 10
29.33750648569475
 20
12.55177296089449
 10
29.28250648569474
 20
12.55177296089451
 42
-0.9999999999999287
 10
29.28250648569474
 20
12.57677296089452
 10
29.35500648569473
 20
12.57677296089452
 42
-0.4142135623730951
 10
29.36750648569472
 20
12.56427296089451
 10
29.36750648569472
 20
12.39194060065863
 42
0.3706321426687706
 10
29.37812549518509
 20
12.37958293604501
 10
30.08070719226026
 20
12.2726412487781
 42
-0.9950963693897204
 10
30.07795865488328
 20
12.25485255255647
 10
29.38175059681038
 20
12.3529533111314
 42
0.4558347385663113
 10
29.36750648569472
 20
12.34057558612169
 10
29.36750648569472
 20
12.27427296089451
 42
-0.4142135623730951
 10
29.35500648569473
 20
12.2617729608945
 10
29.28250648569474
 20
12.2617729608945
 42
-1.0
 10
29.28250648569474
 20
12.28677296089451
 10
29.33750648569475
 20
12.28677296089451
 42
0.4142135623730951
  0
LWPOLYLINE
  5
1F21
330
2
100
AcDbEntity
  8
R-SWTS-DET1
100
AcDbPolyline
 90
       41
 70
     1
 43
0.0
 10
29.9499738998407
 20
12.48438145871863
 42
0.4142135623730431
 10
29.96497389984074
 20
12.49938145871863
 10
29.96497389984074
 20
12.53138145871863
 42
-0.4142135623730951
 10
29.97997389984073
 20
12.54638145871863
 10
30.0900819402774
 20
12.54638145871863
 42
0.4184033046059118
 10
30.15207561585441
 20
12.60926700287302
 10
30.14383005642185
 20
13.18650816456492
 42
0.4139326425428041
 10
30.08303674606458
 20
13.24564586036835
 10
29.41230345124467
 20
13.23670831981459
 42
0.4077932646411109
 10
29.3975038695408
 20
13.2218393348454
 42
-0.413875507397508
 10
29.32698209631679
 20
13.15244648887669
 42
0.4122343511257975
 10
29.31187125086024
 20
13.13766070537077
 10
29.30448615839868
 20
12.6195717577503
 42
-0.3394542588633734
 10
29.29316306272381
 20
12.60524280335571
 10
29.25916359150909
 20
12.59665013704394
 10
29.25763150727533
 20
12.48916930150091
 10
29.26263099937671
 20
12.4890980363029
 42
-0.9999999999999847
 10
29.26220340818872
 20
12.45910108369476
 10
29.25606938867418
 20
12.45918852099964
 42
-0.3727193515204652
 10
29.22674804282508
 20
12.48531239406253
 10
29.22413909256056
 20
12.5053516151126
 10
29.21298129762613
 20
12.59105409942663
 42
-0.3800361709519329
 10
29.25031159059046
 20
12.64598506529734
 10
29.25487402335313
 20
12.64713812623914
 10
29.26297542353655
 20
13.21547845740281
 42
-0.4577045202689281
 10
29.28036999909972
 20
13.23007204876066
 10
29.32750648569493
 20
13.22244452467605
 10
29.32750648569493
 20
13.30644452467605
 10
30.20297389984075
 20
13.30644452467605
 10
30.20297389984075
 20
12.4863126380603
 42
-0.267949192431115
 10
30.19547389984075
 20
12.47332225700353
 10
30.13147389984073
 20
12.4363718397754
 42
-0.577350269189628
 10
30.10897389984075
 20
12.44936222083217
 10
30.10897389984075
 20
12.49638145871863
 10
30.0149738998407
 20
12.49638145871863
 10
30.0149738998407
 20
12.46438145871863
 42
-0.4142135623730948
 10
29.98497389984073
 20
12.43438145871863
 10
29.93097389984075
 20
12.43438145871863
 42
-0.4142135623731297
 10
29.91597389984071
 20
12.44938145871863
 10
29.91597389984071
 20
12.46938145871863
 42
-0.4142135623730431
 10
29.9309738998407
 20
12.48438145871863
  0
LWPOLYLINE
  5
1F22
330
2
100
AcDbEntity
  8
R-SWTS-DET2
100
AcDbPolyline
 90
       12
 70
     1
 43
0.0
 10
30.20297389984075
 20
12.41834836430159
 10
30.20297389984075
 20
12.54336222083215
 10
30.20535570603818
 20
12.54336222083215
 42
-0.3639702342662026
 10
30.22869564978459
 20
12.52377768264286
 10
30.33967342853242
 20
12.24751869364813
 10
30.23510350387943
 20
12.24751869364813
 42
0.3145636000813645
 10
29.89182517107008
 20
12.30139144555174
 10
29.8653129422687
 20
12.30542693707255
 10
29.8653129422687
 20
12.33189614422429
 42
-0.2645518979873512
 10
30.09974427162928
 20
12.45698231295182
 10
30.10307346426208
 20
12.43810152329961
 42
0.315298788878984
 10
30.10566917490314
 20
12.43550581265849
  0
LWPOLYLINE
  5
1F25
330
2
100
AcDbEntity
  8
R-SWTS-DET3
100
AcDbPolyline
 90
        4
 70
     0
 43
0.0
 10
32.20352213066718
 20
11.24723275980128
 10
29.64150648569296
 20
11.24723275980128
 10
29.64150648569296
 20
11.49723275980128
 10
32.20352213066718
 20
11.49723275980128
  0
LWPOLYLINE
  5
1F26
330
2
100
AcDbEntity
  8
R-SWTS-DET3
100
AcDbPolyline
 90
        4
 70
     0
 43
0.0
 10
32.20352213066718
 20
11.99723275980128
 10
29.64150648569296
 20
11.99723275980128
 10
29.64150648569296
 20
12.24723275980128
 10
32.20352213066718
 20
12.24723275980128
  0
LWPOLYLINE
  5
1F27
330
2
100
AcDbEntity
  8
R-SWTS-DET3
100
AcDbPolyline
 90
        4
 70
     1
 43
0.0
 10
29.64150648569296
 20
11.49723275980128
 10
29.89150648569296
 20
11.49723275980128
 10
29.89150648569296
 20
11.99723275980128
 10
29.64150648569296
 20
11.99723275980128
  0
LWPOLYLINE
  5
1F28
330
2
100
AcDbEntity
  8
R-SWTS-DET2
100
AcDbPolyline
 90
        4
 70
     1
 43
0.0
 10
29.9005413825189
 20
11.24723275980128
 42
0.9999999999999998
 10
29.9005413825189
 20
11.12244889999604
 10
30.14747158886701
 20
11.12244889999604
 42
0.9999999999999998
 10
30.14747158886701
 20
11.24723275980128
  0
LWPOLYLINE
  5
1F29
330
2
100
AcDbEntity
  8
R-SWTS-DET1
100
AcDbPolyline
 90
        6
 70
     0
 43
0.0
 10
32.20352213066718
 20
9.742448899995949
 10
32.20352213066718
 20
12.38560477425986
 10
31.99130693768501
 20
12.43867335599636
 10
32.4157216786752
 20
12.54622444399753
 10
32.20350648569297
 20
12.59929302573403
 10
32.20350648569297
 20
15.24244889999794
  0
LINE
  5
1F2A
330
2
100
AcDbEntity
  8
R-SWTS-DET1
100
AcDbLine
 10
30.20297389984075
 20
13.30644452467602
 30
0.0
 11
32.2035064856928
 21
13.30644452467602
 31
0.0
  0
LINE
  5
1F2B
330
2
100
AcDbEntity
  8
R-SWTS-DET2
100
AcDbLine
 10
30.20297389984075
 20
12.54336222083213
 30
0.0
 11
32.4044268631045
 21
12.54336222083213
 31
0.0
  0
LINE
  5
1F55
330
2
100
AcDbEntity
  8
0
100
AcDbLine
 10
29.06359424815179
 20
11.76234586437887
 30
0.0
 11
29.06359424815179
 21
11.50755193561554
 31
0.0
  0
LINE
  5
1F56
330
2
100
AcDbEntity
  8
0
100
AcDbLine
 10
28.71671501455035
 20
11.76234586437887
 30
0.0
 11
28.71671501455035
 21
11.50755193561554
 31
0.0
  0
LWPOLYLINE
  5
1F57
330
2
100
AcDbEntity
  8
0
100
AcDbPolyline
 90
       12
 70
     1
 43
0.0
 10
28.80622730186104
 20
11.71517645132503
 42
0.2734560415951634
 10
28.77515463135114
 20
11.66261021112684
 10
28.7751546313512
 20
11.60743804512421
 42
0.2734560397667185
 10
28.80622730150339
 20
11.5548718051229
 10
28.8298893603419
 20
11.54185051653763
 42
0.2569805071132461
 10
28.95041989988346
 20
11.54185051653763
 10
28.97408196048326
 20
11.55487180567245
 42
0.2734560434246889
 10
29.00515463135111
 20
11.60743804606757
 10
29.00515463135116
 20
11.66261021112662
 42
0.2734560415960701
 10
28.97408196084109
 20
11.71517645132489
 10
28.95041990112162
 20
11.72819774018506
 42
0.2569805071137504
 10
28.82988936157983
 20
11.72819774018495
  0
HATCH
  5
1F58
330
2
100
AcDbEntity
  8
0
100
AcDbHatch
 10
0.0
 20
0.0
 30
0.0
210
0.0
220
0.0
230
1.0
  2
ANSI37
 70
     0
 71
     0
 91
        2
 92
        7
 72
     1
 73
     1
 93
       36
 10
28.9561915119998
 20
11.84560646490712
 42
-0.7725978076386412
 10
28.97087183258947
 20
11.87064929932438
 42
0.3431487919940097
 10
28.98224789920863
 20
11.87527345445736
 42
0.0
 10
28.99158283458132
 20
11.89144203680831
 42
0.1316524975864955
 10
28.992654631351
 20
11.89544203680833
 42
0.0
 10
28.992654631351
 20
11.91429844326887
 42
0.41421356237316
 10
28.98465463135102
 20
11.92229844326887
 42
0.0
 10
28.79565463135106
 20
11.92229844326887
 42
0.4142135623726397
 10
28.78765463135108
 20
11.91429844326887
 42
0.0
 10
28.78765463135108
 20
11.89544203680833
 42
0.1316524975867212
 10
28.78872642812081
 20
11.89144203680831
 42
0.0
 10
28.79806136349344
 20
11.87527345445738
 42
0.3431487919941409
 10
28.80943743011261
 20
11.8706492993244
 42
-0.7725978076395159
 10
28.82411775070233
 20
11.84560646490713
 42
0.0
 10
28.7337860823622
 20
11.75527479656701
 42
-0.6681786379195006
 10
28.71671501455035
 20
11.76234586437887
 42
0.0
 10
28.71671501455035
 20
11.50755193561554
 42
-0.6681786379187491
 10
28.7337860823622
 20
11.51462300342739
 42
0.0
 10
28.82411775070233
 20
11.42429133508726
 42
-0.7725978076399433
 10
28.80943743011255
 20
11.39924850066995
 42
0.3431487919937516
 10
28.79806136349344
 20
11.39462434553697
 42
0.0
 10
28.78872642812081
 20
11.37845576318608
 42
0.1316524975867211
 10
28.78765463135108
 20
11.37445576318607
 42
0.0
 10
28.78765463135108
 20
11.35559935672553
 42
0.4142135623726397
 10
28.79565463135106
 20
11.34759935672554
 42
0.0
 10
28.98465463135102
 20
11.34759935672554
 42
0.41421356237316
 10
28.992654631351
 20
11.35559935672553
 42
0.0
 10
28.992654631351
 20
11.37445576318607
 42
0.1316524975867211
 10
28.99158283458132
 20
11.37845576318608
 42
0.0
 10
28.98224789920858
 20
11.39462434553706
 42
0.3431487919937087
 10
28.97087183258952
 20
11.39924850067004
 42
-0.7725978076392078
 10
28.9561915119998
 20
11.42429133508727
 42
0.0
 10
29.04652318033993
 20
11.5146230034274
 42
-0.6681786379192629
 10
29.06359424815179
 20
11.50755193561554
 42
0.0
 10
29.06359424815179
 20
11.76234586437887
 42
-0.6681786379200723
 10
29.04652318033993
 20
11.75527479656701
 42
0.0
 97
        0
 92
       22
 72
     1
 73
     1
 93
       12
 10
28.95041990112157
 20
11.72819774018511
 42
0.0
 10
28.97408196084109
 20
11.71517645132489
 42
-0.2734560415961339
 10
29.00515463135116
 20
11.6626102111266
 42
0.0
 10
29.00515463135111
 20
11.60743804606757
 42
-0.2734560434246571
 10
28.97408196048326
 20
11.55487180567245
 42
0.0
 10
28.95041989913801
 20
11.54185051612741
 42
-0.2569805071132116
 10
28.82988935959645
 20
11.54185051694786
 42
0.0
 10
28.80622730150339
 20
11.5548718051229
 42
-0.2734560397667185
 10
28.7751546313512
 20
11.60743804512421
 42
0.0
 10
28.77515463135114
 20
11.66261021112686
 42
-0.2734560415951692
 10
28.80622730186104
 20
11.71517645132505
 42
0.0
 10
28.82988936157977
 20
11.72819774018492
 42
-0.2569805071136812
 97
        0
 75
     0
 76
     1
 52
0.0
 41
0.5
 77
     0
 78
     2
 53
45.0
 43
-54.64168222299083
 44
-49.68459874274256
 45
-0.0441941738241592
 46
0.0441941738241592
 79
     0
 53
135.0
 43
-54.64168222299083
 44
-49.68459874274256
 45
-0.0441941738241592
 46
-0.0441941738241592
 79
     0
 47
0.0091032376506059
 98
        2
 10
28.87178212328081
 20
11.81351283071844
 10
28.87178212328081
 20
11.81351283071844
  0
LWPOLYLINE
  5
1F59
330
2
100
AcDbEntity
  8
R-SWTS-DET1
100
AcDbPolyline
 90
       61
 70
     1
 43
0.0
 10
6.507928381856402
 20
14.70308500392772
 10
6.487928381856363
 20
14.68308500392773
 10
6.467928381856381
 20
14.70308500392772
 10
6.447928381856399
 20
14.68308500392773
 10
6.427928381856361
 20
14.70308500392772
 10
6.377928381856349
 20
14.70308500392772
 10
6.377928381856406
 20
14.63808500392772
 10
7.252928381854587
 20
14.63808500392772
 10
7.252928381854587
 20
13.58808500392773
 10
7.877928381856406
 20
13.58808500392773
 10
7.877928381856406
 20
14.63808500392772
 10
7.877928381856349
 20
14.70308500392772
 10
7.677928381856361
 20
14.70308500392767
 10
7.63628023619924
 20
14.70308500392772
 42
-1.00000000000321
 10
7.63628023619924
 20
14.83808500392831
 10
7.757928381856402
 20
14.83808500392831
 10
7.819928381856186
 20
14.83808500392768
 42
0.414213562374091
 10
7.877928381856349
 20
14.89608500392769
 10
7.877928381856349
 20
14.9188773841287
 42
0.0655434628152783
 10
7.877076527513565
 20
14.92534786025628
 10
7.854358915214447
 20
15.01013114358317
 10
7.863793460172701
 20
15.08696934611328
 42
0.7132930678969658
 10
7.846796930844391
 20
15.0952591073592
 10
7.756465262504264
 20
15.00492743901907
 42
0.7725978076383388
 10
7.771145583093982
 20
14.97988460460182
 42
-0.3431487919937011
 10
7.782521649713089
 20
14.97526044946889
 10
7.791856585085781
 20
14.95909186711788
 42
-0.1316524975860435
 10
7.792928381855517
 20
14.95509186711788
 10
7.792928381855517
 20
14.93623546065733
 42
-0.4142135623731602
 10
7.784928381855536
 20
14.92823546065733
 10
7.595928381855571
 20
14.92823546065733
 42
-0.4142135623731602
 10
7.58792838185559
 20
14.93623546065733
 10
7.58792838185559
 20
14.95509186711788
 42
-0.1316524975860434
 10
7.589000178625269
 20
14.95909186711788
 10
7.598335113997961
 20
14.97526044946876
 42
-0.3431487919942175
 10
7.609711180617068
 20
14.97988460460175
 42
0.7725978076396093
 10
7.624391501206787
 20
15.00492743901907
 10
7.53405983286666
 20
15.0952591073592
 42
0.713293067896966
 10
7.517063303538407
 20
15.08696934611328
 10
7.526497848496603
 20
15.01013114358319
 10
7.50378023619902
 20
14.92534786026199
 42
0.0655434628152372
 10
7.502928381856236
 20
14.91887738413442
 10
7.502928381856236
 20
14.70308500392772
 10
6.867928381856359
 20
14.70308500392772
 10
6.84792838185632
 20
14.68308500392773
 10
6.827928381856338
 20
14.70308500392772
 10
6.807928381856356
 20
14.68308500392773
 10
6.787928381856374
 20
14.70308500392772
 10
6.767928381856336
 20
14.68308500392773
 10
6.747928381856354
 20
14.70308500392772
 10
6.727928381856372
 20
14.68308500392773
 10
6.707928381856333
 20
14.70308500392772
 10
6.687928381856352
 20
14.68308500392773
 10
6.66792838185637
 20
14.70308500392772
 10
6.647928381856388
 20
14.68308500392773
 10
6.627928381856349
 20
14.70308500392772
 10
6.607928381856368
 20
14.68308500392773
 10
6.587928381856386
 20
14.70308500392772
 10
6.567928381856347
 20
14.68308500392773
 10
6.547928381856365
 20
14.70308500392772
 10
6.527928381856384
 20
14.68308500392773
  0
LWPOLYLINE
  5
1F5A
330
2
100
AcDbEntity
  8
R-SWTS-DET1
100
AcDbPolyline
 90
       32
 70
     1
 43
0.0
 10
7.417776987062609
 20
14.08605596407395
 10
7.420085015173299
 20
14.07632595861453
 42
-0.1169703560206769
 10
7.381775016838616
 20
14.07632518341917
 10
7.384082651177891
 20
14.08605528227564
 42
-0.2835070872900951
 10
7.329899342000828
 20
14.14023639871968
 10
7.320169336541425
 20
14.137928370609
 42
-0.1169703560206769
 10
7.320168561346065
 20
14.17623836894367
 10
7.329898660202559
 20
14.1739307346044
 42
-0.2835070872900713
 10
7.384079776646558
 20
14.22811404378144
 10
7.381771748535868
 20
14.23784404924086
 42
-0.1169703560206769
 10
7.42008174687055
 20
14.23784482443622
 10
7.417774112531276
 20
14.22811472557974
 42
-0.1605330212145322
 10
7.456703769442299
 20
14.20418177812124
 42
0.2208810136133245
 10
7.471984697548521
 20
14.1970850039277
 10
7.481147950459956
 20
14.1970850039277
 42
0.4142135623730951
 10
7.501147950459994
 20
14.21708500392769
 10
7.501147950459937
 20
14.25294855702673
 42
0.2220475164447456
 10
7.493983081436795
 20
14.26828672552256
 42
0.2918218255973577
 10
7.33930338185462
 20
14.28833803960688
 42
-0.5494743523524559
 10
7.317928381854585
 20
14.30191593984956
 10
7.317928381854585
 20
14.63808500392772
 10
7.812928381856409
 20
14.63808500392772
 10
7.812928381856409
 20
13.65308500392773
 10
7.317928381854585
 20
13.65308500392773
 10
7.317928381854585
 20
14.01225406800583
 42
-0.5494743523524253
 10
7.33930338185462
 20
14.02583196824851
 42
0.2918218255973997
 10
7.493983081436851
 20
14.04588328233282
 42
0.2220475164447457
 10
7.501147950459994
 20
14.06122145082867
 10
7.501147950459994
 20
14.0970850039277
 42
0.4142135623730951
 10
7.481147950459956
 20
14.1170850039277
 10
7.471984697548521
 20
14.1170850039277
 42
0.220881013613293
 10
7.456703769442299
 20
14.10998822973413
 42
-0.1605226430948981
  0
LWPOLYLINE
  5
1F5B
330
2
100
AcDbEntity
  8
R-SWTS-DET1
100
AcDbPolyline
 90
      130
 70
     1
 43
0.0
 10
7.330046805861002
 20
17.73693073460662
 10
7.320316707004565
 20
17.73923836894589
 42
0.1169703560206769
 10
7.320317482199925
 20
17.70092837061122
 10
7.330047487659328
 20
17.7032363987219
 42
0.283507087290093
 10
7.384230796836391
 20
17.64905528227785
 10
7.381923162497059
 20
17.63932518342139
 42
0.1169703560206769
 10
7.420233160831742
 20
17.63932595861675
 10
7.417925132721052
 20
17.64905596407617
 42
0.1605226430949019
 10
7.456851915100799
 20
17.67298822973635
 42
-0.2208810136133025
 10
7.472132843206964
 20
17.68008500392992
 10
7.481296096118455
 20
17.68008500392992
 42
-0.4142135623730951
 10
7.501296096118437
 20
17.66008500392992
 10
7.501296096118437
 20
17.62422145083089
 42
-0.2220475164447751
 10
7.494131227095294
 20
17.60888328233504
 42
-0.2918218255974009
 10
7.339451527513062
 20
17.58883196825073
 42
0.5494743523524548
 10
7.318076527513028
 20
17.57525406800806
 10
7.318076527512971
 20
16.93978127100521
 10
7.452251821818151
 20
16.93978127100521
 10
7.626285937402144
 20
16.73611694034885
 10
7.626285937402144
 20
16.16386891369795
 10
7.45053866418425
 20
16.11677757376724
 10
7.45053866418425
 20
16.00211816851668
 10
7.567928381855438
 20
16.00211816851668
 10
7.567928381855438
 20
15.92693588112341
 42
0.5494743523522922
 10
7.589303381838476
 20
15.91335798088074
 42
-0.2918218255973563
 10
7.743983081420708
 20
15.89330666679642
 42
-0.222047516444722
 10
7.751147950443851
 20
15.87796849830058
 10
7.751147950443851
 20
15.84210494520155
 42
-0.4142135623731471
 10
7.731147950443869
 20
15.82210494520155
 10
7.721984697532377
 20
15.82210494520155
 42
-0.2208810136133066
 10
7.706703769426155
 20
15.8292017193951
 42
0.1605330212146638
 10
7.667774112515132
 20
15.85313466685365
 10
7.670081746854407
 20
15.86286476571013
 42
0.116970356020677
 10
7.631771748519724
 20
15.86286399051477
 10
7.634079776630471
 20
15.85313398505529
 42
0.283507087290051
 10
7.579898660186415
 20
15.79895067587825
 10
7.570168561329921
 20
15.80125831021752
 42
0.1169703560206769
 10
7.570169336525339
 20
15.76294831188285
 10
7.579899341984742
 20
15.76525633999353
 42
0.2835070872899558
 10
7.634082651161747
 20
15.71107522354954
 10
7.631775016822473
 20
15.70134512469308
 42
0.1169703560206765
 10
7.670085015157155
 20
15.70134589988844
 10
7.667776987046465
 20
15.71107590534781
 42
0.1605226430949548
 10
7.706703769426212
 20
15.73500817100799
 42
-0.2208810136133165
 10
7.721984697532377
 20
15.74210494520155
 10
7.731147950443869
 20
15.74210494520155
 42
-0.4142135623730951
 10
7.751147950443851
 20
15.72210494520155
 10
7.751147950443851
 20
15.68624139210252
 42
-0.2220475164447311
 10
7.743983081420708
 20
15.67090322360668
 42
-0.1410634256728592
 10
7.670620892957003
 20
15.63844839294636
 42
0.9341031171555698
 10
7.673715640107559
 20
15.59308500393062
 10
7.819928381856243
 20
15.59308500393095
 42
-0.4142135623740998
 10
7.877928381856406
 20
15.53508500393094
 10
7.87792838185669
 20
15.51229262373077
 42
-0.0655434628180566
 10
7.877076527513906
 20
15.50582214760293
 10
7.854358915214447
 20
15.42103886427482
 10
7.863793460172701
 20
15.34420066174472
 42
-0.713293067896938
 10
7.846796930844391
 20
15.3359109004988
 10
7.756465262504264
 20
15.42624256883893
 42
-0.7725978076385306
 10
7.771145583093982
 20
15.45128540325618
 42
0.3431487919936307
 10
7.782521649713089
 20
15.45590955838912
 10
7.791856585085781
 20
15.47207814074012
 42
0.1316524975860437
 10
7.792928381855517
 20
15.47607814074011
 10
7.792928381855517
 20
15.49493454720067
 42
0.4142135623731602
 10
7.784928381855536
 20
15.50293454720067
 10
7.595928381855571
 20
15.50293454720067
 42
0.4142135623731602
 10
7.58792838185559
 20
15.49493454720067
 10
7.58792838185559
 20
15.47607814074011
 42
0.1316524975860435
 10
7.589000178625269
 20
15.47207814074012
 10
7.598335113997961
 20
15.45590955838919
 42
0.3431487919941411
 10
7.609711180617068
 20
15.4512854032562
 42
-0.7725978076394044
 10
7.624391501206787
 20
15.42624256883893
 10
7.53405983286666
 20
15.3359109004988
 42
-0.7132930678969421
 10
7.517063303538407
 20
15.34420066174472
 10
7.526497848496603
 20
15.42103886427481
 10
7.503780236199247
 20
15.50582214759526
 42
-0.0655434628120725
 10
7.502928381856463
 20
15.51229262372251
 10
7.502928381851063
 20
15.93711816851668
 10
7.303076527511791
 20
15.93711816851667
 10
7.303076527511791
 20
15.87511816851668
 10
7.294921361334218
 20
15.87511816851668
 42
-0.3255049610922494
 10
7.266370102801374
 20
15.89590808511899
 10
7.25307652751178
 20
15.93711816851668
 10
7.25307652751178
 20
16.10970906482793
 42
-0.4142135623732337
 10
7.268076527511823
 20
16.12470906482794
 10
7.288076527511861
 20
16.12470906482794
 42
-0.4142135623728176
 10
7.303076527511848
 20
16.10970906482795
 10
7.303076527511905
 20
16.00211816851668
 10
7.385538664184252
 20
16.00211816851668
 10
7.385538664184252
 20
16.16665382798587
 10
7.561285937402146
 20
16.21374516791658
 10
7.561285937402146
 20
16.71374516791658
 10
7.420538664184221
 20
16.87478127100521
 10
7.318076527512971
 20
16.87478127100521
 10
7.318076527512971
 20
16.82263352106327
 42
-0.3639702342661772
 10
7.309813009289655
 20
16.81278544353314
 10
7.264813009288332
 20
16.80485072940103
 42
-0.4663076581547077
 10
7.253076527511666
 20
16.81469880693114
 10
7.253076527510302
 20
18.5580850039299
 10
7.87807652751286
 20
18.5580850039299
 10
7.87807652751286
 20
18.31808500392989
 42
-0.4142135623730951
 10
7.868076527512812
 20
18.3080850039299
 10
7.863076527512816
 20
18.3080850039299
 42
0.4142135623730951
 10
7.853076527512826
 20
18.2980850039299
 10
7.853076527512769
 20
17.9980850039299
 42
0.4142135623731992
 10
7.863076527512816
 20
17.98808500392991
 10
7.868076527512812
 20
17.98808500392991
 42
-0.4142135623731992
 10
7.878076527512803
 20
17.9780850039299
 10
7.878076527512803
 20
17.94308500392991
 42
-0.4142135623730951
 10
7.868076527512812
 20
17.9330850039299
 10
7.813076527512862
 20
17.9330850039299
 42
-0.4142135623730951
 10
7.803076527512871
 20
17.94308500392991
 10
7.803076527512871
 20
18.3530850039299
 42
-0.4142135623730951
 10
7.813076527512862
 20
18.36308500392989
 10
7.818076527512857
 20
18.36308500392989
 42
0.4142135623730951
 10
7.828076527512848
 20
18.3730850039299
 10
7.828076527512848
 20
18.4930850039299
 10
7.318076527513085
 20
18.49308500392988
 10
7.318076527513085
 20
17.86491593985178
 42
0.5494743523523319
 10
7.339451527513062
 20
17.8513380396091
 42
-0.2918218255973577
 10
7.494131227095294
 20
17.83128672552478
 42
-0.2220475164447702
 10
7.501296096118437
 20
17.81594855702894
 10
7.501296096118437
 20
17.78008500392991
 42
-0.4142135623730951
 10
7.481296096118455
 20
17.76008500392991
 10
7.472132843206964
 20
17.76008500392991
 42
-0.2208810136133115
 10
7.456851915100742
 20
17.76718177812346
 42
0.1605330212145298
 10
7.417922258189776
 20
17.79111472558196
 10
7.42022989252905
 20
17.80084482443844
 42
0.116970356020677
 10
7.381919894194368
 20
17.80084404924308
 10
7.384227922305058
 20
17.79111404378366
 42
0.2835070872900811
  0
LWPOLYLINE
  5
1F5C
330
2
100
AcDbEntity
  8
R-SWTS-DET1
100
AcDbPolyline
 90
       61
 70
     1
 43
0.0
 10
9.007928381856345
 20
12.20308500392773
 10
8.987928381856363
 20
12.18308500392772
 10
9.007928381856345
 20
12.16308500392772
 10
8.987928381856363
 20
12.14308500392773
 10
9.007928381856345
 20
12.12308500392772
 10
9.007928381856345
 20
12.07308500392772
 10
8.942928381856347
 20
12.07308500392773
 10
8.942928381856347
 20
12.94808500392593
 10
7.892928381856393
 20
12.94808500392592
 10
7.892928381856393
 20
13.57308500392773
 10
8.942928381856347
 20
13.57308500392774
 10
9.007928381856345
 20
13.57308500392773
 10
9.007928381856288
 20
13.37308500392772
 10
9.007928381856345
 20
13.33143685827059
 42
1.00000000000321
 10
9.142928381856961
 20
13.33143685827059
 10
9.142928381856961
 20
13.45308500392774
 10
9.142928381856336
 20
13.51508500392752
 42
-0.414213562374091
 10
9.200928381856328
 20
13.57308500392771
 10
9.223720762057325
 20
13.57308500392771
 42
-0.0655434628152783
 10
9.230191238184943
 20
13.57223314958494
 10
9.314974521511828
 20
13.54951553728583
 10
9.391812724041926
 20
13.55895008224404
 42
-0.7132930678969658
 10
9.400102485287845
 20
13.54195355291576
 10
9.309770816947718
 20
13.45162188457563
 42
-0.7725978076383388
 10
9.284727982530455
 20
13.46630220516533
 42
0.3431487919937011
 10
9.28010382739751
 20
13.47767827178444
 10
9.263935245046525
 20
13.48701320715715
 42
0.1316524975860435
 10
9.259935245046506
 20
13.48808500392687
 10
9.241078838585963
 20
13.48808500392687
 42
0.4142135623731602
 10
9.233078838585981
 20
13.48008500392687
 10
9.233078838585981
 20
13.29108500392692
 42
0.4142135623731602
 10
9.241078838585963
 20
13.28308500392693
 10
9.259935245046506
 20
13.28308500392693
 42
0.1316524975860434
 10
9.263935245046525
 20
13.28415680069665
 10
9.280103827397397
 20
13.29349173606929
 42
0.3431487919942175
 10
9.284727982530398
 20
13.30486780268843
 42
-0.7725978076396093
 10
9.309770816947718
 20
13.31954812327816
 10
9.400102485287845
 20
13.22921645493803
 42
-0.713293067896966
 10
9.391812724041926
 20
13.21221992560976
 10
9.314974521511828
 20
13.22165447056798
 10
9.230191238190627
 20
13.19893685827038
 42
-0.0655434628152372
 10
9.223720762063067
 20
13.19808500392761
 10
9.007928381856345
 20
13.19808500392759
 10
9.007928381856345
 20
12.5630850039277
 10
8.987928381856363
 20
12.54308500392769
 10
9.007928381856345
 20
12.5230850039277
 10
8.987928381856363
 20
12.5030850039277
 10
9.007928381856345
 20
12.4830850039277
 10
8.987928381856363
 20
12.46308500392771
 10
9.007928381856345
 20
12.44308500392771
 10
8.987928381856363
 20
12.4230850039277
 10
9.007928381856345
 20
12.4030850039277
 10
8.987928381856363
 20
12.38308500392771
 10
9.007928381856345
 20
12.36308500392771
 10
8.987928381856363
 20
12.34308500392772
 10
9.007928381856345
 20
12.32308500392772
 10
8.987928381856363
 20
12.30308500392771
 10
9.007928381856345
 20
12.28308500392772
 10
8.987928381856363
 20
12.26308500392772
 10
9.007928381856345
 20
12.24308500392772
 10
8.987928381856363
 20
12.22308500392773
  0
LWPOLYLINE
  5
1F5D
330
2
100
AcDbEntity
  8
R-SWTS-DET1
100
AcDbPolyline
 90
       32
 70
     1
 43
0.0
 10
8.390899342002569
 20
13.11293360913395
 10
8.381169336543166
 20
13.11524163724463
 42
0.1169703560206769
 10
8.381168561347806
 20
13.07693163890996
 10
8.3908986602043
 20
13.07923927324924
 42
0.2835070872900951
 10
8.445079776648299
 20
13.02505596407219
 10
8.442771748537666
 20
13.01532595861278
 42
0.1169703560206769
 10
8.481081746872291
 20
13.01532518341742
 10
8.478774112533017
 20
13.02505528227388
 42
0.2835070872900713
 10
8.532957421710079
 20
13.07923639871792
 10
8.542687427169482
 20
13.07692837060724
 42
0.1169703560206769
 10
8.542688202364843
 20
13.11523836894191
 10
8.532958103508406
 20
13.11293073460263
 42
0.1605330212145322
 10
8.509025156049858
 20
13.15186039151363
 42
-0.2208810136133245
 10
8.501928381856316
 20
13.16714131961986
 10
8.501928381856373
 20
13.17630457253131
 42
-0.4142135623730951
 10
8.521928381856355
 20
13.19630457253132
 10
8.557791934955389
 20
13.19630457253131
 42
-0.2220475164447456
 10
8.573130103451205
 20
13.18913970350817
 42
-0.2918218255973577
 10
8.593181417535504
 20
13.03446000392596
 42
0.5494743523524559
 10
8.606759317778198
 20
13.01308500392592
 10
8.942928381856347
 20
13.01308500392593
 10
8.942928381856347
 20
13.50808500392774
 10
7.95792838185639
 20
13.50808500392773
 10
7.95792838185639
 20
13.01308500392592
 10
8.31709744593445
 20
13.01308500392592
 42
0.5494743523524253
 10
8.330675346177145
 20
13.03446000392596
 42
-0.2918218255973997
 10
8.350726660261443
 20
13.18913970350817
 42
-0.2220475164447457
 10
8.366064828757316
 20
13.19630457253132
 10
8.40192838185635
 20
13.19630457253132
 42
-0.4142135623730951
 10
8.421928381856332
 20
13.17630457253131
 10
8.421928381856332
 20
13.16714131961986
 42
-0.220881013613293
 10
8.41483160766279
 20
13.15186039151366
 42
0.1605226430948981
  0
LWPOLYLINE
  5
1F5E
330
2
100
AcDbEntity
  8
R-SWTS-DET1
100
AcDbPolyline
 90
      130
 70
     1
 43
0.0
 10
12.04177411253528
 20
13.02520342793237
 10
12.04408174687455
 20
13.0154733290759
 42
-0.1169703560206769
 10
12.00577174853987
 20
13.01547410427126
 10
12.00807977665056
 20
13.02520410973068
 42
-0.283507087290093
 10
11.9538986602065
 20
13.07938741890773
 10
11.94416856135001
 20
13.07707978456844
 42
-0.1169703560206769
 10
11.94416933654537
 20
13.11538978290312
 10
11.95389934200483
 20
13.11308175479243
 42
-0.1605226430949019
 10
11.97783160766499
 20
13.15200853717213
 42
0.2208810136133025
 10
11.98492838185853
 20
13.16728946527834
 10
11.98492838185853
 20
13.17645271818979
 42
0.4142135623730951
 10
11.96492838185855
 20
13.19645271818979
 10
11.92906482875952
 20
13.1964527181898
 42
0.2220475164447751
 10
11.9137266602637
 20
13.18928784916666
 42
0.2918218255974009
 10
11.89367534617935
 20
13.03460814958444
 42
-0.5494743523524548
 10
11.88009744593671
 20
13.01323314958439
 10
11.24462464893383
 20
13.01323314958433
 10
11.24462464893383
 20
13.14740844388952
 10
11.04096031827748
 20
13.3214425594735
 10
10.46871229162661
 20
13.3214425594735
 10
10.4216209516959
 20
13.14569528625558
 10
10.30696154644533
 20
13.14569528625558
 10
10.30696154644533
 20
13.2630850039268
 10
10.23177925905207
 20
13.2630850039268
 42
-0.5494743523522922
 10
10.21820135880938
 20
13.28446000390985
 42
0.2918218255973563
 10
10.19815004472508
 20
13.43913970349205
 42
0.222047516444722
 10
10.18281187622921
 20
13.4463045725152
 10
10.14694832313017
 20
13.4463045725152
 42
0.4142135623731471
 10
10.12694832313019
 20
13.4263045725152
 10
10.12694832313019
 20
13.41714131960375
 42
0.2208810136133066
 10
10.13404509732373
 20
13.40186039149752
 42
-0.1605330212146638
 10
10.15797804478228
 20
13.3629307345865
 10
10.16770814363877
 20
13.36523836892578
 42
-0.116970356020677
 10
10.16770736844341
 20
13.3269283705911
 10
10.15797736298395
 20
13.3292363987018
 42
-0.283507087290051
 10
10.10379405380689
 20
13.27505528225777
 10
10.10610168814617
 20
13.2653251834013
 42
-0.1169703560206769
 10
10.06779168981148
 20
13.26532595859667
 10
10.07009971792217
 20
13.27505596405609
 42
-0.2835070872899558
 10
10.01591860147817
 20
13.3292392732331
 10
10.00618850262174
 20
13.32693163889382
 42
-0.1169703560206765
 10
10.0061892778171
 20
13.3652416372285
 10
10.01591928327644
 20
13.36293360911782
 42
-0.1605226430949548
 10
10.03985154893661
 20
13.40186039149754
 42
0.2208810136133165
 10
10.04694832313021
 20
13.41714131960374
 10
10.04694832313021
 20
13.4263045725152
 42
0.4142135623730951
 10
10.02694832313017
 20
13.44630457251521
 10
9.991084770031193
 20
13.4463045725152
 42
0.2220475164447311
 10
9.97574660153532
 20
13.43913970349206
 42
0.1410634256728592
 10
9.943291770875021
 20
13.36577751502835
 42
-0.9341031171555698
 10
9.897928381859287
 20
13.36887226217892
 10
9.897928381859571
 20
13.51508500392759
 42
0.4142135623740998
 10
9.839928381859579
 20
13.57308500392778
 10
9.817136001659434
 20
13.57308500392804
 42
0.0655434628180566
 10
9.810665525531589
 20
13.57223314958526
 10
9.725882242203454
 20
13.54951553728583
 10
9.649044039673356
 20
13.55895008224404
 42
0.713293067896938
 10
9.640754278427436
 20
13.54195355291576
 10
9.731085946767564
 20
13.45162188457563
 42
0.7725978076385306
 10
9.756128781184827
 20
13.46630220516533
 42
-0.3431487919936307
 10
9.760752936317771
 20
13.47767827178444
 10
9.776921518668757
 20
13.48701320715715
 42
-0.1316524975860437
 10
9.780921518668776
 20
13.48808500392687
 10
9.799777925129319
 20
13.48808500392687
 42
-0.4142135623731602
 10
9.8077779251293
 20
13.48008500392687
 10
9.8077779251293
 20
13.29108500392692
 42
-0.4142135623731602
 10
9.799777925129319
 20
13.28308500392693
 10
9.780921518668776
 20
13.28308500392693
 42
-0.1316524975860435
 10
9.776921518668757
 20
13.28415680069665
 10
9.760752936317828
 20
13.29349173606931
 42
-0.3431487919941411
 10
9.756128781184827
 20
13.30486780268845
 42
0.7725978076394044
 10
9.731085946767564
 20
13.31954812327816
 10
9.640754278427436
 20
13.22921645493803
 42
0.7132930678969421
 10
9.649044039673356
 20
13.21221992560976
 10
9.725882242203454
 20
13.22165447056798
 10
9.810665525523916
 20
13.19893685827059
 42
0.0655434628120725
 10
9.817136001651135
 20
13.19808500392781
 10
10.24196154644534
 20
13.19808500392241
 10
10.24196154644534
 20
12.99823314958316
 10
10.17996154644532
 20
12.99823314958316
 10
10.17996154644532
 20
12.99007798340555
 42
0.3255049610922494
 10
10.20075146304765
 20
12.96152672487273
 10
10.24196154644534
 20
12.94823314958315
 10
10.41455244275659
 20
12.94823314958315
 42
0.4142135623732337
 10
10.42955244275657
 20
12.96323314958315
 10
10.42955244275657
 20
12.9832331495832
 42
0.4142135623728176
 10
10.41455244275659
 20
12.9982331495832
 10
10.30696154644533
 20
12.99823314958328
 10
10.30696154644533
 20
13.08069528625558
 10
10.47149720591449
 20
13.08069528625558
 10
10.5185885458452
 20
13.2564425594735
 10
11.0185885458452
 20
13.2564425594735
 10
11.17962464893384
 20
13.11569528625558
 10
11.17962464893384
 20
13.01323314958432
 10
11.12747689899191
 20
13.01323314958432
 42
0.3639702342661772
 10
11.11762882146178
 20
13.00496963136098
 10
11.10969410732969
 20
12.95996963135968
 42
0.4663076581547077
 10
11.11954218485976
 20
12.94823314958301
 10
12.86292838185852
 20
12.94823314958166
 10
12.86292838185852
 20
13.57323314958422
 10
12.62292838185851
 20
13.5732331495842
 42
0.4142135623730951
 10
12.61292838185852
 20
13.56323314958419
 10
12.61292838185852
 20
13.5582331495842
 42
-0.4142135623730951
 10
12.60292838185853
 20
13.54823314958419
 10
12.30292838185852
 20
13.54823314958415
 42
-0.4142135623731992
 10
12.29292838185853
 20
13.55823314958415
 10
12.29292838185853
 20
13.56323314958415
 42
0.4142135623731992
 10
12.28292838185854
 20
13.57323314958415
 10
12.24792838185857
 20
13.57323314958415
 42
0.4142135623730951
 10
12.23792838185852
 20
13.56323314958415
 10
12.23792838185852
 20
13.50823314958423
 42
0.4142135623730951
 10
12.24792838185857
 20
13.49823314958423
 10
12.65792838185854
 20
13.49823314958422
 42
0.4142135623730951
 10
12.66792838185853
 20
13.50823314958423
 10
12.66792838185853
 20
13.51323314958423
 42
-0.4142135623730951
 10
12.67792838185852
 20
13.52323314958423
 10
12.79792838185852
 20
13.52323314958423
 10
12.79792838185852
 20
13.01323314958445
 10
12.1697593177804
 20
13.01323314958443
 42
-0.5494743523523319
 10
12.15618141753777
 20
13.03460814958444
 42
0.2918218255973577
 10
12.13613010345341
 20
13.18928784916664
 42
0.2220475164447702
 10
12.12079193495759
 20
13.19645271818979
 10
12.08492838185856
 20
13.1964527181898
 42
0.4142135623730951
 10
12.06492838185858
 20
13.17645271818979
 10
12.06492838185858
 20
13.16728946527834
 42
0.2208810136133115
 10
12.07202515605212
 20
13.15200853717212
 42
-0.1605330212145298
 10
12.09595810351061
 20
13.11307888026111
 10
12.1056882023671
 20
13.1153865146004
 42
-0.116970356020677
 10
12.10568742717174
 20
13.07707651626573
 10
12.09595742171228
 20
13.07938454437641
 42
-0.2835070872900811
  0
LINE
  5
1F5F
330
2
100
AcDbEntity
  8
R-SWTS-DET1
100
AcDbLine
 10
7.877928381856406
 20
10.07224879455923
 30
0.0
 11
7.877928381856406
 21
13.57308500392774
 31
0.0
  0
LINE
  5
1F60
330
2
100
AcDbEntity
  8
R-SWTS-DET1
100
AcDbLine
 10
12.87792838185839
 20
10.07226443953344
 30
0.0
 11
12.87792838185839
 21
13.57308500392773
 31
0.0
  0
LINE
  5
1F61
330
2
100
AcDbEntity
  8
R-SWTS-DET1
100
AcDbLine
 10
7.877928381856406
 20
13.57308500392774
 30
0.0
 11
12.87792838185839
 21
13.57308500392773
 31
0.0
  0
LINE
  5
1F62
330
2
100
AcDbEntity
  8
R-SWTS-DET1
100
AcDbLine
 10
8.877928381856349
 20
10.07224879455923
 30
0.0
 11
8.877928381856349
 21
13.57308500392773
 31
0.0
  0
LINE
  5
1F63
330
2
100
AcDbEntity
  8
R-SWTS-DET1
100
AcDbLine
 10
8.942928381856347
 20
10.07224879455923
 30
0.0
 11
8.942928381856347
 21
13.57308500392774
 31
0.0
  0
LINE
  5
1F64
330
2
100
AcDbEntity
  8
R-SWTS-DET1
100
AcDbLine
 10
7.877928381856406
 20
13.57308500392773
 30
0.0
 11
7.877928381856349
 21
18.57308500392973
 31
0.0
  0
LINE
  5
1F65
330
2
100
AcDbEntity
  8
R-SWTS-DET1
100
AcDbLine
 10
4.377076527513679
 20
18.57308500392973
 30
0.0
 11
7.877928381856349
 21
18.57308500392973
 31
0.0
  0
LINE
  5
1F66
330
2
100
AcDbEntity
  8
R-SWTS-DET1
100
AcDbLine
 10
4.377092172487891
 20
14.63808500392772
 30
0.0
 11
7.877928381856406
 21
14.63808500392772
 31
0.0
  0
LINE
  5
1F67
330
2
100
AcDbEntity
  8
R-SWTS-DET1
100
AcDbLine
 10
4.377092172487891
 20
14.57308500392773
 30
0.0
 11
7.877928381856349
 21
14.57308500392773
 31
0.0
  0
LINE
  5
1F68
330
2
100
AcDbEntity
  8
R-SWTS-DET1
100
AcDbLine
 10
4.377092172487891
 20
13.57308500392773
 30
0.0
 11
7.877928381856406
 21
13.57308500392773
 31
0.0
  0
LWPOLYLINE
  5
1F69
330
2
100
AcDbEntity
  8
R-SWTS-DET2
100
AcDbPolyline
 90
        6
 70
     1
 43
0.0
 10
7.877928381856406
 20
14.69808500392774
 10
7.877928381856406
 20
13.57308500392774
 10
9.002928381856406
 20
13.57308500392774
 10
9.002928381856406
 20
13.69808500392774
 10
8.002928381856406
 20
13.69808500392774
 10
8.002928381856406
 20
14.69808500392774
  0
LWPOLYLINE
  5
1F6A
330
2
100
AcDbEntity
  8
R-SWTS-DET2
100
AcDbPolyline
 90
       20
 70
     1
 43
0.0
 10
7.938076527512862
 20
18.4930850039299
 42
0.4142135623730951
 10
7.928076527512871
 20
18.48308500392991
 10
7.928076527512871
 20
17.94308500392991
 42
-0.4142135623730951
 10
7.91807652751288
 20
17.9330850039299
 10
7.888076527512851
 20
17.9330850039299
 42
-0.4142135623730951
 10
7.87807652751286
 20
17.94308500392991
 10
7.87807652751286
 20
18.5280850039299
 42
-0.4142135623730951
 10
7.908076527512889
 20
18.5580850039299
 10
12.83292838185855
 20
18.55808500392992
 42
-0.414213562373096
 10
12.86292838185858
 20
18.52808500392992
 10
12.86292838185858
 20
13.60308500392773
 42
-0.4142135623731039
 10
12.83292838185855
 20
13.57308500392773
 10
12.24792838185857
 20
13.57308500392773
 42
-0.4142135623730951
 10
12.23792838185858
 20
13.58308500392773
 10
12.23792838185858
 20
13.61308500392773
 42
-0.4142135623731211
 10
12.24792838185857
 20
13.62308500392773
 10
12.78792838185853
 20
13.62308500392773
 42
0.4142135623731211
 10
12.79792838185858
 20
13.63308500392773
 10
12.79792838185858
 20
18.4630850039299
 42
0.4142135623730951
 10
12.76792838185855
 20
18.4930850039299
  0
LWPOLYLINE
  5
1F80
330
2
100
AcDbEntity
  8
R-SWTS-DET1
100
AcDbPolyline
 90
        6
 70
     0
 43
0.0
 10
7.627928381856406
 20
10.07224879455923
 10
10.27108425612027
 20
10.07224879455923
 10
10.32415283785678
 20
10.2844639875414
 10
10.43170392585796
 20
9.860049246551213
 10
10.48477250759447
 20
10.07226443953344
 10
13.1279283818584
 20
10.07226443953344
  0
LWPOLYLINE
  5
1F81
330
2
100
AcDbEntity
  8
R-SWTS-DET3
100
AcDbPolyline
 90
        4
 70
     1
 43
0.0
 10
9.882712241661693
 20
12.634233149585
 10
9.882712241661693
 20
12.384233149585
 10
9.382712241661693
 20
12.384233149585
 10
9.382712241661693
 20
12.634233149585
  0
LWPOLYLINE
  5
1F82
330
2
100
AcDbEntity
  8
R-SWTS-DET3
100
AcDbPolyline
 90
        4
 70
     0
 43
0.0
 10
10.13271224166169
 20
10.072233149585
 10
10.13271224166169
 20
12.634233149585
 10
9.882712241661693
 20
12.634233149585
 10
9.882712241661693
 20
10.072233149585
  0
LWPOLYLINE
  5
1F83
330
2
100
AcDbEntity
  8
R-SWTS-DET3
100
AcDbPolyline
 90
        4
 70
     0
 43
0.0
 10
9.382712241661693
 20
10.072233149585
 10
9.382712241661693
 20
12.634233149585
 10
9.132712241661693
 20
12.634233149585
 10
9.132712241661693
 20
10.072233149585
  0
LWPOLYLINE
  5
1F84
330
2
100
AcDbEntity
  8
R-SWTS-DET1
100
AcDbPolyline
 90
       41
 70
     1
 43
0.0
 10
10.36986094057908
 20
12.32576573543721
 42
0.4142135623730431
 10
10.38486094057907
 20
12.31076573543721
 10
10.41686094057905
 20
12.31076573543721
 42
-0.4142135623730951
 10
10.4318609405791
 20
12.29576573543721
 10
10.4318609405791
 20
12.18565769500056
 42
0.4184033046059118
 10
10.49474648473347
 20
12.12366401942353
 10
11.07198764642538
 20
12.13190957885611
 42
0.4139326425428041
 10
11.13112534222881
 20
12.19270288921335
 10
11.12218780167506
 20
12.86343618403329
 42
0.4077932646411109
 10
11.10731881670585
 20
12.87823576573713
 42
-0.413875507397508
 10
11.03792597073715
 20
12.94875753896116
 42
0.4122343511257975
 10
11.0231401872312
 20
12.96386838441769
 10
10.50505123961073
 20
12.9712534768793
 42
-0.3394542588633734
 10
10.49072228521618
 20
12.98257657255414
 10
10.48212961890437
 20
13.01657604376885
 10
10.37464878336135
 20
13.01810812800261
 10
10.37457751816333
 20
13.01310863590126
 42
-0.9999999999999847
 10
10.34458056555519
 20
13.0135362270892
 10
10.34466800286009
 20
13.01967024660375
 42
-0.3727193515204652
 10
10.37079187592297
 20
13.04899159245288
 10
10.39083109697304
 20
13.05160054271741
 10
10.47653358128707
 20
13.06275833765181
 42
-0.3800361709519329
 10
10.53146454715778
 20
13.02542804468751
 10
10.5326176080996
 20
13.02086561192483
 10
11.10095793926325
 20
13.01276421174137
 42
-0.4577045202689281
 10
11.11555153062107
 20
12.99536963617825
 10
11.1079240065365
 20
12.94823314958302
 10
11.19192400653651
 20
12.94823314958302
 10
11.19192400653651
 20
12.07276573543721
 10
10.37179211992077
 20
12.07276573543723
 42
-0.267949192431115
 10
10.35880173886397
 20
12.08026573543722
 10
10.32185132163585
 20
12.14426573543721
 42
-0.577350269189628
 10
10.33484170269258
 20
12.16676573543722
 10
10.38186094057909
 20
12.16676573543722
 10
10.38186094057909
 20
12.26076573543722
 10
10.3498609405791
 20
12.26076573543722
 42
-0.4142135623730948
 10
10.31986094057907
 20
12.29076573543722
 10
10.31986094057907
 20
12.34476573543722
 42
-0.4142135623731297
 10
10.33486094057906
 20
12.35976573543722
 10
10.3548609405791
 20
12.35976573543722
 42
-0.4142135623730431
 10
10.36986094057908
 20
12.34476573543722
  0
LWPOLYLINE
  5
1F85
330
2
100
AcDbEntity
  8
R-SWTS-DET2
  6
HIDDEN2
100
AcDbPolyline
 90
       18
 70
     1
 43
0.0
 10
10.17725244275493
 20
12.93323314958321
 10
10.43225244275493
 20
12.93323314958321
 42
0.4142135623730951
 10
10.43725244275492
 20
12.93823314958321
 10
10.43725244275492
 20
12.99323314958323
 42
-0.9999999999999287
 10
10.46225244275496
 20
12.99323314958323
 10
10.46225244275496
 20
12.92073314958321
 42
-0.4142135623730951
 10
10.44975244275497
 20
12.90823314958321
 10
10.27742008251908
 20
12.90823314958321
 42
0.3706321426687706
 10
10.26506241790542
 20
12.89761414009287
 10
10.15812073063853
 20
12.19503244301767
 42
-0.9950963693897204
 10
10.14033203441693
 20
12.19778098039469
 10
10.23843279299183
 20
12.89398903846758
 42
0.4558347385663113
 10
10.22605506798214
 20
12.90823314958321
 10
10.15975244275495
 20
12.90823314958321
 42
-0.4142135623730951
 10
10.14725244275496
 20
12.92073314958321
 10
10.14725244275496
 20
12.99323314958322
 42
-1.0
 10
10.17225244275494
 20
12.99323314958322
 10
10.17225244275494
 20
12.93823314958321
 42
0.4142135623730951
  0
LWPOLYLINE
  5
1F86
330
2
100
AcDbEntity
  8
R-SWTS-DET2
100
AcDbPolyline
 90
       12
 70
     1
 43
0.0
 10
10.30382784616205
 20
12.07276573543723
 10
10.42884170269258
 20
12.07276573543723
 10
10.42884170269258
 20
12.07038392923978
 42
-0.3639702342662026
 10
10.40925716450328
 20
12.04704398549339
 10
10.13299817550859
 20
11.93606620674552
 10
10.13299817550859
 20
12.04063613139853
 42
0.3145636000813645
 10
10.1868709274122
 20
12.38391446420787
 10
10.19090641893302
 20
12.41042669300927
 10
10.21737562608473
 20
12.41042669300927
 42
-0.2645518979873512
 10
10.34246179481226
 20
12.17599536364865
 10
10.32358100516006
 20
12.17266617101589
 42
0.315298788878984
 10
10.32098529451895
 20
12.17007046037479
  0
LINE
  5
1F87
330
2
100
AcDbEntity
  8
R-SWTS-DET1
100
AcDbLine
 10
11.19192400653651
 20
12.07276573543721
 30
0.0
 11
11.19192400653651
 21
10.07223314958513
 31
0.0
  0
LINE
  5
1F88
330
2
100
AcDbEntity
  8
R-SWTS-DET2
100
AcDbLine
 10
10.42884170269263
 20
12.07276573543721
 30
0.0
 11
10.42884170269263
 21
9.871344062121735
 31
0.0
  0
LWPOLYLINE
  5
1F89
330
2
100
AcDbEntity
  8
R-SWTS-DET2
100
AcDbPolyline
 90
        4
 70
     1
 43
0.0
 10
9.132712241661749
 20
12.37519825275905
 42
0.9999999999999998
 10
9.007928381856515
 20
12.37519825275905
 10
9.007928381856515
 20
12.12826804641096
 42
0.9999999999999998
 10
9.132712241661749
 20
12.12826804641096
  0
CIRCLE
  5
1F8A
330
2
100
AcDbEntity
  8
R-SWTS-DET2
100
AcDbCircle
 10
9.070320311759132
 20
12.25173314958501
 30
0.0
 40
0.0503284406763105
  0
HATCH
  5
1F8B
330
2
100
AcDbEntity
  8
0
100
AcDbHatch
 10
0.0
 20
0.0
 30
0.0
210
0.0
220
0.0
230
1.0
  2
ANSI37
 70
     0
 71
     0
 91
        2
 92
        7
 72
     1
 73
     1
 93
       36
 10
9.8077779251293
 20
13.48008500392689
 42
0.41421356237316
 10
9.799777925129319
 20
13.48808500392688
 42
0.0
 10
9.780921518668776
 20
13.48808500392688
 42
0.1316524975870078
 10
9.776921518668757
 20
13.48701320715715
 42
0.0
 10
9.760752936317828
 20
13.47767827178447
 42
0.3431487919937766
 10
9.756128781184827
 20
13.46630220516535
 42
-0.7725978076387533
 10
9.731085946767564
 20
13.45162188457563
 42
0.0
 10
9.640754278427436
 20
13.54195355291578
 42
-0.6681786379191954
 10
9.647825346239301
 20
13.55902462072764
 42
0.0
 10
9.393031417475981
 20
13.55902462072765
 42
-0.6681786379197768
 10
9.400102485287845
 20
13.54195355291578
 42
0.0
 10
9.309770816947718
 20
13.45162188457565
 42
-0.7725978076387183
 10
9.284727982530512
 20
13.46630220516536
 42
0.3431487919942695
 10
9.28010382739751
 20
13.47767827178445
 42
0.0
 10
9.263935245046525
 20
13.48701320715715
 42
0.1316524975870076
 10
9.259935245046506
 20
13.48808500392688
 42
0.0
 10
9.241078838585963
 20
13.48808500392688
 42
0.4142135623726397
 10
9.233078838585981
 20
13.48008500392689
 42
0.0
 10
9.233078838585981
 20
13.29108500392694
 42
0.4142135623726397
 10
9.241078838585963
 20
13.28308500392694
 42
0.0
 10
9.259935245046506
 20
13.28308500392694
 42
0.1316524975859829
 10
9.263935245046525
 20
13.28415680069666
 42
0.0
 10
9.280103827397397
 20
13.29349173606929
 42
0.3431487919942175
 10
9.284727982530398
 20
13.30486780268843
 42
-0.7725978076394532
 10
9.309770816947718
 20
13.31954812327818
 42
0.0
 10
9.400102485287845
 20
13.22921645493804
 42
-0.6681786379180224
 10
9.393031417475981
 20
13.21214538712618
 42
0.0
 10
9.647825346239301
 20
13.21214538712618
 42
-0.6681786379191376
 10
9.640754278427436
 20
13.22921645493803
 42
0.0
 10
9.731085946767564
 20
13.31954812327817
 42
-0.7725978076384913
 10
9.756128781184827
 20
13.30486780268846
 42
0.343148791993908
 10
9.760752936317828
 20
13.29349173606933
 42
0.0
 10
9.776921518668757
 20
13.28415680069666
 42
0.1316524975864953
 10
9.780921518668776
 20
13.28308500392694
 42
0.0
 10
9.799777925129319
 20
13.28308500392694
 42
0.41421356237316
 10
9.8077779251293
 20
13.29108500392694
 42
0.0
 97
        0
 92
       22
 72
     1
 73
     1
 93
       12
 10
9.613677222045566
 20
13.32531973415643
 42
0.0
 10
9.60065593318535
 20
13.30165767443691
 42
-0.2734560415960702
 10
9.548089692987048
 20
13.27058500392684
 42
0.0
 10
9.492917527928
 20
13.27058500392685
 42
-0.2734560434247903
 10
9.440351287532905
 20
13.30165767479471
 42
0.0
 10
9.42732999798784
 20
13.32531973614
 42
-0.2569805071130905
 10
9.427329998808318
 20
13.44585027568149
 42
0.0
 10
9.440351286983343
 20
13.46951233377457
 42
-0.2734560397666548
 10
9.492917526984626
 20
13.50058500392679
 42
0.0
 10
9.548089692987275
 20
13.50058500392681
 42
-0.2734560415951895
 10
9.600655933185464
 20
13.46951233341693
 42
0.0
 10
9.613677222045339
 20
13.44585027369824
 42
-0.2569805071138714
 97
        0
 75
     0
 76
     1
 52
0.0
 41
0.5
 77
     0
 78
     2
 53
45.0
 43
-74.84055661814409
 44
-47.10481449315298
 45
-0.0441941738241592
 46
0.0441941738241592
 79
     0
 53
135.0
 43
-74.84055661814409
 44
-47.10481449315298
 45
-0.0441941738241592
 46
-0.0441941738241592
 79
     0
 47
0.0091032376506059
 98
        2
 10
9.71098399488136
 20
13.40104411664836
 10
9.71098399488136
 20
13.40104411664836
  0
LWPOLYLINE
  5
1F8C
330
2
100
AcDbEntity
  8
0
100
AcDbPolyline
 90
       12
 70
     1
 43
0.0
 10
9.600655933185464
 20
13.46951233341691
 42
0.2734560415951634
 10
9.548089692987275
 20
13.50058500392681
 10
9.492917526984683
 20
13.50058500392679
 42
0.2734560397667185
 10
9.440351286983343
 20
13.46951233377457
 10
9.427329998398079
 20
13.44585027493605
 42
0.2569805071132461
 10
9.427329998398079
 20
13.3253197353945
 10
9.440351287532905
 20
13.3016576747947
 42
0.2734560434246889
 10
9.492917527928
 20
13.27058500392685
 10
9.548089692987048
 20
13.27058500392684
 42
0.2734560415960701
 10
9.60065593318535
 20
13.30165767443691
 10
9.61367722204551
 20
13.32531973415635
 42
0.2569805071137504
 10
9.613677222045396
 20
13.44585027369811
  0
LINE
  5
1F8D
330
2
100
AcDbEntity
  8
0
100
AcDbLine
 10
9.647825346239301
 20
13.21214538712618
 30
0.0
 11
9.393031417475981
 21
13.21214538712618
 31
0.0
  0
LINE
  5
1F8E
330
2
100
AcDbEntity
  8
0
100
AcDbLine
 10
9.647825346239301
 20
13.55902462072764
 30
0.0
 11
9.393031417475981
 21
13.55902462072765
 31
0.0
  0
LWPOLYLINE
  5
1FA7
330
2
100
AcDbEntity
  8
R-SWTS-DET1
100
AcDbPolyline
 90
        6
 70
     0
 43
0.0
 10
4.377092172487891
 20
13.32308500392773
 10
4.377092172487891
 20
15.96624087819165
 10
4.16487697950572
 20
16.01930945992814
 10
4.589291720495907
 20
16.12686054792932
 10
4.377076527513679
 20
16.17992912966581
 10
4.377076527513679
 20
18.82308500392973
  0
LWPOLYLINE
  5
1FA8
330
2
100
AcDbEntity
  8
R-SWTS-DET3
100
AcDbPolyline
 90
        4
 70
     0
 43
0.0
 10
4.377076527513622
 20
15.57786886373308
 10
6.939076527513634
 20
15.57786886373308
 10
6.939076527513634
 20
15.82786886373308
 10
4.377076527513622
 20
15.82786886373308
  0
LWPOLYLINE
  5
1FA9
330
2
100
AcDbEntity
  8
R-SWTS-DET3
100
AcDbPolyline
 90
        4
 70
     0
 43
0.0
 10
4.377076527513622
 20
14.82786886373308
 10
6.939076527513634
 20
14.82786886373308
 10
6.939076527513634
 20
15.07786886373308
 10
4.377076527513622
 20
15.07786886373308
  0
LWPOLYLINE
  5
1FAA
330
2
100
AcDbEntity
  8
R-SWTS-DET3
100
AcDbPolyline
 90
        4
 70
     1
 43
0.0
 10
6.939076527513634
 20
15.07786886373308
 10
6.689076527513634
 20
15.07786886373308
 10
6.689076527513634
 20
15.57786886373308
 10
6.939076527513634
 20
15.57786886373308
  0
LWPOLYLINE
  5
1FAB
330
2
100
AcDbEntity
  8
R-SWTS-DET2
100
AcDbPolyline
 90
        4
 70
     1
 43
0.0
 10
6.680041630687696
 20
14.82786886373308
 10
6.433111424339585
 20
14.82786886373308
 42
0.9999999999999998
 10
6.433111424339585
 20
14.70308500392784
 10
6.680041630687696
 20
14.70308500392784
 42
0.9999999999999998
  0
LWPOLYLINE
  5
1FAC
330
2
100
AcDbEntity
  8
R-SWTS-DET2
100
AcDbPolyline
 90
       12
 70
     1
 43
0.0
 10
6.377609113365849
 20
15.99898446823339
 10
6.377609113365849
 20
16.12399832476395
 10
6.375227307168415
 20
16.12399832476395
 42
0.3639702342662026
 10
6.351887363422008
 20
16.10441378657466
 10
6.24090958467417
 20
15.82815479757993
 10
6.345479509327162
 20
15.82815479757993
 42
-0.3145636000813645
 10
6.68875784213651
 20
15.88202754948354
 10
6.71527007093789
 20
15.88606304100435
 10
6.71527007093789
 20
15.91253224815607
 42
0.2645518979873512
 10
6.480838741577315
 20
16.03761841688361
 10
6.47750954894451
 20
16.01873762723139
 42
-0.315298788878984
 10
6.47491383830345
 20
16.01614191659029
  0
LWPOLYLINE
  5
1FAD
330
2
100
AcDbEntity
  8
R-SWTS-DET1
100
AcDbPolyline
 90
       41
 70
     1
 43
0.0
 10
6.630609113365835
 20
16.06501756265043
 42
-0.4142135623730431
 10
6.615609113365849
 20
16.08001756265043
 10
6.615609113365849
 20
16.11201756265043
 42
0.4142135623730951
 10
6.600609113365862
 20
16.12701756265043
 10
6.490501072929191
 20
16.12701756265043
 42
-0.4184033046059118
 10
6.428507397352177
 20
16.18990310680483
 10
6.436752956784744
 20
16.76714426849673
 42
-0.4139326425428041
 10
6.497546267142013
 20
16.82628196430016
 10
7.168279561961924
 20
16.8173444237464
 42
-0.4077932646411109
 10
7.183079143665793
 20
16.8024754387772
 42
0.413875507397508
 10
7.253600916889809
 20
16.73308259280849
 42
-0.4122343511257975
 10
7.268711762346356
 20
16.71829680930258
 10
7.276096854807917
 20
16.20020786168211
 42
0.3394542588633734
 10
7.287419950482785
 20
16.18587890728751
 10
7.321419421697498
 20
16.17728624097574
 10
7.322951505931257
 20
16.06980540543271
 10
7.317952013829881
 20
16.06973414023471
 42
0.9999999999999847
 10
7.318379605017867
 20
16.03973718762655
 10
7.324513624532414
 20
16.03982462493145
 42
0.3727193515204652
 10
7.353834970381512
 20
16.06594849799433
 10
7.356443920646029
 20
16.08598771904439
 10
7.367601715580462
 20
16.17169020335843
 42
0.3800361709519329
 10
7.330271422616135
 20
16.22662116922914
 10
7.325708989853467
 20
16.22777423017094
 10
7.317607589669989
 20
16.79611456133461
 42
0.4577045202689281
 10
7.300213014106873
 20
16.81070815269245
 10
7.253076527511666
 20
16.80308062860784
 10
7.253076527511666
 20
16.88708062860784
 10
6.377609113365849
 20
16.88708062860784
 10
6.377609113365849
 20
16.0669487419921
 42
0.267949192431115
 10
6.385109113365842
 20
16.05395836093533
 10
6.449109113365864
 20
16.01700794370719
 42
0.577350269189628
 10
6.471609113365843
 20
16.02999832476396
 10
6.471609113365843
 20
16.07701756265043
 10
6.565609113365837
 20
16.07701756265043
 10
6.565609113365837
 20
16.04501756265043
 42
0.4142135623730948
 10
6.595609113365867
 20
16.01501756265043
 10
6.649609113365841
 20
16.01501756265042
 42
0.4142135623731297
 10
6.664609113365884
 20
16.03001756265042
 10
6.664609113365884
 20
16.05001756265043
 42
0.4142135623730431
 10
6.649609113365841
 20
16.06501756265043
  0
LWPOLYLINE
  5
1FAE
330
2
100
AcDbEntity
  8
R-SWTS-DET2
  6
HIDDEN2
100
AcDbPolyline
 90
       18
 70
     1
 43
0.0
 10
7.23807652751185
 20
15.8724090648263
 10
7.23807652751185
 20
16.1274090648263
 42
-0.4142135623730951
 10
7.243076527511846
 20
16.1324090648263
 10
7.298076527511852
 20
16.13240906482631
 42
0.9999999999999287
 10
7.298076527511852
 20
16.15740906482631
 10
7.225576527511861
 20
16.15740906482631
 42
0.4142135623730951
 10
7.213076527511873
 20
16.14490906482631
 10
7.213076527511873
 20
15.97257670459043
 42
-0.3706321426687706
 10
7.202457518021503
 20
15.96021903997681
 10
6.499875820946272
 20
15.8532773527099
 42
0.9950963693897204
 10
6.502624358323316
 20
15.83548865648827
 10
7.198832416396214
 20
15.9335894150632
 42
-0.4558347385663113
 10
7.213076527511873
 20
15.92121169005347
 10
7.213076527511873
 20
15.85490906482631
 42
0.4142135623730951
 10
7.225576527511861
 20
15.8424090648263
 10
7.298076527511852
 20
15.8424090648263
 42
1.0
 10
7.298076527511852
 20
15.86740906482631
 10
7.243076527511846
 20
15.86740906482631
 42
-0.4142135623730951
  0
CIRCLE
  5
1FAF
330
2
100
AcDbEntity
  8
R-SWTS-DET2
100
AcDbCircle
 10
6.556576527513641
 20
14.76547693383046
 30
0.0
 40
0.0503284406763105
  0
LINE
  5
1FB0
330
2
100
AcDbEntity
  8
R-SWTS-DET2
100
AcDbLine
 10
6.377609113365849
 20
16.12399832476395
 30
0.0
 11
4.577996904925328
 21
16.12399832476395
 31
0.0
  0
LINE
  5
1FB1
330
2
100
AcDbEntity
  8
R-SWTS-DET1
100
AcDbLine
 10
6.377609113365849
 20
16.88708062860784
 30
0.0
 11
4.377076527513793
 21
16.88708062860784
 31
0.0
  0
LINE
  5
1FB2
330
2
100
AcDbEntity
  8
R-SWTS-DET1
100
AcDbLine
 10
23.70250648569174
 20
14.99244889999794
 30
0.0
 11
23.70250648569174
 21
18.49396980489879
 31
0.0
  0
LINE
  5
1FB3
330
2
100
AcDbEntity
  8
R-SWTS-DET1
100
AcDbLine
 10
28.70250648569373
 20
14.99244889999794
 30
0.0
 11
28.70250648569373
 21
18.49344889999717
 31
0.0
  0
LINE
  5
1FB4
330
2
100
AcDbEntity
  8
R-SWTS-DET1
100
AcDbLine
 10
24.70250648569174
 20
14.99244889999794
 30
0.0
 11
24.70250648569174
 21
18.49343325502296
 31
0.0
  0
LINE
  5
1FB5
330
2
100
AcDbEntity
  8
R-SWTS-DET1
100
AcDbLine
 10
24.76750648569174
 20
14.99244889999794
 30
0.0
 11
24.76750648569174
 21
18.49343325502296
 31
0.0
  0
LINE
  5
1FB6
330
2
100
AcDbEntity
  8
R-SWTS-DET1
100
AcDbLine
 10
23.70250648569174
 20
14.99244889999794
 30
0.0
 11
28.70250648569373
 21
14.99244889999794
 31
0.0
  0
LINE
  5
1FB7
330
2
100
AcDbEntity
  8
R-SWTS-DET1
100
AcDbLine
 10
28.70250648569373
 20
9.992448899995949
 30
0.0
 11
32.20402739059461
 21
9.992448899995949
 31
0.0
  0
LINE
  5
1FB8
330
2
100
AcDbEntity
  8
R-SWTS-DET1
100
AcDbLine
 10
28.70250648569373
 20
14.99244889999794
 30
0.0
 11
32.20350648569297
 21
14.99244889999794
 31
0.0
  0
LINE
  5
1FB9
330
2
100
AcDbEntity
  8
R-SWTS-DET1
100
AcDbLine
 10
28.70250648569373
 20
11.05744889999593
 30
0.0
 11
32.20352213066718
 21
11.05744889999593
 31
0.0
  0
LINE
  5
1FBA
330
2
100
AcDbEntity
  8
R-SWTS-DET1
100
AcDbLine
 10
28.70250648569373
 20
10.99244889999593
 30
0.0
 11
32.20352213066718
 21
10.99244889999593
 31
0.0
  0
LINE
  5
1FBB
330
2
100
AcDbEntity
  8
R-SWTS-DET1
100
AcDbLine
 10
28.70250648569373
 20
9.992448899995949
 30
0.0
 11
28.70250648569373
 21
14.99244889999795
 31
0.0
  0
LWPOLYLINE
  5
1FBC
330
2
100
AcDbEntity
  8
R-SWTS-DET1
100
AcDbPolyline
 90
       61
 70
     1
 43
0.0
 10
30.07265463135019
 20
11.12244889999593
 10
30.09265463135023
 20
11.10244889999593
 10
30.11265463135021
 20
11.12244889999593
 10
30.13265463135019
 20
11.10244889999593
 10
30.15265463135023
 20
11.12244889999593
 10
30.20265463135024
 20
11.12244889999593
 10
30.20265463135018
 20
11.05744889999593
 10
29.32765463135201
 20
11.05744889999593
 10
29.32765463135201
 20
10.00744889999593
 10
28.70265463135019
 20
10.00744889999593
 10
28.70265463135019
 20
11.05744889999593
 10
28.70265463135019
 20
11.12244889999593
 10
28.90265463135023
 20
11.12244889999587
 10
28.94430277700735
 20
11.12244889999593
 42
1.00000000000321
 10
28.94430277700735
 20
11.25744889999652
 10
28.82265463135019
 20
11.25744889999652
 10
28.76065463135041
 20
11.25744889999589
 42
-0.414213562374091
 10
28.70265463135024
 20
11.3154488999959
 10
28.70265463135024
 20
11.33824128019691
 42
-0.0655434628152783
 10
28.70350648569297
 20
11.34471175632448
 10
28.72622409799209
 20
11.42949503965138
 10
28.71678955303389
 20
11.50633324218148
 42
-0.7132930678969658
 10
28.7337860823622
 20
11.5146230034274
 10
28.82411775070233
 20
11.42429133508728
 42
-0.7725978076383388
 10
28.80943743011261
 20
11.39924850067003
 42
0.3431487919937011
 10
28.7980613634935
 20
11.39462434553709
 10
28.78872642812081
 20
11.37845576318609
 42
0.1316524975860435
 10
28.78765463135108
 20
11.37445576318609
 10
28.78765463135108
 20
11.35559935672553
 42
0.4142135623731602
 10
28.79565463135106
 20
11.34759935672554
 10
28.98465463135102
 20
11.34759935672554
 42
0.4142135623731602
 10
28.992654631351
 20
11.35559935672553
 10
28.992654631351
 20
11.37445576318609
 42
0.1316524975860434
 10
28.99158283458127
 20
11.37845576318609
 10
28.98224789920863
 20
11.39462434553697
 42
0.3431487919942175
 10
28.97087183258952
 20
11.39924850066996
 42
-0.7725978076396093
 10
28.9561915119998
 20
11.42429133508728
 10
29.04652318033993
 20
11.5146230034274
 42
-0.713293067896966
 10
29.06351970966819
 20
11.50633324218148
 10
29.05408516470999
 20
11.42949503965139
 10
29.07680277700757
 20
11.34471175633019
 42
-0.0655434628152372
 10
29.0776546313503
 20
11.33824128020263
 10
29.07765463135035
 20
11.12244889999593
 10
29.71265463135024
 20
11.12244889999593
 10
29.73265463135027
 20
11.10244889999593
 10
29.75265463135026
 20
11.12244889999593
 10
29.77265463135024
 20
11.10244889999593
 10
29.79265463135022
 20
11.12244889999593
 10
29.81265463135026
 20
11.10244889999593
 10
29.83265463135024
 20
11.12244889999593
 10
29.85265463135022
 20
11.10244889999593
 10
29.87265463135026
 20
11.12244889999593
 10
29.89265463135024
 20
11.10244889999593
 10
29.91265463135022
 20
11.12244889999593
 10
29.93265463135021
 20
11.10244889999593
 10
29.95265463135024
 20
11.12244889999593
 10
29.97265463135022
 20
11.10244889999593
 10
29.99265463135021
 20
11.12244889999593
 10
30.01265463135025
 20
11.10244889999593
 10
30.03265463135023
 20
11.12244889999593
 10
30.05265463135021
 20
11.10244889999593
  0
LWPOLYLINE
  5
1FBD
330
2
100
AcDbEntity
  8
R-SWTS-DET1
100
AcDbPolyline
 90
       32
 70
     1
 43
0.0
 10
29.16280602614398
 20
10.50541986014215
 10
29.16049799803329
 20
10.49568985468273
 42
0.1169703560206769
 10
29.19880799636798
 20
10.49568907948738
 10
29.1965003620287
 20
10.50541917834384
 42
0.2835070872900951
 10
29.25068367120577
 20
10.55960029478788
 10
29.26041367666517
 20
10.55729226667721
 42
0.1169703560206769
 10
29.26041445186053
 20
10.59560226501187
 10
29.25068435300403
 20
10.5932946306726
 42
0.2835070872900713
 10
29.19650323656004
 20
10.64747793984965
 10
29.19881126467067
 20
10.65720794530907
 42
0.1169703560206769
 10
29.16050126633604
 20
10.65720872050443
 10
29.16280890067532
 20
10.64747862164795
 42
0.1605330212145322
 10
29.12387924376429
 20
10.62354567418944
 42
-0.2208810136133245
 10
29.10859831565807
 20
10.6164488999959
 10
29.09943506274664
 20
10.61644889999591
 42
-0.4142135623730951
 10
29.0794350627466
 20
10.6364488999959
 10
29.0794350627466
 20
10.67231245309493
 42
-0.2220475164447456
 10
29.08659993176974
 20
10.68765062159076
 42
-0.2918218255973577
 10
29.24127963135197
 20
10.70770193567509
 42
0.5494743523524559
 10
29.26265463135201
 20
10.72127983591777
 10
29.26265463135201
 20
11.05744889999593
 10
28.76765463135019
 20
11.05744889999593
 10
28.76765463135019
 20
10.07244889999593
 10
29.26265463135201
 20
10.07244889999593
 10
29.26265463135201
 20
10.43161796407403
 42
0.5494743523524253
 10
29.24127963135197
 20
10.44519586431671
 42
-0.2918218255973997
 10
29.08659993176974
 20
10.46524717840103
 42
-0.2220475164447457
 10
29.0794350627466
 20
10.48058534689687
 10
29.0794350627466
 20
10.5164488999959
 42
-0.4142135623730951
 10
29.09943506274664
 20
10.5364488999959
 10
29.10859831565807
 20
10.5364488999959
 42
-0.220881013613293
 10
29.12387924376429
 20
10.52935212580233
 42
0.1605226430948981
  0
LWPOLYLINE
  5
1FBE
330
2
100
AcDbEntity
  8
R-SWTS-DET1
100
AcDbPolyline
 90
      130
 70
     1
 43
0.0
 10
29.25053620734559
 20
14.15629463067481
 10
29.26026630620203
 20
14.15860226501409
 42
-0.1169703560206769
 10
29.26026553100667
 20
14.12029226667942
 10
29.25053552554727
 20
14.1226002947901
 42
-0.283507087290093
 10
29.1963522163702
 20
14.06841917834606
 10
29.19865985070948
 20
14.05868907948959
 42
-0.1169703560206769
 10
29.16034985237485
 20
14.05868985468496
 10
29.16265788048548
 20
14.06841986014437
 42
-0.1605226430949019
 10
29.12373109810579
 20
14.09235212580455
 42
0.2208810136133025
 10
29.10845016999963
 20
14.09944889999812
 10
29.09928691708813
 20
14.09944889999811
 42
0.4142135623730951
 10
29.07928691708816
 20
14.07944889999812
 10
29.07928691708816
 20
14.04358534689909
 42
0.2220475164447751
 10
29.0864517861113
 20
14.02824717840324
 42
0.2918218255974009
 10
29.24113148569347
 20
14.00819586431893
 42
-0.5494743523524548
 10
29.26250648569356
 20
13.99461796407627
 10
29.26250648569362
 20
13.35914516707341
 10
29.12833119138838
 20
13.35914516707341
 10
28.95429707580445
 20
13.15548083641706
 10
28.95429707580445
 20
12.58323280976616
 10
29.13004434902234
 20
12.53614146983544
 10
29.13004434902234
 20
12.42148206458489
 10
29.01265463135116
 20
12.42148206458489
 10
29.01265463135116
 20
12.34629977719162
 42
-0.5494743523522922
 10
28.99127963136812
 20
12.33272187694895
 42
0.2918218255973563
 10
28.83659993178588
 20
12.31267056286462
 42
0.222047516444722
 10
28.82943506276274
 20
12.29733239436878
 10
28.82943506276274
 20
12.26146884126976
 42
0.4142135623731471
 10
28.84943506276272
 20
12.24146884126976
 10
28.85859831567421
 20
12.24146884126976
 42
0.2208810136133066
 10
28.87387924378044
 20
12.2485656154633
 42
-0.1605330212146638
 10
28.91280890069146
 20
12.27249856292185
 10
28.91050126635219
 20
12.28222866177833
 42
-0.116970356020677
 10
28.94881126468681
 20
12.28222788658297
 10
28.94650323657612
 20
12.2724978811235
 42
-0.283507087290051
 10
29.00068435302017
 20
12.21831457194646
 10
29.01041445187662
 20
12.22062220628573
 42
-0.1169703560206769
 10
29.01041367668126
 20
12.18231220795106
 10
29.00068367122185
 20
12.18462023606174
 42
-0.2835070872899558
 10
28.94650036204485
 20
12.13043911961775
 10
28.94880799638412
 20
12.12070902076128
 42
-0.1169703560206765
 10
28.91049799804944
 20
12.12070979595664
 10
28.91280602616013
 20
12.13043980141601
 42
-0.1605226430949548
 10
28.87387924378038
 20
12.15437206707619
 42
0.2208810136133165
 10
28.85859831567421
 20
12.16146884126976
 10
28.84943506276272
 20
12.16146884126976
 42
0.4142135623730951
 10
28.82943506276274
 20
12.14146884126975
 10
28.82943506276274
 20
12.10560528817073
 42
0.2220475164447311
 10
28.83659993178588
 20
12.09026711967488
 42
0.1410634256728592
 10
28.90996212024959
 20
12.05781228901456
 42
-0.9341031171555698
 10
28.90686737309903
 20
12.01244889999882
 10
28.76065463135035
 20
12.01244889999915
 42
0.4142135623740998
 10
28.70265463135013
 20
11.95444889999915
 10
28.7026546313499
 20
11.93165651979898
 42
0.0655434628180566
 10
28.70350648569269
 20
11.92518604367113
 10
28.72622409799209
 20
11.84040276034303
 10
28.71678955303389
 20
11.76356455781292
 42
0.713293067896938
 10
28.7337860823622
 20
11.75527479656701
 10
28.82411775070233
 20
11.84560646490713
 42
0.7725978076385306
 10
28.80943743011261
 20
11.87064929932438
 42
-0.3431487919936307
 10
28.7980613634935
 20
11.87527345445733
 10
28.78872642812081
 20
11.89144203680833
 42
-0.1316524975860437
 10
28.78765463135108
 20
11.89544203680832
 10
28.78765463135108
 20
11.91429844326887
 42
-0.4142135623731602
 10
28.79565463135106
 20
11.92229844326887
 10
28.98465463135102
 20
11.92229844326887
 42
-0.4142135623731602
 10
28.992654631351
 20
11.91429844326887
 10
28.992654631351
 20
11.89544203680832
 42
-0.1316524975860435
 10
28.99158283458127
 20
11.89144203680833
 10
28.98224789920863
 20
11.8752734544574
 42
-0.3431487919941411
 10
28.97087183258947
 20
11.8706492993244
 42
0.7725978076394044
 10
28.9561915119998
 20
11.84560646490713
 10
29.04652318033993
 20
11.75527479656701
 42
0.7132930678969421
 10
29.06351970966819
 20
11.76356455781292
 10
29.05408516470999
 20
11.84040276034302
 10
29.07680277700734
 20
11.92518604366346
 42
0.0655434628120725
 10
29.07765463135013
 20
11.93165651979071
 10
29.07765463135553
 20
12.35648206458489
 10
29.2775064856948
 20
12.35648206458488
 10
29.2775064856948
 20
12.29448206458488
 10
29.28566165187238
 20
12.29448206458488
 42
0.3255049610922494
 10
29.31421291040522
 20
12.3152719811872
 10
29.32750648569476
 20
12.35648206458489
 10
29.32750648569476
 20
12.52907296089613
 42
0.4142135623732337
 10
29.31250648569477
 20
12.54407296089615
 10
29.29250648569473
 20
12.54407296089615
 42
0.4142135623728176
 10
29.27750648569475
 20
12.52907296089616
 10
29.27750648569463
 20
12.42148206458489
 10
29.19504434902234
 20
12.42148206458489
 10
29.19504434902234
 20
12.58601772405407
 10
29.01929707580445
 20
12.63310906398479
 10
29.01929707580445
 20
13.13310906398478
 10
29.16004434902237
 20
13.29414516707341
 10
29.26250648569362
 20
13.29414516707341
 10
29.26250648569362
 20
13.24199741713147
 42
0.3639702342661772
 10
29.27077000391694
 20
13.23214933960135
 10
29.31577000391826
 20
13.22421462546923
 42
0.4663076581547077
 10
29.32750648569493
 20
13.23406270299935
 10
29.32750648569629
 20
14.9774488999981
 10
28.70250648569373
 20
14.97744889999811
 10
28.70250648569373
 20
14.7374488999981
 42
0.4142135623730951
 10
28.71250648569372
 20
14.72744889999811
 10
28.71750648569378
 20
14.72744889999811
 42
-0.4142135623730951
 10
28.72750648569377
 20
14.71744889999811
 10
28.72750648569377
 20
14.4174488999981
 42
-0.4142135623731992
 10
28.71750648569378
 20
14.40744889999811
 10
28.71250648569378
 20
14.40744889999811
 42
0.4142135623731992
 10
28.70250648569379
 20
14.3974488999981
 10
28.70250648569379
 20
14.36244889999811
 42
0.4142135623730951
 10
28.71250648569378
 20
14.35244889999811
 10
28.76750648569373
 20
14.35244889999811
 42
0.4142135623730951
 10
28.77750648569372
 20
14.36244889999811
 10
28.77750648569372
 20
14.77244889999811
 42
0.4142135623730951
 10
28.76750648569373
 20
14.7824488999981
 10
28.76250648569373
 20
14.7824488999981
 42
-0.4142135623730951
 10
28.75250648569375
 20
14.79244889999811
 10
28.75250648569375
 20
14.91244889999811
 10
29.26250648569351
 20
14.91244889999809
 10
29.26250648569351
 20
14.28427983591998
 42
-0.5494743523523319
 10
29.24113148569353
 20
14.27070193567731
 42
0.2918218255973577
 10
29.0864517861113
 20
14.25065062159298
 42
0.2220475164447702
 10
29.07928691708816
 20
14.23531245309714
 10
29.07928691708816
 20
14.19944889999811
 42
0.4142135623730951
 10
29.09928691708813
 20
14.17944889999812
 10
29.10845016999963
 20
14.17944889999812
 42
0.2208810136133115
 10
29.12373109810585
 20
14.18654567419166
 42
-0.1605330212145298
 10
29.16266075501681
 20
14.21047862165016
 10
29.16035312067754
 20
14.22020872050665
 42
-0.116970356020677
 10
29.19866311901222
 20
14.22020794531128
 10
29.19635509090154
 20
14.21047793985187
 42
-0.2835070872900811
  0
LWPOLYLINE
  5
1FBF
330
2
100
AcDbEntity
  8
R-SWTS-DET1
100
AcDbPolyline
 90
      130
 70
     1
 43
0.0
 10
27.86635221637062
 20
15.5404786216498
 10
27.86865985070989
 20
15.55020872050626
 42
0.1169703560206769
 10
27.83034985237521
 20
15.5502079453109
 10
27.8326578804859
 20
15.54047793985148
 42
0.283507087290093
 10
27.77847676404184
 20
15.48629463067443
 10
27.76874666518541
 20
15.48860226501371
 42
0.1169703560206769
 10
27.76874744038077
 20
15.45029226667904
 10
27.77847744584017
 20
15.45260029478972
 42
0.1605226430949019
 10
27.80240971150033
 20
15.41367351241001
 42
-0.2208810136133025
 10
27.80950648569393
 20
15.39839258430382
 10
27.80950648569393
 20
15.38922933139236
 42
-0.4142135623730951
 10
27.78950648569389
 20
15.36922933139236
 10
27.75364293259486
 20
15.36922933139236
 42
-0.2220475164447751
 10
27.73830476409904
 20
15.3763942004155
 42
-0.2918218255974009
 10
27.71825345001474
 20
15.53107389999771
 42
0.5494743523524548
 10
27.70467554977205
 20
15.55244889999775
 10
27.06920275276923
 20
15.55244889999783
 10
27.06920275276923
 20
15.41827360569262
 10
26.86553842211288
 20
15.24423949010865
 10
26.29329039546195
 20
15.24423949010865
 10
26.24619905553124
 20
15.41998676332656
 10
26.13153965028067
 20
15.41998676332656
 10
26.13153965028067
 20
15.30259704565535
 10
26.05635736288741
 20
15.30259704565535
 42
0.5494743523522922
 10
26.04277946264472
 20
15.2812220456723
 42
-0.2918218255973563
 10
26.02272814856042
 20
15.1265423460901
 42
-0.222047516444722
 10
26.0073899800646
 20
15.11937747706695
 10
25.97152642696557
 20
15.11937747706695
 42
-0.4142135623731471
 10
25.95152642696553
 20
15.13937747706695
 10
25.95152642696553
 20
15.1485407299784
 42
-0.2208810136133066
 10
25.95862320115907
 20
15.16382165808463
 42
0.1605330212146638
 10
25.98255614861762
 20
15.20275131499565
 10
25.99228624747411
 20
15.20044368065637
 42
0.116970356020677
 10
25.99228547227875
 20
15.23875367899104
 10
25.98255546681929
 20
15.23644565088035
 42
0.283507087290051
 10
25.92837215764223
 20
15.29062676732437
 10
25.93067979198151
 20
15.30035686618085
 42
0.1169703560206769
 10
25.89236979364682
 20
15.30035609098548
 10
25.89467782175751
 20
15.29062608552606
 42
0.2835070872899558
 10
25.84049670531352
 20
15.23644277634904
 10
25.83076660645708
 20
15.23875041068832
 42
0.1169703560206765
 10
25.83076738165244
 20
15.20044041235365
 10
25.84049738711178
 20
15.20274844046432
 42
0.1605226430949548
 10
25.864429652772
 20
15.16382165808461
 42
-0.2208810136133165
 10
25.87152642696555
 20
15.14854072997841
 10
25.87152642696555
 20
15.13937747706695
 42
-0.4142135623730951
 10
25.85152642696556
 20
15.11937747706694
 10
25.81566287386653
 20
15.11937747706695
 42
-0.2220475164447311
 10
25.80032470537066
 20
15.12654234609009
 42
-0.1410634256728592
 10
25.76786987471036
 20
15.1999045345538
 42
0.9341031171555698
 10
25.72250648569462
 20
15.19680978740322
 10
25.72250648569497
 20
15.05059704565456
 42
-0.4142135623740998
 10
25.66450648569492
 20
14.99259704565436
 10
25.64171410549477
 20
14.9925970456541
 42
-0.0655434628180566
 10
25.63524362936693
 20
14.99344889999688
 10
25.55046034603885
 20
15.01616651229632
 10
25.47362214350869
 20
15.00673196733811
 42
-0.713293067896938
 10
25.46533238226277
 20
15.02372849666638
 10
25.5556640506029
 20
15.11406016500651
 42
-0.7725978076385306
 10
25.58070688502017
 20
15.09937984441681
 42
0.3431487919936307
 10
25.58533104015311
 20
15.08800377779771
 10
25.6014996225041
 20
15.078668842425
 42
0.1316524975860437
 10
25.60549962250411
 20
15.07759704565528
 10
25.62435602896466
 20
15.07759704565528
 42
0.4142135623731602
 10
25.63235602896464
 20
15.08559704565527
 10
25.63235602896464
 20
15.27459704565522
 42
0.4142135623731602
 10
25.62435602896466
 20
15.28259704565522
 10
25.60549962250411
 20
15.28259704565522
 42
0.1316524975860435
 10
25.6014996225041
 20
15.2815252488855
 10
25.58533104015316
 20
15.27219031351284
 42
0.3431487919941411
 10
25.58070688502022
 20
15.2608142468937
 42
-0.7725978076394044
 10
25.5556640506029
 20
15.24613392630399
 10
25.46533238226277
 20
15.33646559464411
 42
-0.7132930678969421
 10
25.47362214350869
 20
15.35346212397239
 10
25.55046034603879
 20
15.34402757901417
 10
25.63524362935925
 20
15.36674519131156
 42
-0.0655434628120725
 10
25.64171410548653
 20
15.36759704565433
 10
26.06653965028068
 20
15.36759704565974
 10
26.06653965028068
 20
15.56744889999899
 10
26.00453965028066
 20
15.56744889999899
 10
26.00453965028066
 20
15.5756040661766
 42
-0.3255049610922494
 10
26.02532956688299
 20
15.60415532470942
 10
26.06653965028068
 20
15.61744889999899
 10
26.23913054659193
 20
15.61744889999899
 42
-0.4142135623732337
 10
26.25413054659197
 20
15.60244889999899
 10
26.25413054659197
 20
15.58244889999895
 42
-0.4142135623728176
 10
26.23913054659193
 20
15.56744889999895
 10
26.13153965028067
 20
15.56744889999886
 10
26.13153965028067
 20
15.48498676332657
 10
26.29607530974988
 20
15.48498676332657
 10
26.3431666496806
 20
15.30923949010865
 10
26.8431666496806
 20
15.30923949010865
 10
27.00420275276923
 20
15.44998676332656
 10
27.00420275276923
 20
15.55244889999783
 10
26.95205500282725
 20
15.55244889999783
 42
-0.3639702342661772
 10
26.94220692529711
 20
15.56071241822116
 10
26.93427221116503
 20
15.60571241822248
 42
-0.4663076581547077
 10
26.94412028869516
 20
15.61744889999914
 10
28.68750648569392
 20
15.61744890000049
 10
28.68750648569392
 20
14.99244889999792
 10
28.44750648569391
 20
14.99244889999796
 42
-0.4142135623730951
 10
28.43750648569392
 20
15.00244889999796
 10
28.43750648569392
 20
15.00744889999797
 42
0.4142135623730951
 10
28.42750648569392
 20
15.01744889999796
 10
28.12750648569391
 20
15.017448899998
 42
0.4142135623731992
 10
28.11750648569392
 20
15.00744889999799
 10
28.11750648569392
 20
15.002448899998
 42
-0.4142135623731992
 10
28.10750648569388
 20
14.992448899998
 10
28.07250648569391
 20
14.99244889999801
 42
-0.4142135623730951
 10
28.06250648569392
 20
15.00244889999801
 10
28.06250648569392
 20
15.05744889999793
 42
-0.4142135623730951
 10
28.07250648569391
 20
15.06744889999793
 10
28.48250648569388
 20
15.06744889999793
 42
-0.4142135623730951
 10
28.49250648569387
 20
15.05744889999793
 10
28.49250648569387
 20
15.05244889999793
 42
0.4142135623730951
 10
28.50250648569391
 20
15.04244889999793
 10
28.62250648569392
 20
15.04244889999793
 10
28.62250648569386
 20
15.55244889999771
 10
27.9943374216158
 20
15.55244889999773
 42
0.5494743523523319
 10
27.9807595213731
 20
15.53107389999772
 42
-0.2918218255973577
 10
27.96070820728875
 20
15.3763942004155
 42
-0.2220475164447702
 10
27.94537003879293
 20
15.36922933139236
 10
27.9095064856939
 20
15.36922933139236
 42
-0.4142135623730951
 10
27.88950648569392
 20
15.38922933139236
 10
27.88950648569392
 20
15.39839258430382
 42
-0.2208810136133115
 10
27.89660325988746
 20
15.41367351241004
 42
0.1605330212145298
 10
27.92053620734595
 20
15.45260316932103
 10
27.93026630620244
 20
15.45029553498175
 42
0.116970356020677
 10
27.93026553100708
 20
15.48860553331643
 10
27.92053552554768
 20
15.48629750520575
 42
0.2835070872900811
  0
LWPOLYLINE
  5
1FC0
330
2
100
AcDbEntity
  8
R-SWTS-DET1
100
AcDbPolyline
 90
       32
 70
     1
 43
0.0
 10
24.21547744583796
 20
15.45274844044819
 10
24.2057474403785
 20
15.4504404123375
 42
-0.1169703560206769
 10
24.20574666518314
 20
15.48875041067218
 10
24.21547676403964
 20
15.4864427763329
 42
-0.2835070872900951
 10
24.26965788048369
 20
15.54062608550995
 10
24.267349852373
 20
15.55035609096936
 42
-0.1169703560206769
 10
24.30565985070769
 20
15.55035686616473
 10
24.30335221636841
 20
15.54062676730826
 42
-0.2835070872900713
 10
24.35753552554542
 20
15.48644565086422
 10
24.36726553100488
 20
15.4887536789749
 42
-0.1169703560206769
 10
24.36726630620024
 20
15.45044368064022
 10
24.35753620734374
 20
15.45275131497951
 42
-0.1605330212145322
 10
24.33360325988525
 20
15.4138216580685
 42
0.2208810136133245
 10
24.32650648569171
 20
15.39854072996228
 10
24.32650648569171
 20
15.38937747705083
 42
0.4142135623730951
 10
24.34650648569169
 20
15.36937747705082
 10
24.38237003879073
 20
15.36937747705083
 42
0.2220475164447456
 10
24.39770820728654
 20
15.37654234607397
 42
0.2918218255973577
 10
24.4177595213709
 20
15.53122204565618
 42
-0.5494743523524559
 10
24.43133742161354
 20
15.55259704565622
 10
24.76750648569174
 20
15.55259704565622
 10
24.76750648569174
 20
15.05759704565441
 10
23.78250648569173
 20
15.05759704565441
 10
23.78250648569173
 20
15.55259704565622
 10
24.14167554976984
 20
15.55259704565622
 42
-0.5494743523524253
 10
24.15525345001248
 20
15.53122204565618
 42
0.2918218255973997
 10
24.17530476409684
 20
15.37654234607397
 42
0.2220475164447457
 10
24.19064293259265
 20
15.36937747705082
 10
24.22650648569169
 20
15.36937747705082
 42
0.4142135623730951
 10
24.24650648569167
 20
15.38937747705083
 10
24.24650648569167
 20
15.39854072996228
 42
0.220881013613293
 10
24.23940971149813
 20
15.41382165806848
 42
-0.1605226430948981
  0
LWPOLYLINE
  5
1FC1
330
2
100
AcDbEntity
  8
R-SWTS-DET1
100
AcDbPolyline
 90
       61
 70
     1
 43
0.0
 10
24.83250648569174
 20
16.36259704565442
 10
24.8125064856917
 20
16.38259704565443
 10
24.83250648569174
 20
16.40259704565442
 10
24.8125064856917
 20
16.42259704565442
 10
24.83250648569174
 20
16.44259704565443
 10
24.83250648569174
 20
16.49259704565443
 10
24.76750648569174
 20
16.49259704565441
 10
24.76750648569174
 20
15.61759704565622
 10
23.71750648569173
 20
15.61759704565622
 10
23.71750648569173
 20
14.99259704565441
 10
24.76750648569174
 20
14.99259704565441
 10
24.83250648569174
 20
14.99259704565442
 10
24.83250648569168
 20
15.19259704565443
 10
24.83250648569174
 20
15.23424519131156
 42
-1.00000000000321
 10
24.9675064856923
 20
15.23424519131156
 10
24.9675064856923
 20
15.11259704565441
 10
24.96750648569167
 20
15.05059704565463
 42
0.414213562374091
 10
25.02550648569167
 20
14.99259704565443
 10
25.04829886589272
 20
14.99259704565443
 42
0.0655434628152783
 10
25.05476934202028
 20
14.9934488999972
 10
25.13955262534717
 20
15.01616651229632
 10
25.21639082787726
 20
15.00673196733811
 42
0.7132930678969658
 10
25.22468058912318
 20
15.02372849666638
 10
25.13434892078306
 20
15.11406016500651
 42
0.7725978076383388
 10
25.10930608636585
 20
15.09937984441681
 42
-0.3431487919937011
 10
25.10468193123291
 20
15.08800377779771
 10
25.08851334888186
 20
15.078668842425
 42
-0.1316524975860435
 10
25.0845133488819
 20
15.07759704565528
 10
25.0656569424213
 20
15.07759704565528
 42
-0.4142135623731602
 10
25.05765694242132
 20
15.08559704565527
 10
25.05765694242132
 20
15.27459704565522
 42
-0.4142135623731602
 10
25.0656569424213
 20
15.28259704565522
 10
25.0845133488819
 20
15.28259704565522
 42
-0.1316524975860434
 10
25.08851334888186
 20
15.2815252488855
 10
25.10468193123273
 20
15.27219031351286
 42
-0.3431487919942175
 10
25.10930608636574
 20
15.26081424689372
 42
0.7725978076396093
 10
25.13434892078306
 20
15.24613392630399
 10
25.22468058912318
 20
15.33646559464411
 42
0.713293067896966
 10
25.21639082787726
 20
15.35346212397239
 10
25.13955262534717
 20
15.34402757901417
 10
25.05476934202596
 20
15.36674519131176
 42
0.0655434628152372
 10
25.04829886589841
 20
15.36759704565453
 10
24.83250648569174
 20
15.36759704565456
 10
24.83250648569174
 20
16.00259704565444
 10
24.8125064856917
 20
16.02259704565446
 10
24.83250648569174
 20
16.04259704565445
 10
24.8125064856917
 20
16.06259704565445
 10
24.83250648569174
 20
16.08259704565444
 10
24.8125064856917
 20
16.10259704565444
 10
24.83250648569174
 20
16.12259704565444
 10
24.8125064856917
 20
16.14259704565444
 10
24.83250648569174
 20
16.16259704565444
 10
24.8125064856917
 20
16.18259704565444
 10
24.83250648569174
 20
16.20259704565443
 10
24.8125064856917
 20
16.22259704565443
 10
24.83250648569174
 20
16.24259704565442
 10
24.8125064856917
 20
16.26259704565444
 10
24.83250648569174
 20
16.28259704565443
 10
24.8125064856917
 20
16.30259704565443
 10
24.83250648569174
 20
16.32259704565442
 10
24.8125064856917
 20
16.34259704565442
  0
LWPOLYLINE
  5
1FC6
330
2
100
AcDbEntity
  8
R-SWTS-DET1
100
AcDbPolyline
 90
        6
 70
     0
 43
0.0
 10
23.45250648569174
 20
18.49343325502296
 10
26.09566235995567
 20
18.49343325502296
 10
26.14873094169218
 20
18.70564844800513
 10
26.25628202969335
 20
18.28123370701494
 10
26.30935061142981
 20
18.49344889999717
 10
28.95250648569373
 20
18.49344889999717
  0
LINE
  5
1FC7
330
2
100
AcDbEntity
  8
R-SWTS-DET1
100
AcDbLine
 10
27.01650211037185
 20
16.49291631414494
 30
0.0
 11
27.01650211037185
 21
18.49344889999702
 31
0.0
  0
LINE
  5
1FC8
330
2
100
AcDbEntity
  8
R-SWTS-DET2
100
AcDbLine
 10
26.25341980652792
 20
16.49291631414494
 30
0.0
 11
26.25341980652792
 21
18.2925285225856
 31
0.0
  0
LWPOLYLINE
  5
1FC9
330
2
100
AcDbEntity
  8
R-SWTS-DET3
100
AcDbPolyline
 90
        4
 70
     0
 43
0.0
 10
25.95729073528082
 20
18.49344889999717
 10
25.95729073528082
 20
15.93144889999717
 10
25.70729073528082
 20
15.93144889999717
 10
25.70729073528082
 20
18.49344889999717
  0
LWPOLYLINE
  5
1FCA
330
2
100
AcDbEntity
  8
R-SWTS-DET3
100
AcDbPolyline
 90
        4
 70
     0
 43
0.0
 10
25.20729073528082
 20
18.49344889999717
 10
25.20729073528082
 20
15.93144889999717
 10
24.95729073528082
 20
15.93144889999717
 10
24.95729073528082
 20
18.49344889999717
  0
LWPOLYLINE
  5
1FCB
330
2
100
AcDbEntity
  8
R-SWTS-DET3
100
AcDbPolyline
 90
        4
 70
     1
 43
0.0
 10
25.70729073528082
 20
15.93144889999717
 10
25.70729073528082
 20
16.18144889999717
 10
25.20729073528082
 20
16.18144889999717
 10
25.20729073528082
 20
15.93144889999717
  0
LWPOLYLINE
  5
1FCC
330
2
100
AcDbEntity
  8
R-SWTS-DET2
100
AcDbPolyline
 90
        4
 70
     1
 43
0.0
 10
24.95729073528082
 20
16.43741400317122
 42
0.9999999999999998
 10
24.83250687547559
 20
16.43741400317122
 10
24.83250687547559
 20
16.19048379682314
 42
0.9999999999999998
 10
24.95729073528082
 20
16.19048379682314
  0
CIRCLE
  5
1FCD
330
2
100
AcDbEntity
  8
R-SWTS-DET2
100
AcDbCircle
 10
24.89489880537821
 20
16.31394889999718
 30
0.0
 40
0.0503284406763105
  0
LWPOLYLINE
  5
1FCE
330
2
100
AcDbEntity
  8
R-SWTS-DET1
100
AcDbPolyline
 90
       41
 70
     1
 43
0.0
 10
26.19443904441443
 20
16.23991631414494
 42
-0.4142135623730431
 10
26.20943904441441
 20
16.25491631414494
 10
26.24143904441445
 20
16.25491631414494
 42
0.4142135623730951
 10
26.25643904441444
 20
16.26991631414494
 10
26.25643904441444
 20
16.3800243545816
 42
-0.4184033046059118
 10
26.3193245885688
 20
16.44201803015864
 10
26.89656575026072
 20
16.43377247072605
 42
-0.4139326425428041
 10
26.95570344606415
 20
16.37297916036881
 10
26.9467659055104
 20
15.70224586554887
 42
-0.4077932646411109
 10
26.93189692054119
 20
15.68744628384503
 42
0.413875507397508
 10
26.86250407457249
 20
15.61692451062101
 42
-0.4122343511257975
 10
26.8477182910666
 20
15.60181366516446
 10
26.32962934344613
 20
15.59442857270286
 42
0.3394542588633734
 10
26.31530038905152
 20
15.58310547702803
 10
26.30670772273976
 20
15.54910600581331
 10
26.19922688719669
 20
15.54757392157955
 10
26.19915562199873
 20
15.55257341368091
 42
0.9999999999999847
 10
26.16915866939053
 20
15.55214582249295
 10
26.16924610669542
 20
15.5460118029784
 42
0.3727193515204652
 10
26.19536997975831
 20
15.51669045712928
 10
26.21540920080838
 20
15.51408150686475
 10
26.30111168512241
 20
15.50292371193034
 42
0.3800361709519329
 10
26.35604265099312
 20
15.54025400489465
 10
26.35719571193494
 20
15.54481643765732
 10
26.92553604309859
 20
15.55291783784079
 42
0.4577045202689281
 10
26.94012963445647
 20
15.57031241340392
 10
26.93250211037184
 20
15.61744889999914
 10
27.01650211037185
 20
15.61744889999914
 10
27.01650211037185
 20
16.49291631414494
 10
26.19637022375611
 20
16.49291631414494
 42
0.267949192431115
 10
26.18337984269931
 20
16.48541631414493
 10
26.14642942547118
 20
16.42141631414494
 42
0.577350269189628
 10
26.15941980652798
 20
16.39891631414495
 10
26.20643904441442
 20
16.39891631414495
 10
26.20643904441442
 20
16.30491631414494
 10
26.17443904441444
 20
16.30491631414494
 42
0.4142135623730948
 10
26.14443904441441
 20
16.27491631414494
 10
26.14443904441441
 20
16.22091631414494
 42
0.4142135623731297
 10
26.1594390444144
 20
16.20591631414493
 10
26.17943904441444
 20
16.20591631414493
 42
0.4142135623730431
 10
26.19443904441443
 20
16.22091631414494
  0
LWPOLYLINE
  5
1FCF
330
2
100
AcDbEntity
  8
R-SWTS-DET2
  6
HIDDEN2
100
AcDbPolyline
 90
       18
 70
     1
 43
0.0
 10
26.00183093637407
 20
15.63244889999897
 10
26.25683093637406
 20
15.63244889999897
 42
-0.4142135623730951
 10
26.26183093637405
 20
15.62744889999896
 10
26.26183093637405
 20
15.57244889999895
 42
0.9999999999999287
 10
26.28683093637409
 20
15.57244889999895
 10
26.28683093637409
 20
15.64494889999896
 42
0.4142135623730951
 10
26.2743309363741
 20
15.65744889999896
 10
26.10199857613821
 20
15.65744889999896
 42
-0.3706321426687706
 10
26.08964091152456
 20
15.6680679094893
 10
25.98269922425766
 20
16.37064960656452
 42
0.9950963693897204
 10
25.964910528036
 20
16.36790106918749
 10
26.06301128661096
 20
15.6716930111146
 42
-0.4558347385663113
 10
26.05063356160122
 20
15.65744889999896
 10
25.98433093637408
 20
15.65744889999896
 42
0.4142135623730951
 10
25.97183093637409
 20
15.64494889999896
 10
25.97183093637409
 20
15.57244889999895
 42
1.0
 10
25.99683093637407
 20
15.57244889999895
 10
25.99683093637407
 20
15.62744889999896
 42
-0.4142135623730951
  0
LWPOLYLINE
  5
1FD0
330
2
100
AcDbEntity
  8
R-SWTS-DET2
100
AcDbPolyline
 90
       12
 70
     1
 43
0.0
 10
26.12840594999739
 20
16.49291631414494
 10
26.25341980652797
 20
16.49291631414494
 10
26.25341980652797
 20
16.49529812034237
 42
0.3639702342662026
 10
26.23383526833868
 20
16.51863806408877
 10
25.95757627934393
 20
16.62961584283665
 10
25.95757627934393
 20
16.52504591818363
 42
-0.3145636000813645
 10
26.01144903124754
 20
16.18176758537429
 10
26.01548452276836
 20
16.1552553565729
 10
26.04195372992007
 20
16.1552553565729
 42
0.2645518979873512
 10
26.1670398986476
 20
16.3896866859335
 10
26.1481591089954
 20
16.39301587856628
 42
-0.315298788878984
 10
26.14556339835429
 20
16.39561158920738
  0
LWPOLYLINE
  5
1FD1
330
2
100
AcDbEntity
  8
0
100
AcDbPolyline
 90
       12
 70
     1
 43
0.0
 10
25.4252340370208
 20
15.26402437514525
 42
0.2734560415951634
 10
25.37266779682267
 20
15.29509704565515
 10
25.31749563082002
 20
15.29509704565512
 42
0.2734560397667185
 10
25.26492939081868
 20
15.2640243755029
 10
25.25190810223342
 20
15.24036231666438
 42
0.2569805071132461
 10
25.25190810223342
 20
15.11983177712283
 10
25.26492939136824
 20
15.09616971652303
 42
0.2734560434246889
 10
25.31749563176339
 20
15.06509704565518
 10
25.37266779682244
 20
15.06509704565517
 42
0.2734560415960701
 10
25.42523403702069
 20
15.09616971616524
 10
25.43825532588085
 20
15.11983177588468
 42
0.2569805071137504
 10
25.43825532588073
 20
15.24036231542644
  0
HATCH
  5
1FD2
330
2
100
AcDbEntity
  8
0
100
AcDbHatch
 10
0.0
 20
0.0
 30
0.0
210
0.0
220
0.0
230
1.0
  2
ANSI37
 70
     0
 71
     0
 91
        2
 92
        7
 72
     1
 73
     1
 93
       36
 10
25.63235602896469
 20
15.27459704565522
 42
0.41421356237316
 10
25.62435602896466
 20
15.28259704565521
 42
0.0
 10
25.60549962250411
 20
15.28259704565521
 42
0.1316524975870078
 10
25.6014996225041
 20
15.28152524888549
 42
0.0
 10
25.58533104015316
 20
15.2721903135128
 42
0.3431487919937766
 10
25.58070688502017
 20
15.26081424689369
 42
-0.7725978076387533
 10
25.55566405060296
 20
15.24613392630397
 42
0.0
 10
25.46533238226277
 20
15.33646559464411
 42
-0.6681786379191954
 10
25.47240345007464
 20
15.35353666245597
 42
0.0
 10
25.21760952131132
 20
15.35353666245599
 42
-0.6681786379197768
 10
25.22468058912324
 20
15.33646559464411
 42
0.0
 10
25.13434892078311
 20
15.24613392630398
 42
-0.7725978076387183
 10
25.10930608636585
 20
15.26081424689369
 42
0.3431487919942695
 10
25.10468193123285
 20
15.27219031351279
 42
0.0
 10
25.08851334888192
 20
15.28152524888549
 42
0.1316524975870076
 10
25.0845133488819
 20
15.28259704565521
 42
0.0
 10
25.0656569424213
 20
15.28259704565521
 42
0.4142135623726397
 10
25.05765694242132
 20
15.27459704565522
 42
0.0
 10
25.05765694242132
 20
15.08559704565527
 42
0.4142135623726397
 10
25.0656569424213
 20
15.07759704565527
 42
0.0
 10
25.0845133488819
 20
15.07759704565527
 42
0.1316524975859829
 10
25.08851334888186
 20
15.07866884242499
 42
0.0
 10
25.10468193123279
 20
15.08800377779762
 42
0.3431487919942175
 10
25.10930608636574
 20
15.09937984441676
 42
-0.7725978076394532
 10
25.13434892078306
 20
15.11406016500651
 42
0.0
 10
25.22468058912318
 20
15.02372849666637
 42
-0.6681786379180224
 10
25.21760952131132
 20
15.00665742885451
 42
0.0
 10
25.47240345007464
 20
15.00665742885451
 42
-0.6681786379191376
 10
25.46533238226277
 20
15.02372849666636
 42
0.0
 10
25.5556640506029
 20
15.1140601650065
 42
-0.7725978076384913
 10
25.58070688502017
 20
15.09937984441679
 42
0.343148791993908
 10
25.58533104015316
 20
15.08800377779766
 42
0.0
 10
25.6014996225041
 20
15.07866884242499
 42
0.1316524975864953
 10
25.60549962250411
 20
15.07759704565527
 42
0.0
 10
25.62435602896466
 20
15.07759704565527
 42
0.41421356237316
 10
25.63235602896469
 20
15.08559704565527
 42
0.0
 97
        0
 92
       22
 72
     1
 73
     1
 93
       12
 10
25.4382553258809
 20
15.11983177588476
 42
0.0
 10
25.42523403702069
 20
15.09616971616524
 42
-0.2734560415960702
 10
25.37266779682244
 20
15.06509704565517
 42
0.0
 10
25.31749563176339
 20
15.06509704565518
 42
-0.2734560434247903
 10
25.26492939136824
 20
15.09616971652304
 42
0.0
 10
25.25190810182318
 20
15.11983177786833
 42
-0.2569805071130905
 10
25.25190810264366
 20
15.24036231740982
 42
0.0
 10
25.26492939081868
 20
15.2640243755029
 42
-0.2734560397666548
 10
25.31749563082002
 20
15.29509704565512
 42
0.0
 10
25.37266779682261
 20
15.29509704565515
 42
-0.2734560415951895
 10
25.4252340370208
 20
15.26402437514526
 42
0.0
 10
25.43825532588068
 20
15.24036231542657
 42
-0.2569805071138714
 97
        0
 75
     0
 76
     1
 52
0.0
 41
0.5
 77
     0
 78
     2
 53
45.0
 43
-59.01597851430875
 44
-45.31030245142466
 45
-0.0441941738241592
 46
0.0441941738241592
 79
     0
 53
135.0
 43
-59.01597851430875
 44
-45.31030245142466
 45
-0.0441941738241592
 46
-0.0441941738241592
 79
     0
 47
0.0091032376506059
 98
        2
 10
25.5355620987167
 20
15.1955561583767
 10
25.5355620987167
 20
15.1955561583767
  0
LINE
  5
1FD3
330
2
100
AcDbEntity
  8
0
100
AcDbLine
 10
25.4724034500747
 20
15.00665742885451
 30
0.0
 11
25.21760952131132
 21
15.00665742885451
 31
0.0
  0
LINE
  5
1FD4
330
2
100
AcDbEntity
  8
0
100
AcDbLine
 10
25.4724034500747
 20
15.35353666245597
 30
0.0
 11
25.21760952131132
 21
15.35353666245599
 31
0.0
  0
LWPOLYLINE
  5
1FD5
330
2
100
AcDbEntity
  8
R-SWTS-DET2
100
AcDbPolyline
 90
        6
 70
     1
 43
0.0
 10
28.07750648569373
 20
14.99244889999794
 10
28.07750648569373
 20
14.86744889999794
 10
28.57750648569373
 20
14.86744889999794
 10
28.57750648569373
 20
14.36744889999794
 10
28.70250648569373
 20
14.36744889999794
 10
28.70250648569373
 20
14.99244889999794
  0
LWPOLYLINE
  5
1FD6
330
2
100
AcDbEntity
  8
R-SWTS-DET2
100
AcDbPolyline
 90
       20
 70
     1
 43
0.0
 10
28.64250648569373
 20
10.07244889999594
 42
0.4142135623730951
 10
28.65250648569372
 20
10.08244889999595
 10
28.65250648569372
 20
10.62244889999596
 42
-0.4142135623730951
 10
28.66250648569371
 20
10.63244889999595
 10
28.69250648569374
 20
10.63244889999595
 42
-0.4142135623730951
 10
28.70250648569373
 20
10.62244889999596
 10
28.70250648569373
 20
10.03744889999595
 42
-0.4142135623730939
 10
28.67250648569376
 20
10.00744889999595
 10
23.7475064856917
 20
10.00744889999595
 42
-0.414213562373096
 10
23.71750648569173
 20
10.03744889999593
 10
23.71750648569173
 20
14.96244889999794
 42
-0.4142135623730953
 10
23.7475064856917
 20
14.99244889999794
 10
24.33250648569174
 20
14.99244889999794
 42
-0.4142135623730898
 10
24.34250648569173
 20
14.98244889999795
 10
24.34250648569173
 20
14.95244889999795
 42
-0.4142135623730951
 10
24.33250648569174
 20
14.94244889999795
 10
23.79250648569172
 20
14.94244889999795
 42
0.4142135623730951
 10
23.78250648569173
 20
14.93244889999796
 10
23.78250648569173
 20
10.10244889999595
 42
0.4142135623730951
 10
23.8125064856917
 20
10.07244889999594
  0
LINE
  5
1FD7
330
2
100
AcDbEntity
  8
0
100
AcDbLine
 10
7.863867998656303
 20
15.34298196831066
 30
0.0
 11
7.863867998656303
 21
15.08818803954733
 31
0.0
  0
LWPOLYLINE
  5
1FD8
330
2
100
AcDbEntity
  8
0
100
AcDbPolyline
 90
       12
 70
     1
 43
0.0
 10
7.606501052365558
 20
15.29581255525683
 42
0.2734560415951634
 10
7.575428381855658
 20
15.24324631505864
 10
7.575428381855658
 20
15.18807414905601
 42
0.2734560397667185
 10
7.606501052007899
 20
15.13550790905469
 10
7.63016311084641
 20
15.12248662046943
 42
0.2569805071132461
 10
7.750693650387972
 20
15.12248662046943
 10
7.774355710987777
 20
15.13550790960424
 42
0.2734560434246889
 10
7.80542838185562
 20
15.18807414999936
 10
7.80542838185562
 20
15.24324631505841
 42
0.2734560415960701
 10
7.774355711345549
 20
15.29581255525669
 10
7.750693651626136
 20
15.30883384411686
 42
0.2569805071137504
 10
7.630163112084346
 20
15.30883384411675
  0
LINE
  5
1FD9
330
2
100
AcDbEntity
  8
0
100
AcDbLine
 10
7.516988765054804
 20
15.34298196831066
 30
0.0
 11
7.516988765054804
 21
15.08818803954733
 31
0.0
  0
HATCH
  5
1FDA
330
2
100
AcDbEntity
  8
0
100
AcDbHatch
 10
0.0
 20
0.0
 30
0.0
210
0.0
220
0.0
230
1.0
  2
ANSI37
 70
     0
 71
     0
 91
        2
 92
        7
 72
     1
 73
     1
 93
       36
 10
7.756465262504264
 20
15.42624256883891
 42
-0.7725978076386412
 10
7.771145583093982
 20
15.45128540325618
 42
0.3431487919940097
 10
7.782521649713089
 20
15.45590955838915
 42
0.0
 10
7.791856585085781
 20
15.47207814074011
 42
0.1316524975864955
 10
7.792928381855517
 20
15.47607814074012
 42
0.0
 10
7.792928381855517
 20
15.49493454720067
 42
0.41421356237316
 10
7.784928381855536
 20
15.50293454720067
 42
0.0
 10
7.595928381855571
 20
15.50293454720067
 42
0.4142135623726397
 10
7.58792838185559
 20
15.49493454720067
 42
0.0
 10
7.58792838185559
 20
15.47607814074012
 42
0.1316524975867212
 10
7.589000178625326
 20
15.47207814074011
 42
0.0
 10
7.598335113997961
 20
15.45590955838918
 42
0.3431487919941409
 10
7.609711180617125
 20
15.45128540325619
 42
-0.7725978076395159
 10
7.624391501206844
 20
15.42624256883893
 42
0.0
 10
7.53405983286666
 20
15.3359109004988
 42
-0.6681786379195006
 10
7.516988765054804
 20
15.34298196831066
 42
0.0
 10
7.516988765054804
 20
15.08818803954733
 42
-0.6681786379187491
 10
7.534059832866716
 20
15.09525910735918
 42
0.0
 10
7.624391501206844
 20
15.00492743901905
 42
-0.7725978076399433
 10
7.609711180617068
 20
14.97988460460175
 42
0.3431487919937516
 10
7.598335113997961
 20
14.97526044946876
 42
0.0
 10
7.589000178625326
 20
14.95909186711787
 42
0.1316524975867211
 10
7.58792838185559
 20
14.95509186711787
 42
0.0
 10
7.58792838185559
 20
14.93623546065733
 42
0.4142135623726397
 10
7.595928381855571
 20
14.92823546065733
 42
0.0
 10
7.784928381855536
 20
14.92823546065733
 42
0.41421356237316
 10
7.792928381855517
 20
14.93623546065733
 42
0.0
 10
7.792928381855517
 20
14.95509186711787
 42
0.1316524975867211
 10
7.791856585085781
 20
14.95909186711787
 42
0.0
 10
7.782521649713089
 20
14.97526044946886
 42
0.3431487919937087
 10
7.771145583094039
 20
14.97988460460183
 42
-0.7725978076392078
 10
7.756465262504264
 20
15.00492743901907
 42
0.0
 10
7.846796930844391
 20
15.0952591073592
 42
-0.6681786379192629
 10
7.863867998656303
 20
15.08818803954733
 42
0.0
 10
7.863867998656303
 20
15.34298196831066
 42
-0.6681786379200723
 10
7.846796930844391
 20
15.3359109004988
 42
0.0
 97
        0
 92
       22
 72
     1
 73
     1
 93
       12
 10
7.750693651626022
 20
15.3088338441169
 42
0.0
 10
7.774355711345549
 20
15.29581255525669
 42
-0.2734560415961339
 10
7.80542838185562
 20
15.2432463150584
 42
0.0
 10
7.80542838185562
 20
15.18807414999936
 42
-0.2734560434246571
 10
7.774355710987777
 20
15.13550790960424
 42
0.0
 10
7.750693649642528
 20
15.1224866200592
 42
-0.2569805071132116
 10
7.630163110100966
 20
15.12248662087965
 42
0.0
 10
7.606501052007899
 20
15.13550790905469
 42
-0.2734560397667185
 10
7.575428381855658
 20
15.18807414905601
 42
0.0
 10
7.575428381855658
 20
15.24324631505865
 42
-0.2734560415951692
 10
7.606501052365558
 20
15.29581255525684
 42
0.0
 10
7.630163112084289
 20
15.30883384411672
 42
-0.2569805071136812
 97
        0
 75
     0
 76
     1
 52
0.0
 41
0.5
 77
     0
 78
     2
 53
45.0
 43
-75.84140847248637
 44
-46.10396263881077
 45
-0.0441941738241592
 46
0.0441941738241592
 79
     0
 53
135.0
 43
-75.84140847248637
 44
-46.10396263881077
 45
-0.0441941738241592
 46
-0.0441941738241592
 79
     0
 47
0.0091032376506059
 98
        2
 10
7.672055873785268
 20
15.39414893465023
 10
7.672055873785268
 20
15.39414893465023
  0
DIMENSION
  5
6123
330
2
100
AcDbEntity
  8
R-ANNO-DIMS
100
AcDbDimension
  2
*D1
 10
2.877092172487891
 20
13.57308500392773
 30
0.0
 11
2.561615982011699
 21
12.82308500392773
 31
0.0
 70
    32
 71
     5
 42
1.499999999999992
  3
STANDARD
100
AcDbAlignedDimension
 13
8.942928381856347
 23
12.07308500392773
 33
0.0
 14
4.377092172487891
 24
13.57308500392773
 34
0.0
 50
90.0
100
AcDbRotatedDimension
  0
DIMENSION
  5
6132
330
2
100
AcDbEntity
  8
R-ANNO-DIMS
100
AcDbDimension
  2
*D2
 10
2.127076527513679
 20
18.57308500392973
 30
0.0
 11
1.853267003704152
 21
16.07308500392873
 31
0.0
 70
    32
 71
     5
 42
5.000000000002001
  3
STANDARD
100
AcDbAlignedDimension
 13
4.377092172487891
 23
13.57308500392773
 33
0.0
 14
4.377076527513679
 24
18.57308500392973
 34
0.0
 50
90.0
100
AcDbRotatedDimension
  0
DIMENSION
  5
6153
330
2
100
AcDbEntity
  8
R-ANNO-DIMS
100
AcDbDimension
  2
*D3
 10
2.127076527513622
 20
10.07224879455923
 30
0.0
 11
1.877076527513621
 21
11.94766689924348
 31
0.0
 70
    32
  1
F.W.
 71
     5
 42
3.5008362093685
  3
Open-end
100
AcDbAlignedDimension
 13
4.377092172487891
 23
13.57308500392773
 33
0.0
 14
7.627928381856406
 24
10.07224879455923
 34
0.0
 50
90.0
100
AcDbRotatedDimension
  0
DIMENSION
  5
6167
330
2
100
AcDbEntity
  8
R-ANNO-DIMS
100
AcDbDimension
  2
*D4
 10
2.877092172487891
 20
10.07224879455923
 30
0.0
 11
2.62709217248789
 21
11.19766689924348
 31
0.0
 70
    32
  1
D.L.O.
 71
     5
 42
2.000836209368507
  3
Open-end
100
AcDbAlignedDimension
 13
8.942928381856347
 23
12.07308500392773
 33
0.0
 14
7.627928381856406
 24
10.07224879455923
 34
0.0
 50
90.0
100
AcDbRotatedDimension
  0
DIMENSION
  5
617C
330
2
100
AcDbEntity
  8
R-ANNO-DIMS
100
AcDbDimension
  2
*D8
 10
4.377092172487891
 20
8.572248794559229
 30
0.0
 11
5.50251027717212
 21
8.822248794559229
 31
0.0
 70
    32
  1
D.L.O.
 71
     5
 42
2.000836209368458
  3
Open-end
100
AcDbAlignedDimension
 13
6.377928381856349
 23
14.63808500392772
 33
0.0
 14
4.377092172487891
 24
13.32308500392774
 34
0.0
100
AcDbRotatedDimension
  0
DIMENSION
  5
617D
330
2
100
AcDbEntity
  8
R-ANNO-DIMS
100
AcDbDimension
  2
*D7
 10
4.377092172487891
 20
7.822233149584988
 30
0.0
 11
6.25251027717212
 21
8.072233149584988
 31
0.0
 70
    32
  1
F.W.
 71
     5
 42
3.500836209368458
  3
Open-end
100
AcDbAlignedDimension
 13
7.877928381856349
 23
10.07224879455923
 33
0.0
 14
4.377092172487891
 24
13.32308500392774
 34
0.0
100
AcDbRotatedDimension
  0
DIMENSION
  5
617E
330
2
100
AcDbEntity
  8
R-ANNO-DIMS
100
AcDbDimension
  2
*D5
 10
7.877928381856349
 20
8.572248794559229
 30
0.0
 11
7.127928381856349
 21
8.887724985035418
 31
0.0
 70
    32
 71
     5
 42
1.5
  3
STANDARD
100
AcDbAlignedDimension
 13
6.377928381856349
 23
14.63808500392772
 33
0.0
 14
7.877928381856349
 24
10.07224879455923
 34
0.0
100
AcDbRotatedDimension
  0
DIMENSION
  5
617F
330
2
100
AcDbEntity
  8
R-ANNO-DIMS
100
AcDbDimension
  2
*D6
 10
12.87792838185839
 20
7.822233149585031
 30
0.0
 11
10.37792838185737
 21
8.096042673394554
 31
0.0
 70
    32
 71
     5
 42
5.000000000002046
  3
STANDARD
100
AcDbAlignedDimension
 13
7.877928381856349
 23
10.07224879455923
 33
0.0
 14
12.87792838185839
 24
10.07223314958503
 34
0.0
100
AcDbRotatedDimension
  0
DIMENSION
  5
61D4
330
2
100
AcDbEntity
  8
R-ANNO-DIMS
100
AcDbDimension
  2
*D9
 10
21.53229073528087
 20
9.992448899995951
 30
0.0
 11
21.25848121147134
 21
12.49244889999695
 31
0.0
 70
    32
 71
     5
 42
5.000000000001994
  3
STANDARD
100
AcDbAlignedDimension
 13
23.70250648569174
 23
14.99244889999794
 33
0.0
 14
28.70250648569373
 24
9.992448899995949
 34
0.0
 50
90.0
100
AcDbRotatedDimension
  0
DIMENSION
  5
61EC
330
2
100
AcDbEntity
  8
R-ANNO-DIMS
100
AcDbDimension
  2
*D10
 10
22.28229073528087
 20
16.49259704565442
 30
0.0
 11
21.96681454480467
 21
15.74252297282618
 31
0.0
 70
    32
 71
     5
 42
1.500148145656469
  3
STANDARD
100
AcDbAlignedDimension
 13
23.70250648569174
 23
14.99244889999794
 33
0.0
 14
24.76750648569174
 24
16.49259704565441
 34
0.0
 50
90.0
100
AcDbRotatedDimension
  0
DIMENSION
  5
61FB
330
2
100
AcDbEntity
  8
R-ANNO-DIMS
100
AcDbDimension
  2
*D11
 10
21.53229073528087
 20
18.49343325502296
 30
0.0
 11
21.28229073528086
 21
16.61794107751045
 31
0.0
 70
    32
  1
F.W.
 71
     5
 42
3.500984355025009
  3
Open-end
100
AcDbAlignedDimension
 13
23.70250648569174
 23
14.99244889999794
 33
0.0
 14
23.45250648569174
 24
18.49343325502296
 34
0.0
 50
90.0
100
AcDbRotatedDimension
  0
DIMENSION
  5
620F
330
2
100
AcDbEntity
  8
R-ANNO-DIMS
100
AcDbDimension
  2
*D12
 10
22.28229073528087
 20
18.49343325502296
 30
0.0
 11
22.03229073528087
 21
17.36801515033869
 31
0.0
 70
    32
  1
D.L.O.
 71
     5
 42
2.000836209368539
  3
Open-end
100
AcDbAlignedDimension
 13
24.76750648569174
 23
16.49259704565441
 33
0.0
 14
23.45250648569174
 24
18.49343325502296
 34
0.0
 50
90.0
100
AcDbRotatedDimension
  0
DIMENSION
  5
6248
330
2
100
AcDbEntity
  8
R-ANNO-DIMS
100
AcDbDimension
  2
*D13
 10
23.70250648569174
 20
7.822233149585031
 30
0.0
 11
26.20250648569274
 21
8.096042673394554
 31
0.0
 70
    32
 71
     5
 42
5.000000000001989
  3
STANDARD
100
AcDbAlignedDimension
 13
28.70250648569373
 23
9.992448899995935
 33
0.0
 14
23.70250648569174
 24
14.99244889999789
 34
0.0
100
AcDbRotatedDimension
  0
DIMENSION
  5
6249
330
2
100
AcDbEntity
  8
R-ANNO-DIMS
100
AcDbDimension
  2
*D15
 10
32.20349084071876
 20
7.822233149585045
 30
0.0
 11
30.32799866320625
 21
8.072233149585045
 31
0.0
 70
    32
  1
F.W.
 71
     5
 42
3.500984355025025
  3
Open-end
100
AcDbAlignedDimension
 13
28.70250648569373
 23
9.992448899995935
 33
0.0
 14
32.20349084071876
 24
9.742448899995935
 34
0.0
100
AcDbRotatedDimension
  0
DIMENSION
  5
624A
330
2
100
AcDbEntity
  8
R-ANNO-DIMS
100
AcDbDimension
  2
*D14
 10
30.20265463135018
 20
8.572233149585045
 30
0.0
 11
29.45258055852196
 21
8.887709340061235
 31
0.0
 70
    32
 71
     5
 42
1.500148145656453
  3
STANDARD
100
AcDbAlignedDimension
 13
28.70250648569373
 23
9.992448899995935
 33
0.0
 14
30.20265463135018
 24
11.05744889999593
 34
0.0
100
AcDbRotatedDimension
  0
DIMENSION
  5
624B
330
2
100
AcDbEntity
  8
R-ANNO-DIMS
100
AcDbDimension
  2
*D16
 10
32.20349084071876
 20
8.572233149585045
 30
0.0
 11
31.07807273603447
 21
8.822233149585045
 31
0.0
 70
    32
  1
D.L.O.
 71
     5
 42
2.000836209368571
  3
Open-end
100
AcDbAlignedDimension
 13
30.20265463135018
 23
11.05744889999593
 33
0.0
 14
32.20349084071876
 24
9.742448899995935
 34
0.0
100
AcDbRotatedDimension
  0
TEXT
  5
62A1
330
2
100
AcDbEntity
  8
0
 62
     2
100
AcDbText
 10
6.077451295068001
 20
6.0750814410162
 30
0.0
 40
0.375
  1
%%u90° INSIDE CORNER
  7
ROMAND
 72
     4
 11
8.627502454686009
 21
6.262709340061221
 31
0.0
100
AcDbText
  0
TEXT
  5
62A8
330
2
100
AcDbEntity
  8
0
 62
     2
100
AcDbText
 10
25.1119849986528
 20
6.0750814410162
 30
0.0
 40
0.375
  1
%%u90° OUTSIDE CORNER
  7
ROMAND
 72
     4
 11
27.95300648569236
 21
6.262709340061221
 31
0.0
100
AcDbText
  0
LEADER
  5
62F5
330
2
100
AcDbEntity
  8
PART_NUMBERS
100
AcDbLeader
  3
Open-end
 76
     3
 10
6.815342820438786
 20
16.88708062860784
 30
0.0
 10
13.37792838185839
 20
16.94737160734938
 30
0.0
 10
13.62792838185839
 20
16.94737160734938
 30
0.0
1001
ACAD
1000
DSTYLE
1002
{
1070
   147
1040
0.0625
1070
    77
1070
     0
1002
}
  0
TEXT
  5
62F6
330
2
100
AcDbEntity
  8
PART_NUMBERS
100
AcDbText
 10
13.69035393849816
 20
16.82179965152886
 30
0.0
 40
0.25
  1
556011
  7
ROMAND
100
AcDbText
  0
TEXT
  5
62F7
330
2
100
AcDbEntity
  8
PART_NUMBERS
100
AcDbText
 10
13.69035393849816
 20
16.41779965152885
 30
0.0
 40
0.25
  1
GLASS STOP
  7
ROMAND
100
AcDbText
  0
LEADER
  5
62F8
330
2
100
AcDbEntity
  8
PART_NUMBERS
100
AcDbLeader
  3
Open-end
 76
     3
 10
6.296398474048089
 20
15.96628429207729
 30
0.0
 10
13.37792838185839
 20
15.73537160734938
 30
0.0
 10
13.62792838185839
 20
15.73537160734938
 30
0.0
1001
ACAD
1000
DSTYLE
1002
{
1070
   147
1040
0.0625
1070
    77
1070
     0
1002
}
  0
TEXT
  5
62FA
330
2
100
AcDbEntity
  8
PART_NUMBERS
100
AcDbText
 10
13.69035393849816
 20
15.60979965152886
 30
0.0
 40
0.25
  1
INTERIOR GLAZING GASKET
  7
ROMAND
100
AcDbText
  0
LEADER
  5
62FB
330
2
100
AcDbEntity
  8
PART_NUMBERS
100
AcDbLeader
  3
Open-end
 76
     3
 10
11.14279248360566
 20
13.23442550168151
 30
0.0
 10
13.37792838185839
 20
14.92737160734938
 30
0.0
 10
13.62792838185839
 20
14.92737160734938
 30
0.0
1001
ACAD
1000
DSTYLE
1002
{
1070
   147
1040
0.0625
1070
    77
1070
     0
1002
}
  0
TEXT
  5
62FC
330
2
100
AcDbEntity
  8
PART_NUMBERS
100
AcDbText
 10
13.69035393849816
 20
14.39779965152886
 30
0.0
 40
0.25
  1
JAMB
  7
ROMAND
100
AcDbText
  0
TEXT
  5
62FD
330
2
100
AcDbEntity
  8
PART_NUMBERS
100
AcDbText
 10
13.69035393849816
 20
14.80179965152886
 30
0.0
 40
0.25
  1
558201
  7
ROMAND
100
AcDbText
  0
LEADER
  5
62FE
330
2
100
AcDbEntity
  8
PART_NUMBERS
100
AcDbLeader
  3
Open-end
 76
     3
 10
10.211591574272
 20
12.54632329155527
 30
0.0
 10
13.37792838185839
 20
13.71537160734938
 30
0.0
 10
13.62792838185839
 20
13.71537160734938
 30
0.0
1001
ACAD
1000
DSTYLE
1002
{
1070
   147
1040
0.0625
1070
    77
1070
     0
1002
}
  0
TEXT
  5
62FF
330
2
100
AcDbEntity
  8
PART_NUMBERS
100
AcDbText
 10
13.69035393849816
 20
13.18579965152885
 30
0.0
 40
0.25
  1
AIR SEAL GASKET
  7
ROMAND
100
AcDbText
  0
TEXT
  5
6300
330
2
100
AcDbEntity
  8
PART_NUMBERS
100
AcDbText
 10
13.69035393849816
 20
13.58979965152886
 30
0.0
 40
0.25
  1
027799
  7
ROMAND
100
AcDbText
  0
LEADER
  5
6301
330
2
100
AcDbEntity
  8
PART_NUMBERS
100
AcDbLeader
  3
Open-end
 76
     3
 10
9.120648752435442
 20
12.25173314958501
 30
0.0
 10
13.37792838185839
 20
12.09937160734937
 30
0.0
 10
13.62792838185839
 20
12.09937160734937
 30
0.0
1001
ACAD
1000
DSTYLE
1002
{
1070
   147
1040
0.0625
1070
    77
1070
     0
1002
}
  0
TEXT
  5
6303
330
2
100
AcDbEntity
  8
PART_NUMBERS
100
AcDbText
 10
13.69035393849816
 20
11.97379965152886
 30
0.0
 40
0.25
  1
1/8" PRESHIM GLAZING TAPE
  7
ROMAND
100
AcDbText
  0
TEXT
  5
6305
330
2
100
AcDbEntity
  8
PART_NUMBERS
100
AcDbText
 10
13.69035393849816
 20
12.78179965152885
 30
0.0
 40
0.25
  1
(FOR RAIN SCREEN APPLICATION)
  7
ROMAND
100
AcDbText
  0
LEADER
  5
6309
330
2
100
AcDbEntity
  8
PART_NUMBERS
100
AcDbLeader
  3
Open-end
 76
     3
 10
26.0957057738413
 20
16.57412695346271
 30
0.0
 10
32.7040273905946
 20
16.89346583077882
 30
0.0
 10
32.9540273905946
 20
16.89346583077882
 30
0.0
1001
ACAD
1000
DSTYLE
1002
{
1070
   147
1040
0.0625
1070
    77
1070
     0
1002
}
  0
TEXT
  5
630B
330
2
100
AcDbEntity
  8
PART_NUMBERS
100
AcDbText
 10
33.01645294723437
 20
16.7678938749583
 30
0.0
 40
0.25
  1
INTERIOR GLAZING GASKET
  7
ROMAND
100
AcDbText
  0
TEXT
  5
630C
330
2
100
AcDbEntity
  8
PART_NUMBERS
100
AcDbText
 10
33.01645294723437
 20
15.9598938749583
 30
0.0
 40
0.25
  1
558201
  7
ROMAND
100
AcDbText
  0
LEADER
  5
630D
330
2
100
AcDbEntity
  8
PART_NUMBERS
100
AcDbLeader
  3
Open-end
 76
     3
 10
29.3275064856955
 20
13.93560840737694
 30
0.0
 10
32.7040273905946
 20
16.08546583077882
 30
0.0
 10
32.9540273905946
 20
16.08546583077882
 30
0.0
1001
ACAD
1000
DSTYLE
1002
{
1070
   147
1040
0.0625
1070
    77
1070
     0
1002
}
  0
TEXT
  5
630F
330
2
100
AcDbEntity
  8
PART_NUMBERS
100
AcDbText
 10
33.01645294723437
 20
14.7478938749583
 30
0.0
 40
0.25
  1
556011
  7
ROMAND
100
AcDbText
  0
LEADER
  5
6310
330
2
100
AcDbEntity
  8
PART_NUMBERS
100
AcDbLeader
  3
Open-end
 76
     3
 10
30.20297389984075
 20
12.89637858136817
 30
0.0
 10
32.7040273905946
 20
14.87346583077882
 30
0.0
 10
32.9540273905946
 20
14.87346583077882
 30
0.0
1001
ACAD
1000
DSTYLE
1002
{
1070
   147
1040
0.0625
1070
    77
1070
     0
1002
}
  0
TEXT
  5
6312
330
2
100
AcDbEntity
  8
PART_NUMBERS
100
AcDbText
 10
33.01645294723437
 20
13.5358938749583
 30
0.0
 40
0.25
  1
027799
  7
ROMAND
100
AcDbText
  0
LEADER
  5
6313
330
2
100
AcDbEntity
  8
PART_NUMBERS
100
AcDbLeader
  3
Open-end
 76
     3
 10
29.72941634372268
 20
12.32611209241155
 30
0.0
 10
32.7040273905946
 20
13.66146583077882
 30
0.0
 10
32.9540273905946
 20
13.66146583077882
 30
0.0
1001
ACAD
1000
DSTYLE
1002
{
1070
   147
1040
0.0625
1070
    77
1070
     0
1002
}
  0
TEXT
  5
6315
330
2
100
AcDbEntity
  8
PART_NUMBERS
100
AcDbText
 10
33.01645294723437
 20
11.9198938749583
 30
0.0
 40
0.25
  1
1/8" PRESHIM GLAZING TAPE
  7
ROMAND
100
AcDbText
  0
LEADER
  5
6316
330
2
100
AcDbEntity
  8
PART_NUMBERS
100
AcDbLeader
  3
Open-end
 76
     3
 10
30.20986351876962
 20
11.18484082989866
 30
0.0
 10
32.7040273905946
 20
12.04546583077882
 30
0.0
 10
32.9540273905946
 20
12.04546583077882
 30
0.0
1001
ACAD
1000
DSTYLE
1002
{
1070
   147
1040
0.0625
1070
    77
1070
     0
1002
}
  0
TEXT
  5
631F
330
2
100
AcDbEntity
  8
PART_NUMBERS
100
AcDbText
 10
33.01645294723437
 20
13.1318938749583
 30
0.0
 40
0.25
  1
AIR SEAL GASKET
  7
ROMAND
100
AcDbText
  0
TEXT
  5
6320
330
2
100
AcDbEntity
  8
PART_NUMBERS
100
AcDbText
 10
33.01645294723437
 20
15.5558938749583
 30
0.0
 40
0.25
  1
JAMB
  7
ROMAND
100
AcDbText
  0
TEXT
  5
6321
330
2
100
AcDbEntity
  8
PART_NUMBERS
100
AcDbText
 10
33.01645294723437
 20
14.3438938749583
 30
0.0
 40
0.25
  1
GLASS STOP
  7
ROMAND
100
AcDbText
  0
TEXT
  5
6322
330
2
100
AcDbEntity
  8
PART_NUMBERS
100
AcDbText
 10
33.01645294723437
 20
12.7278938749583
 30
0.0
 40
0.25
  1
(FOR RAIN SCREEN APPLICATION)
  7
ROMAND
100
AcDbText
  0
DIMENSION
  5
7172
330
2
100
AcDbEntity
  8
R-ANNO-DIMS
100
AcDbDimension
  2
*D17
 10
7.87807652751286
 20
19.3080850039299
 30
0.0
 11
7.565576527511581
 21
19.62356119440609
 31
0.0
 70
    32
 71
     5
 42
0.625000000002558
  3
STANDARD
100
AcDbAlignedDimension
 13
7.253076527510302
 23
18.5580850039299
 33
0.0
 14
7.87807652751286
 24
18.5580850039299
 34
0.0
100
AcDbRotatedDimension
  0
DIMENSION
  5
7181
330
2
100
AcDbEntity
  8
R-ANNO-DIMS
100
AcDbDimension
  2
*D18
 10
13.61292838185852
 20
13.57323314958422
 30
0.0
 11
13.29745219138233
 21
12.36946386041315
 31
0.0
 70
   160
 71
     5
 42
0.6250000000025651
  3
STANDARD
100
AcDbAlignedDimension
 13
12.86292838185852
 23
12.94823314958166
 33
0.0
 14
12.86292838185852
 24
13.57323314958422
 34
0.0
 50
90.0
100
AcDbRotatedDimension
  0
LINE
  5
74E4
330
2
100
AcDbEntity
  8
0
100
AcDbLine
 10
0.0
 20
21.66680746792249
 30
0.0
 11
0.0
 21
0.0
 31
0.0
  0
LINE
  5
74E5
330
2
100
AcDbEntity
  8
0
100
AcDbLine
 10
0.0
 20
0.0
 30
0.0
 11
40.36089655615614
 21
0.0
 31
0.0
  0
MTEXT
  5
7943
102
{ACAD_XDICTIONARY
360
7944
102
}
330
2
100
AcDbEntity
  8
TEXT
100
AcDbMText
 10
1.000000084398437
 20
2.0
 30
0.0
 40
0.375
 41
15.4571868900598
 71
     1
 72
     5
  1
ENGINEERING CHANGE:  97910-095 (MARCH 2017)\PFILE NAME:  KCDE101A SHEET 02 OF 02.DWG
 73
     1
 44
1.0
1001
ACAD
1000
ACAD_MTEXT_COLUMN_INFO_BEGIN
1070
    75
1070
     2
1070
    79
1070
     0
1070
    76
1070
     1
1070
    78
1070
     0
1070
    48
1040
15.4571868900598
1070
    49
1040
1.25
1070
    50
1070
     1
1040
0.0
1000
ACAD_MTEXT_COLUMN_INFO_END
1000
MTEXTBEGIN
1070
    73
1070
     1
1070
    44
1040
1.0
1070
    74
1070
     0
1000
MTEXTEND
  0
MTEXT
  5
79C8
102
{ACAD_XDICTIONARY
360
80AE
102
}
330
2
100
AcDbEntity
  8
0
 62
     2
100
AcDbMText
 10
24.61076274174796
 20
4.404873805346952
 30
0.0
 40
0.375
 41
8.869306362671935
 71
     2
 72
     5
  1
{\H1.3333x;518 THERMAL WINDOWS \PCORNER DETAILS \P5" DEEP (1" INFILL) }\P\PDETAIL SCALE: 1" = 1"
  7
ROMAND
 73
     1
 44
1.0
1001
ACAD
1000
MTEXTBEGIN
1070
    73
1070
     1
1070
    44
1040
1.0
1070
    74
1070
     0
1000
MTEXTEND
  0
INSERT
  5
804F
330
2
100
AcDbEntity
  8
0
100
AcDbBlockReference
  2
Kawneer Logo English
 10
1.0
 20
2.5
 30
0.0
 41
5.337
 42
5.337
 43
5.337
  0
ENDSEC
  0
SECTION
  2
OBJECTS
  0
DICTIONARY
  5
9
330
0
100
AcDbDictionary
281
     1
  3
ACAD_CIP_PREVIOUS_PRODUCT_INFO
350
78A1
  3
ACAD_COLOR
350
74FD
  3
ACAD_FIELDLIST
350
7941
  3
ACAD_GROUP
350
49
  3
ACAD_LAYOUT
350
D
  3
ACAD_MATERIAL
350
74FC
  3
ACAD_MLEADERSTYLE
350
781C
  3
ACAD_MLINESTYLE
350
4A
  3
ACAD_PLOTSETTINGS
350
4B
  3
ACAD_PLOTSTYLENAME
350
8
  3
ACAD_SCALELIST
350
780A
  3
ACAD_TABLESTYLE
350
77CB
  3
ACAD_VISUALSTYLE
350
77F1
  3
ACDB_RECOMPOSE_DATA
350
80B2
  3
AcDbVariableDictionary
350
77C7
  3
DWGPROPS
350
80B3
  0
DICTIONARY
  5
7861
330
3C
100
AcDbDictionary
280
     1
281
     1
  0
DICTIONARY
  5
15
330
14
100
AcDbDictionary
280
     1
281
     1
  3
ACAD_LAYERFILTERS
360
16
  3
ACAD_LAYERSTATES
360
783D
  0
DICTIONARY
  5
784C
330
6
100
AcDbDictionary
280
     1
281
     1
  3
ADSK_XREC_LAYER_RECONCILED
360
784D
  0
DICTIONARY
  5
784E
330
7552
100
AcDbDictionary
280
     1
281
     1
  3
ADSK_XREC_LAYER_RECONCILED
360
784F
  0
DICTIONARY
  5
7850
330
7553
100
AcDbDictionary
280
     1
281
     1
  3
ADSK_XREC_LAYER_RECONCILED
360
7851
  0
DICTIONARY
  5
7852
330
7554
100
AcDbDictionary
280
     1
281
     1
  3
ADSK_XREC_LAYER_RECONCILED
360
7853
  0
DICTIONARY
  5
7854
330
7555
100
AcDbDictionary
280
     1
281
     1
  3
ADSK_XREC_LAYER_RECONCILED
360
7855
  0
DICTIONARY
  5
7856
330
7556
100
AcDbDictionary
280
     1
281
     1
  3
ADSK_XREC_LAYER_RECONCILED
360
7857
  0
DICTIONARY
  5
7933
330
7932
100
AcDbDictionary
280
     1
281
     1
  0
DICTIONARY
  5
3
330
2
100
AcDbDictionary
280
     1
281
     1
  3
ACAD_LAYOUTSELFREF
360
4
  0
DICTIONARY
  5
F
330
E
100
AcDbDictionary
280
     1
281
     1
  3
ACAD_LAYOUTSELFREF
360
10
  0
DICTIONARY
  5
804B
330
8041
100
AcDbDictionary
280
     1
281
     1
  3
ACAD_SORTENTS
360
804C
  0
DICTIONARY
  5
80B0
330
8042
100
AcDbDictionary
280
     1
281
     1
  3
ACAD_MTEXT_2008_RT
360
80B1
  0
DICTIONARY
  5
7944
330
7943
100
AcDbDictionary
280
     1
281
     1
  0
DICTIONARY
  5
80AE
330
79C8
100
AcDbDictionary
280
     1
281
     1
  3
ACAD_MTEXT_2008_RT
360
80AF
  0
XRECORD
  5
78A1
102
{ACAD_REACTORS
330
9
102
}
330
9
100
AcDbXrecord
280
     1
300
ACD
300
2012
300
85730ACD_2012_0F
  0
DICTIONARY
  5
74FD
102
{ACAD_REACTORS
330
9
102
}
330
9
100
AcDbDictionary
281
     1
  0
FIELDLIST
  5
7941
102
{ACAD_REACTORS
330
9
102
}
330
9
100
AcDbIdSet
 90
        0
100
AcDbFieldList
  0
DICTIONARY
  5
49
102
{ACAD_REACTORS
330
9
102
}
330
9
100
AcDbDictionary
281
     1
  0
DICTIONARY
  5
D
102
{ACAD_REACTORS
330
9
102
}
330
9
100
AcDbDictionary
281
     1
  3
Layout1
350
13
  3
Model
350
C
  0
DICTIONARY
  5
74FC
102
{ACAD_REACTORS
330
9
102
}
330
9
100
AcDbDictionary
281
     1
  3
ByBlock
350
77E1
  3
ByLayer
350
77D9
  3
Global
350
77E9
  0
DICTIONARY
  5
781C
102
{ACAD_REACTORS
330
9
102
}
330
9
100
AcDbDictionary
281
     1
  3
Standard
350
781D
  0
DICTIONARY
  5
4A
102
{ACAD_REACTORS
330
9
102
}
330
9
100
AcDbDictionary
281
     1
  3
STANDARD
350
4C
  0
DICTIONARY
  5
4B
102
{ACAD_REACTORS
330
9
102
}
330
9
100
AcDbDictionary
281
     1
  0
ACDBDICTIONARYWDFLT
  5
8
102
{ACAD_REACTORS
330
9
102
}
330
9
100
AcDbDictionary
281
     1
  3
Normal
350
7
100
AcDbDictionaryWithDefault
340
7
  0
DICTIONARY
  5
780A
102
{ACAD_REACTORS
330
9
102
}
330
9
100
AcDbDictionary
281
     1
  3
A0
350
780B
  3
A1
350
801F
  3
A2
350
8020
  3
A3
350
8021
  3
A4
350
8022
  3
A5
350
8023
  3
A6
350
8024
  3
A7
350
8025
  3
A8
350
8026
  3
A9
350
8027
  3
B0
350
8028
  3
B1
350
8029
  3
B2
350
802A
  3
B3
350
802B
  3
B4
350
802C
  3
B5
350
802D
  3
B6
350
802E
  0
DICTIONARY
  5
77CB
102
{ACAD_REACTORS
330
9
102
}
330
9
100
AcDbDictionary
281
     1
  3
Standard
350
77CC
  0
DICTIONARY
  5
77F1
102
{ACAD_REACTORS
330
9
102
}
330
9
100
AcDbDictionary
281
     1
  3
2dWireframe
350
77F7
  3
3D Hidden
350
803F
  3
3dWireframe
350
8040
  3
Basic
350
77F6
  3
Brighten
350
77FD
  3
ColorChange
350
7801
  3
Conceptual
350
77FA
  3
Dim
350
77FC
  3
EdgeColorOff
350
7809
  3
Facepattern
350
7800
  3
Flat
350
77F2
  3
FlatWithEdges
350
77F3
  3
Gouraud
350
77F4
  3
GouraudWithEdges
350
77F5
  3
Hidden
350
77F9
  3
JitterOff
350
7807
  3
Linepattern
350
77FF
  3
OverhangOff
350
7808
  3
Realistic
350
77FB
  3
Shaded
350
7806
  3
Shaded with edges
350
7805
  3
Shades of Gray
350
7802
  3
Sketchy
350
7803
  3
Thicken
350
77FE
  3
Wireframe
350
77F8
  3
X-Ray
350
7804
  0
XRECORD
  5
80B2
102
{ACAD_REACTORS
330
9
102
}
330
9
100
AcDbXrecord
280
     1
 90
        1
330
77CC
330
7943
330
79C8
330
8042
  0
DICTIONARY
  5
77C7
102
{ACAD_REACTORS
330
9
102
}
330
9
100
AcDbDictionary
281
     1
  3
CANNOSCALE
350
7899
  3
CMLEADERSTYLE
350
7898
  3
CTABLESTYLE
350
77D1
  3
DIMASSOC
350
77C8
  3
INDEXCTL
350
789B
  3
LAYEREVAL
350
80A0
  3
LAYERNOTIFY
350
80A1
  3
LIGHTINGUNITS
350
809F
  3
MSLTSCALE
350
809E
  3
PROJECTNAME
350
77C9
  3
SORTENTS
350
789A
  3
XCLIPFRAME
350
80AC
  0
XRECORD
  5
80B3
102
{ACAD_REACTORS
330
9
102
}
330
9
100
AcDbXrecord
280
     1
  1
DWGPROPS COOKIE
  2

  3

  4

  6

  7

  8
quadiss
  9

300
=
301
=
302
=
303
=
304
=
305
=
306
=
307
=
308
=
309
=
 40
2.983988564814814
 41
2450525.426291088
 42
2457809.478747292
  1

 90
        0
  0
DICTIONARY
  5
16
102
{ACAD_REACTORS
330
15
102
}
330
15
100
AcDbDictionary
280
     1
281
     1
  0
DICTIONARY
  5
783D
102
{ACAD_REACTORS
330
15
102
}
330
15
100
AcDbDictionary
281
     1
  0
XRECORD
  5
784D
102
{ACAD_REACTORS
330
784C
102
}
330
784C
100
AcDbXrecord
280
     1
290
     1
  0
XRECORD
  5
784F
102
{ACAD_REACTORS
330
784E
102
}
330
784E
100
AcDbXrecord
280
     1
290
     1
  0
XRECORD
  5
7851
102
{ACAD_REACTORS
330
7850
102
}
330
7850
100
AcDbXrecord
280
     1
290
     1
  0
XRECORD
  5
7853
102
{ACAD_REACTORS
330
7852
102
}
330
7852
100
AcDbXrecord
280
     1
290
     1
  0
XRECORD
  5
7855
102
{ACAD_REACTORS
330
7854
102
}
330
7854
100
AcDbXrecord
280
     1
290
     1
  0
XRECORD
  5
7857
102
{ACAD_REACTORS
330
7856
102
}
330
7856
100
AcDbXrecord
280
     1
290
     1
  0
XRECORD
  5
4
102
{ACAD_REACTORS
330
3
102
}
330
3
100
AcDbXrecord
280
     1
340
2
  0
XRECORD
  5
10
102
{ACAD_REACTORS
330
F
102
}
330
F
100
AcDbXrecord
280
     1
340
E
  0
SORTENTSTABLE
  5
804C
102
{ACAD_REACTORS
330
804B
102
}
330
804B
100
AcDbSortentsTable
330
8041
  0
XRECORD
  5
80B1
102
{ACAD_REACTORS
330
80B0
102
}
330
80B0
100
AcDbXrecord
280
     1
 40
102645.0
  1
\pxqr;{\fArial TUR|b0|i0|c0|p34;\T1.05;AN ARCONIC COMPANY}
  0
XRECORD
  5
80AF
102
{ACAD_REACTORS
330
80AE
102
}
330
80AE
100
AcDbXrecord
280
     1
 40
294065.0
  1
\pxqc;{\H1.3333x;518 THERMAL WINDOWS \PCORNER DETAILS \P5" DEEP (1" INFILL) }\P\PDETAIL SCALE: 1" = 1"
  0
LAYOUT
  5
13
102
{ACAD_XDICTIONARY
360
80B6
102
}
102
{ACAD_REACTORS
330
D
102
}
330
D
100
AcDbPlotSettings
  1

  2
\\KAWNEER\xerox.Scarborough.Kawneer
  4

  6

 40
0.0
 41
0.0
 42
0.0
 43
0.0
 44
0.0
 45
0.0
 46
0.0
 47
0.0
 48
0.0
 49
0.0
140
0.0
141
0.0
142
1.0
143
1.0
 70
   688
 72
     0
 73
     0
 74
     5
  7
hp5000n.ctb
 75
    16
147
1.0
148
0.0
149
0.0
100
AcDbLayout
  1
Layout1
 70
     0
 71
     1
 10
0.0
 20
0.0
 11
12.0
 21
9.0
 12
0.0
 22
0.0
 32
0.0
 14
1.000000000000000E+20
 24
1.000000000000000E+20
 34
1.000000000000000E+20
 15
-1.000000000000000E+20
 25
-1.000000000000000E+20
 35
-1.000000000000000E+20
146
0.0
 13
0.0
 23
0.0
 33
0.0
 16
1.0
 26
0.0
 36
0.0
 17
0.0
 27
1.0
 37
0.0
 76
     0
330
E
  0
LAYOUT
  5
C
102
{ACAD_XDICTIONARY
360
80B4
102
}
102
{ACAD_REACTORS
330
D
102
}
330
D
100
AcDbPlotSettings
  1

  2
Drafting 11x17.pc3
  4
ANSI_B_(11.00_x_17.00_Inches)
  6

 40
5.027082920074462
 41
5.027082920074462
 42
9.26043701171875
 43
5.027069091796875
 44
279.3999938964844
 45
431.7999877929687
 46
30.988
 47
0.0
 48
0.0
 49
-25.42789949708283
140
40.36089655615614
141
-6.0
142
1.0
143
2.430917526054048
 70
 28340
 72
     0
 73
     1
 74
     1
  7
hp5000n.ctb
 75
     0
147
0.4113673085500501
148
0.0312832202055461
149
0.0150583190652626
100
AcDbLayout
  1
Model
 70
     1
 71
     0
 10
0.0
 20
0.0
 11
12.0
 21
9.0
 12
0.0
 22
0.0
 32
0.0
 14
0.0
 24
0.0
 34
0.0
 15
0.0
 25
0.0
 35
0.0
146
0.0
 13
0.0
 23
0.0
 33
0.0
 16
1.0
 26
0.0
 36
0.0
 17
0.0
 27
1.0
 37
0.0
 76
     0
330
2
331
77D7
  0
MATERIAL
  5
77E1
102
{ACAD_XDICTIONARY
360
77E2
102
}
102
{ACAD_REACTORS
330
74FC
102
}
330
74FC
100
AcDbMaterial
  1
ByBlock
 72
     0
 43
0.0208333333333333
 43
0.0
 43
0.0
 43
0.0
 43
0.0
 43
0.0208333333333333
 43
0.0
 43
0.0
 43
0.0
 43
0.0
 43
1.0
 43
0.0
 43
0.0
 43
0.0
 43
0.0
 43
1.0
 77
     0
 47
0.0208333333333333
 47
0.0
 47
0.0
 47
0.0
 47
0.0
 47
0.0208333333333333
 47
0.0
 47
0.0
 47
0.0
 47
0.0
 47
1.0
 47
0.0
 47
0.0
 47
0.0
 47
0.0
 47
1.0
171
     0
 49
0.0208333333333333
 49
0.0
 49
0.0
 49
0.0
 49
0.0
 49
0.0208333333333333
 49
0.0
 49
0.0
 49
0.0
 49
0.0
 49
1.0
 49
0.0
 49
0.0
 49
0.0
 49
0.0
 49
1.0
175
     0
142
0.0208333333333333
142
0.0
142
0.0
142
0.0
142
0.0
142
0.0208333333333333
142
0.0
142
0.0
142
0.0
142
0.0
142
1.0
142
0.0
142
0.0
142
0.0
142
0.0
142
1.0
179
     0
144
0.0208333333333333
144
0.0
144
0.0
144
0.0
144
0.0
144
0.0208333333333333
144
0.0
144
0.0
144
0.0
144
0.0
144
1.0
144
0.0
144
0.0
144
0.0
144
0.0
144
1.0
147
0.0208333333333333
147
0.0
147
0.0
147
0.0
147
0.0
147
0.0208333333333333
147
0.0
147
0.0
147
0.0
147
0.0
147
1.0
147
0.0
147
0.0
147
0.0
147
0.0
147
1.0
  0
MATERIAL
  5
77D9
102
{ACAD_XDICTIONARY
360
77DA
102
}
102
{ACAD_REACTORS
330
74FC
102
}
330
74FC
100
AcDbMaterial
  1
ByLayer
 72
     0
 43
0.0208333333333333
 43
0.0
 43
0.0
 43
0.0
 43
0.0
 43
0.0208333333333333
 43
0.0
 43
0.0
 43
0.0
 43
0.0
 43
1.0
 43
0.0
 43
0.0
 43
0.0
 43
0.0
 43
1.0
 77
     0
 47
0.0208333333333333
 47
0.0
 47
0.0
 47
0.0
 47
0.0
 47
0.0208333333333333
 47
0.0
 47
0.0
 47
0.0
 47
0.0
 47
1.0
 47
0.0
 47
0.0
 47
0.0
 47
0.0
 47
1.0
171
     0
 49
0.0208333333333333
 49
0.0
 49
0.0
 49
0.0
 49
0.0
 49
0.0208333333333333
 49
0.0
 49
0.0
 49
0.0
 49
0.0
 49
1.0
 49
0.0
 49
0.0
 49
0.0
 49
0.0
 49
1.0
175
     0
142
0.0208333333333333
142
0.0
142
0.0
142
0.0
142
0.0
142
0.0208333333333333
142
0.0
142
0.0
142
0.0
142
0.0
142
1.0
142
0.0
142
0.0
142
0.0
142
0.0
142
1.0
179
     0
144
0.0208333333333333
144
0.0
144
0.0
144
0.0
144
0.0
144
0.0208333333333333
144
0.0
144
0.0
144
0.0
144
0.0
144
1.0
144
0.0
144
0.0
144
0.0
144
0.0
144
1.0
147
0.0208333333333333
147
0.0
147
0.0
147
0.0
147
0.0
147
0.0208333333333333
147
0.0
147
0.0
147
0.0
147
0.0
147
1.0
147
0.0
147
0.0
147
0.0
147
0.0
147
1.0
  0
MATERIAL
  5
77E9
102
{ACAD_XDICTIONARY
360
77EA
102
}
102
{ACAD_REACTORS
330
74FC
102
}
330
74FC
100
AcDbMaterial
  1
Global
 72
     0
 43
0.0208333333333333
 43
0.0
 43
0.0
 43
0.0
 43
0.0
 43
0.0208333333333333
 43
0.0
 43
0.0
 43
0.0
 43
0.0
 43
1.0
 43
0.0
 43
0.0
 43
0.0
 43
0.0
 43
1.0
 77
     0
 47
0.0208333333333333
 47
0.0
 47
0.0
 47
0.0
 47
0.0
 47
0.0208333333333333
 47
0.0
 47
0.0
 47
0.0
 47
0.0
 47
1.0
 47
0.0
 47
0.0
 47
0.0
 47
0.0
 47
1.0
171
     0
 49
0.0208333333333333
 49
0.0
 49
0.0
 49
0.0
 49
0.0
 49
0.0208333333333333
 49
0.0
 49
0.0
 49
0.0
 49
0.0
 49
1.0
 49
0.0
 49
0.0
 49
0.0
 49
0.0
 49
1.0
175
     0
142
0.0208333333333333
142
0.0
142
0.0
142
0.0
142
0.0
142
0.0208333333333333
142
0.0
142
0.0
142
0.0
142
0.0
142
1.0
142
0.0
142
0.0
142
0.0
142
0.0
142
1.0
179
     0
144
0.0208333333333333
144
0.0
144
0.0
144
0.0
144
0.0
144
0.0208333333333333
144
0.0
144
0.0
144
0.0
144
0.0
144
1.0
144
0.0
144
0.0
144
0.0
144
0.0
144
1.0
147
0.0208333333333333
147
0.0
147
0.0
147
0.0
147
0.0
147
0.0208333333333333
147
0.0
147
0.0
147
0.0
147
0.0
147
1.0
147
0.0
147
0.0
147
0.0
147
0.0
147
1.0
  0
MLEADERSTYLE
  5
781D
102
{ACAD_REACTORS
330
781C
102
}
330
781C
100
AcDbMLeaderStyle
170
     2
171
     1
172
     0
 90
        2
 40
0.0
 41
0.0
173
     1
 91
-1056964608
340
38
 92
       -2
290
     1
 42
0.09
291
     1
 43
0.36
  3
Standard
 44
0.18
300

342
35
174
     1
178
     6
175
     1
176
     0
 93
-1056964608
 45
0.18
292
     0
297
     0
 46
0.18
 94
-1056964608
 47
1.0
 49
1.0
140
1.0
293
     1
141
0.0
294
     1
177
     0
142
1.0
295
     0
296
     0
143
0.125
1001
ACAD_MLEADERVER
1070
     2
  0
MLINESTYLE
  5
4C
102
{ACAD_REACTORS
330
4A
102
}
330
4A
100
AcDbMlineStyle
  2
STANDARD
 70
     0
  3

 62
   256
 51
90.0
 52
90.0
 71
     2
 49
0.5
 62
   256
  6
BYLAYER
 49
-0.5
 62
   256
  6
BYLAYER
  0
ACDBPLACEHOLDER
  5
7
102
{ACAD_REACTORS
330
8
102
}
330
8
  0
SCALE
  5
780B
102
{ACAD_REACTORS
330
780A
102
}
330
780A
100
AcDbScale
 70
     0
300
1:1
140
1.0
141
1.0
290
     1
  0
SCALE
  5
801F
102
{ACAD_REACTORS
330
780A
102
}
330
780A
100
AcDbScale
 70
     0
300
1/128" = 1'-0"
140
0.0078125
141
12.0
290
     0
  0
SCALE
  5
8020
102
{ACAD_REACTORS
330
780A
102
}
330
780A
100
AcDbScale
 70
     0
300
1/64" = 1'-0"
140
0.015625
141
12.0
290
     0
  0
SCALE
  5
8021
102
{ACAD_REACTORS
330
780A
102
}
330
780A
100
AcDbScale
 70
     0
300
1/32" = 1'-0"
140
0.03125
141
12.0
290
     0
  0
SCALE
  5
8022
102
{ACAD_REACTORS
330
780A
102
}
330
780A
100
AcDbScale
 70
     0
300
1/16" = 1'-0"
140
0.0625
141
12.0
290
     0
  0
SCALE
  5
8023
102
{ACAD_REACTORS
330
780A
102
}
330
780A
100
AcDbScale
 70
     0
300
3/32" = 1'-0"
140
0.09375
141
12.0
290
     0
  0
SCALE
  5
8024
102
{ACAD_REACTORS
330
780A
102
}
330
780A
100
AcDbScale
 70
     0
300
1/8" = 1'-0"
140
0.125
141
12.0
290
     0
  0
SCALE
  5
8025
102
{ACAD_REACTORS
330
780A
102
}
330
780A
100
AcDbScale
 70
     0
300
3/16" = 1'-0"
140
0.1875
141
12.0
290
     0
  0
SCALE
  5
8026
102
{ACAD_REACTORS
330
780A
102
}
330
780A
100
AcDbScale
 70
     0
300
1/4" = 1'-0"
140
0.25
141
12.0
290
     0
  0
SCALE
  5
8027
102
{ACAD_REACTORS
330
780A
102
}
330
780A
100
AcDbScale
 70
     0
300
3/8" = 1'-0"
140
0.375
141
12.0
290
     0
  0
SCALE
  5
8028
102
{ACAD_REACTORS
330
780A
102
}
330
780A
100
AcDbScale
 70
     0
300
1/2" = 1'-0"
140
0.5
141
12.0
290
     0
  0
SCALE
  5
8029
102
{ACAD_REACTORS
330
780A
102
}
330
780A
100
AcDbScale
 70
     0
300
3/4" = 1'-0"
140
0.75
141
12.0
290
     0
  0
SCALE
  5
802A
102
{ACAD_REACTORS
330
780A
102
}
330
780A
100
AcDbScale
 70
     0
300
1" = 1'-0"
140
1.0
141
12.0
290
     0
  0
SCALE
  5
802B
102
{ACAD_REACTORS
330
780A
102
}
330
780A
100
AcDbScale
 70
     0
300
1-1/2" = 1'-0"
140
1.5
141
12.0
290
     0
  0
SCALE
  5
802C
102
{ACAD_REACTORS
330
780A
102
}
330
780A
100
AcDbScale
 70
     0
300
3" = 1'-0"
140
3.0
141
12.0
290
     0
  0
SCALE
  5
802D
102
{ACAD_REACTORS
330
780A
102
}
330
780A
100
AcDbScale
 70
     0
300
6" = 1'-0"
140
6.0
141
12.0
290
     0
  0
SCALE
  5
802E
102
{ACAD_REACTORS
330
780A
102
}
330
780A
100
AcDbScale
 70
     0
300
1'-0" = 1'-0"
140
12.0
141
12.0
290
     0
  0
TABLESTYLE
  5
77CC
102
{ACAD_XDICTIONARY
360
7859
102
}
102
{ACAD_REACTORS
330
77CB
102
}
330
77CB
100
AcDbTableStyle
  3
Standard
 70
     0
 71
     0
 40
0.06
 41
0.06
280
     0
281
     0
  7
STANDARD
140
0.18
170
     2
 62
     0
 63
     7
283
     0
274
    -2
284
     1
 64
     0
275
    -2
285
     1
 65
     0
276
    -2
286
     1
 66
     0
277
    -2
287
     1
 67
     0
278
    -2
288
     1
 68
     0
279
    -2
289
     1
 69
     0
  7
STANDARD
140
0.25
170
     5
 62
     0
 63
     7
283
     0
274
    -2
284
     1
 64
     0
275
    -2
285
     1
 65
     0
276
    -2
286
     1
 66
     0
277
    -2
287
     1
 67
     0
278
    -2
288
     1
 68
     0
279
    -2
289
     1
 69
     0
  7
STANDARD
140
0.18
170
     5
 62
     0
 63
     7
283
     0
274
    -2
284
     1
 64
     0
275
    -2
285
     1
 65
     0
276
    -2
286
     1
 66
     0
277
    -2
287
     1
 67
     0
278
    -2
288
     1
 68
     0
279
    -2
289
     1
 69
     0
  0
VISUALSTYLE
  5
77F7
102
{ACAD_XDICTIONARY
360
80C6
102
}
102
{ACAD_REACTORS
330
77F1
102
}
330
77F1
100
AcDbVisualStyle
  2
2dWireframe
 70
     4
 71
     0
 72
     2
 73
     0
 90
        0
 40
-0.6
 41
-30.0
 62
     5
 63
     7
 74
     1
 91
        4
 64
     7
 65
   257
 75
     1
175
     1
 42
1.0
 92
        0
 66
   257
 43
1.0
 76
     1
 77
     6
 78
     2
 67
     7
 79
     5
170
     0
171
     0
290
     0
174
     0
 93
        1
 44
0.0
173
     0
291
     0
 45
0.0
1001
ACAD
1000
AcDbSavedByObjectVersion
1070
     0
  0
VISUALSTYLE
  5
803F
102
{ACAD_XDICTIONARY
360
80EC
102
}
102
{ACAD_REACTORS
330
77F1
102
}
330
77F1
100
AcDbVisualStyle
  2
3D Hidden
 70
     6
 71
     1
 72
     2
 73
     2
 90
        0
 40
-0.6
 41
-30.0
 62
     5
 63
     7
 74
     2
 91
        2
 64
     7
 65
   257
 75
     2
175
     1
 42
40.0
 92
        0
 66
   257
 43
1.0
 76
     1
 77
     6
 78
     2
 67
     7
 79
     3
170
     0
171
     0
290
     0
174
     0
 93
        1
 44
0.0
173
     0
291
     0
 45
0.0
1001
ACAD
1000
AcDbSavedByObjectVersion
1070
     0
  0
VISUALSTYLE
  5
8040
102
{ACAD_XDICTIONARY
360
80EE
102
}
102
{ACAD_REACTORS
330
77F1
102
}
330
77F1
100
AcDbVisualStyle
  2
3dWireframe
 70
     5
 71
     0
 72
     2
 73
     0
 90
        0
 40
-0.6
 41
-30.0
 62
     5
 63
     7
 74
     1
 91
        4
 64
     7
 65
   257
 75
     1
175
     1
 42
1.0
 92
        0
 66
   257
 43
1.0
 76
     1
 77
     6
 78
     2
 67
     7
 79
     5
170
     0
171
     0
290
     0
174
     0
 93
        1
 44
0.0
173
     0
291
     0
 45
0.0
1001
ACAD
1000
AcDbSavedByObjectVersion
1070
     0
  0
VISUALSTYLE
  5
77F6
102
{ACAD_XDICTIONARY
360
80C4
102
}
102
{ACAD_REACTORS
330
77F1
102
}
330
77F1
100
AcDbVisualStyle
  2
Basic
 70
     7
 71
     1
 72
     0
 73
     1
 90
        0
 40
-0.6
 41
-30.0
 62
     5
 63
     7
 74
     0
 91
        4
 64
     7
 65
   257
 75
     1
175
     1
 42
1.0
 92
        8
 66
     7
 43
1.0
 76
     1
 77
     6
 78
     2
 67
     7
 79
     5
170
     0
171
     0
290
     0
174
     0
 93
        1
 44
0.0
173
     0
291
     1
 45
0.0
1001
ACAD
1000
AcDbSavedByObjectVersion
1070
     0
  0
VISUALSTYLE
  5
77FD
102
{ACAD_XDICTIONARY
360
80D2
102
}
102
{ACAD_REACTORS
330
77F1
102
}
330
77F1
100
AcDbVisualStyle
  2
Brighten
 70
    12
 71
     2
 72
     2
 73
     0
 90
        0
 40
-0.6
 41
-30.0
 62
     5
 63
     7
 74
     1
 91
        4
 64
     7
 65
   257
 75
     1
175
     1
 42
1.0
 92
        8
 66
     7
 43
1.0
 76
     1
 77
     6
 78
     2
 67
     7
 79
     5
170
     0
171
     0
290
     0
174
     0
 93
        1
 44
50.0
173
     0
291
     1
 45
0.0
1001
ACAD
1000
AcDbSavedByObjectVersion
1070
     0
  0
VISUALSTYLE
  5
7801
102
{ACAD_XDICTIONARY
360
80DA
102
}
102
{ACAD_REACTORS
330
77F1
102
}
330
77F1
100
AcDbVisualStyle
  2
ColorChange
 70
    16
 71
     2
 72
     2
 73
     3
 90
        0
 40
-0.6
 41
-30.0
 62
     5
 63
     8
 74
     1
 91
        4
 64
     7
 65
   257
 75
     1
175
     1
 42
1.0
 92
        8
 66
     8
 43
1.0
 76
     1
 77
     6
 78
     2
 67
     7
 79
     5
170
     0
171
     0
290
     0
174
     0
 93
        1
 44
0.0
173
     0
291
     1
 45
0.0
1001
ACAD
1000
AcDbSavedByObjectVersion
1070
     0
  0
VISUALSTYLE
  5
77FA
102
{ACAD_XDICTIONARY
360
80CC
102
}
102
{ACAD_REACTORS
330
77F1
102
}
330
77F1
100
AcDbVisualStyle
  2
Conceptual
 70
     9
 71
     3
 72
     2
 73
     0
 90
        0
 40
-0.6
 41
-30.0
 62
     5
 63
     7
 74
     2
 91
        2
 64
     7
 65
   257
 75
     1
175
     1
 42
179.0
 92
        8
 66
     7
 43
1.0
 76
     1
 77
     6
 78
     2
 67
     7
 79
     3
170
     0
171
     0
290
     0
174
     0
 93
        1
 44
0.0
173
     0
291
     0
 45
0.0
1001
ACAD
1000
AcDbSavedByObjectVersion
1070
     0
  0
VISUALSTYLE
  5
77FC
102
{ACAD_XDICTIONARY
360
80D0
102
}
102
{ACAD_REACTORS
330
77F1
102
}
330
77F1
100
AcDbVisualStyle
  2
Dim
 70
    11
 71
     2
 72
     2
 73
     0
 90
        0
 40
-0.6
 41
-30.0
 62
     5
 63
     7
 74
     1
 91
        4
 64
     7
 65
   257
 75
     1
175
     1
 42
1.0
 92
        8
 66
     7
 43
1.0
 76
     1
 77
     6
 78
     2
 67
     7
 79
     5
170
     0
171
     0
290
     0
174
     0
 93
        1
 44
-50.0
173
     0
291
     1
 45
0.0
1001
ACAD
1000
AcDbSavedByObjectVersion
1070
     0
  0
VISUALSTYLE
  5
7809
102
{ACAD_XDICTIONARY
360
80EA
102
}
102
{ACAD_REACTORS
330
77F1
102
}
330
77F1
100
AcDbVisualStyle
  2
EdgeColorOff
 70
    22
 71
     2
 72
     2
 73
     0
 90
        0
 40
-0.6
 41
-30.0
 62
     5
 63
     7
 74
     1
 91
        4
 64
     7
 65
   257
 75
     1
175
     1
 42
1.0
 92
        8
 66
     7
 43
1.0
 76
     1
 77
     6
 78
     2
 67
     7
 79
     5
170
     0
171
     0
290
     0
174
     0
 93
        1
 44
0.0
173
     0
291
     1
 45
0.0
1001
ACAD
1000
AcDbSavedByObjectVersion
1070
     0
  0
VISUALSTYLE
  5
7800
102
{ACAD_XDICTIONARY
360
80D8
102
}
102
{ACAD_REACTORS
330
77F1
102
}
330
77F1
100
AcDbVisualStyle
  2
Facepattern
 70
    15
 71
     2
 72
     2
 73
     0
 90
        0
 40
-0.6
 41
-30.0
 62
     5
 63
     7
 74
     1
 91
        4
 64
     7
 65
   257
 75
     1
175
     1
 42
1.0
 92
        8
 66
     7
 43
1.0
 76
     1
 77
     6
 78
     2
 67
     7
 79
     5
170
     0
171
     0
290
     0
174
     0
 93
        1
 44
0.0
173
     0
291
     1
 45
0.0
1001
ACAD
1000
AcDbSavedByObjectVersion
1070
     0
  0
VISUALSTYLE
  5
77F2
102
{ACAD_XDICTIONARY
360
80BC
102
}
102
{ACAD_REACTORS
330
77F1
102
}
330
77F1
100
AcDbVisualStyle
  2
Flat
 70
     0
 71
     2
 72
     1
 73
     1
 90
        2
 40
-0.6
 41
30.0
 62
     5
 63
     7
 74
     0
 91
        0
 64
     7
 65
   257
 75
     1
175
     1
 42
1.0
 92
        8
 66
     7
 43
1.0
 76
     1
 77
     6
 78
     2
 67
     7
 79
     5
170
     0
171
     0
290
     0
174
     0
 93
       13
 44
0.0
173
     0
291
     1
 45
0.0
1001
ACAD
1000
AcDbSavedByObjectVersion
1070
     0
  0
VISUALSTYLE
  5
77F3
102
{ACAD_XDICTIONARY
360
80BE
102
}
102
{ACAD_REACTORS
330
77F1
102
}
330
77F1
100
AcDbVisualStyle
  2
FlatWithEdges
 70
     1
 71
     2
 72
     1
 73
     1
 90
        2
 40
-0.6
 41
30.0
 62
     5
 63
     7
 74
     1
 91
        0
 64
     7
 65
   257
 75
     1
175
     1
 42
1.0
 92
        0
 66
   257
 43
1.0
 76
     1
 77
     6
 78
     2
 67
     7
 79
     5
170
     0
171
     0
290
     0
174
     0
 93
       13
 44
0.0
173
     0
291
     1
 45
0.0
1001
ACAD
1000
AcDbSavedByObjectVersion
1070
     0
  0
VISUALSTYLE
  5
77F4
102
{ACAD_XDICTIONARY
360
80C0
102
}
102
{ACAD_REACTORS
330
77F1
102
}
330
77F1
100
AcDbVisualStyle
  2
Gouraud
 70
     2
 71
     2
 72
     2
 73
     1
 90
        2
 40
-0.6
 41
30.0
 62
     5
 63
     7
 74
     0
 91
        0
 64
     7
 65
   257
 75
     1
175
     1
 42
1.0
 92
        0
 66
     7
 43
1.0
 76
     1
 77
     6
 78
     2
 67
     7
 79
     5
170
     0
171
     0
290
     0
174
     0
 93
       13
 44
0.0
173
     0
291
     1
 45
0.0
1001
ACAD
1000
AcDbSavedByObjectVersion
1070
     0
  0
VISUALSTYLE
  5
77F5
102
{ACAD_XDICTIONARY
360
80C2
102
}
102
{ACAD_REACTORS
330
77F1
102
}
330
77F1
100
AcDbVisualStyle
  2
GouraudWithEdges
 70
     3
 71
     2
 72
     2
 73
     1
 90
        2
 40
-0.6
 41
30.0
 62
     5
 63
     7
 74
     1
 91
        0
 64
     7
 65
   257
 75
     1
175
     1
 42
1.0
 92
        0
 66
   257
 43
1.0
 76
     1
 77
     6
 78
     2
 67
     7
 79
     5
170
     0
171
     0
290
     0
174
     0
 93
       13
 44
0.0
173
     0
291
     1
 45
0.0
1001
ACAD
1000
AcDbSavedByObjectVersion
1070
     0
  0
VISUALSTYLE
  5
77F9
102
{ACAD_XDICTIONARY
360
80CA
102
}
102
{ACAD_REACTORS
330
77F1
102
}
330
77F1
100
AcDbVisualStyle
  2
Hidden
 70
     6
 71
     1
 72
     2
 73
     2
 90
        0
 40
-0.6
 41
-30.0
 62
     5
 63
     7
 74
     2
 91
        2
 64
     7
 65
   257
 75
     2
175
     1
 42
40.0
 92
        0
 66
   257
 43
1.0
 76
     1
 77
     6
 78
     2
 67
     7
 79
     3
170
     0
171
     0
290
     0
174
     0
 93
        1
 44
0.0
173
     0
291
     0
 45
0.0
1001
ACAD
1000
AcDbSavedByObjectVersion
1070
     0
  0
VISUALSTYLE
  5
7807
102
{ACAD_XDICTIONARY
360
80E6
102
}
102
{ACAD_REACTORS
330
77F1
102
}
330
77F1
100
AcDbVisualStyle
  2
JitterOff
 70
    20
 71
     2
 72
     2
 73
     0
 90
        0
 40
-0.6
 41
-30.0
 62
     5
 63
     7
 74
     1
 91
        4
 64
     7
 65
   257
 75
     1
175
     1
 42
1.0
 92
       10
 66
     7
 43
1.0
 76
     1
 77
     6
 78
     2
 67
     7
 79
     5
170
     0
171
     0
290
     0
174
     0
 93
        1
 44
0.0
173
     0
291
     1
 45
0.0
1001
ACAD
1000
AcDbSavedByObjectVersion
1070
     0
  0
VISUALSTYLE
  5
77FF
102
{ACAD_XDICTIONARY
360
80D6
102
}
102
{ACAD_REACTORS
330
77F1
102
}
330
77F1
100
AcDbVisualStyle
  2
Linepattern
 70
    14
 71
     2
 72
     2
 73
     0
 90
        0
 40
-0.6
 41
-30.0
 62
     5
 63
     7
 74
     1
 91
        4
 64
     7
 65
   257
 75
     7
175
     7
 42
1.0
 92
        8
 66
     7
 43
1.0
 76
     1
 77
     6
 78
     2
 67
     7
 79
     5
170
     0
171
     0
290
     0
174
     0
 93
        1
 44
0.0
173
     0
291
     1
 45
0.0
1001
ACAD
1000
AcDbSavedByObjectVersion
1070
     0
  0
VISUALSTYLE
  5
7808
102
{ACAD_XDICTIONARY
360
80E8
102
}
102
{ACAD_REACTORS
330
77F1
102
}
330
77F1
100
AcDbVisualStyle
  2
OverhangOff
 70
    21
 71
     2
 72
     2
 73
     0
 90
        0
 40
-0.6
 41
-30.0
 62
     5
 63
     7
 74
     1
 91
        4
 64
     7
 65
   257
 75
     1
175
     1
 42
1.0
 92
        9
 66
     7
 43
1.0
 76
     1
 77
     6
 78
     2
 67
     7
 79
     5
170
     0
171
     0
290
     0
174
     0
 93
        1
 44
0.0
173
     0
291
     1
 45
0.0
1001
ACAD
1000
AcDbSavedByObjectVersion
1070
     0
  0
VISUALSTYLE
  5
77FB
102
{ACAD_XDICTIONARY
360
80CE
102
}
102
{ACAD_REACTORS
330
77F1
102
}
330
77F1
100
AcDbVisualStyle
  2
Realistic
 70
     8
 71
     2
 72
     2
 73
     0
 90
        2
 40
-0.6
 41
30.0
 62
     5
 63
     7
 74
     0
 91
        0
 64
     7
 65
   257
 75
     1
175
     1
 42
1.0
 92
        8
 66
   257
 43
1.0
 76
     1
 77
     6
 78
     2
 67
     7
 79
     3
170
     0
171
     0
290
     0
174
     0
 93
       13
 44
0.0
173
     0
291
     0
 45
0.0
1001
ACAD
1000
AcDbSavedByObjectVersion
1070
     0
  0
VISUALSTYLE
  5
7806
102
{ACAD_XDICTIONARY
360
80E4
102
}
102
{ACAD_REACTORS
330
77F1
102
}
330
77F1
100
AcDbVisualStyle
  2
Shaded
 70
    27
 71
     2
 72
     2
 73
     1
 90
        2
 40
-0.6
 41
30.0
 62
     5
 63
     7
 74
     0
 91
        4
 64
     7
 65
   257
 75
     1
175
     1
 42
1.0
 92
        8
 66
   257
 43
1.0
 76
     1
 77
     6
 78
     2
 67
     8
 79
     3
170
     0
171
     0
290
     0
174
     0
 93
        5
 44
0.0
173
     0
291
     0
 45
0.0
1001
ACAD
1000
AcDbSavedByObjectVersion
1070
     0
  0
VISUALSTYLE
  5
7805
102
{ACAD_XDICTIONARY
360
80E2
102
}
102
{ACAD_REACTORS
330
77F1
102
}
330
77F1
100
AcDbVisualStyle
  2
Shaded with edges
 70
    26
 71
     2
 72
     2
 73
     1
 90
        2
 40
-0.6
 41
30.0
 62
     5
 63
     7
 74
     1
 91
       10
 64
     7
 65
   257
 75
     2
175
     1
 42
1.0
 92
        8
 66
   257
 43
1.0
 76
     1
 77
     6
 78
     2
 67
     7
 79
     3
170
     0
171
     0
290
     0
174
     0
 93
        5
 44
0.0
173
     0
291
     0
 45
0.0
1001
ACAD
1000
AcDbSavedByObjectVersion
1070
     0
  0
VISUALSTYLE
  5
7802
102
{ACAD_XDICTIONARY
360
80DC
102
}
102
{ACAD_REACTORS
330
77F1
102
}
330
77F1
100
AcDbVisualStyle
  2
Shades of Gray
 70
    23
 71
     2
 72
     2
 73
     3
 90
        0
 40
-0.6
 41
-30.0
 62
     5
 63
     7
 74
     2
 91
        2
 64
     7
 65
     7
 75
     1
175
     1
 42
40.0
 92
        8
 66
     7
 43
1.0
 76
     1
 77
     6
 78
     2
 67
     7
 79
     3
170
     0
171
     0
290
     0
174
     0
 93
        1
 44
0.0
173
     0
291
     0
 45
0.0
1001
ACAD
1000
AcDbSavedByObjectVersion
1070
     0
  0
VISUALSTYLE
  5
7803
102
{ACAD_XDICTIONARY
360
80DE
102
}
102
{ACAD_REACTORS
330
77F1
102
}
330
77F1
100
AcDbVisualStyle
  2
Sketchy
 70
    24
 71
     1
 72
     2
 73
     2
 90
        0
 40
-0.6
 41
-30.0
 62
     5
 63
     7
 74
     2
 91
        2
 64
     7
 65
     7
 75
     1
175
     1
 42
40.0
 92
       11
 66
     7
 43
1.0
 76
     1
 77
     6
 78
     2
 67
     7
 79
     6
170
     0
171
     0
290
     0
174
     0
 93
        1
 44
0.0
173
     0
291
     0
 45
0.0
1001
ACAD
1000
AcDbSavedByObjectVersion
1070
     0
  0
VISUALSTYLE
  5
77FE
102
{ACAD_XDICTIONARY
360
80D4
102
}
102
{ACAD_REACTORS
330
77F1
102
}
330
77F1
100
AcDbVisualStyle
  2
Thicken
 70
    13
 71
     2
 72
     2
 73
     0
 90
        0
 40
-0.6
 41
-30.0
 62
     5
 63
     7
 74
     1
 91
        4
 64
     7
 65
   257
 75
     1
175
     1
 42
1.0
 92
       12
 66
     7
 43
1.0
 76
     1
 77
     6
 78
     2
 67
     7
 79
     5
170
     0
171
     0
290
     0
174
     0
 93
        1
 44
0.0
173
     0
291
     1
 45
0.0
1001
ACAD
1000
AcDbSavedByObjectVersion
1070
     0
  0
VISUALSTYLE
  5
77F8
102
{ACAD_XDICTIONARY
360
80C8
102
}
102
{ACAD_REACTORS
330
77F1
102
}
330
77F1
100
AcDbVisualStyle
  2
Wireframe
 70
     5
 71
     0
 72
     2
 73
     0
 90
        0
 40
-0.6
 41
-30.0
 62
     5
 63
     7
 74
     1
 91
        4
 64
     7
 65
   257
 75
     1
175
     1
 42
1.0
 92
        0
 66
   257
 43
1.0
 76
     1
 77
     6
 78
     2
 67
     7
 79
     3
170
     0
171
     0
290
     0
174
     0
 93
        1
 44
0.0
173
     0
291
     0
 45
0.0
1001
ACAD
1000
AcDbSavedByObjectVersion
1070
     0
  0
VISUALSTYLE
  5
7804
102
{ACAD_XDICTIONARY
360
80E0
102
}
102
{ACAD_REACTORS
330
77F1
102
}
330
77F1
100
AcDbVisualStyle
  2
X-Ray
 70
    25
 71
     2
 72
     2
 73
     1
 90
        1
 40
0.5
 41
-30.0
 62
     5
 63
     7
 74
     1
 91
        0
 64
     7
 65
   257
 75
     1
175
     1
 42
1.0
 92
        8
 66
     7
 43
1.0
 76
     1
 77
     6
 78
     2
 67
     7
 79
     3
170
     0
171
     0
290
     0
174
     0
 93
       13
 44
0.0
173
     0
291
     0
 45
0.0
1001
ACAD
1000
AcDbSavedByObjectVersion
1070
     0
  0
DICTIONARYVAR
  5
7899
102
{ACAD_REACTORS
330
77C7
102
}
330
77C7
100
DictionaryVariables
280
     0
  1
1:1
  0
DICTIONARYVAR
  5
7898
102
{ACAD_REACTORS
330
77C7
102
}
330
77C7
100
DictionaryVariables
280
     0
  1
STANDARD
  0
DICTIONARYVAR
  5
77D1
102
{ACAD_REACTORS
330
77C7
102
}
330
77C7
100
DictionaryVariables
280
     0
  1
STANDARD
  0
DICTIONARYVAR
  5
77C8
102
{ACAD_REACTORS
330
77C7
102
}
330
77C7
100
DictionaryVariables
280
     0
  1
1
  0
DICTIONARYVAR
  5
789B
102
{ACAD_REACTORS
330
77C7
102
}
330
77C7
100
DictionaryVariables
280
     0
  1
0
  0
DICTIONARYVAR
  5
80A0
102
{ACAD_REACTORS
330
77C7
102
}
330
77C7
100
DictionaryVariables
280
     0
  1
1
  0
DICTIONARYVAR
  5
80A1
102
{ACAD_REACTORS
330
77C7
102
}
330
77C7
100
DictionaryVariables
280
     0
  1
15
  0
DICTIONARYVAR
  5
809F
102
{ACAD_REACTORS
330
77C7
102
}
330
77C7
100
DictionaryVariables
280
     0
  1
0
  0
DICTIONARYVAR
  5
809E
102
{ACAD_REACTORS
330
77C7
102
}
330
77C7
100
DictionaryVariables
280
     0
  1
0
  0
DICTIONARYVAR
  5
77C9
102
{ACAD_REACTORS
330
77C7
102
}
330
77C7
100
DictionaryVariables
280
     0
  1

  0
DICTIONARYVAR
  5
789A
102
{ACAD_REACTORS
330
77C7
102
}
330
77C7
100
DictionaryVariables
280
     0
  1
127
  0
DICTIONARYVAR
  5
80AC
102
{ACAD_REACTORS
330
77C7
102
}
330
77C7
100
DictionaryVariables
280
     0
  1
2
  0
DICTIONARY
  5
80B6
330
13
100
AcDbDictionary
280
     1
281
     1
  3
ACAD_XREC_ROUNDTRIP
360
80B7
  0
DICTIONARY
  5
80B4
330
C
100
AcDbDictionary
280
     1
281
     1
  3
ACAD_XREC_ROUNDTRIP
360
80B5
  0
DICTIONARY
  5
77E2
330
77E1
100
AcDbDictionary
280
     1
281
     1
  3
ACAD_XREC_ROUNDTRIP
360
80BA
  3
BUMPTILE
360
77E4
  3
DIFFUSETILE
360
77E3
  3
OPACITYTILE
360
77E7
  3
REFLECTIONTILE
360
77E6
  3
REFRACTIONTILE
360
77E8
  3
SPECULARTILE
360
77E5
  0
DICTIONARY
  5
77DA
330
77D9
100
AcDbDictionary
280
     1
281
     1
  3
ACAD_XREC_ROUNDTRIP
360
80B9
  3
BUMPTILE
360
77DC
  3
DIFFUSETILE
360
77DB
  3
OPACITYTILE
360
77DF
  3
REFLECTIONTILE
360
77DE
  3
REFRACTIONTILE
360
77E0
  3
SPECULARTILE
360
77DD
  0
DICTIONARY
  5
77EA
330
77E9
100
AcDbDictionary
280
     1
281
     1
  3
ACAD_XREC_ROUNDTRIP
360
80BB
  3
BUMPTILE
360
77EC
  3
DIFFUSETILE
360
77EB
  3
OPACITYTILE
360
77EF
  3
REFLECTIONTILE
360
77EE
  3
REFRACTIONTILE
360
77F0
  3
SPECULARTILE
360
77ED
  0
DICTIONARY
  5
7859
330
77CC
100
AcDbDictionary
280
     1
281
     1
  3
ACAD_ROUNDTRIP_2008_TABLESTYLE_CELLSTYLEMAP
360
80AD
  3
ACAD_XREC_ROUNDTRIP
360
80B8
  0
DICTIONARY
  5
80C6
330
77F7
100
AcDbDictionary
280
     1
281
     1
  3
ACAD_XREC_ROUNDTRIP
360
80C7
  0
DICTIONARY
  5
80EC
330
803F
100
AcDbDictionary
280
     1
281
     1
  3
ACAD_XREC_ROUNDTRIP
360
80ED
  0
DICTIONARY
  5
80EE
330
8040
100
AcDbDictionary
280
     1
281
     1
  3
ACAD_XREC_ROUNDTRIP
360
80EF
  0
DICTIONARY
  5
80C4
330
77F6
100
AcDbDictionary
280
     1
281
     1
  3
ACAD_XREC_ROUNDTRIP
360
80C5
  0
DICTIONARY
  5
80D2
330
77FD
100
AcDbDictionary
280
     1
281
     1
  3
ACAD_XREC_ROUNDTRIP
360
80D3
  0
DICTIONARY
  5
80DA
330
7801
100
AcDbDictionary
280
     1
281
     1
  3
ACAD_XREC_ROUNDTRIP
360
80DB
  0
DICTIONARY
  5
80CC
330
77FA
100
AcDbDictionary
280
     1
281
     1
  3
ACAD_XREC_ROUNDTRIP
360
80CD
  0
DICTIONARY
  5
80D0
330
77FC
100
AcDbDictionary
280
     1
281
     1
  3
ACAD_XREC_ROUNDTRIP
360
80D1
  0
DICTIONARY
  5
80EA
330
7809
100
AcDbDictionary
280
     1
281
     1
  3
ACAD_XREC_ROUNDTRIP
360
80EB
  0
DICTIONARY
  5
80D8
330
7800
100
AcDbDictionary
280
     1
281
     1
  3
ACAD_XREC_ROUNDTRIP
360
80D9
  0
DICTIONARY
  5
80BC
330
77F2
100
AcDbDictionary
280
     1
281
     1
  3
ACAD_XREC_ROUNDTRIP
360
80BD
  0
DICTIONARY
  5
80BE
330
77F3
100
AcDbDictionary
280
     1
281
     1
  3
ACAD_XREC_ROUNDTRIP
360
80BF
  0
DICTIONARY
  5
80C0
330
77F4
100
AcDbDictionary
280
     1
281
     1
  3
ACAD_XREC_ROUNDTRIP
360
80C1
  0
DICTIONARY
  5
80C2
330
77F5
100
AcDbDictionary
280
     1
281
     1
  3
ACAD_XREC_ROUNDTRIP
360
80C3
  0
DICTIONARY
  5
80CA
330
77F9
100
AcDbDictionary
280
     1
281
     1
  3
ACAD_XREC_ROUNDTRIP
360
80CB
  0
DICTIONARY
  5
80E6
330
7807
100
AcDbDictionary
280
     1
281
     1
  3
ACAD_XREC_ROUNDTRIP
360
80E7
  0
DICTIONARY
  5
80D6
330
77FF
100
AcDbDictionary
280
     1
281
     1
  3
ACAD_XREC_ROUNDTRIP
360
80D7
  0
DICTIONARY
  5
80E8
330
7808
100
AcDbDictionary
280
     1
281
     1
  3
ACAD_XREC_ROUNDTRIP
360
80E9
  0
DICTIONARY
  5
80CE
330
77FB
100
AcDbDictionary
280
     1
281
     1
  3
ACAD_XREC_ROUNDTRIP
360
80CF
  0
DICTIONARY
  5
80E4
330
7806
100
AcDbDictionary
280
     1
281
     1
  3
ACAD_XREC_ROUNDTRIP
360
80E5
  0
DICTIONARY
  5
80E2
330
7805
100
AcDbDictionary
280
     1
281
     1
  3
ACAD_XREC_ROUNDTRIP
360
80E3
  0
DICTIONARY
  5
80DC
330
7802
100
AcDbDictionary
280
     1
281
     1
  3
ACAD_XREC_ROUNDTRIP
360
80DD
  0
DICTIONARY
  5
80DE
330
7803
100
AcDbDictionary
280
     1
281
     1
  3
ACAD_XREC_ROUNDTRIP
360
80DF
  0
DICTIONARY
  5
80D4
330
77FE
100
AcDbDictionary
280
     1
281
     1
  3
ACAD_XREC_ROUNDTRIP
360
80D5
  0
DICTIONARY
  5
80C8
330
77F8
100
AcDbDictionary
280
     1
281
     1
  3
ACAD_XREC_ROUNDTRIP
360
80C9
  0
DICTIONARY
  5
80E0
330
7804
100
AcDbDictionary
280
     1
281
     1
  3
ACAD_XREC_ROUNDTRIP
360
80E1
  0
XRECORD
  5
80B7
102
{ACAD_REACTORS
330
80B6
102
}
330
80B6
100
AcDbXrecord
280
     1
102
SHADEPLOT
 70
     0
102
SHADEPLOTRESLEVEL
 70
     2
102
SHADEPLOTCUSTOMDPI
 70
   300
  0
XRECORD
  5
80B5
102
{ACAD_REACTORS
330
80B4
102
}
330
80B4
100
AcDbXrecord
280
     1
102
SHADEPLOT
 70
     0
102
SHADEPLOTRESLEVEL
 70
     2
102
SHADEPLOTCUSTOMDPI
 70
   300
  0
XRECORD
  5
80BA
102
{ACAD_REACTORS
330
77E2
102
}
330
77E2
100
AcDbXrecord
280
     1
102
MATERIAL
148
0.0
149
0.0
149
0.0
 93
        0
 94
      127
282
     0
 72
     0
 77
     0
171
     0
175
     0
179
     0
273
     0
  0
XRECORD
  5
77E4
102
{ACAD_REACTORS
330
77E2
102
}
330
77E2
100
AcDbXrecord
280
     1
270
     1
271
     1
  0
XRECORD
  5
77E3
102
{ACAD_REACTORS
330
77E2
102
}
330
77E2
100
AcDbXrecord
280
     1
270
     1
271
     1
  0
XRECORD
  5
77E7
102
{ACAD_REACTORS
330
77E2
102
}
330
77E2
100
AcDbXrecord
280
     1
270
     1
271
     1
  0
XRECORD
  5
77E6
102
{ACAD_REACTORS
330
77E2
102
}
330
77E2
100
AcDbXrecord
280
     1
270
     1
271
     1
  0
XRECORD
  5
77E8
102
{ACAD_REACTORS
330
77E2
102
}
330
77E2
100
AcDbXrecord
280
     1
270
     1
271
     1
  0
XRECORD
  5
77E5
102
{ACAD_REACTORS
330
77E2
102
}
330
77E2
100
AcDbXrecord
280
     1
270
     1
271
     1
  0
XRECORD
  5
80B9
102
{ACAD_REACTORS
330
77DA
102
}
330
77DA
100
AcDbXrecord
280
     1
102
MATERIAL
148
0.0
149
0.0
149
0.0
 93
        0
 94
      127
282
     0
 72
     0
 77
     0
171
     0
175
     0
179
     0
273
     0
  0
XRECORD
  5
77DC
102
{ACAD_REACTORS
330
77DA
102
}
330
77DA
100
AcDbXrecord
280
     1
270
     1
271
     1
  0
XRECORD
  5
77DB
102
{ACAD_REACTORS
330
77DA
102
}
330
77DA
100
AcDbXrecord
280
     1
270
     1
271
     1
  0
XRECORD
  5
77DF
102
{ACAD_REACTORS
330
77DA
102
}
330
77DA
100
AcDbXrecord
280
     1
270
     1
271
     1
  0
XRECORD
  5
77DE
102
{ACAD_REACTORS
330
77DA
102
}
330
77DA
100
AcDbXrecord
280
     1
270
     1
271
     1
  0
XRECORD
  5
77E0
102
{ACAD_REACTORS
330
77DA
102
}
330
77DA
100
AcDbXrecord
280
     1
270
     1
271
     1
  0
XRECORD
  5
77DD
102
{ACAD_REACTORS
330
77DA
102
}
330
77DA
100
AcDbXrecord
280
     1
270
     1
271
     1
  0
XRECORD
  5
80BB
102
{ACAD_REACTORS
330
77EA
102
}
330
77EA
100
AcDbXrecord
280
     1
102
MATERIAL
148
0.0
149
0.0
149
0.0
 93
        0
 94
      127
282
     0
 72
     0
 77
     0
171
     0
175
     0
179
     0
273
     0
  0
XRECORD
  5
77EC
102
{ACAD_REACTORS
330
77EA
102
}
330
77EA
100
AcDbXrecord
280
     1
270
     1
271
     1
  0
XRECORD
  5
77EB
102
{ACAD_REACTORS
330
77EA
102
}
330
77EA
100
AcDbXrecord
280
     1
270
     1
271
     1
  0
XRECORD
  5
77EF
102
{ACAD_REACTORS
330
77EA
102
}
330
77EA
100
AcDbXrecord
280
     1
270
     1
271
     1
  0
XRECORD
  5
77EE
102
{ACAD_REACTORS
330
77EA
102
}
330
77EA
100
AcDbXrecord
280
     1
270
     1
271
     1
  0
XRECORD
  5
77F0
102
{ACAD_REACTORS
330
77EA
102
}
330
77EA
100
AcDbXrecord
280
     1
270
     1
271
     1
  0
XRECORD
  5
77ED
102
{ACAD_REACTORS
330
77EA
102
}
330
77EA
100
AcDbXrecord
280
     1
270
     1
271
     1
  0
CELLSTYLEMAP
  5
80AD
102
{ACAD_REACTORS
330
7859
102
}
330
7859
100
AcDbCellStyleMap
 90
        3
300
CELLSTYLE
  1
TABLEFORMAT_BEGIN
 90
        5
170
     1
 91
        0
 92
    32768
 62
   257
 93
        1
300
CONTENTFORMAT
  1
CONTENTFORMAT_BEGIN
 90
        0
 91
        0
 92
        4
 93
        0
300

 40
0.0
140
1.0
 94
        5
 62
     0
340
35
144
0.25
309
CONTENTFORMAT_END
171
     0
 94
        6
 95
        1
302
GRIDFORMAT
  1
GRIDFORMAT_BEGIN
 90
        0
 91
        1
 62
     0
 92
       -2
340
0
 93
        0
 40
0.045
309
GRIDFORMAT_END
 95
        2
302
GRIDFORMAT
  1
GRIDFORMAT_BEGIN
 90
        0
 91
        1
 62
     0
 92
       -2
340
0
 93
        0
 40
0.045
309
GRIDFORMAT_END
 95
        4
302
GRIDFORMAT
  1
GRIDFORMAT_BEGIN
 90
        0
 91
        1
 62
     0
 92
       -2
340
0
 93
        0
 40
0.045
309
GRIDFORMAT_END
 95
        8
302
GRIDFORMAT
  1
GRIDFORMAT_BEGIN
 90
        0
 91
        1
 62
     0
 92
       -2
340
0
 93
        0
 40
0.045
309
GRIDFORMAT_END
 95
       16
302
GRIDFORMAT
  1
GRIDFORMAT_BEGIN
 90
        0
 91
        1
 62
     0
 92
       -2
340
0
 93
        0
 40
0.045
309
GRIDFORMAT_END
 95
       32
302
GRIDFORMAT
  1
GRIDFORMAT_BEGIN
 90
        0
 91
        1
 62
     0
 92
       -2
340
0
 93
        0
 40
0.045
309
GRIDFORMAT_END
309
TABLEFORMAT_END
  1
CELLSTYLE_BEGIN
 90
        1
 91
        1
300
_TITLE
309
CELLSTYLE_END
300
CELLSTYLE
  1
TABLEFORMAT_BEGIN
 90
        5
170
     1
 91
        0
 92
        0
 62
   257
 93
        1
300
CONTENTFORMAT
  1
CONTENTFORMAT_BEGIN
 90
        0
 91
        0
 92
        4
 93
        0
300

 40
0.0
140
1.0
 94
        5
 62
     0
340
35
144
0.18
309
CONTENTFORMAT_END
171
     0
 94
        6
 95
        1
302
GRIDFORMAT
  1
GRIDFORMAT_BEGIN
 90
        0
 91
        1
 62
     0
 92
       -2
340
0
 93
        0
 40
0.045
309
GRIDFORMAT_END
 95
        2
302
GRIDFORMAT
  1
GRIDFORMAT_BEGIN
 90
        0
 91
        1
 62
     0
 92
       -2
340
0
 93
        0
 40
0.045
309
GRIDFORMAT_END
 95
        4
302
GRIDFORMAT
  1
GRIDFORMAT_BEGIN
 90
        0
 91
        1
 62
     0
 92
       -2
340
0
 93
        0
 40
0.045
309
GRIDFORMAT_END
 95
        8
302
GRIDFORMAT
  1
GRIDFORMAT_BEGIN
 90
        0
 91
        1
 62
     0
 92
       -2
340
0
 93
        0
 40
0.045
309
GRIDFORMAT_END
 95
       16
302
GRIDFORMAT
  1
GRIDFORMAT_BEGIN
 90
        0
 91
        1
 62
     0
 92
       -2
340
0
 93
        0
 40
0.045
309
GRIDFORMAT_END
 95
       32
302
GRIDFORMAT
  1
GRIDFORMAT_BEGIN
 90
        0
 91
        1
 62
     0
 92
       -2
340
0
 93
        0
 40
0.045
309
GRIDFORMAT_END
309
TABLEFORMAT_END
  1
CELLSTYLE_BEGIN
 90
        2
 91
        1
300
_HEADER
309
CELLSTYLE_END
300
CELLSTYLE
  1
TABLEFORMAT_BEGIN
 90
        5
170
     1
 91
        0
 92
        0
 62
   257
 93
        1
300
CONTENTFORMAT
  1
CONTENTFORMAT_BEGIN
 90
        0
 91
        0
 92
        4
 93
        0
300

 40
0.0
140
1.0
 94
        2
 62
     0
340
35
144
0.18
309
CONTENTFORMAT_END
171
     0
 94
        6
 95
        1
302
GRIDFORMAT
  1
GRIDFORMAT_BEGIN
 90
        0
 91
        1
 62
     0
 92
       -2
340
0
 93
        0
 40
0.045
309
GRIDFORMAT_END
 95
        2
302
GRIDFORMAT
  1
GRIDFORMAT_BEGIN
 90
        0
 91
        1
 62
     0
 92
       -2
340
0
 93
        0
 40
0.045
309
GRIDFORMAT_END
 95
        4
302
GRIDFORMAT
  1
GRIDFORMAT_BEGIN
 90
        0
 91
        1
 62
     0
 92
       -2
340
0
 93
        0
 40
0.045
309
GRIDFORMAT_END
 95
        8
302
GRIDFORMAT
  1
GRIDFORMAT_BEGIN
 90
        0
 91
        1
 62
     0
 92
       -2
340
0
 93
        0
 40
0.045
309
GRIDFORMAT_END
 95
       16
302
GRIDFORMAT
  1
GRIDFORMAT_BEGIN
 90
        0
 91
        1
 62
     0
 92
       -2
340
0
 93
        0
 40
0.045
309
GRIDFORMAT_END
 95
       32
302
GRIDFORMAT
  1
GRIDFORMAT_BEGIN
 90
        0
 91
        1
 62
     0
 92
       -2
340
0
 93
        0
 40
0.045
309
GRIDFORMAT_END
309
TABLEFORMAT_END
  1
CELLSTYLE_BEGIN
 90
        3
 91
        2
300
_DATA
309
CELLSTYLE_END
  0
XRECORD
  5
80B8
102
{ACAD_REACTORS
330
7859
102
}
330
7859
100
AcDbXrecord
280
     1
102
ACAD_ROUNDTRIP_PRE2007_TABLESTYLE
 90
        4
 91
        0
  1

 92
        4
 93
        0
  2

 94
        4
 95
        0
  3

  0
XRECORD
  5
80C7
102
{ACAD_REACTORS
330
80C6
102
}
330
80C6
100
AcDbXrecord
280
     1
102
RTVSPropertyOp0
 70
     1
102
RTVSPropertyOp1
 70
     1
102
RTVSPropertyOp2
 70
     1
102
RTVSPropertyOp3
 70
     1
102
RTVSPropertyOp4
 70
     1
102
RTVSPropertyOp5
 70
     1
102
RTVSPropertyOp6
 70
     1
102
RTVSPropertyOp7
 70
     1
102
RTVSPropertyOp8
 70
     1
102
RTVSPropertyOp9
 70
     1
102
RTVSPropertyOp10
 70
     1
102
RTVSPropertyOp11
 70
     1
102
RTVSPropertyOp12
 70
     1
102
RTVSPropertyOp13
 70
     1
102
RTVSPropertyOp14
 70
     1
102
RTVSPropertyOp15
 70
     1
102
RTVSPropertyOp16
 70
     1
102
RTVSPropertyOp17
 70
     1
102
RTVSPropertyOp18
 70
     1
102
RTVSPropertyOp19
 70
     1
102
RTVSPropertyOp20
 70
     1
102
RTVSPropertyOp21
 70
     1
102
RTVSPropertyOp22
 70
     1
102
RTVSPropertyOp23
 70
     1
102
RTVSPropertyOp24
 70
     1
102
RTVSPropertyOp25
 70
     1
102
RTVSPropertyOp26
 70
     1
102
RTVSPropertyOp27
 70
     1
102
RTVSPropertyOp28
 70
     1
102
RTVSPropertyOp29
 70
     1
102
RTVSPropertyOp30
 70
     1
102
RTVSPropertyOp31
 70
     1
102
RTVSPropertyOp32
 70
     1
  0
XRECORD
  5
80ED
102
{ACAD_REACTORS
330
80EC
102
}
330
80EC
100
AcDbXrecord
280
     1
102
RTVSPropertyOp0
 70
     1
102
RTVSPropertyOp1
 70
     1
102
RTVSPropertyOp2
 70
     1
102
RTVSPropertyOp3
 70
     1
102
RTVSPropertyOp4
 70
     1
102
RTVSPropertyOp5
 70
     1
102
RTVSPropertyOp6
 70
     1
102
RTVSPropertyOp7
 70
     1
102
RTVSPropertyOp8
 70
     1
102
RTVSPropertyOp9
 70
     1
102
RTVSPropertyOp10
 70
     1
102
RTVSPropertyOp11
 70
     1
102
RTVSPropertyOp12
 70
     1
102
RTVSPropertyOp13
 70
     1
102
RTVSPropertyOp14
 70
     1
102
RTVSPropertyOp15
 70
     1
102
RTVSPropertyOp16
 70
     1
102
RTVSPropertyOp17
 70
     1
102
RTVSPropertyOp18
 70
     1
102
RTVSPropertyOp19
 70
     1
102
RTVSPropertyOp20
 70
     1
102
RTVSPropertyOp21
 70
     1
102
RTVSPropertyOp22
 70
     1
102
RTVSPropertyOp23
 70
     1
102
RTVSPropertyOp24
 70
     1
102
RTVSPropertyOp25
 70
     1
102
RTVSPropertyOp26
 70
     1
102
RTVSPropertyOp27
 70
     1
102
RTVSPropertyOp28
 70
     1
102
RTVSPropertyOp29
 70
     1
102
RTVSPropertyOp30
 70
     1
102
RTVSPropertyOp31
 70
     1
102
RTVSPropertyOp32
 70
     1
  0
XRECORD
  5
80EF
102
{ACAD_REACTORS
330
80EE
102
}
330
80EE
100
AcDbXrecord
280
     1
102
RTVSPropertyOp0
 70
     1
102
RTVSPropertyOp1
 70
     1
102
RTVSPropertyOp2
 70
     1
102
RTVSPropertyOp3
 70
     1
102
RTVSPropertyOp4
 70
     1
102
RTVSPropertyOp5
 70
     1
102
RTVSPropertyOp6
 70
     1
102
RTVSPropertyOp7
 70
     1
102
RTVSPropertyOp8
 70
     1
102
RTVSPropertyOp9
 70
     1
102
RTVSPropertyOp10
 70
     1
102
RTVSPropertyOp11
 70
     1
102
RTVSPropertyOp12
 70
     1
102
RTVSPropertyOp13
 70
     1
102
RTVSPropertyOp14
 70
     1
102
RTVSPropertyOp15
 70
     1
102
RTVSPropertyOp16
 70
     1
102
RTVSPropertyOp17
 70
     1
102
RTVSPropertyOp18
 70
     1
102
RTVSPropertyOp19
 70
     1
102
RTVSPropertyOp20
 70
     1
102
RTVSPropertyOp21
 70
     1
102
RTVSPropertyOp22
 70
     1
102
RTVSPropertyOp23
 70
     1
102
RTVSPropertyOp24
 70
     1
102
RTVSPropertyOp25
 70
     1
102
RTVSPropertyOp26
 70
     1
102
RTVSPropertyOp27
 70
     1
102
RTVSPropertyOp28
 70
     1
102
RTVSPropertyOp29
 70
     1
102
RTVSPropertyOp30
 70
     1
102
RTVSPropertyOp31
 70
     1
102
RTVSPropertyOp32
 70
     1
  0
XRECORD
  5
80C5
102
{ACAD_REACTORS
330
80C4
102
}
330
80C4
100
AcDbXrecord
280
     1
102
RTVSPropertyOp0
 70
     1
102
RTVSPropertyOp1
 70
     1
102
RTVSPropertyOp2
 70
     1
102
RTVSPropertyOp3
 70
     1
102
RTVSPropertyOp4
 70
     1
102
RTVSPropertyOp5
 70
     1
102
RTVSPropertyOp6
 70
     1
102
RTVSPropertyOp7
 70
     1
102
RTVSPropertyOp8
 70
     1
102
RTVSPropertyOp9
 70
     1
102
RTVSPropertyOp10
 70
     1
102
RTVSPropertyOp11
 70
     1
102
RTVSPropertyOp12
 70
     1
102
RTVSPropertyOp13
 70
     1
102
RTVSPropertyOp14
 70
     1
102
RTVSPropertyOp15
 70
     1
102
RTVSPropertyOp16
 70
     1
102
RTVSPropertyOp17
 70
     1
102
RTVSPropertyOp18
 70
     1
102
RTVSPropertyOp19
 70
     1
102
RTVSPropertyOp20
 70
     1
102
RTVSPropertyOp21
 70
     1
102
RTVSPropertyOp22
 70
     1
102
RTVSPropertyOp23
 70
     1
102
RTVSPropertyOp24
 70
     1
102
RTVSPropertyOp25
 70
     1
102
RTVSPropertyOp26
 70
     1
102
RTVSPropertyOp27
 70
     1
102
RTVSPropertyOp28
 70
     1
102
RTVSPropertyOp29
 70
     1
102
RTVSPropertyOp30
 70
     1
102
RTVSPropertyOp31
 70
     1
102
RTVSPropertyOp32
 70
     1
  0
XRECORD
  5
80D3
102
{ACAD_REACTORS
330
80D2
102
}
330
80D2
100
AcDbXrecord
280
     1
102
RTVSPropertyOp0
 70
     1
102
RTVSPropertyOp1
 70
     1
102
RTVSPropertyOp2
 70
     1
102
RTVSPropertyOp3
 70
     1
102
RTVSPropertyOp4
 70
     1
102
RTVSPropertyOp5
 70
     1
102
RTVSPropertyOp6
 70
     1
102
RTVSPropertyOp7
 70
     1
102
RTVSPropertyOp8
 70
     1
102
RTVSPropertyOp9
 70
     1
102
RTVSPropertyOp10
 70
     1
102
RTVSPropertyOp11
 70
     1
102
RTVSPropertyOp12
 70
     1
102
RTVSPropertyOp13
 70
     1
102
RTVSPropertyOp14
 70
     1
102
RTVSPropertyOp15
 70
     1
102
RTVSPropertyOp16
 70
     1
102
RTVSPropertyOp17
 70
     1
102
RTVSPropertyOp18
 70
     1
102
RTVSPropertyOp19
 70
     1
102
RTVSPropertyOp20
 70
     1
102
RTVSPropertyOp21
 70
     1
102
RTVSPropertyOp22
 70
     1
102
RTVSPropertyOp23
 70
     1
102
RTVSPropertyOp24
 70
     1
102
RTVSPropertyOp25
 70
     1
102
RTVSPropertyOp26
 70
     1
102
RTVSPropertyOp27
 70
     1
102
RTVSPropertyOp28
 70
     1
102
RTVSPropertyOp29
 70
     1
102
RTVSPropertyOp30
 70
     1
102
RTVSPropertyOp31
 70
     1
102
RTVSPropertyOp32
 70
     1
  0
XRECORD
  5
80DB
102
{ACAD_REACTORS
330
80DA
102
}
330
80DA
100
AcDbXrecord
280
     1
102
RTVSPropertyOp0
 70
     1
102
RTVSPropertyOp1
 70
     1
102
RTVSPropertyOp2
 70
     1
102
RTVSPropertyOp3
 70
     1
102
RTVSPropertyOp4
 70
     1
102
RTVSPropertyOp5
 70
     1
102
RTVSPropertyOp6
 70
     1
102
RTVSPropertyOp7
 70
     1
102
RTVSPropertyOp8
 70
     1
102
RTVSPropertyOp9
 70
     1
102
RTVSPropertyOp10
 70
     1
102
RTVSPropertyOp11
 70
     1
102
RTVSPropertyOp12
 70
     1
102
RTVSPropertyOp13
 70
     1
102
RTVSPropertyOp14
 70
     1
102
RTVSPropertyOp15
 70
     1
102
RTVSPropertyOp16
 70
     1
102
RTVSPropertyOp17
 70
     1
102
RTVSPropertyOp18
 70
     1
102
RTVSPropertyOp19
 70
     1
102
RTVSPropertyOp20
 70
     1
102
RTVSPropertyOp21
 70
     1
102
RTVSPropertyOp22
 70
     1
102
RTVSPropertyOp23
 70
     1
102
RTVSPropertyOp24
 70
     1
102
RTVSPropertyOp25
 70
     1
102
RTVSPropertyOp26
 70
     1
102
RTVSPropertyOp27
 70
     1
102
RTVSPropertyOp28
 70
     1
102
RTVSPropertyOp29
 70
     1
102
RTVSPropertyOp30
 70
     1
102
RTVSPropertyOp31
 70
     1
102
RTVSPropertyOp32
 70
     1
  0
XRECORD
  5
80CD
102
{ACAD_REACTORS
330
80CC
102
}
330
80CC
100
AcDbXrecord
280
     1
102
RTVSPropertyOp0
 70
     1
102
RTVSPropertyOp1
 70
     1
102
RTVSPropertyOp2
 70
     1
102
RTVSPropertyOp3
 70
     1
102
RTVSPropertyOp4
 70
     1
102
RTVSPropertyOp5
 70
     1
102
RTVSPropertyOp6
 70
     1
102
RTVSPropertyOp7
 70
     1
102
RTVSPropertyOp8
 70
     1
102
RTVSPropertyOp9
 70
     1
102
RTVSPropertyOp10
 70
     1
102
RTVSPropertyOp11
 70
     1
102
RTVSPropertyOp12
 70
     1
102
RTVSPropertyOp13
 70
     1
102
RTVSPropertyOp14
 70
     1
102
RTVSPropertyOp15
 70
     1
102
RTVSPropertyOp16
 70
     1
102
RTVSPropertyOp17
 70
     1
102
RTVSPropertyOp18
 70
     1
102
RTVSPropertyOp19
 70
     1
102
RTVSPropertyOp20
 70
     1
102
RTVSPropertyOp21
 70
     1
102
RTVSPropertyOp22
 70
     1
102
RTVSPropertyOp23
 70
     1
102
RTVSPropertyOp24
 70
     1
102
RTVSPropertyOp25
 70
     1
102
RTVSPropertyOp26
 70
     1
102
RTVSPropertyOp27
 70
     1
102
RTVSPropertyOp28
 70
     1
102
RTVSPropertyOp29
 70
     1
102
RTVSPropertyOp30
 70
     1
102
RTVSPropertyOp31
 70
     1
102
RTVSPropertyOp32
 70
     1
  0
XRECORD
  5
80D1
102
{ACAD_REACTORS
330
80D0
102
}
330
80D0
100
AcDbXrecord
280
     1
102
RTVSPropertyOp0
 70
     1
102
RTVSPropertyOp1
 70
     1
102
RTVSPropertyOp2
 70
     1
102
RTVSPropertyOp3
 70
     1
102
RTVSPropertyOp4
 70
     1
102
RTVSPropertyOp5
 70
     1
102
RTVSPropertyOp6
 70
     1
102
RTVSPropertyOp7
 70
     1
102
RTVSPropertyOp8
 70
     1
102
RTVSPropertyOp9
 70
     1
102
RTVSPropertyOp10
 70
     1
102
RTVSPropertyOp11
 70
     1
102
RTVSPropertyOp12
 70
     1
102
RTVSPropertyOp13
 70
     1
102
RTVSPropertyOp14
 70
     1
102
RTVSPropertyOp15
 70
     1
102
RTVSPropertyOp16
 70
     1
102
RTVSPropertyOp17
 70
     1
102
RTVSPropertyOp18
 70
     1
102
RTVSPropertyOp19
 70
     1
102
RTVSPropertyOp20
 70
     1
102
RTVSPropertyOp21
 70
     1
102
RTVSPropertyOp22
 70
     1
102
RTVSPropertyOp23
 70
     1
102
RTVSPropertyOp24
 70
     1
102
RTVSPropertyOp25
 70
     1
102
RTVSPropertyOp26
 70
     1
102
RTVSPropertyOp27
 70
     1
102
RTVSPropertyOp28
 70
     1
102
RTVSPropertyOp29
 70
     1
102
RTVSPropertyOp30
 70
     1
102
RTVSPropertyOp31
 70
     1
102
RTVSPropertyOp32
 70
     1
  0
XRECORD
  5
80EB
102
{ACAD_REACTORS
330
80EA
102
}
330
80EA
100
AcDbXrecord
280
     1
102
RTVSPropertyOp0
 70
     0
102
RTVSPropertyOp1
 70
     0
102
RTVSPropertyOp2
 70
     0
102
RTVSPropertyOp3
 70
     0
102
RTVSPropertyOp4
 70
     0
102
RTVSPropertyOp5
 70
     0
102
RTVSPropertyOp6
 70
     0
102
RTVSPropertyOp7
 70
     0
102
RTVSPropertyOp8
 70
     0
102
RTVSPropertyOp9
 70
     0
102
RTVSPropertyOp10
 70
     0
102
RTVSPropertyOp11
 70
     0
102
RTVSPropertyOp12
 70
     0
102
RTVSPropertyOp13
 70
     0
102
RTVSPropertyOp14
 70
     2
102
RTVSPropertyOp15
 70
     0
102
RTVSPropertyOp16
 70
     0
102
RTVSPropertyOp17
 70
     0
102
RTVSPropertyOp18
 70
     0
102
RTVSPropertyOp19
 70
     0
102
RTVSPropertyOp20
 70
     0
102
RTVSPropertyOp21
 70
     0
102
RTVSPropertyOp22
 70
     0
102
RTVSPropertyOp23
 70
     0
102
RTVSPropertyOp24
 70
     0
102
RTVSPropertyOp25
 70
     0
102
RTVSPropertyOp26
 70
     0
102
RTVSPropertyOp27
 70
     0
102
RTVSPropertyOp28
 70
     1
102
RTVSPropertyOp29
 70
     1
102
RTVSPropertyOp30
 70
     1
102
RTVSPropertyOp31
 70
     1
102
RTVSPropertyOp32
 70
     1
  0
XRECORD
  5
80D9
102
{ACAD_REACTORS
330
80D8
102
}
330
80D8
100
AcDbXrecord
280
     1
102
RTVSPropertyOp0
 70
     1
102
RTVSPropertyOp1
 70
     1
102
RTVSPropertyOp2
 70
     1
102
RTVSPropertyOp3
 70
     1
102
RTVSPropertyOp4
 70
     1
102
RTVSPropertyOp5
 70
     1
102
RTVSPropertyOp6
 70
     1
102
RTVSPropertyOp7
 70
     1
102
RTVSPropertyOp8
 70
     1
102
RTVSPropertyOp9
 70
     1
102
RTVSPropertyOp10
 70
     1
102
RTVSPropertyOp11
 70
     1
102
RTVSPropertyOp12
 70
     1
102
RTVSPropertyOp13
 70
     1
102
RTVSPropertyOp14
 70
     1
102
RTVSPropertyOp15
 70
     1
102
RTVSPropertyOp16
 70
     1
102
RTVSPropertyOp17
 70
     1
102
RTVSPropertyOp18
 70
     1
102
RTVSPropertyOp19
 70
     1
102
RTVSPropertyOp20
 70
     1
102
RTVSPropertyOp21
 70
     1
102
RTVSPropertyOp22
 70
     1
102
RTVSPropertyOp23
 70
     1
102
RTVSPropertyOp24
 70
     1
102
RTVSPropertyOp25
 70
     1
102
RTVSPropertyOp26
 70
     1
102
RTVSPropertyOp27
 70
     1
102
RTVSPropertyOp28
 70
     1
102
RTVSPropertyOp29
 70
     1
102
RTVSPropertyOp30
 70
     1
102
RTVSPropertyOp31
 70
     1
102
RTVSPropertyOp32
 70
     1
  0
XRECORD
  5
80BD
102
{ACAD_REACTORS
330
80BC
102
}
330
80BC
100
AcDbXrecord
280
     1
102
RTVSPropertyOp0
 70
     1
102
RTVSPropertyOp1
 70
     1
102
RTVSPropertyOp2
 70
     1
102
RTVSPropertyOp3
 70
     1
102
RTVSPropertyOp4
 70
     1
102
RTVSPropertyOp5
 70
     1
102
RTVSPropertyOp6
 70
     1
102
RTVSPropertyOp7
 70
     1
102
RTVSPropertyOp8
 70
     1
102
RTVSPropertyOp9
 70
     1
102
RTVSPropertyOp10
 70
     1
102
RTVSPropertyOp11
 70
     1
102
RTVSPropertyOp12
 70
     1
102
RTVSPropertyOp13
 70
     1
102
RTVSPropertyOp14
 70
     1
102
RTVSPropertyOp15
 70
     1
102
RTVSPropertyOp16
 70
     1
102
RTVSPropertyOp17
 70
     1
102
RTVSPropertyOp18
 70
     1
102
RTVSPropertyOp19
 70
     1
102
RTVSPropertyOp20
 70
     1
102
RTVSPropertyOp21
 70
     1
102
RTVSPropertyOp22
 70
     1
102
RTVSPropertyOp23
 70
     1
102
RTVSPropertyOp24
 70
     1
102
RTVSPropertyOp25
 70
     1
102
RTVSPropertyOp26
 70
     1
102
RTVSPropertyOp27
 70
     1
102
RTVSPropertyOp28
 70
     1
102
RTVSPropertyOp29
 70
     1
102
RTVSPropertyOp30
 70
     1
102
RTVSPropertyOp31
 70
     1
102
RTVSPropertyOp32
 70
     1
  0
XRECORD
  5
80BF
102
{ACAD_REACTORS
330
80BE
102
}
330
80BE
100
AcDbXrecord
280
     1
102
RTVSPropertyOp0
 70
     1
102
RTVSPropertyOp1
 70
     1
102
RTVSPropertyOp2
 70
     1
102
RTVSPropertyOp3
 70
     1
102
RTVSPropertyOp4
 70
     1
102
RTVSPropertyOp5
 70
     1
102
RTVSPropertyOp6
 70
     1
102
RTVSPropertyOp7
 70
     1
102
RTVSPropertyOp8
 70
     1
102
RTVSPropertyOp9
 70
     1
102
RTVSPropertyOp10
 70
     1
102
RTVSPropertyOp11
 70
     1
102
RTVSPropertyOp12
 70
     1
102
RTVSPropertyOp13
 70
     1
102
RTVSPropertyOp14
 70
     1
102
RTVSPropertyOp15
 70
     1
102
RTVSPropertyOp16
 70
     1
102
RTVSPropertyOp17
 70
     1
102
RTVSPropertyOp18
 70
     1
102
RTVSPropertyOp19
 70
     1
102
RTVSPropertyOp20
 70
     1
102
RTVSPropertyOp21
 70
     1
102
RTVSPropertyOp22
 70
     1
102
RTVSPropertyOp23
 70
     1
102
RTVSPropertyOp24
 70
     1
102
RTVSPropertyOp25
 70
     1
102
RTVSPropertyOp26
 70
     1
102
RTVSPropertyOp27
 70
     1
102
RTVSPropertyOp28
 70
     1
102
RTVSPropertyOp29
 70
     1
102
RTVSPropertyOp30
 70
     1
102
RTVSPropertyOp31
 70
     1
102
RTVSPropertyOp32
 70
     1
  0
XRECORD
  5
80C1
102
{ACAD_REACTORS
330
80C0
102
}
330
80C0
100
AcDbXrecord
280
     1
102
RTVSPropertyOp0
 70
     1
102
RTVSPropertyOp1
 70
     1
102
RTVSPropertyOp2
 70
     1
102
RTVSPropertyOp3
 70
     1
102
RTVSPropertyOp4
 70
     1
102
RTVSPropertyOp5
 70
     1
102
RTVSPropertyOp6
 70
     1
102
RTVSPropertyOp7
 70
     1
102
RTVSPropertyOp8
 70
     1
102
RTVSPropertyOp9
 70
     1
102
RTVSPropertyOp10
 70
     1
102
RTVSPropertyOp11
 70
     1
102
RTVSPropertyOp12
 70
     1
102
RTVSPropertyOp13
 70
     1
102
RTVSPropertyOp14
 70
     1
102
RTVSPropertyOp15
 70
     1
102
RTVSPropertyOp16
 70
     1
102
RTVSPropertyOp17
 70
     1
102
RTVSPropertyOp18
 70
     1
102
RTVSPropertyOp19
 70
     1
102
RTVSPropertyOp20
 70
     1
102
RTVSPropertyOp21
 70
     1
102
RTVSPropertyOp22
 70
     1
102
RTVSPropertyOp23
 70
     1
102
RTVSPropertyOp24
 70
     1
102
RTVSPropertyOp25
 70
     1
102
RTVSPropertyOp26
 70
     1
102
RTVSPropertyOp27
 70
     1
102
RTVSPropertyOp28
 70
     1
102
RTVSPropertyOp29
 70
     1
102
RTVSPropertyOp30
 70
     1
102
RTVSPropertyOp31
 70
     1
102
RTVSPropertyOp32
 70
     1
  0
XRECORD
  5
80C3
102
{ACAD_REACTORS
330
80C2
102
}
330
80C2
100
AcDbXrecord
280
     1
102
RTVSPropertyOp0
 70
     1
102
RTVSPropertyOp1
 70
     1
102
RTVSPropertyOp2
 70
     1
102
RTVSPropertyOp3
 70
     1
102
RTVSPropertyOp4
 70
     1
102
RTVSPropertyOp5
 70
     1
102
RTVSPropertyOp6
 70
     1
102
RTVSPropertyOp7
 70
     1
102
RTVSPropertyOp8
 70
     1
102
RTVSPropertyOp9
 70
     1
102
RTVSPropertyOp10
 70
     1
102
RTVSPropertyOp11
 70
     1
102
RTVSPropertyOp12
 70
     1
102
RTVSPropertyOp13
 70
     1
102
RTVSPropertyOp14
 70
     1
102
RTVSPropertyOp15
 70
     1
102
RTVSPropertyOp16
 70
     1
102
RTVSPropertyOp17
 70
     1
102
RTVSPropertyOp18
 70
     1
102
RTVSPropertyOp19
 70
     1
102
RTVSPropertyOp20
 70
     1
102
RTVSPropertyOp21
 70
     1
102
RTVSPropertyOp22
 70
     1
102
RTVSPropertyOp23
 70
     1
102
RTVSPropertyOp24
 70
     1
102
RTVSPropertyOp25
 70
     1
102
RTVSPropertyOp26
 70
     1
102
RTVSPropertyOp27
 70
     1
102
RTVSPropertyOp28
 70
     1
102
RTVSPropertyOp29
 70
     1
102
RTVSPropertyOp30
 70
     1
102
RTVSPropertyOp31
 70
     1
102
RTVSPropertyOp32
 70
     1
  0
XRECORD
  5
80CB
102
{ACAD_REACTORS
330
80CA
102
}
330
80CA
100
AcDbXrecord
280
     1
102
RTVSPropertyOp0
 70
     1
102
RTVSPropertyOp1
 70
     1
102
RTVSPropertyOp2
 70
     1
102
RTVSPropertyOp3
 70
     1
102
RTVSPropertyOp4
 70
     1
102
RTVSPropertyOp5
 70
     1
102
RTVSPropertyOp6
 70
     1
102
RTVSPropertyOp7
 70
     1
102
RTVSPropertyOp8
 70
     1
102
RTVSPropertyOp9
 70
     1
102
RTVSPropertyOp10
 70
     1
102
RTVSPropertyOp11
 70
     1
102
RTVSPropertyOp12
 70
     1
102
RTVSPropertyOp13
 70
     1
102
RTVSPropertyOp14
 70
     1
102
RTVSPropertyOp15
 70
     1
102
RTVSPropertyOp16
 70
     1
102
RTVSPropertyOp17
 70
     1
102
RTVSPropertyOp18
 70
     1
102
RTVSPropertyOp19
 70
     1
102
RTVSPropertyOp20
 70
     1
102
RTVSPropertyOp21
 70
     1
102
RTVSPropertyOp22
 70
     1
102
RTVSPropertyOp23
 70
     1
102
RTVSPropertyOp24
 70
     1
102
RTVSPropertyOp25
 70
     1
102
RTVSPropertyOp26
 70
     1
102
RTVSPropertyOp27
 70
     1
102
RTVSPropertyOp28
 70
     1
102
RTVSPropertyOp29
 70
     1
102
RTVSPropertyOp30
 70
     1
102
RTVSPropertyOp31
 70
     1
102
RTVSPropertyOp32
 70
     1
  0
XRECORD
  5
80E7
102
{ACAD_REACTORS
330
80E6
102
}
330
80E6
100
AcDbXrecord
280
     1
102
RTVSPropertyOp0
 70
     0
102
RTVSPropertyOp1
 70
     0
102
RTVSPropertyOp2
 70
     0
102
RTVSPropertyOp3
 70
     0
102
RTVSPropertyOp4
 70
     0
102
RTVSPropertyOp5
 70
     0
102
RTVSPropertyOp6
 70
     0
102
RTVSPropertyOp7
 70
     0
102
RTVSPropertyOp8
 70
     0
102
RTVSPropertyOp9
 70
     0
102
RTVSPropertyOp10
 70
     0
102
RTVSPropertyOp11
 70
     0
102
RTVSPropertyOp12
 70
     0
102
RTVSPropertyOp13
 70
     0
102
RTVSPropertyOp14
 70
     2
102
RTVSPropertyOp15
 70
     0
102
RTVSPropertyOp16
 70
     0
102
RTVSPropertyOp17
 70
     0
102
RTVSPropertyOp18
 70
     0
102
RTVSPropertyOp19
 70
     0
102
RTVSPropertyOp20
 70
     0
102
RTVSPropertyOp21
 70
     0
102
RTVSPropertyOp22
 70
     0
102
RTVSPropertyOp23
 70
     0
102
RTVSPropertyOp24
 70
     0
102
RTVSPropertyOp25
 70
     0
102
RTVSPropertyOp26
 70
     0
102
RTVSPropertyOp27
 70
     0
102
RTVSPropertyOp28
 70
     1
102
RTVSPropertyOp29
 70
     1
102
RTVSPropertyOp30
 70
     1
102
RTVSPropertyOp31
 70
     1
102
RTVSPropertyOp32
 70
     1
  0
XRECORD
  5
80D7
102
{ACAD_REACTORS
330
80D6
102
}
330
80D6
100
AcDbXrecord
280
     1
102
RTVSPropertyOp0
 70
     1
102
RTVSPropertyOp1
 70
     1
102
RTVSPropertyOp2
 70
     1
102
RTVSPropertyOp3
 70
     1
102
RTVSPropertyOp4
 70
     1
102
RTVSPropertyOp5
 70
     1
102
RTVSPropertyOp6
 70
     1
102
RTVSPropertyOp7
 70
     1
102
RTVSPropertyOp8
 70
     1
102
RTVSPropertyOp9
 70
     1
102
RTVSPropertyOp10
 70
     1
102
RTVSPropertyOp11
 70
     1
102
RTVSPropertyOp12
 70
     1
102
RTVSPropertyOp13
 70
     1
102
RTVSPropertyOp14
 70
     1
102
RTVSPropertyOp15
 70
     1
102
RTVSPropertyOp16
 70
     1
102
RTVSPropertyOp17
 70
     1
102
RTVSPropertyOp18
 70
     1
102
RTVSPropertyOp19
 70
     1
102
RTVSPropertyOp20
 70
     1
102
RTVSPropertyOp21
 70
     1
102
RTVSPropertyOp22
 70
     1
102
RTVSPropertyOp23
 70
     1
102
RTVSPropertyOp24
 70
     1
102
RTVSPropertyOp25
 70
     1
102
RTVSPropertyOp26
 70
     1
102
RTVSPropertyOp27
 70
     1
102
RTVSPropertyOp28
 70
     1
102
RTVSPropertyOp29
 70
     1
102
RTVSPropertyOp30
 70
     1
102
RTVSPropertyOp31
 70
     1
102
RTVSPropertyOp32
 70
     1
  0
XRECORD
  5
80E9
102
{ACAD_REACTORS
330
80E8
102
}
330
80E8
100
AcDbXrecord
280
     1
102
RTVSPropertyOp0
 70
     0
102
RTVSPropertyOp1
 70
     0
102
RTVSPropertyOp2
 70
     0
102
RTVSPropertyOp3
 70
     0
102
RTVSPropertyOp4
 70
     0
102
RTVSPropertyOp5
 70
     0
102
RTVSPropertyOp6
 70
     0
102
RTVSPropertyOp7
 70
     0
102
RTVSPropertyOp8
 70
     0
102
RTVSPropertyOp9
 70
     0
102
RTVSPropertyOp10
 70
     0
102
RTVSPropertyOp11
 70
     0
102
RTVSPropertyOp12
 70
     0
102
RTVSPropertyOp13
 70
     0
102
RTVSPropertyOp14
 70
     2
102
RTVSPropertyOp15
 70
     0
102
RTVSPropertyOp16
 70
     0
102
RTVSPropertyOp17
 70
     0
102
RTVSPropertyOp18
 70
     0
102
RTVSPropertyOp19
 70
     0
102
RTVSPropertyOp20
 70
     0
102
RTVSPropertyOp21
 70
     0
102
RTVSPropertyOp22
 70
     0
102
RTVSPropertyOp23
 70
     0
102
RTVSPropertyOp24
 70
     0
102
RTVSPropertyOp25
 70
     0
102
RTVSPropertyOp26
 70
     0
102
RTVSPropertyOp27
 70
     0
102
RTVSPropertyOp28
 70
     1
102
RTVSPropertyOp29
 70
     1
102
RTVSPropertyOp30
 70
     1
102
RTVSPropertyOp31
 70
     1
102
RTVSPropertyOp32
 70
     1
  0
XRECORD
  5
80CF
102
{ACAD_REACTORS
330
80CE
102
}
330
80CE
100
AcDbXrecord
280
     1
102
RTVSPropertyOp0
 70
     1
102
RTVSPropertyOp1
 70
     1
102
RTVSPropertyOp2
 70
     1
102
RTVSPropertyOp3
 70
     1
102
RTVSPropertyOp4
 70
     1
102
RTVSPropertyOp5
 70
     1
102
RTVSPropertyOp6
 70
     1
102
RTVSPropertyOp7
 70
     1
102
RTVSPropertyOp8
 70
     1
102
RTVSPropertyOp9
 70
     1
102
RTVSPropertyOp10
 70
     1
102
RTVSPropertyOp11
 70
     1
102
RTVSPropertyOp12
 70
     1
102
RTVSPropertyOp13
 70
     1
102
RTVSPropertyOp14
 70
     1
102
RTVSPropertyOp15
 70
     1
102
RTVSPropertyOp16
 70
     1
102
RTVSPropertyOp17
 70
     1
102
RTVSPropertyOp18
 70
     1
102
RTVSPropertyOp19
 70
     1
102
RTVSPropertyOp20
 70
     1
102
RTVSPropertyOp21
 70
     1
102
RTVSPropertyOp22
 70
     1
102
RTVSPropertyOp23
 70
     1
102
RTVSPropertyOp24
 70
     1
102
RTVSPropertyOp25
 70
     1
102
RTVSPropertyOp26
 70
     1
102
RTVSPropertyOp27
 70
     1
102
RTVSPropertyOp28
 70
     1
102
RTVSPropertyOp29
 70
     1
102
RTVSPropertyOp30
 70
     1
102
RTVSPropertyOp31
 70
     1
102
RTVSPropertyOp32
 70
     1
  0
XRECORD
  5
80E5
102
{ACAD_REACTORS
330
80E4
102
}
330
80E4
100
AcDbXrecord
280
     1
102
RTVSPropertyOp0
 70
     1
102
RTVSPropertyOp1
 70
     1
102
RTVSPropertyOp2
 70
     1
102
RTVSPropertyOp3
 70
     1
102
RTVSPropertyOp4
 70
     1
102
RTVSPropertyOp5
 70
     1
102
RTVSPropertyOp6
 70
     1
102
RTVSPropertyOp7
 70
     1
102
RTVSPropertyOp8
 70
     1
102
RTVSPropertyOp9
 70
     1
102
RTVSPropertyOp10
 70
     1
102
RTVSPropertyOp11
 70
     1
102
RTVSPropertyOp12
 70
     1
102
RTVSPropertyOp13
 70
     1
102
RTVSPropertyOp14
 70
     1
102
RTVSPropertyOp15
 70
     1
102
RTVSPropertyOp16
 70
     1
102
RTVSPropertyOp17
 70
     1
102
RTVSPropertyOp18
 70
     1
102
RTVSPropertyOp19
 70
     1
102
RTVSPropertyOp20
 70
     1
102
RTVSPropertyOp21
 70
     1
102
RTVSPropertyOp22
 70
     1
102
RTVSPropertyOp23
 70
     1
102
RTVSPropertyOp24
 70
     1
102
RTVSPropertyOp25
 70
     1
102
RTVSPropertyOp26
 70
     1
102
RTVSPropertyOp27
 70
     1
102
RTVSPropertyOp28
 70
     1
102
RTVSPropertyOp29
 70
     1
102
RTVSPropertyOp30
 70
     1
102
RTVSPropertyOp31
 70
     1
102
RTVSPropertyOp32
 70
     1
  0
XRECORD
  5
80E3
102
{ACAD_REACTORS
330
80E2
102
}
330
80E2
100
AcDbXrecord
280
     1
102
RTVSPropertyOp0
 70
     1
102
RTVSPropertyOp1
 70
     1
102
RTVSPropertyOp2
 70
     1
102
RTVSPropertyOp3
 70
     1
102
RTVSPropertyOp4
 70
     1
102
RTVSPropertyOp5
 70
     1
102
RTVSPropertyOp6
 70
     1
102
RTVSPropertyOp7
 70
     1
102
RTVSPropertyOp8
 70
     1
102
RTVSPropertyOp9
 70
     1
102
RTVSPropertyOp10
 70
     1
102
RTVSPropertyOp11
 70
     1
102
RTVSPropertyOp12
 70
     1
102
RTVSPropertyOp13
 70
     1
102
RTVSPropertyOp14
 70
     1
102
RTVSPropertyOp15
 70
     1
102
RTVSPropertyOp16
 70
     1
102
RTVSPropertyOp17
 70
     1
102
RTVSPropertyOp18
 70
     1
102
RTVSPropertyOp19
 70
     1
102
RTVSPropertyOp20
 70
     1
102
RTVSPropertyOp21
 70
     1
102
RTVSPropertyOp22
 70
     1
102
RTVSPropertyOp23
 70
     1
102
RTVSPropertyOp24
 70
     1
102
RTVSPropertyOp25
 70
     1
102
RTVSPropertyOp26
 70
     1
102
RTVSPropertyOp27
 70
     1
102
RTVSPropertyOp28
 70
     1
102
RTVSPropertyOp29
 70
     1
102
RTVSPropertyOp30
 70
     1
102
RTVSPropertyOp31
 70
     1
102
RTVSPropertyOp32
 70
     1
  0
XRECORD
  5
80DD
102
{ACAD_REACTORS
330
80DC
102
}
330
80DC
100
AcDbXrecord
280
     1
102
RTVSPropertyOp0
 70
     1
102
RTVSPropertyOp1
 70
     1
102
RTVSPropertyOp2
 70
     1
102
RTVSPropertyOp3
 70
     1
102
RTVSPropertyOp4
 70
     1
102
RTVSPropertyOp5
 70
     1
102
RTVSPropertyOp6
 70
     1
102
RTVSPropertyOp7
 70
     1
102
RTVSPropertyOp8
 70
     1
102
RTVSPropertyOp9
 70
     1
102
RTVSPropertyOp10
 70
     1
102
RTVSPropertyOp11
 70
     1
102
RTVSPropertyOp12
 70
     1
102
RTVSPropertyOp13
 70
     1
102
RTVSPropertyOp14
 70
     1
102
RTVSPropertyOp15
 70
     1
102
RTVSPropertyOp16
 70
     1
102
RTVSPropertyOp17
 70
     1
102
RTVSPropertyOp18
 70
     1
102
RTVSPropertyOp19
 70
     1
102
RTVSPropertyOp20
 70
     1
102
RTVSPropertyOp21
 70
     1
102
RTVSPropertyOp22
 70
     1
102
RTVSPropertyOp23
 70
     1
102
RTVSPropertyOp24
 70
     1
102
RTVSPropertyOp25
 70
     1
102
RTVSPropertyOp26
 70
     1
102
RTVSPropertyOp27
 70
     1
102
RTVSPropertyOp28
 70
     1
102
RTVSPropertyOp29
 70
     1
102
RTVSPropertyOp30
 70
     1
102
RTVSPropertyOp31
 70
     1
102
RTVSPropertyOp32
 70
     1
  0
XRECORD
  5
80DF
102
{ACAD_REACTORS
330
80DE
102
}
330
80DE
100
AcDbXrecord
280
     1
102
RTVSPropertyOp0
 70
     1
102
RTVSPropertyOp1
 70
     1
102
RTVSPropertyOp2
 70
     1
102
RTVSPropertyOp3
 70
     1
102
RTVSPropertyOp4
 70
     1
102
RTVSPropertyOp5
 70
     1
102
RTVSPropertyOp6
 70
     1
102
RTVSPropertyOp7
 70
     1
102
RTVSPropertyOp8
 70
     1
102
RTVSPropertyOp9
 70
     1
102
RTVSPropertyOp10
 70
     1
102
RTVSPropertyOp11
 70
     1
102
RTVSPropertyOp12
 70
     1
102
RTVSPropertyOp13
 70
     1
102
RTVSPropertyOp14
 70
     1
102
RTVSPropertyOp15
 70
     1
102
RTVSPropertyOp16
 70
     1
102
RTVSPropertyOp17
 70
     1
102
RTVSPropertyOp18
 70
     1
102
RTVSPropertyOp19
 70
     1
102
RTVSPropertyOp20
 70
     1
102
RTVSPropertyOp21
 70
     1
102
RTVSPropertyOp22
 70
     1
102
RTVSPropertyOp23
 70
     1
102
RTVSPropertyOp24
 70
     1
102
RTVSPropertyOp25
 70
     1
102
RTVSPropertyOp26
 70
     1
102
RTVSPropertyOp27
 70
     1
102
RTVSPropertyOp28
 70
     1
102
RTVSPropertyOp29
 70
     1
102
RTVSPropertyOp30
 70
     1
102
RTVSPropertyOp31
 70
     1
102
RTVSPropertyOp32
 70
     1
  0
XRECORD
  5
80D5
102
{ACAD_REACTORS
330
80D4
102
}
330
80D4
100
AcDbXrecord
280
     1
102
RTVSPropertyOp0
 70
     1
102
RTVSPropertyOp1
 70
     1
102
RTVSPropertyOp2
 70
     1
102
RTVSPropertyOp3
 70
     1
102
RTVSPropertyOp4
 70
     1
102
RTVSPropertyOp5
 70
     1
102
RTVSPropertyOp6
 70
     1
102
RTVSPropertyOp7
 70
     1
102
RTVSPropertyOp8
 70
     1
102
RTVSPropertyOp9
 70
     1
102
RTVSPropertyOp10
 70
     1
102
RTVSPropertyOp11
 70
     1
102
RTVSPropertyOp12
 70
     1
102
RTVSPropertyOp13
 70
     1
102
RTVSPropertyOp14
 70
     1
102
RTVSPropertyOp15
 70
     1
102
RTVSPropertyOp16
 70
     1
102
RTVSPropertyOp17
 70
     1
102
RTVSPropertyOp18
 70
     1
102
RTVSPropertyOp19
 70
     1
102
RTVSPropertyOp20
 70
     1
102
RTVSPropertyOp21
 70
     1
102
RTVSPropertyOp22
 70
     1
102
RTVSPropertyOp23
 70
     1
102
RTVSPropertyOp24
 70
     1
102
RTVSPropertyOp25
 70
     1
102
RTVSPropertyOp26
 70
     1
102
RTVSPropertyOp27
 70
     1
102
RTVSPropertyOp28
 70
     1
102
RTVSPropertyOp29
 70
     1
102
RTVSPropertyOp30
 70
     1
102
RTVSPropertyOp31
 70
     1
102
RTVSPropertyOp32
 70
     1
  0
XRECORD
  5
80C9
102
{ACAD_REACTORS
330
80C8
102
}
330
80C8
100
AcDbXrecord
280
     1
102
RTVSPropertyOp0
 70
     1
102
RTVSPropertyOp1
 70
     1
102
RTVSPropertyOp2
 70
     1
102
RTVSPropertyOp3
 70
     1
102
RTVSPropertyOp4
 70
     1
102
RTVSPropertyOp5
 70
     1
102
RTVSPropertyOp6
 70
     1
102
RTVSPropertyOp7
 70
     1
102
RTVSPropertyOp8
 70
     1
102
RTVSPropertyOp9
 70
     1
102
RTVSPropertyOp10
 70
     1
102
RTVSPropertyOp11
 70
     1
102
RTVSPropertyOp12
 70
     1
102
RTVSPropertyOp13
 70
     1
102
RTVSPropertyOp14
 70
     1
102
RTVSPropertyOp15
 70
     1
102
RTVSPropertyOp16
 70
     1
102
RTVSPropertyOp17
 70
     1
102
RTVSPropertyOp18
 70
     1
102
RTVSPropertyOp19
 70
     1
102
RTVSPropertyOp20
 70
     1
102
RTVSPropertyOp21
 70
     1
102
RTVSPropertyOp22
 70
     1
102
RTVSPropertyOp23
 70
     1
102
RTVSPropertyOp24
 70
     1
102
RTVSPropertyOp25
 70
     1
102
RTVSPropertyOp26
 70
     1
102
RTVSPropertyOp27
 70
     1
102
RTVSPropertyOp28
 70
     1
102
RTVSPropertyOp29
 70
     1
102
RTVSPropertyOp30
 70
     1
102
RTVSPropertyOp31
 70
     1
102
RTVSPropertyOp32
 70
     1
  0
XRECORD
  5
80E1
102
{ACAD_REACTORS
330
80E0
102
}
330
80E0
100
AcDbXrecord
280
     1
102
RTVSPropertyOp0
 70
     1
102
RTVSPropertyOp1
 70
     1
102
RTVSPropertyOp2
 70
     1
102
RTVSPropertyOp3
 70
     1
102
RTVSPropertyOp4
 70
     1
102
RTVSPropertyOp5
 70
     1
102
RTVSPropertyOp6
 70
     1
102
RTVSPropertyOp7
 70
     1
102
RTVSPropertyOp8
 70
     1
102
RTVSPropertyOp9
 70
     1
102
RTVSPropertyOp10
 70
     1
102
RTVSPropertyOp11
 70
     1
102
RTVSPropertyOp12
 70
     1
102
RTVSPropertyOp13
 70
     1
102
RTVSPropertyOp14
 70
     1
102
RTVSPropertyOp15
 70
     1
102
RTVSPropertyOp16
 70
     1
102
RTVSPropertyOp17
 70
     1
102
RTVSPropertyOp18
 70
     1
102
RTVSPropertyOp19
 70
     1
102
RTVSPropertyOp20
 70
     1
102
RTVSPropertyOp21
 70
     1
102
RTVSPropertyOp22
 70
     1
102
RTVSPropertyOp23
 70
     1
102
RTVSPropertyOp24
 70
     1
102
RTVSPropertyOp25
 70
     1
102
RTVSPropertyOp26
 70
     1
102
RTVSPropertyOp27
 70
     1
102
RTVSPropertyOp28
 70
     1
102
RTVSPropertyOp29
 70
     1
102
RTVSPropertyOp30
 70
     1
102
RTVSPropertyOp31
 70
     1
102
RTVSPropertyOp32
 70
     1
  0
ENDSEC
  0
EOF
