  0
SECTION
  2
HEADER
  9
$ACADVER
  1
AC1015
  9
$ACADMAINTVER
 70
    20
  9
$DWGCODEPAGE
  3
ANSI_1252
  9
$INSBASE
 10
0.0
 20
0.0
 30
0.0
  9
$EXTMIN
 10
0.0
 20
0.0
 30
0.0
  9
$EXTMAX
 10
43.29487984337851
 20
23.24873374485759
 30
0.0
  9
$LIMMIN
 10
0.0
 20
0.0
  9
$LIMMAX
 10
43.29487984337852
 20
21.50950917048501
  9
$ORTHOMODE
 70
     0
  9
$REGENMODE
 70
     1
  9
$FILLMODE
 70
     1
  9
$QTEXTMODE
 70
     0
  9
$MIRRTEXT
 70
     0
  9
$LTSCALE
 40
2.0
  9
$ATTMODE
 70
     1
  9
$TEXTSIZE
 40
0.25
  9
$TRACEWID
 40
0.05
  9
$TEXTSTYLE
  7
ROMAND
  9
$CLAYER
  8
0
  9
$CELTYPE
  6
BYLAYER
  9
$CECOLOR
 62
   256
  9
$CELTSCALE
 40
1.0
  9
$DISPSILH
 70
     0
  9
$DIMSCALE
 40
2.0
  9
$DIMASZ
 40
0.125
  9
$DIMEXO
 40
0.125
  9
$DIMDLI
 40
0.0
  9
$DIMRND
 40
0.0
  9
$DIMDLE
 40
0.0
  9
$DIMEXE
 40
0.0625
  9
$DIMTP
 40
0.0
  9
$DIMTM
 40
0.0
  9
$DIMTXT
 40
0.125
  9
$DIMCEN
 40
0.0625
  9
$DIMTSZ
 40
0.0
  9
$DIMTOL
 70
     0
  9
$DIMLIM
 70
     0
  9
$DIMTIH
 70
     0
  9
$DIMTOH
 70
     0
  9
$DIMSE1
 70
     0
  9
$DIMSE2
 70
     0
  9
$DIMTAD
 70
     1
  9
$DIMZIN
 70
     1
  9
$DIMBLK
  1

  9
$DIMASO
 70
     1
  9
$DIMSHO
 70
     0
  9
$DIMPOST
  1
"
  9
$DIMAPOST
  1

  9
$DIMALT
 70
     0
  9
$DIMALTD
 70
     2
  9
$DIMALTF
 40
25.4
  9
$DIMLFAC
 40
1.0
  9
$DIMTOFL
 70
     1
  9
$DIMTVP
 40
0.0
  9
$DIMTIX
 70
     1
  9
$DIMSOXD
 70
     0
  9
$DIMSAH
 70
     1
  9
$DIMBLK1
  1
OBLIQUE
  9
$DIMBLK2
  1
OBLIQUE
  9
$DIMSTYLE
  2
STANDARD
  9
$DIMCLRD
 70
     0
  9
$DIMCLRE
 70
     0
  9
$DIMCLRT
 70
     0
  9
$DIMTFAC
 40
1.0
  9
$DIMGAP
 40
0.0625
  9
$DIMJUST
 70
     0
  9
$DIMSD1
 70
     0
  9
$DIMSD2
 70
     0
  9
$DIMTOLJ
 70
     1
  9
$DIMTZIN
 70
     8
  9
$DIMALTZ
 70
     8
  9
$DIMALTTZ
 70
     8
  9
$DIMUPT
 70
     0
  9
$DIMDEC
 70
     5
  9
$DIMTDEC
 70
     5
  9
$DIMALTU
 70
     2
  9
$DIMALTTD
 70
     2
  9
$DIMTXSTY
  7
ROMAND
  9
$DIMAUNIT
 70
     1
  9
$DIMADEC
 70
     1
  9
$DIMALTRND
 40
0.0
  9
$DIMAZIN
 70
     0
  9
$DIMDSEP
 70
    46
  9
$DIMATFIT
 70
     3
  9
$DIMFRAC
 70
     2
  9
$DIMLDRBLK
  1

  9
$DIMLUNIT
 70
     5
  9
$DIMLWD
 70
    -2
  9
$DIMLWE
 70
    -2
  9
$DIMTMOVE
 70
     2
  9
$LUNITS
 70
     2
  9
$LUPREC
 70
     5
  9
$SKETCHINC
 40
0.1
  9
$FILLETRAD
 40
0.0
  9
$AUNITS
 70
     1
  9
$AUPREC
 70
     4
  9
$MENU
  1
acad
  9
$ELEVATION
 40
0.0
  9
$PELEVATION
 40
0.0
  9
$THICKNESS
 40
0.0
  9
$LIMCHECK
 70
     0
  9
$CHAMFERA
 40
0.0
  9
$CHAMFERB
 40
0.0
  9
$CHAMFERC
 40
0.0
  9
$CHAMFERD
 40
0.0
  9
$SKPOLY
 70
     0
  9
$TDCREATE
 40
2450525.426291088
  9
$TDUCREATE
 40
2450525.634624421
  9
$TDUPDATE
 40
2457809.478897743
  9
$TDUUPDATE
 40
2457809.687231077
  9
$TDINDWG
 40
3.2551063310
  9
$TDUSRTIMER
 40
3.2551063310
  9
$USRTIMER
 70
     1
  9
$ANGBASE
 50
0.0
  9
$ANGDIR
 70
     0
  9
$PDMODE
 70
     0
  9
$PDSIZE
 40
0.0
  9
$PLINEWID
 40
0.0
  9
$SPLFRAME
 70
     0
  9
$SPLINETYPE
 70
     6
  9
$SPLINESEGS
 70
     8
  9
$HANDSEED
  5
C08
  9
$SURFTAB1
 70
     6
  9
$SURFTAB2
 70
     6
  9
$SURFTYPE
 70
     6
  9
$SURFU
 70
     6
  9
$SURFV
 70
     6
  9
$UCSBASE
  2

  9
$UCSNAME
  2

  9
$UCSORG
 10
0.0
 20
0.0
 30
0.0
  9
$UCSXDIR
 10
1.0
 20
0.0
 30
0.0
  9
$UCSYDIR
 10
0.0
 20
1.0
 30
0.0
  9
$UCSORTHOREF
  2

  9
$UCSORTHOVIEW
 70
     0
  9
$UCSORGTOP
 10
0.0
 20
0.0
 30
0.0
  9
$UCSORGBOTTOM
 10
0.0
 20
0.0
 30
0.0
  9
$UCSORGLEFT
 10
0.0
 20
0.0
 30
0.0
  9
$UCSORGRIGHT
 10
0.0
 20
0.0
 30
0.0
  9
$UCSORGFRONT
 10
0.0
 20
0.0
 30
0.0
  9
$UCSORGBACK
 10
0.0
 20
0.0
 30
0.0
  9
$PUCSBASE
  2

  9
$PUCSNAME
  2

  9
$PUCSORG
 10
0.0
 20
0.0
 30
0.0
  9
$PUCSXDIR
 10
1.0
 20
0.0
 30
0.0
  9
$PUCSYDIR
 10
0.0
 20
1.0
 30
0.0
  9
$PUCSORTHOREF
  2

  9
$PUCSORTHOVIEW
 70
     0
  9
$PUCSORGTOP
 10
0.0
 20
0.0
 30
0.0
  9
$PUCSORGBOTTOM
 10
0.0
 20
0.0
 30
0.0
  9
$PUCSORGLEFT
 10
0.0
 20
0.0
 30
0.0
  9
$PUCSORGRIGHT
 10
0.0
 20
0.0
 30
0.0
  9
$PUCSORGFRONT
 10
0.0
 20
0.0
 30
0.0
  9
$PUCSORGBACK
 10
0.0
 20
0.0
 30
0.0
  9
$USERI1
 70
     0
  9
$USERI2
 70
     0
  9
$USERI3
 70
     0
  9
$USERI4
 70
     0
  9
$USERI5
 70
     0
  9
$USERR1
 40
0.0
  9
$USERR2
 40
0.0
  9
$USERR3
 40
0.0
  9
$USERR4
 40
0.0
  9
$USERR5
 40
0.0
  9
$WORLDVIEW
 70
     0
  9
$SHADEDGE
 70
     3
  9
$SHADEDIF
 70
    70
  9
$TILEMODE
 70
     1
  9
$MAXACTVP
 70
    16
  9
$PINSBASE
 10
0.0
 20
0.0
 30
0.0
  9
$PLIMCHECK
 70
     0
  9
$PEXTMIN
 10
1.000000000000000E+20
 20
1.000000000000000E+20
 30
1.000000000000000E+20
  9
$PEXTMAX
 10
-1.000000000000000E+20
 20
-1.000000000000000E+20
 30
-1.000000000000000E+20
  9
$PLIMMIN
 10
0.0
 20
0.0
  9
$PLIMMAX
 10
12.0
 20
9.0
  9
$UNITMODE
 70
     0
  9
$VISRETAIN
 70
     0
  9
$PLINEGEN
 70
     0
  9
$PSLTSCALE
 70
     0
  9
$TREEDEPTH
 70
  3020
  9
$CMLSTYLE
  2
STANDARD
  9
$CMLJUST
 70
     0
  9
$CMLSCALE
 40
1.0
  9
$PROXYGRAPHICS
 70
     1
  9
$MEASUREMENT
 70
     0
  9
$CELWEIGHT
370
    -1
  9
$ENDCAPS
280
     0
  9
$JOINSTYLE
280
     0
  9
$LWDISPLAY
290
     0
  9
$INSUNITS
 70
     0
  9
$HYPERLINKBASE
  1

  9
$STYLESHEET
  1
hp5000n.ctb
  9
$XEDIT
290
     1
  9
$CEPSNTYPE
380
     0
  9
$PSTYLEMODE
290
     1
  9
$FINGERPRINTGUID
  2

  9
$VERSIONGUID
  2
{F41A72A5-8813-4D9C-9C2B-4D3249DF664F}
  9
$EXTNAMES
290
     1
  9
$PSVPSCALE
 40
0.0
  9
$OLESTARTUP
290
     0
  0
ENDSEC
  0
SECTION
  2
CLASSES
  0
CLASS
  1
DICTIONARYVAR
  2
AcDbDictionaryVar
  3
ObjectDBX Classes
 90
        0
280
     0
281
     0
  0
CLASS
  1
ACDBDICTIONARYWDFLT
  2
AcDbDictionaryWithDefault
  3
ObjectDBX Classes
 90
        0
280
     0
281
     0
  0
CLASS
  1
ACDBPLACEHOLDER
  2
AcDbPlaceHolder
  3
ObjectDBX Classes
 90
        0
280
     0
281
     0
  0
CLASS
  1
LAYOUT
  2
AcDbLayout
  3
ObjectDBX Classes
 90
        0
280
     0
281
     0
  0
CLASS
  1
PLOTSETTINGS
  2
AcDbPlotSettings
  3
ObjectDBX Classes
 90
    32768
280
     0
281
     0
  0
CLASS
  1
TABLESTYLE
  2
AcDbTableStyle
  3
ObjectDBX Classes
 90
     4095
280
     0
281
     0
  0
CLASS
  1
MATERIAL
  2
AcDbMaterial
  3
ObjectDBX Classes
 90
     1153
280
     0
281
     0
  0
CLASS
  1
VISUALSTYLE
  2
AcDbVisualStyle
  3
ObjectDBX Classes
 90
     4095
280
     0
281
     0
  0
CLASS
  1
SCALE
  2
AcDbScale
  3
ObjectDBX Classes
 90
     1153
280
     0
281
     0
  0
CLASS
  1
MLEADERSTYLE
  2
AcDbMLeaderStyle
  3
ACDB_MLEADERSTYLE_CLASS
 90
     4095
280
     0
281
     0
  0
CLASS
  1
SORTENTSTABLE
  2
AcDbSortentsTable
  3
ObjectDBX Classes
 90
        0
280
     0
281
     0
  0
CLASS
  1
CELLSTYLEMAP
  2
AcDbCellStyleMap
  3
ObjectDBX Classes
 90
     1152
280
     0
281
     0
  0
CLASS
  1
EXACXREFPANELOBJECT
  2
ExAcXREFPanelObject
  3
EXAC_ESW
 90
     1025
280
     0
281
     0
  0
CLASS
  1
NPOCOLLECTION
  2
AcDbImpNonPersistentObjectsCollection
  3
ObjectDBX Classes
 90
     1153
280
     0
281
     0
  0
CLASS
  1
FIELD
  2
AcDbField
  3
ObjectDBX Classes
 90
    33920
280
     0
281
     0
  0
CLASS
  1
FIELDLIST
  2
AcDbFieldList
  3
ObjectDBX Classes
 90
     1152
280
     0
281
     0
  0
ENDSEC
  0
SECTION
  2
TABLES
  0
TABLE
  2
VPORT
  5
3C
102
{ACAD_XDICTIONARY
360
612
102
}
330
0
100
AcDbSymbolTable
 70
     1
  0
VPORT
  5
588
330
3C
100
AcDbSymbolTableRecord
100
AcDbViewportTableRecord
  2
*Active
 70
     0
 10
0.0
 20
0.0
 11
1.0
 21
1.0
 12
63.88889367806902
 22
18.04772904992558
 13
0.0
 23
0.0
 14
1.0
 24
1.0
 15
0.0
 25
0.0
 16
0.0
 26
0.0
 36
1.0
 17
0.0
 27
0.0
 37
0.0
 40
36.25759232317508
 41
3.716019417475727
 42
50.0
 43
0.0
 44
0.0
 50
0.0
 51
0.0
 71
     0
 72
   100
 73
     1
 74
     0
 75
     0
 76
     0
 77
     0
 78
     0
281
     0
 65
     1
110
0.0
120
0.0
130
0.0
111
1.0
121
0.0
131
0.0
112
0.0
122
1.0
132
0.0
 79
     0
146
0.0
1001
ACAD_NAV_VCDISPLAY
1070
     3
  0
ENDTAB
  0
TABLE
  2
LTYPE
  5
37
330
0
100
AcDbSymbolTable
 70
     4
  0
LTYPE
  5
38
330
37
100
AcDbSymbolTableRecord
100
AcDbLinetypeTableRecord
  2
BYBLOCK
 70
     0
  3

 72
    65
 73
     0
 40
0.0
  0
LTYPE
  5
39
330
37
100
AcDbSymbolTableRecord
100
AcDbLinetypeTableRecord
  2
BYLAYER
 70
     0
  3

 72
    65
 73
     0
 40
0.0
  0
LTYPE
  5
A
330
37
100
AcDbSymbolTableRecord
100
AcDbLinetypeTableRecord
  2
CONTINUOUS
 70
     0
  3
Solid line
 72
    65
 73
     0
 40
0.0
  0
LTYPE
  5
13C
330
37
100
AcDbSymbolTableRecord
100
AcDbLinetypeTableRecord
  2
HIDDEN2
 70
     0
  3
_ _ _ _ _ _ _ _ _ _ _ _ _ _ _ _ _ _ _ _ _ _ _ _
 72
    65
 73
     2
 40
0.1875
 49
0.125
 74
     0
 49
-0.0625
 74
     0
  0
LTYPE
  5
B4D
330
37
100
AcDbSymbolTableRecord
100
AcDbLinetypeTableRecord
  2
DASHED
 70
     0
  3
Dashed __ __ __ __ __ __ __ __ __ __ __ __ __ _
 72
    65
 73
     2
 40
0.75
 49
0.5
 74
     0
 49
-0.25
 74
     0
  0
LTYPE
  5
B4E
330
37
100
AcDbSymbolTableRecord
100
AcDbLinetypeTableRecord
  2
DOT
 70
     0
  3
Dot . . . . . . . . . . . . . . . . . . . . . .
 72
    65
 73
     2
 40
0.25
 49
0.0
 74
     0
 49
-0.25
 74
     0
  0
ENDTAB
  0
TABLE
  2
LAYER
  5
14
102
{ACAD_XDICTIONARY
360
15
102
}
330
0
100
AcDbSymbolTable
 70
     9
  0
LAYER
  5
6
102
{ACAD_XDICTIONARY
360
5FD
102
}
330
14
100
AcDbSymbolTableRecord
100
AcDbLayerTableRecord
  2
0
 70
     0
 62
     7
  6
CONTINUOUS
370
    -3
390
7
  0
LAYER
  5
57
330
14
100
AcDbSymbolTableRecord
100
AcDbLayerTableRecord
  2
DEFPOINTS
 70
     0
 62
     7
  6
CONTINUOUS
290
     0
370
    -3
390
7
  0
LAYER
  5
303
102
{ACAD_XDICTIONARY
360
5FF
102
}
330
14
100
AcDbSymbolTableRecord
100
AcDbLayerTableRecord
  2
R-SWTS-DET1
 70
     0
 62
     1
  6
CONTINUOUS
370
    -3
390
7
  0
LAYER
  5
304
102
{ACAD_XDICTIONARY
360
601
102
}
330
14
100
AcDbSymbolTableRecord
100
AcDbLayerTableRecord
  2
R-ANNO-DIMS
 70
     0
 62
     3
  6
CONTINUOUS
370
    -3
390
7
  0
LAYER
  5
305
102
{ACAD_XDICTIONARY
360
603
102
}
330
14
100
AcDbSymbolTableRecord
100
AcDbLayerTableRecord
  2
R-SWTS-DET2
 70
     0
 62
     4
  6
CONTINUOUS
370
    -3
390
7
  0
LAYER
  5
306
102
{ACAD_XDICTIONARY
360
605
102
}
330
14
100
AcDbSymbolTableRecord
100
AcDbLayerTableRecord
  2
R-SWTS-DET3
 70
     0
 62
     5
  6
CONTINUOUS
370
    -3
390
7
  0
LAYER
  5
307
102
{ACAD_XDICTIONARY
360
607
102
}
330
14
100
AcDbSymbolTableRecord
100
AcDbLayerTableRecord
  2
PART_NUMBERS
 70
     0
 62
     6
  6
CONTINUOUS
370
    -3
390
7
  0
LAYER
  5
666
102
{ACAD_XDICTIONARY
360
667
102
}
330
14
100
AcDbSymbolTableRecord
100
AcDbLayerTableRecord
  2
TEXT
 70
     0
 62
     3
  6
CONTINUOUS
370
    -3
390
7
  0
LAYER
  5
B4F
330
14
100
AcDbSymbolTableRecord
100
AcDbLayerTableRecord
  2
Kawneer Logo-English
 70
     0
 62
     7
  6
CONTINUOUS
370
    -3
390
7
1001
AcAecLayerStandard
1000

1000

1001
AcCmTransparency
1071
        0
  0
ENDTAB
  0
TABLE
  2
STYLE
  5
34
330
0
100
AcDbSymbolTable
 70
     2
  0
STYLE
  5
35
330
34
100
AcDbSymbolTableRecord
100
AcDbTextStyleTableRecord
  2
STANDARD
 70
     0
 40
0.0
 41
1.0
 50
0.0
 71
     0
 42
0.2
  3
arial.ttf
  4

1001
ACAD
1000
Arial
1071
       34
  0
STYLE
  5
42
330
34
100
AcDbSymbolTableRecord
100
AcDbTextStyleTableRecord
  2
ROMAND
 70
     0
 40
0.0
 41
1.0
 50
0.0
 71
     0
 42
0.25
  3
arial.ttf
  4

1001
ACAD
1000
Arial
1071
       34
  0
ENDTAB
  0
TABLE
  2
VIEW
  5
3A
330
0
100
AcDbSymbolTable
 70
     0
  0
ENDTAB
  0
TABLE
  2
UCS
  5
3B
330
0
100
AcDbSymbolTable
 70
     0
  0
ENDTAB
  0
TABLE
  2
APPID
  5
3E
330
0
100
AcDbSymbolTable
 70
    15
  0
APPID
  5
3F
330
3E
100
AcDbSymbolTableRecord
100
AcDbRegAppTableRecord
  2
ACAD
 70
     0
  0
APPID
  5
66A
330
3E
100
AcDbSymbolTableRecord
100
AcDbRegAppTableRecord
  2
ACAD_NAV_VCDISPLAY
 70
     0
  0
APPID
  5
B50
330
3E
100
AcDbSymbolTableRecord
100
AcDbRegAppTableRecord
  2
ACAD_EXEMPT_FROM_CAD_STANDARDS
 70
     0
  0
APPID
  5
B51
330
3E
100
AcDbSymbolTableRecord
100
AcDbRegAppTableRecord
  2
GradientColor1ACI
 70
     0
  0
APPID
  5
B52
330
3E
100
AcDbSymbolTableRecord
100
AcDbRegAppTableRecord
  2
GradientColor2ACI
 70
     0
  0
APPID
  5
B53
330
3E
100
AcDbSymbolTableRecord
100
AcDbRegAppTableRecord
  2
ACAD_MLEADERVER
 70
     0
  0
APPID
  5
B54
330
3E
100
AcDbSymbolTableRecord
100
AcDbRegAppTableRecord
  2
ACAD_PSEXT
 70
     0
  0
APPID
  5
B55
330
3E
100
AcDbSymbolTableRecord
100
AcDbRegAppTableRecord
  2
ACAD_DSTYLE_DIMJAG
 70
     0
  0
APPID
  5
B56
330
3E
100
AcDbSymbolTableRecord
100
AcDbRegAppTableRecord
  2
ACAD_DSTYLE_DIMTALN
 70
     0
  0
APPID
  5
B57
330
3E
100
AcDbSymbolTableRecord
100
AcDbRegAppTableRecord
  2
ACAD_DSTYLE_DIMBREAK
 70
     0
  0
APPID
  5
B58
330
3E
100
AcDbSymbolTableRecord
100
AcDbRegAppTableRecord
  2
AcDbDynamicBlockGUID
 70
     0
  0
APPID
  5
B59
330
3E
100
AcDbSymbolTableRecord
100
AcDbRegAppTableRecord
  2
ACAUTHENVIRON
 70
     0
  0
APPID
  5
B5A
330
3E
100
AcDbSymbolTableRecord
100
AcDbRegAppTableRecord
  2
AcDbDynamicBlockTrueName
 70
     0
  0
APPID
  5
B5B
330
3E
100
AcDbSymbolTableRecord
100
AcDbRegAppTableRecord
  2
AcAecLayerStandard
 70
     0
  0
APPID
  5
B5C
330
3E
100
AcDbSymbolTableRecord
100
AcDbRegAppTableRecord
  2
AcCmTransparency
 70
     0
  0
ENDTAB
  0
TABLE
  2
DIMSTYLE
  5
40
330
0
100
AcDbSymbolTable
 70
     2
100
AcDbDimStyleTable
 71
     2
340
41
340
47
  0
DIMSTYLE
105
41
102
{ACAD_REACTORS
330
E8
330
112
330
6E
330
98
330
B4
330
191
330
A7
330
5C
330
15E
330
14A
102
}
330
40
100
AcDbSymbolTableRecord
100
AcDbDimStyleTableRecord
  2
STANDARD
 70
     0
  3
"
 40
2.0
 41
0.125
 42
0.125
 43
0.0
 44
0.0625
 73
     0
 74
     0
 77
     1
 78
     1
140
0.125
141
0.0625
147
0.0625
172
     1
173
     1
174
     1
179
     1
271
     5
272
     5
275
     1
276
     2
277
     5
279
     2
284
     8
285
     8
286
     8
340
42
343
43
344
43
  0
DIMSTYLE
105
47
102
{ACAD_REACTORS
330
105
330
F9
330
89
330
7D
330
177
330
183
330
CC
330
4E
102
}
330
40
100
AcDbSymbolTableRecord
100
AcDbDimStyleTableRecord
  2
Open-end
 70
     0
  3
"
 40
2.0
 41
0.125
 42
0.125
 43
0.0
 44
0.0625
 73
     0
 74
     0
 76
     1
 77
     1
 78
     1
140
0.125
141
0.0625
147
0.0625
172
     1
173
     1
174
     1
179
     1
271
     5
272
     5
275
     1
276
     2
277
     5
279
     2
284
     8
285
     8
286
     8
340
42
343
43
  0
ENDTAB
  0
TABLE
  2
BLOCK_RECORD
  5
1
330
0
100
AcDbSymbolTable
 70
    20
  0
BLOCK_RECORD
  5
2
102
{ACAD_XDICTIONARY
360
3
102
}
330
1
100
AcDbSymbolTableRecord
100
AcDbBlockTableRecord
  2
*MODEL_SPACE
340
C
  0
BLOCK_RECORD
  5
E
102
{ACAD_XDICTIONARY
360
F
102
}
330
1
100
AcDbSymbolTableRecord
100
AcDbBlockTableRecord
  2
*PAPER_SPACE
340
13
  0
BLOCK_RECORD
  5
43
330
1
100
AcDbSymbolTableRecord
100
AcDbBlockTableRecord
  2
_OBLIQUE
340
0
102
{BLKREFS
331
4D1
331
4D2
331
4DA
331
4DB
331
4E2
331
4EA
331
4F5
331
4F6
331
4FE
331
4FF
331
506
331
50E
331
519
331
51A
331
521
331
52A
331
52B
331
535
331
536
331
53D
331
548
331
549
331
550
331
558
331
561
331
562
331
56B
331
56C
102
}
  0
BLOCK_RECORD
  5
1CB
330
1
100
AcDbSymbolTableRecord
100
AcDbBlockTableRecord
  2
*D1
340
0
  0
BLOCK_RECORD
  5
1D7
330
1
100
AcDbSymbolTableRecord
100
AcDbBlockTableRecord
  2
*D2
340
0
  0
BLOCK_RECORD
  5
1E2
330
1
100
AcDbSymbolTableRecord
100
AcDbBlockTableRecord
  2
*D3
340
0
  0
BLOCK_RECORD
  5
1ED
330
1
100
AcDbSymbolTableRecord
100
AcDbBlockTableRecord
  2
*D4
340
0
  0
BLOCK_RECORD
  5
1FB
330
1
100
AcDbSymbolTableRecord
100
AcDbBlockTableRecord
  2
*D5
340
0
  0
BLOCK_RECORD
  5
207
330
1
100
AcDbSymbolTableRecord
100
AcDbBlockTableRecord
  2
*D6
340
0
  0
BLOCK_RECORD
  5
212
330
1
100
AcDbSymbolTableRecord
100
AcDbBlockTableRecord
  2
*D7
340
0
  0
BLOCK_RECORD
  5
21D
330
1
100
AcDbSymbolTableRecord
100
AcDbBlockTableRecord
  2
*D8
340
0
  0
BLOCK_RECORD
  5
22B
330
1
100
AcDbSymbolTableRecord
100
AcDbBlockTableRecord
  2
*D9
340
0
  0
BLOCK_RECORD
  5
237
330
1
100
AcDbSymbolTableRecord
100
AcDbBlockTableRecord
  2
*D10
340
0
  0
BLOCK_RECORD
  5
245
330
1
100
AcDbSymbolTableRecord
100
AcDbBlockTableRecord
  2
*D11
340
0
  0
BLOCK_RECORD
  5
250
330
1
100
AcDbSymbolTableRecord
100
AcDbBlockTableRecord
  2
*D12
340
0
  0
BLOCK_RECORD
  5
25C
330
1
100
AcDbSymbolTableRecord
100
AcDbBlockTableRecord
  2
*D13
340
0
  0
BLOCK_RECORD
  5
26A
330
1
100
AcDbSymbolTableRecord
100
AcDbBlockTableRecord
  2
*D14
340
0
  0
BLOCK_RECORD
  5
275
330
1
100
AcDbSymbolTableRecord
100
AcDbBlockTableRecord
  2
*D15
340
0
  0
BLOCK_RECORD
  5
283
330
1
100
AcDbSymbolTableRecord
100
AcDbBlockTableRecord
  2
*D16
340
0
  0
BLOCK_RECORD
  5
28E
330
1
100
AcDbSymbolTableRecord
100
AcDbBlockTableRecord
  2
*D17
340
0
  0
BLOCK_RECORD
  5
29A
330
1
100
AcDbSymbolTableRecord
100
AcDbBlockTableRecord
  2
*D18
340
0
  0
BLOCK_RECORD
  5
B5F
102
{ACAD_XDICTIONARY
360
B69
102
}
330
1
100
AcDbSymbolTableRecord
100
AcDbBlockTableRecord
  2
Kawneer Logo English
340
0
102
{BLKREFS
331
B6D
102
}
1001
ACAD
1000
DesignCenter Data
1002
{
1070
     1
1070
     1
1002
}
  0
ENDTAB
  0
ENDSEC
  0
SECTION
  2
BLOCKS
  0
BLOCK
  5
5
330
2
100
AcDbEntity
  8
0
100
AcDbBlockBegin
  2
*MODEL_SPACE
 70
     0
 10
0.0
 20
0.0
 30
0.0
  3
*MODEL_SPACE
  1

  0
ENDBLK
  5
B
330
2
100
AcDbEntity
  8
0
100
AcDbBlockEnd
  0
BLOCK
  5
11
330
E
100
AcDbEntity
 67
     1
  8
0
100
AcDbBlockBegin
  2
*PAPER_SPACE
 70
     0
 10
0.0
 20
0.0
 30
0.0
  3
*PAPER_SPACE
  1

  0
ENDBLK
  5
12
330
E
100
AcDbEntity
 67
     1
  8
0
100
AcDbBlockEnd
  0
BLOCK
  5
45
330
43
100
AcDbEntity
  8
0
100
AcDbBlockBegin
  2
_OBLIQUE
 70
     0
 10
0.0
 20
0.0
 30
0.0
  3
_OBLIQUE
  1

  0
LINE
  5
44
330
43
100
AcDbEntity
  8
0
  6
ByBlock
 62
     0
100
AcDbLine
 10
-0.5
 20
-0.5
 30
0.0
 11
0.5
 21
0.5
 31
0.0
  0
ENDBLK
  5
46
330
43
100
AcDbEntity
  8
0
100
AcDbBlockEnd
  0
BLOCK
  5
1D5
330
1CB
100
AcDbEntity
  8
0
100
AcDbBlockBegin
  2
*D1
 70
     1
 10
0.0
 20
0.0
 30
0.0
  3
*D1
  1

  0
LINE
  5
4FB
330
1CB
100
AcDbEntity
  8
R-ANNO-DIMS
 62
     0
370
    -2
100
AcDbLine
 10
8.564465157636711
 20
10.20746960483691
 30
0.0
 11
8.564465157636711
 21
8.082453959862718
 31
0.0
  0
LINE
  5
4FC
330
1CB
100
AcDbEntity
  8
R-ANNO-DIMS
 62
     0
370
    -2
100
AcDbLine
 10
14.5644651576387
 20
10.20745395986272
 30
0.0
 11
14.5644651576387
 21
8.082453959862718
 31
0.0
  0
LINE
  5
4FD
330
1CB
100
AcDbEntity
  8
R-ANNO-DIMS
 62
     0
370
    -2
100
AcDbLine
 10
8.564465157636711
 20
8.207453959862718
 30
0.0
 11
14.5644651576387
 21
8.207453959862718
 31
0.0
  0
INSERT
  5
4FE
330
1CB
100
AcDbEntity
  8
R-ANNO-DIMS
 62
     0
370
    -2
100
AcDbBlockReference
  2
_OBLIQUE
 10
8.564465157636711
 20
8.207453959862718
 30
0.0
 41
0.25
 42
0.25
 43
0.25
 50
180.0
  0
INSERT
  5
4FF
330
1CB
100
AcDbEntity
  8
R-ANNO-DIMS
 62
     0
370
    -2
100
AcDbBlockReference
  2
_OBLIQUE
 10
14.5644651576387
 20
8.207453959862718
 30
0.0
 41
0.25
 42
0.25
 43
0.25
  0
MTEXT
  5
500
330
1CB
100
AcDbEntity
  8
R-ANNO-DIMS
 62
     0
100
AcDbMText
 10
11.5644651576377
 20
8.481263483672242
 30
0.0
 40
0.25
 41
0.0
 71
     5
 72
     1
  1
\A1;6"
  7
ROMAND
 73
     1
 44
1.0
1001
ACAD
1000
MTEXTBEGIN
1070
    73
1070
     1
1070
    44
1040
1.0
1070
    74
1070
     0
1000
MTEXTEND
  0
POINT
  5
501
330
1CB
100
AcDbEntity
  8
DEFPOINTS
 62
     0
100
AcDbPoint
 10
8.564465157636711
 20
10.45746960483691
 30
0.0
  0
POINT
  5
502
330
1CB
100
AcDbEntity
  8
DEFPOINTS
 62
     0
100
AcDbPoint
 10
14.5644651576387
 20
10.45745395986272
 30
0.0
  0
POINT
  5
503
330
1CB
100
AcDbEntity
  8
DEFPOINTS
 62
     0
100
AcDbPoint
 10
14.5644651576387
 20
8.207453959862718
 30
0.0
  0
ENDBLK
  5
1D6
330
1CB
100
AcDbEntity
  8
0
100
AcDbBlockEnd
  0
BLOCK
  5
1E0
330
1D7
100
AcDbEntity
  8
0
100
AcDbBlockBegin
  2
*D2
 70
     1
 10
0.0
 20
0.0
 30
0.0
  3
*D2
  1

  0
LINE
  5
504
330
1D7
100
AcDbEntity
  8
R-ANNO-DIMS
 62
     0
370
    -2
100
AcDbLine
 10
8.564465157636711
 20
10.20746960483691
 30
0.0
 11
8.564465157636711
 21
8.082453959862675
 31
0.0
  0
LINE
  5
505
330
1D7
100
AcDbEntity
  8
R-ANNO-DIMS
 62
     0
370
    -2
100
AcDbLine
 10
8.564465157636711
 20
8.207453959862675
 30
0.0
 11
5.313628948268195
 21
8.207453959862675
 31
0.0
  0
INSERT
  5
506
330
1D7
100
AcDbEntity
  8
R-ANNO-DIMS
 62
     0
370
    -2
100
AcDbBlockReference
  2
_OBLIQUE
 10
8.564465157636711
 20
8.207453959862675
 30
0.0
 41
0.25
 42
0.25
 43
0.25
  0
SOLID
  5
507
330
1D7
100
AcDbEntity
  8
R-ANNO-DIMS
 62
     0
100
AcDbTrace
 10
5.313628948268195
 20
8.249120626529341
 30
0.0
 11
5.313628948268195
 21
8.165787293196009
 31
0.0
 12
5.063628948268195
 22
8.207453959862675
 32
0.0
 13
5.063628948268195
 23
8.207453959862675
 33
0.0
  0
MTEXT
  5
508
330
1D7
100
AcDbEntity
  8
R-ANNO-DIMS
 62
     0
100
AcDbMText
 10
6.939047052952453
 20
8.457453959862675
 30
0.0
 40
0.25
 41
0.0
 71
     5
 72
     1
  1
\A1;F.W.
  7
ROMAND
 73
     1
 44
1.0
1001
ACAD
1000
MTEXTBEGIN
1070
    73
1070
     1
1070
    44
1040
1.0
1070
    74
1070
     0
1000
MTEXTEND
  0
POINT
  5
509
330
1D7
100
AcDbEntity
  8
DEFPOINTS
 62
     0
100
AcDbPoint
 10
8.564465157636711
 20
10.45746960483691
 30
0.0
  0
POINT
  5
50A
330
1D7
100
AcDbEntity
  8
DEFPOINTS
 62
     0
100
AcDbPoint
 10
5.063628948268195
 20
13.70830581420541
 30
0.0
  0
POINT
  5
50B
330
1D7
100
AcDbEntity
  8
DEFPOINTS
 62
     0
100
AcDbPoint
 10
5.063628948268195
 20
8.207453959862675
 30
0.0
  0
ENDBLK
  5
1E1
330
1D7
100
AcDbEntity
  8
0
100
AcDbBlockEnd
  0
BLOCK
  5
1EB
330
1E2
100
AcDbEntity
  8
0
100
AcDbBlockBegin
  2
*D3
 70
     1
 10
0.0
 20
0.0
 30
0.0
  3
*D3
  1

  0
LINE
  5
50C
330
1E2
100
AcDbEntity
  8
R-ANNO-DIMS
 62
     0
370
    -2
100
AcDbLine
 10
7.064465157636711
 20
15.77330581420541
 30
0.0
 11
7.064465157636711
 21
8.832469604836916
 31
0.0
  0
LINE
  5
50D
330
1E2
100
AcDbEntity
  8
R-ANNO-DIMS
 62
     0
370
    -2
100
AcDbLine
 10
7.064465157636711
 20
8.957469604836916
 30
0.0
 11
5.313628948268195
 21
8.957469604836916
 31
0.0
  0
INSERT
  5
50E
330
1E2
100
AcDbEntity
  8
R-ANNO-DIMS
 62
     0
370
    -2
100
AcDbBlockReference
  2
_OBLIQUE
 10
7.064465157636711
 20
8.957469604836916
 30
0.0
 41
0.25
 42
0.25
 43
0.25
  0
SOLID
  5
50F
330
1E2
100
AcDbEntity
  8
R-ANNO-DIMS
 62
     0
100
AcDbTrace
 10
5.313628948268195
 20
8.999136271503582
 30
0.0
 11
5.313628948268195
 21
8.91580293817025
 31
0.0
 12
5.063628948268195
 22
8.957469604836916
 32
0.0
 13
5.063628948268195
 23
8.957469604836916
 33
0.0
  0
MTEXT
  5
510
330
1E2
100
AcDbEntity
  8
R-ANNO-DIMS
 62
     0
100
AcDbMText
 10
6.189047052952453
 20
9.207469604836916
 30
0.0
 40
0.25
 41
0.0
 71
     5
 72
     1
  1
\A1;D.L.O.
  7
ROMAND
 73
     1
 44
1.0
1001
ACAD
1000
MTEXTBEGIN
1070
    73
1070
     1
1070
    44
1040
1.0
1070
    74
1070
     0
1000
MTEXTEND
  0
POINT
  5
511
330
1E2
100
AcDbEntity
  8
DEFPOINTS
 62
     0
100
AcDbPoint
 10
7.064465157636711
 20
16.02330581420541
 30
0.0
  0
POINT
  5
512
330
1E2
100
AcDbEntity
  8
DEFPOINTS
 62
     0
100
AcDbPoint
 10
5.063628948268195
 20
13.70830581420541
 30
0.0
  0
POINT
  5
513
330
1E2
100
AcDbEntity
  8
DEFPOINTS
 62
     0
100
AcDbPoint
 10
5.063628948268195
 20
8.957469604836916
 30
0.0
  0
ENDBLK
  5
1EC
330
1E2
100
AcDbEntity
  8
0
100
AcDbBlockEnd
  0
BLOCK
  5
1F9
330
1ED
100
AcDbEntity
  8
0
100
AcDbBlockBegin
  2
*D4
 70
     1
 10
0.0
 20
0.0
 30
0.0
  3
*D4
  1

  0
LINE
  5
514
330
1ED
100
AcDbEntity
  8
R-ANNO-DIMS
 62
     0
370
    -2
100
AcDbLine
 10
7.064465157636711
 20
15.77330581420541
 30
0.0
 11
7.064465157636711
 21
8.832469604836916
 31
0.0
  0
LINE
  5
515
330
1ED
100
AcDbEntity
  8
R-ANNO-DIMS
 62
     0
370
    -2
100
AcDbLine
 10
8.564465157636711
 20
10.20746960483691
 30
0.0
 11
8.564465157636711
 21
8.832469604836916
 31
0.0
  0
LINE
  5
516
330
1ED
100
AcDbEntity
  8
R-ANNO-DIMS
 62
     0
370
    -2
100
AcDbLine
 10
7.064465157636711
 20
8.957469604836916
 30
0.0
 11
6.814465157636711
 21
8.957469604836916
 31
0.0
  0
LINE
  5
517
330
1ED
100
AcDbEntity
  8
R-ANNO-DIMS
 62
     0
370
    -2
100
AcDbLine
 10
8.564465157636711
 20
8.957469604836916
 30
0.0
 11
8.814465157636711
 21
8.957469604836916
 31
0.0
  0
LINE
  5
518
330
1ED
100
AcDbEntity
  8
R-ANNO-DIMS
 62
     0
370
    -2
100
AcDbLine
 10
7.064465157636711
 20
8.957469604836916
 30
0.0
 11
8.564465157636711
 21
8.957469604836916
 31
0.0
  0
INSERT
  5
519
330
1ED
100
AcDbEntity
  8
R-ANNO-DIMS
 62
     0
370
    -2
100
AcDbBlockReference
  2
_OBLIQUE
 10
7.064465157636711
 20
8.957469604836916
 30
0.0
 41
0.25
 42
0.25
 43
0.25
  0
INSERT
  5
51A
330
1ED
100
AcDbEntity
  8
R-ANNO-DIMS
 62
     0
370
    -2
100
AcDbBlockReference
  2
_OBLIQUE
 10
8.564465157636711
 20
8.957469604836916
 30
0.0
 41
0.25
 42
0.25
 43
0.25
 50
180.0
  0
MTEXT
  5
51B
330
1ED
100
AcDbEntity
  8
R-ANNO-DIMS
 62
     0
100
AcDbMText
 10
7.814465157636711
 20
9.272945795313106
 30
0.0
 40
0.25
 41
0.0
 71
     5
 72
     1
  1
\A1;1 1/2"
  7
ROMAND
 73
     1
 44
1.0
1001
ACAD
1000
MTEXTBEGIN
1070
    73
1070
     1
1070
    44
1040
1.0
1070
    74
1070
     0
1000
MTEXTEND
  0
POINT
  5
51C
330
1ED
100
AcDbEntity
  8
DEFPOINTS
 62
     0
100
AcDbPoint
 10
7.064465157636711
 20
16.02330581420541
 30
0.0
  0
POINT
  5
51D
330
1ED
100
AcDbEntity
  8
DEFPOINTS
 62
     0
100
AcDbPoint
 10
8.564465157636711
 20
10.45746960483691
 30
0.0
  0
POINT
  5
51E
330
1ED
100
AcDbEntity
  8
DEFPOINTS
 62
     0
100
AcDbPoint
 10
8.564465157636711
 20
8.957469604836916
 30
0.0
  0
ENDBLK
  5
1FA
330
1ED
100
AcDbEntity
  8
0
100
AcDbBlockEnd
  0
BLOCK
  5
205
330
1FB
100
AcDbEntity
  8
0
100
AcDbBlockBegin
  2
*D5
 70
     1
 10
0.0
 20
0.0
 30
0.0
  3
*D5
  1

  0
LINE
  5
4D7
330
1FB
100
AcDbEntity
  8
R-ANNO-DIMS
 62
     0
370
    -2
100
AcDbLine
 10
4.813628948268195
 20
13.95830581420542
 30
0.0
 11
2.688613303293982
 21
13.95830581420542
 31
0.0
  0
LINE
  5
4D8
330
1FB
100
AcDbEntity
  8
R-ANNO-DIMS
 62
     0
370
    -2
100
AcDbLine
 10
4.813613303293983
 20
19.95830581420742
 30
0.0
 11
2.688613303293983
 21
19.95830581420742
 31
0.0
  0
LINE
  5
4D9
330
1FB
100
AcDbEntity
  8
R-ANNO-DIMS
 62
     0
370
    -2
100
AcDbLine
 10
2.813613303293982
 20
13.95830581420542
 30
0.0
 11
2.813613303293983
 21
19.95830581420742
 31
0.0
  0
INSERT
  5
4DA
330
1FB
100
AcDbEntity
  8
R-ANNO-DIMS
 62
     0
370
    -2
100
AcDbBlockReference
  2
_OBLIQUE
 10
2.813613303293982
 20
13.95830581420542
 30
0.0
 41
0.25
 42
0.25
 43
0.25
 50
270.0
  0
INSERT
  5
4DB
330
1FB
100
AcDbEntity
  8
R-ANNO-DIMS
 62
     0
370
    -2
100
AcDbBlockReference
  2
_OBLIQUE
 10
2.813613303293983
 20
19.95830581420742
 30
0.0
 41
0.25
 42
0.25
 43
0.25
 50
90.0
  0
MTEXT
  5
4DC
330
1FB
100
AcDbEntity
  8
R-ANNO-DIMS
 62
     0
100
AcDbMText
 10
2.539803779484456
 20
16.95830581420642
 30
0.0
 40
0.25
 41
0.0
 71
     5
 72
     1
  1
\A1;6"
  7
ROMAND
 11
0.0000000000000001
 21
1.0
 31
0.0
 73
     1
 44
1.0
1001
ACAD
1000
MTEXTBEGIN
1070
    73
1070
     1
1070
    44
1040
1.0
1070
    74
1070
     0
1000
MTEXTEND
  0
POINT
  5
4DD
330
1FB
100
AcDbEntity
  8
DEFPOINTS
 62
     0
100
AcDbPoint
 10
5.063628948268195
 20
13.95830581420542
 30
0.0
  0
POINT
  5
4DE
330
1FB
100
AcDbEntity
  8
DEFPOINTS
 62
     0
100
AcDbPoint
 10
5.063613303293983
 20
19.95830581420742
 30
0.0
  0
POINT
  5
4DF
330
1FB
100
AcDbEntity
  8
DEFPOINTS
 62
     0
100
AcDbPoint
 10
2.813613303293983
 20
19.95830581420742
 30
0.0
  0
ENDBLK
  5
206
330
1FB
100
AcDbEntity
  8
0
100
AcDbBlockEnd
  0
BLOCK
  5
210
330
207
100
AcDbEntity
  8
0
100
AcDbBlockBegin
  2
*D6
 70
     1
 10
0.0
 20
0.0
 30
0.0
  3
*D6
  1

  0
LINE
  5
4E0
330
207
100
AcDbEntity
  8
R-ANNO-DIMS
 62
     0
370
    -2
100
AcDbLine
 10
4.813628948268195
 20
13.95830581420542
 30
0.0
 11
2.688613303293927
 21
13.95830581420542
 31
0.0
  0
LINE
  5
4E1
330
207
100
AcDbEntity
  8
R-ANNO-DIMS
 62
     0
370
    -2
100
AcDbLine
 10
2.813613303293927
 20
13.95830581420542
 30
0.0
 11
2.813613303293927
 21
10.70746960483692
 31
0.0
  0
INSERT
  5
4E2
330
207
100
AcDbEntity
  8
R-ANNO-DIMS
 62
     0
370
    -2
100
AcDbBlockReference
  2
_OBLIQUE
 10
2.813613303293927
 20
13.95830581420542
 30
0.0
 41
0.25
 42
0.25
 43
0.25
 50
90.0
  0
SOLID
  5
4E3
330
207
100
AcDbEntity
  8
R-ANNO-DIMS
 62
     0
100
AcDbTrace
 10
2.77194663662726
 20
10.70746960483692
 30
0.0
 11
2.855279969960593
 21
10.70746960483692
 31
0.0
 12
2.813613303293927
 22
10.45746960483691
 32
0.0
 13
2.813613303293927
 23
10.45746960483691
 33
0.0
  0
MTEXT
  5
4E4
330
207
100
AcDbEntity
  8
R-ANNO-DIMS
 62
     0
100
AcDbMText
 10
2.563613303293925
 20
12.33288770952117
 30
0.0
 40
0.25
 41
0.0
 71
     5
 72
     1
  1
\A1;F.W.
  7
ROMAND
 11
0.0000000000000001
 21
1.0
 31
0.0
 73
     1
 44
1.0
1001
ACAD
1000
MTEXTBEGIN
1070
    73
1070
     1
1070
    44
1040
1.0
1070
    74
1070
     0
1000
MTEXTEND
  0
POINT
  5
4E5
330
207
100
AcDbEntity
  8
DEFPOINTS
 62
     0
100
AcDbPoint
 10
5.063628948268195
 20
13.95830581420542
 30
0.0
  0
POINT
  5
4E6
330
207
100
AcDbEntity
  8
DEFPOINTS
 62
     0
100
AcDbPoint
 10
8.314465157636711
 20
10.45746960483691
 30
0.0
  0
POINT
  5
4E7
330
207
100
AcDbEntity
  8
DEFPOINTS
 62
     0
100
AcDbPoint
 10
2.813613303293927
 20
10.45746960483691
 30
0.0
  0
ENDBLK
  5
211
330
207
100
AcDbEntity
  8
0
100
AcDbBlockEnd
  0
BLOCK
  5
21B
330
212
100
AcDbEntity
  8
0
100
AcDbBlockBegin
  2
*D7
 70
     1
 10
0.0
 20
0.0
 30
0.0
  3
*D7
  1

  0
LINE
  5
4E8
330
212
100
AcDbEntity
  8
R-ANNO-DIMS
 62
     0
370
    -2
100
AcDbLine
 10
10.37946515763665
 20
12.45830581420544
 30
0.0
 11
3.438628948268196
 21
12.45830581420544
 31
0.0
  0
LINE
  5
4E9
330
212
100
AcDbEntity
  8
R-ANNO-DIMS
 62
     0
370
    -2
100
AcDbLine
 10
3.563628948268196
 20
12.45830581420544
 30
0.0
 11
3.563628948268195
 21
10.70746960483692
 31
0.0
  0
INSERT
  5
4EA
330
212
100
AcDbEntity
  8
R-ANNO-DIMS
 62
     0
370
    -2
100
AcDbBlockReference
  2
_OBLIQUE
 10
3.563628948268196
 20
12.45830581420544
 30
0.0
 41
0.25
 42
0.25
 43
0.25
 50
90.0
  0
SOLID
  5
4EB
330
212
100
AcDbEntity
  8
R-ANNO-DIMS
 62
     0
100
AcDbTrace
 10
3.521962281601529
 20
10.70746960483692
 30
0.0
 11
3.605295614934862
 21
10.70746960483692
 31
0.0
 12
3.563628948268195
 22
10.45746960483691
 32
0.0
 13
3.563628948268195
 23
10.45746960483691
 33
0.0
  0
MTEXT
  5
4EC
330
212
100
AcDbEntity
  8
R-ANNO-DIMS
 62
     0
100
AcDbMText
 10
3.313628948268194
 20
11.58288770952118
 30
0.0
 40
0.25
 41
0.0
 71
     5
 72
     1
  1
\A1;D.L.O.
  7
ROMAND
 11
0.0000000000000001
 21
1.0
 31
0.0
 73
     1
 44
1.0
1001
ACAD
1000
MTEXTBEGIN
1070
    73
1070
     1
1070
    44
1040
1.0
1070
    74
1070
     0
1000
MTEXTEND
  0
POINT
  5
4ED
330
212
100
AcDbEntity
  8
DEFPOINTS
 62
     0
100
AcDbPoint
 10
10.62946515763665
 20
12.45830581420544
 30
0.0
  0
POINT
  5
4EE
330
212
100
AcDbEntity
  8
DEFPOINTS
 62
     0
100
AcDbPoint
 10
8.314465157636711
 20
10.45746960483691
 30
0.0
  0
POINT
  5
4EF
330
212
100
AcDbEntity
  8
DEFPOINTS
 62
     0
100
AcDbPoint
 10
3.563628948268195
 20
10.45746960483691
 30
0.0
  0
ENDBLK
  5
21C
330
212
100
AcDbEntity
  8
0
100
AcDbBlockEnd
  0
BLOCK
  5
229
330
21D
100
AcDbEntity
  8
0
100
AcDbBlockBegin
  2
*D8
 70
     1
 10
0.0
 20
0.0
 30
0.0
  3
*D8
  1

  0
LINE
  5
4F0
330
21D
100
AcDbEntity
  8
R-ANNO-DIMS
 62
     0
370
    -2
100
AcDbLine
 10
10.37946515763665
 20
12.45830581420544
 30
0.0
 11
3.438628948268195
 21
12.45830581420544
 31
0.0
  0
LINE
  5
4F1
330
21D
100
AcDbEntity
  8
R-ANNO-DIMS
 62
     0
370
    -2
100
AcDbLine
 10
4.813628948268195
 20
13.95830581420542
 30
0.0
 11
3.438628948268195
 21
13.95830581420542
 31
0.0
  0
LINE
  5
4F2
330
21D
100
AcDbEntity
  8
R-ANNO-DIMS
 62
     0
370
    -2
100
AcDbLine
 10
3.563628948268195
 20
12.45830581420544
 30
0.0
 11
3.563628948268195
 21
12.20830581420544
 31
0.0
  0
LINE
  5
4F3
330
21D
100
AcDbEntity
  8
R-ANNO-DIMS
 62
     0
370
    -2
100
AcDbLine
 10
3.563628948268195
 20
13.95830581420542
 30
0.0
 11
3.563628948268195
 21
14.20830581420542
 31
0.0
  0
LINE
  5
4F4
330
21D
100
AcDbEntity
  8
R-ANNO-DIMS
 62
     0
370
    -2
100
AcDbLine
 10
3.563628948268195
 20
12.45830581420544
 30
0.0
 11
3.563628948268195
 21
13.95830581420542
 31
0.0
  0
INSERT
  5
4F5
330
21D
100
AcDbEntity
  8
R-ANNO-DIMS
 62
     0
370
    -2
100
AcDbBlockReference
  2
_OBLIQUE
 10
3.563628948268195
 20
12.45830581420544
 30
0.0
 41
0.25
 42
0.25
 43
0.25
 50
90.0
  0
INSERT
  5
4F6
330
21D
100
AcDbEntity
  8
R-ANNO-DIMS
 62
     0
370
    -2
100
AcDbBlockReference
  2
_OBLIQUE
 10
3.563628948268195
 20
13.95830581420542
 30
0.0
 41
0.25
 42
0.25
 43
0.25
 50
270.0
  0
MTEXT
  5
4F7
330
21D
100
AcDbEntity
  8
R-ANNO-DIMS
 62
     0
100
AcDbMText
 10
3.248152757792003
 20
13.20830581420543
 30
0.0
 40
0.25
 41
0.0
 71
     5
 72
     1
  1
\A1;1 1/2"
  7
ROMAND
 11
0.0000000000000001
 21
1.0
 31
0.0
 73
     1
 44
1.0
1001
ACAD
1000
MTEXTBEGIN
1070
    73
1070
     1
1070
    44
1040
1.0
1070
    74
1070
     0
1000
MTEXTEND
  0
POINT
  5
4F8
330
21D
100
AcDbEntity
  8
DEFPOINTS
 62
     0
100
AcDbPoint
 10
10.62946515763665
 20
12.45830581420544
 30
0.0
  0
POINT
  5
4F9
330
21D
100
AcDbEntity
  8
DEFPOINTS
 62
     0
100
AcDbPoint
 10
5.063628948268195
 20
13.95830581420542
 30
0.0
  0
POINT
  5
4FA
330
21D
100
AcDbEntity
  8
DEFPOINTS
 62
     0
100
AcDbPoint
 10
3.563628948268195
 20
13.95830581420542
 30
0.0
  0
ENDBLK
  5
22A
330
21D
100
AcDbEntity
  8
0
100
AcDbBlockEnd
  0
BLOCK
  5
235
330
22B
100
AcDbEntity
  8
0
100
AcDbBlockBegin
  2
*D9
 70
     1
 10
0.0
 20
0.0
 30
0.0
  3
*D9
  1

  0
LINE
  5
567
330
22B
100
AcDbEntity
  8
R-ANNO-DIMS
 62
     0
370
    -2
100
AcDbLine
 10
14.79946515763883
 20
13.33345395985935
 30
0.0
 11
15.42446515763883
 21
13.33345395985935
 31
0.0
  0
LINE
  5
568
330
22B
100
AcDbEntity
  8
R-ANNO-DIMS
 62
     0
370
    -2
100
AcDbLine
 10
14.79946515763883
 20
13.95845395986191
 30
0.0
 11
15.42446515763883
 21
13.95845395986191
 31
0.0
  0
LINE
  5
569
330
22B
100
AcDbEntity
  8
R-ANNO-DIMS
 62
     0
370
    -2
100
AcDbLine
 10
15.29946515763883
 20
13.33345395985935
 30
0.0
 11
15.29946515763883
 21
13.95845395986191
 31
0.0
  0
MTEXT
  5
56A
330
22B
100
AcDbEntity
  8
R-ANNO-DIMS
 62
     0
100
AcDbMText
 10
14.98398896716263
 20
12.75468467069083
 30
0.0
 40
0.25
 41
0.0
 71
     5
 72
     1
  1
\A1;5/8"
  7
ROMAND
 11
0.0000000000000001
 21
1.0
 31
0.0
 73
     1
 44
1.0
1001
ACAD
1000
MTEXTBEGIN
1070
    73
1070
     1
1070
    44
1040
1.0
1070
    74
1070
     0
1000
MTEXTEND
  0
INSERT
  5
56B
330
22B
100
AcDbEntity
  8
R-ANNO-DIMS
 62
     0
370
    -2
100
AcDbBlockReference
  2
_OBLIQUE
 10
15.29946515763883
 20
13.33345395985935
 30
0.0
 41
0.25
 42
0.25
 43
0.25
 50
270.0
  0
INSERT
  5
56C
330
22B
100
AcDbEntity
  8
R-ANNO-DIMS
 62
     0
370
    -2
100
AcDbBlockReference
  2
_OBLIQUE
 10
15.29946515763883
 20
13.95845395986191
 30
0.0
 41
0.25
 42
0.25
 43
0.25
 50
90.0
  0
POINT
  5
56D
330
22B
100
AcDbEntity
  8
DEFPOINTS
 62
     0
100
AcDbPoint
 10
14.54946515763882
 20
13.33345395985935
 30
0.0
  0
POINT
  5
56E
330
22B
100
AcDbEntity
  8
DEFPOINTS
 62
     0
100
AcDbPoint
 10
14.54946515763882
 20
13.95845395986191
 30
0.0
  0
POINT
  5
56F
330
22B
100
AcDbEntity
  8
DEFPOINTS
 62
     0
100
AcDbPoint
 10
15.29946515763883
 20
13.95845395986191
 30
0.0
  0
ENDBLK
  5
236
330
22B
100
AcDbEntity
  8
0
100
AcDbBlockEnd
  0
BLOCK
  5
243
330
237
100
AcDbEntity
  8
0
100
AcDbBlockBegin
  2
*D10
 70
     1
 10
0.0
 20
0.0
 30
0.0
  3
*D10
  1

  0
LINE
  5
4CC
330
237
100
AcDbEntity
  8
R-ANNO-DIMS
 62
     0
370
    -2
100
AcDbLine
 10
7.939613303290606
 20
20.19330581420759
 30
0.0
 11
7.939613303290606
 21
20.81830581420759
 31
0.0
  0
LINE
  5
4CD
330
237
100
AcDbEntity
  8
R-ANNO-DIMS
 62
     0
370
    -2
100
AcDbLine
 10
8.564613303293164
 20
20.19330581420759
 30
0.0
 11
8.564613303293164
 21
20.81830581420759
 31
0.0
  0
LINE
  5
4CE
330
237
100
AcDbEntity
  8
R-ANNO-DIMS
 62
     0
370
    -2
100
AcDbLine
 10
7.939613303290606
 20
20.69330581420759
 30
0.0
 11
7.689613303290606
 21
20.69330581420759
 31
0.0
  0
LINE
  5
4CF
330
237
100
AcDbEntity
  8
R-ANNO-DIMS
 62
     0
370
    -2
100
AcDbLine
 10
8.564613303293164
 20
20.69330581420759
 30
0.0
 11
8.814613303293164
 21
20.69330581420759
 31
0.0
  0
LINE
  5
4D0
330
237
100
AcDbEntity
  8
R-ANNO-DIMS
 62
     0
370
    -2
100
AcDbLine
 10
7.939613303290606
 20
20.69330581420759
 30
0.0
 11
8.564613303293164
 21
20.69330581420759
 31
0.0
  0
INSERT
  5
4D1
330
237
100
AcDbEntity
  8
R-ANNO-DIMS
 62
     0
370
    -2
100
AcDbBlockReference
  2
_OBLIQUE
 10
7.939613303290606
 20
20.69330581420759
 30
0.0
 41
0.25
 42
0.25
 43
0.25
  0
INSERT
  5
4D2
330
237
100
AcDbEntity
  8
R-ANNO-DIMS
 62
     0
370
    -2
100
AcDbBlockReference
  2
_OBLIQUE
 10
8.564613303293164
 20
20.69330581420759
 30
0.0
 41
0.25
 42
0.25
 43
0.25
 50
180.0
  0
MTEXT
  5
4D3
330
237
100
AcDbEntity
  8
R-ANNO-DIMS
 62
     0
100
AcDbMText
 10
8.252113303291885
 20
21.00878200468378
 30
0.0
 40
0.25
 41
0.0
 71
     5
 72
     1
  1
\A1;5/8"
  7
ROMAND
 73
     1
 44
1.0
1001
ACAD
1000
MTEXTBEGIN
1070
    73
1070
     1
1070
    44
1040
1.0
1070
    74
1070
     0
1000
MTEXTEND
  0
POINT
  5
4D4
330
237
100
AcDbEntity
  8
DEFPOINTS
 62
     0
100
AcDbPoint
 10
7.939613303290606
 20
19.94330581420759
 30
0.0
  0
POINT
  5
4D5
330
237
100
AcDbEntity
  8
DEFPOINTS
 62
     0
100
AcDbPoint
 10
8.564613303293164
 20
19.94330581420759
 30
0.0
  0
POINT
  5
4D6
330
237
100
AcDbEntity
  8
DEFPOINTS
 62
     0
100
AcDbPoint
 10
8.564613303293164
 20
20.69330581420759
 30
0.0
  0
ENDBLK
  5
244
330
237
100
AcDbEntity
  8
0
100
AcDbBlockEnd
  0
BLOCK
  5
24E
330
245
100
AcDbEntity
  8
0
100
AcDbBlockBegin
  2
*D11
 70
     1
 10
0.0
 20
0.0
 30
0.0
  3
*D11
  1

  0
LINE
  5
51F
330
245
100
AcDbEntity
  8
R-ANNO-DIMS
 62
     0
370
    -2
100
AcDbLine
 10
31.69185979025488
 20
10.12766971027363
 30
0.0
 11
31.69185979025488
 21
8.299120236745629
 31
0.0
  0
LINE
  5
520
330
245
100
AcDbEntity
  8
R-ANNO-DIMS
 62
     0
370
    -2
100
AcDbLine
 10
31.69185979025488
 20
8.424120236745629
 30
0.0
 11
34.94287543522833
 21
8.424120236745629
 31
0.0
  0
INSERT
  5
521
330
245
100
AcDbEntity
  8
R-ANNO-DIMS
 62
     0
370
    -2
100
AcDbBlockReference
  2
_OBLIQUE
 10
31.69185979025488
 20
8.424120236745629
 30
0.0
 41
0.25
 42
0.25
 43
0.25
 50
180.0
  0
SOLID
  5
522
330
245
100
AcDbEntity
  8
R-ANNO-DIMS
 62
     0
100
AcDbTrace
 10
34.94287543522833
 20
8.465786903412295
 30
0.0
 11
34.94287543522833
 21
8.382453570078963
 31
0.0
 12
35.19287543522833
 22
8.424120236745629
 32
0.0
 13
35.19287543522833
 23
8.424120236745629
 33
0.0
  0
MTEXT
  5
523
330
245
100
AcDbEntity
  8
R-ANNO-DIMS
 62
     0
100
AcDbMText
 10
33.31736761274161
 20
8.674120236745629
 30
0.0
 40
0.25
 41
0.0
 71
     5
 72
     1
  1
\A1;F.W.
  7
ROMAND
 73
     1
 44
1.0
1001
ACAD
1000
MTEXTBEGIN
1070
    73
1070
     1
1070
    44
1040
1.0
1070
    74
1070
     0
1000
MTEXTEND
  0
POINT
  5
524
330
245
100
AcDbEntity
  8
DEFPOINTS
 62
     0
100
AcDbPoint
 10
31.69185979025488
 20
10.37766971027363
 30
0.0
  0
POINT
  5
525
330
245
100
AcDbEntity
  8
DEFPOINTS
 62
     0
100
AcDbPoint
 10
35.19287543522833
 20
10.12766971027363
 30
0.0
  0
POINT
  5
526
330
245
100
AcDbEntity
  8
DEFPOINTS
 62
     0
100
AcDbPoint
 10
35.19287543522833
 20
8.424120236745629
 30
0.0
  0
ENDBLK
  5
24F
330
245
100
AcDbEntity
  8
0
100
AcDbBlockEnd
  0
BLOCK
  5
25A
330
250
100
AcDbEntity
  8
0
100
AcDbBlockBegin
  2
*D12
 70
     1
 10
0.0
 20
0.0
 30
0.0
  3
*D12
  1

  0
LINE
  5
527
330
250
100
AcDbEntity
  8
R-ANNO-DIMS
 62
     0
370
    -2
100
AcDbLine
 10
31.69185979025488
 20
10.12766971027363
 30
0.0
 11
31.69185979025488
 21
8.299120236745615
 31
0.0
  0
LINE
  5
528
330
250
100
AcDbEntity
  8
R-ANNO-DIMS
 62
     0
370
    -2
100
AcDbLine
 10
25.69185979025293
 20
16.12766971027563
 30
0.0
 11
25.69185979025293
 21
8.299120236745615
 31
0.0
  0
LINE
  5
529
330
250
100
AcDbEntity
  8
R-ANNO-DIMS
 62
     0
370
    -2
100
AcDbLine
 10
31.69185979025488
 20
8.424120236745615
 30
0.0
 11
25.69185979025293
 21
8.424120236745615
 31
0.0
  0
INSERT
  5
52A
330
250
100
AcDbEntity
  8
R-ANNO-DIMS
 62
     0
370
    -2
100
AcDbBlockReference
  2
_OBLIQUE
 10
31.69185979025488
 20
8.424120236745615
 30
0.0
 41
0.25
 42
0.25
 43
0.25
  0
INSERT
  5
52B
330
250
100
AcDbEntity
  8
R-ANNO-DIMS
 62
     0
370
    -2
100
AcDbBlockReference
  2
_OBLIQUE
 10
25.69185979025293
 20
8.424120236745615
 30
0.0
 41
0.25
 42
0.25
 43
0.25
 50
180.0
  0
MTEXT
  5
52C
330
250
100
AcDbEntity
  8
R-ANNO-DIMS
 62
     0
100
AcDbMText
 10
28.6918597902539
 20
8.697929760555139
 30
0.0
 40
0.25
 41
0.0
 71
     5
 72
     1
  1
\A1;6"
  7
ROMAND
 73
     1
 44
1.0
1001
ACAD
1000
MTEXTBEGIN
1070
    73
1070
     1
1070
    44
1040
1.0
1070
    74
1070
     0
1000
MTEXTEND
  0
POINT
  5
52D
330
250
100
AcDbEntity
  8
DEFPOINTS
 62
     0
100
AcDbPoint
 10
31.69185979025488
 20
10.37766971027363
 30
0.0
  0
POINT
  5
52E
330
250
100
AcDbEntity
  8
DEFPOINTS
 62
     0
100
AcDbPoint
 10
25.69185979025293
 20
16.37766971027563
 30
0.0
  0
POINT
  5
52F
330
250
100
AcDbEntity
  8
DEFPOINTS
 62
     0
100
AcDbPoint
 10
25.69185979025293
 20
8.424120236745615
 30
0.0
  0
ENDBLK
  5
25B
330
250
100
AcDbEntity
  8
0
100
AcDbBlockEnd
  0
BLOCK
  5
268
330
25C
100
AcDbEntity
  8
0
100
AcDbBlockBegin
  2
*D13
 70
     1
 10
0.0
 20
0.0
 30
0.0
  3
*D13
  1

  0
LINE
  5
530
330
25C
100
AcDbEntity
  8
R-ANNO-DIMS
 62
     0
370
    -2
100
AcDbLine
 10
31.69185979025488
 20
10.12766971027363
 30
0.0
 11
31.69185979025488
 21
9.049120236745629
 31
0.0
  0
LINE
  5
531
330
25C
100
AcDbEntity
  8
R-ANNO-DIMS
 62
     0
370
    -2
100
AcDbLine
 10
33.19200793591134
 20
12.19266971027362
 30
0.0
 11
33.19200793591134
 21
9.049120236745629
 31
0.0
  0
LINE
  5
532
330
25C
100
AcDbEntity
  8
R-ANNO-DIMS
 62
     0
370
    -2
100
AcDbLine
 10
31.69185979025488
 20
9.174120236745629
 30
0.0
 11
31.44185979025488
 21
9.174120236745629
 31
0.0
  0
LINE
  5
533
330
25C
100
AcDbEntity
  8
R-ANNO-DIMS
 62
     0
370
    -2
100
AcDbLine
 10
33.19200793591134
 20
9.174120236745629
 30
0.0
 11
33.44200793591133
 21
9.174120236745629
 31
0.0
  0
LINE
  5
534
330
25C
100
AcDbEntity
  8
R-ANNO-DIMS
 62
     0
370
    -2
100
AcDbLine
 10
31.69185979025488
 20
9.174120236745629
 30
0.0
 11
33.19200793591134
 21
9.174120236745629
 31
0.0
  0
INSERT
  5
535
330
25C
100
AcDbEntity
  8
R-ANNO-DIMS
 62
     0
370
    -2
100
AcDbBlockReference
  2
_OBLIQUE
 10
31.69185979025488
 20
9.174120236745629
 30
0.0
 41
0.25
 42
0.25
 43
0.25
  0
INSERT
  5
536
330
25C
100
AcDbEntity
  8
R-ANNO-DIMS
 62
     0
370
    -2
100
AcDbBlockReference
  2
_OBLIQUE
 10
33.19200793591134
 20
9.174120236745629
 30
0.0
 41
0.25
 42
0.25
 43
0.25
 50
180.0
  0
MTEXT
  5
537
330
25C
100
AcDbEntity
  8
R-ANNO-DIMS
 62
     0
100
AcDbMText
 10
32.44193386308311
 20
9.489596427221819
 30
0.0
 40
0.25
 41
0.0
 71
     5
 72
     1
  1
\A1;1 1/2"
  7
ROMAND
 73
     1
 44
1.0
1001
ACAD
1000
MTEXTBEGIN
1070
    73
1070
     1
1070
    44
1040
1.0
1070
    74
1070
     0
1000
MTEXTEND
  0
POINT
  5
538
330
25C
100
AcDbEntity
  8
DEFPOINTS
 62
     0
100
AcDbPoint
 10
31.69185979025488
 20
10.37766971027363
 30
0.0
  0
POINT
  5
539
330
25C
100
AcDbEntity
  8
DEFPOINTS
 62
     0
100
AcDbPoint
 10
33.19200793591134
 20
12.44266971027362
 30
0.0
  0
POINT
  5
53A
330
25C
100
AcDbEntity
  8
DEFPOINTS
 62
     0
100
AcDbPoint
 10
33.19200793591134
 20
9.174120236745629
 30
0.0
  0
ENDBLK
  5
269
330
25C
100
AcDbEntity
  8
0
100
AcDbBlockEnd
  0
BLOCK
  5
273
330
26A
100
AcDbEntity
  8
0
100
AcDbBlockBegin
  2
*D14
 70
     1
 10
0.0
 20
0.0
 30
0.0
  3
*D14
  1

  0
LINE
  5
53B
330
26A
100
AcDbEntity
  8
R-ANNO-DIMS
 62
     0
370
    -2
100
AcDbLine
 10
33.19200793591134
 20
12.19266971027362
 30
0.0
 11
33.19200793591134
 21
9.049120236745629
 31
0.0
  0
LINE
  5
53C
330
26A
100
AcDbEntity
  8
R-ANNO-DIMS
 62
     0
370
    -2
100
AcDbLine
 10
33.19200793591134
 20
9.174120236745629
 30
0.0
 11
34.94287543522833
 21
9.174120236745629
 31
0.0
  0
INSERT
  5
53D
330
26A
100
AcDbEntity
  8
R-ANNO-DIMS
 62
     0
370
    -2
100
AcDbBlockReference
  2
_OBLIQUE
 10
33.19200793591134
 20
9.174120236745629
 30
0.0
 41
0.25
 42
0.25
 43
0.25
 50
180.0
  0
SOLID
  5
53E
330
26A
100
AcDbEntity
  8
R-ANNO-DIMS
 62
     0
100
AcDbTrace
 10
34.94287543522833
 20
9.215786903412295
 30
0.0
 11
34.94287543522833
 21
9.132453570078963
 31
0.0
 12
35.19287543522833
 22
9.174120236745629
 32
0.0
 13
35.19287543522833
 23
9.174120236745629
 33
0.0
  0
MTEXT
  5
53F
330
26A
100
AcDbEntity
  8
R-ANNO-DIMS
 62
     0
100
AcDbMText
 10
34.06744168556983
 20
9.424120236745629
 30
0.0
 40
0.25
 41
0.0
 71
     5
 72
     1
  1
\A1;D.L.O.
  7
ROMAND
 73
     1
 44
1.0
1001
ACAD
1000
MTEXTBEGIN
1070
    73
1070
     1
1070
    44
1040
1.0
1070
    74
1070
     0
1000
MTEXTEND
  0
POINT
  5
540
330
26A
100
AcDbEntity
  8
DEFPOINTS
 62
     0
100
AcDbPoint
 10
33.19200793591134
 20
12.44266971027362
 30
0.0
  0
POINT
  5
541
330
26A
100
AcDbEntity
  8
DEFPOINTS
 62
     0
100
AcDbPoint
 10
35.19287543522833
 20
10.12766971027363
 30
0.0
  0
POINT
  5
542
330
26A
100
AcDbEntity
  8
DEFPOINTS
 62
     0
100
AcDbPoint
 10
35.19287543522833
 20
9.174120236745629
 30
0.0
  0
ENDBLK
  5
274
330
26A
100
AcDbEntity
  8
0
100
AcDbBlockEnd
  0
BLOCK
  5
281
330
275
100
AcDbEntity
  8
0
100
AcDbBlockBegin
  2
*D15
 70
     1
 10
0.0
 20
0.0
 30
0.0
  3
*D15
  1

  0
LINE
  5
543
330
275
100
AcDbEntity
  8
R-ANNO-DIMS
 62
     0
370
    -2
100
AcDbLine
 10
25.44185979025293
 20
16.37766971027563
 30
0.0
 11
24.32164403984198
 21
16.37766971027563
 31
0.0
  0
LINE
  5
544
330
275
100
AcDbEntity
  8
R-ANNO-DIMS
 62
     0
370
    -2
100
AcDbLine
 10
27.50685979025289
 20
17.87781785593208
 30
0.0
 11
24.32164403984198
 21
17.87781785593208
 31
0.0
  0
LINE
  5
545
330
275
100
AcDbEntity
  8
R-ANNO-DIMS
 62
     0
370
    -2
100
AcDbLine
 10
24.44664403984198
 20
16.37766971027563
 30
0.0
 11
24.44664403984198
 21
16.12766971027563
 31
0.0
  0
LINE
  5
546
330
275
100
AcDbEntity
  8
R-ANNO-DIMS
 62
     0
370
    -2
100
AcDbLine
 10
24.44664403984198
 20
17.87781785593208
 30
0.0
 11
24.44664403984198
 21
18.12781785593208
 31
0.0
  0
LINE
  5
547
330
275
100
AcDbEntity
  8
R-ANNO-DIMS
 62
     0
370
    -2
100
AcDbLine
 10
24.44664403984198
 20
16.37766971027563
 30
0.0
 11
24.44664403984198
 21
17.87781785593208
 31
0.0
  0
INSERT
  5
548
330
275
100
AcDbEntity
  8
R-ANNO-DIMS
 62
     0
370
    -2
100
AcDbBlockReference
  2
_OBLIQUE
 10
24.44664403984198
 20
16.37766971027563
 30
0.0
 41
0.25
 42
0.25
 43
0.25
 50
90.0
  0
INSERT
  5
549
330
275
100
AcDbEntity
  8
R-ANNO-DIMS
 62
     0
370
    -2
100
AcDbBlockReference
  2
_OBLIQUE
 10
24.44664403984198
 20
17.87781785593208
 30
0.0
 41
0.25
 42
0.25
 43
0.25
 50
270.0
  0
MTEXT
  5
54A
330
275
100
AcDbEntity
  8
R-ANNO-DIMS
 62
     0
100
AcDbMText
 10
24.13116784936578
 20
17.12774378310387
 30
0.0
 40
0.25
 41
0.0
 71
     5
 72
     1
  1
\A1;1 1/2"
  7
ROMAND
 11
0.0000000000000001
 21
1.0
 31
0.0
 73
     1
 44
1.0
1001
ACAD
1000
MTEXTBEGIN
1070
    73
1070
     1
1070
    44
1040
1.0
1070
    74
1070
     0
1000
MTEXTEND
  0
POINT
  5
54B
330
275
100
AcDbEntity
  8
DEFPOINTS
 62
     0
100
AcDbPoint
 10
25.69185979025293
 20
16.37766971027563
 30
0.0
  0
POINT
  5
54C
330
275
100
AcDbEntity
  8
DEFPOINTS
 62
     0
100
AcDbPoint
 10
27.75685979025289
 20
17.87781785593208
 30
0.0
  0
POINT
  5
54D
330
275
100
AcDbEntity
  8
DEFPOINTS
 62
     0
100
AcDbPoint
 10
24.44664403984198
 20
17.87781785593208
 30
0.0
  0
ENDBLK
  5
282
330
275
100
AcDbEntity
  8
0
100
AcDbBlockEnd
  0
BLOCK
  5
28C
330
283
100
AcDbEntity
  8
0
100
AcDbBlockBegin
  2
*D16
 70
     1
 10
0.0
 20
0.0
 30
0.0
  3
*D16
  1

  0
LINE
  5
556
330
283
100
AcDbEntity
  8
R-ANNO-DIMS
 62
     0
370
    -2
100
AcDbLine
 10
25.44185979025293
 20
16.37766971027563
 30
0.0
 11
23.57164403984198
 21
16.37766971027564
 31
0.0
  0
LINE
  5
557
330
283
100
AcDbEntity
  8
R-ANNO-DIMS
 62
     0
370
    -2
100
AcDbLine
 10
23.69664403984198
 20
16.37766971027564
 30
0.0
 11
23.69664403984198
 21
19.62865406530065
 31
0.0
  0
INSERT
  5
558
330
283
100
AcDbEntity
  8
R-ANNO-DIMS
 62
     0
370
    -2
100
AcDbBlockReference
  2
_OBLIQUE
 10
23.69664403984198
 20
16.37766971027564
 30
0.0
 41
0.25
 42
0.25
 43
0.25
 50
270.0
  0
SOLID
  5
559
330
283
100
AcDbEntity
  8
R-ANNO-DIMS
 62
     0
100
AcDbTrace
 10
23.65497737317531
 20
19.62865406530065
 30
0.0
 11
23.73831070650865
 21
19.62865406530065
 31
0.0
 12
23.69664403984198
 22
19.87865406530065
 32
0.0
 13
23.69664403984198
 23
19.87865406530065
 33
0.0
  0
MTEXT
  5
55A
330
283
100
AcDbEntity
  8
R-ANNO-DIMS
 62
     0
100
AcDbMText
 10
23.44664403984197
 20
18.00316188778814
 30
0.0
 40
0.25
 41
0.0
 71
     5
 72
     1
  1
\A1;F.W.
  7
ROMAND
 11
0.0000000000000001
 21
1.0
 31
0.0
 73
     1
 44
1.0
1001
ACAD
1000
MTEXTBEGIN
1070
    73
1070
     1
1070
    44
1040
1.0
1070
    74
1070
     0
1000
MTEXTEND
  0
POINT
  5
55B
330
283
100
AcDbEntity
  8
DEFPOINTS
 62
     0
100
AcDbPoint
 10
25.69185979025293
 20
16.37766971027563
 30
0.0
  0
POINT
  5
55C
330
283
100
AcDbEntity
  8
DEFPOINTS
 62
     0
100
AcDbPoint
 10
25.4418597902529
 20
19.87865406530064
 30
0.0
  0
POINT
  5
55D
330
283
100
AcDbEntity
  8
DEFPOINTS
 62
     0
100
AcDbPoint
 10
23.69664403984198
 20
19.87865406530065
 30
0.0
  0
ENDBLK
  5
28D
330
283
100
AcDbEntity
  8
0
100
AcDbBlockEnd
  0
BLOCK
  5
298
330
28E
100
AcDbEntity
  8
0
100
AcDbBlockBegin
  2
*D17
 70
     1
 10
0.0
 20
0.0
 30
0.0
  3
*D17
  1

  0
LINE
  5
55E
330
28E
100
AcDbEntity
  8
R-ANNO-DIMS
 62
     0
370
    -2
100
AcDbLine
 10
25.44185979025293
 20
16.37766971027563
 30
0.0
 11
23.57164403984198
 21
16.37766971027564
 31
0.0
  0
LINE
  5
55F
330
28E
100
AcDbEntity
  8
R-ANNO-DIMS
 62
     0
370
    -2
100
AcDbLine
 10
31.44185979025488
 20
10.37766971027363
 30
0.0
 11
23.57164403984198
 21
10.37766971027364
 31
0.0
  0
LINE
  5
560
330
28E
100
AcDbEntity
  8
R-ANNO-DIMS
 62
     0
370
    -2
100
AcDbLine
 10
23.69664403984198
 20
16.37766971027564
 30
0.0
 11
23.69664403984198
 21
10.37766971027364
 31
0.0
  0
INSERT
  5
561
330
28E
100
AcDbEntity
  8
R-ANNO-DIMS
 62
     0
370
    -2
100
AcDbBlockReference
  2
_OBLIQUE
 10
23.69664403984198
 20
16.37766971027564
 30
0.0
 41
0.25
 42
0.25
 43
0.25
 50
90.0
  0
INSERT
  5
562
330
28E
100
AcDbEntity
  8
R-ANNO-DIMS
 62
     0
370
    -2
100
AcDbBlockReference
  2
_OBLIQUE
 10
23.69664403984198
 20
10.37766971027364
 30
0.0
 41
0.25
 42
0.25
 43
0.25
 50
270.0
  0
MTEXT
  5
563
330
28E
100
AcDbEntity
  8
R-ANNO-DIMS
 62
     0
100
AcDbMText
 10
23.42283451603245
 20
13.37766971027464
 30
0.0
 40
0.25
 41
0.0
 71
     5
 72
     1
  1
\A1;6"
  7
ROMAND
 11
0.0000000000000001
 21
1.0
 31
0.0
 73
     1
 44
1.0
1001
ACAD
1000
MTEXTBEGIN
1070
    73
1070
     1
1070
    44
1040
1.0
1070
    74
1070
     0
1000
MTEXTEND
  0
POINT
  5
564
330
28E
100
AcDbEntity
  8
DEFPOINTS
 62
     0
100
AcDbPoint
 10
25.69185979025293
 20
16.37766971027563
 30
0.0
  0
POINT
  5
565
330
28E
100
AcDbEntity
  8
DEFPOINTS
 62
     0
100
AcDbPoint
 10
31.69185979025488
 20
10.37766971027363
 30
0.0
  0
POINT
  5
566
330
28E
100
AcDbEntity
  8
DEFPOINTS
 62
     0
100
AcDbPoint
 10
23.69664403984198
 20
10.37766971027364
 30
0.0
  0
ENDBLK
  5
299
330
28E
100
AcDbEntity
  8
0
100
AcDbBlockEnd
  0
BLOCK
  5
2A3
330
29A
100
AcDbEntity
  8
0
100
AcDbBlockBegin
  2
*D18
 70
     1
 10
0.0
 20
0.0
 30
0.0
  3
*D18
  1

  0
LINE
  5
54E
330
29A
100
AcDbEntity
  8
R-ANNO-DIMS
 62
     0
370
    -2
100
AcDbLine
 10
27.50685979025289
 20
17.87781785593208
 30
0.0
 11
24.32164403984198
 21
17.87781785593208
 31
0.0
  0
LINE
  5
54F
330
29A
100
AcDbEntity
  8
R-ANNO-DIMS
 62
     0
370
    -2
100
AcDbLine
 10
24.44664403984198
 20
17.87781785593208
 30
0.0
 11
24.44664403984198
 21
19.62865406530064
 31
0.0
  0
INSERT
  5
550
330
29A
100
AcDbEntity
  8
R-ANNO-DIMS
 62
     0
370
    -2
100
AcDbBlockReference
  2
_OBLIQUE
 10
24.44664403984198
 20
17.87781785593208
 30
0.0
 41
0.25
 42
0.25
 43
0.25
 50
270.0
  0
SOLID
  5
551
330
29A
100
AcDbEntity
  8
R-ANNO-DIMS
 62
     0
100
AcDbTrace
 10
24.40497737317531
 20
19.62865406530064
 30
0.0
 11
24.48831070650865
 21
19.62865406530064
 31
0.0
 12
24.44664403984198
 22
19.87865406530064
 32
0.0
 13
24.44664403984198
 23
19.87865406530064
 33
0.0
  0
MTEXT
  5
552
330
29A
100
AcDbEntity
  8
R-ANNO-DIMS
 62
     0
100
AcDbMText
 10
24.19664403984198
 20
18.75323596061637
 30
0.0
 40
0.25
 41
0.0
 71
     5
 72
     1
  1
\A1;D.L.O.
  7
ROMAND
 11
0.0000000000000001
 21
1.0
 31
0.0
 73
     1
 44
1.0
1001
ACAD
1000
MTEXTBEGIN
1070
    73
1070
     1
1070
    44
1040
1.0
1070
    74
1070
     0
1000
MTEXTEND
  0
POINT
  5
553
330
29A
100
AcDbEntity
  8
DEFPOINTS
 62
     0
100
AcDbPoint
 10
27.75685979025289
 20
17.87781785593208
 30
0.0
  0
POINT
  5
554
330
29A
100
AcDbEntity
  8
DEFPOINTS
 62
     0
100
AcDbPoint
 10
25.4418597902529
 20
19.87865406530064
 30
0.0
  0
POINT
  5
555
330
29A
100
AcDbEntity
  8
DEFPOINTS
 62
     0
100
AcDbPoint
 10
24.44664403984198
 20
19.87865406530064
 30
0.0
  0
ENDBLK
  5
2A4
330
29A
100
AcDbEntity
  8
0
100
AcDbBlockEnd
  0
BLOCK
  5
B6B
330
B5F
100
AcDbEntity
  8
0
100
AcDbBlockBegin
  2
Kawneer Logo English
 70
     0
 10
0.0
 20
0.0
 30
0.0
  3
Kawneer Logo English
  1

  0
MTEXT
  5
B60
102
{ACAD_XDICTIONARY
360
BC8
102
}
330
B5F
100
AcDbEntity
  8
Kawneer Logo-English
100
AcDbMText
 10
1.510096758583198
 20
0.0372523876656778
 30
0.0
 40
0.036
 41
0.6125900866323382
 71
     3
 72
     5
  1
{\fArial TUR|b0|i0|c0|p34;\T1.05;AN ARCONIC COMPANY}
 73
     1
 44
1.0
1001
ACAD
1000
ACAD_MTEXT_COLUMN_INFO_BEGIN
1070
    75
1070
     2
1070
    79
1070
     0
1070
    76
1070
     1
1070
    78
1070
     0
1070
    48
1040
0.6125900866323382
1070
    49
1040
1.0
1070
    50
1070
     1
1040
0.0
1000
ACAD_MTEXT_COLUMN_INFO_END
1000
MTEXTBEGIN
1070
    73
1070
     1
1070
    44
1040
1.0
1070
    74
1070
     0
1000
MTEXTEND
  0
HATCH
  5
B61
330
B5F
100
AcDbEntity
  8
Kawneer Logo-English
100
AcDbHatch
 10
0.0
 20
0.0
 30
0.0
210
0.0
220
0.0
230
1.0
  2
SOLID
 70
     1
 71
     0
 91
        1
 92
        1
 93
       81
 72
     1
 10
0.2706169776412204
 20
0.0336337282279411
 11
0.2687512969786691
 21
0.0350329887248546
 72
     1
 10
0.2687512969786696
 20
0.0350329887248547
 11
0.2633408230572721
 21
0.039137486182467
 72
     1
 10
0.2633408230572729
 20
0.0391374861824669
 11
0.2550385441089194
 21
0.0453875164020133
 72
     1
 10
0.2550385441089191
 20
0.0453875164020132
 11
0.2442175962661241
 21
0.053596511317238
 72
     1
 10
0.2442175962661235
 20
0.0535965113172379
 11
0.2314376837276472
 21
0.0632980507625037
 72
     1
 10
0.2314376837276479
 20
0.0632980507625037
 11
0.2172585106922595
 21
0.0741189986052996
 72
     1
 10
0.2172585106922598
 20
0.0741189986052996
 11
0.2019599292593419
 21
0.0856862187131167
 72
     1
 10
0.201959929259341
 20
0.0856862187131167
 11
0.1862882116939105
 21
0.0976265749534437
 72
     1
 10
0.1862882116939102
 20
0.0976265749534437
 11
0.1706164941284813
 21
0.1095669311937706
 72
     1
 10
0.1706164941284811
 20
0.1095669311937709
 11
0.1553179126955632
 21
0.1211341513015875
 72
     1
 10
0.1553179126955642
 20
0.1211341513015876
 11
0.1411387396601757
 21
0.131955099144384
 72
     1
 10
0.1411387396601755
 20
0.1319550991443839
 11
0.1284521111548274
 21
0.141749922622777
 72
     1
 10
0.1284521111548278
 20
0.1417499226227768
 11
0.117631163312031
 21
0.1499589175380016
 72
     1
 10
0.1176311633120304
 20
0.1499589175380017
 11
0.1094221683968068
 21
0.1563022317906752
 72
     1
 10
0.1094221683968062
 20
0.1563022317906754
 11
0.1041049785085351
 21
0.1604067292482882
 72
     1
 10
0.1041049785085351
 20
0.1604067292482878
 11
0.1023325818791119
 21
0.1618992737783286
 72
     1
 10
0.1023325818791116
 20
0.1618992737783289
 11
0.1043848306079176
 21
0.1636716704077524
 72
     1
 10
0.1043848306079194
 20
0.1636716704077524
 11
0.1100751566286996
 21
0.1683358720641301
 72
     1
 10
0.1100751566286986
 20
0.1683358720641301
 11
0.1189371397758159
 21
0.1757053106812067
 72
     1
 10
0.1189371397758161
 20
0.1757053106812067
 11
0.1304110758505067
 21
0.1851269980270901
 72
     1
 10
0.1304110758505059
 20
0.1851269980270902
 11
0.1439372606540007
 21
0.1963210820023967
 72
     1
 10
0.1439372606540017
 20
0.1963210820023967
 11
0.1589559899875385
 21
0.2087278584083611
 72
     1
 10
0.1589559899875379
 20
0.2087278584083611
 11
0.1750941277186041
 21
0.2220674751456017
 72
     1
 10
0.1750941277186047
 20
0.2220674751456017
 11
0.19169868561531
 21
0.2358735120484796
 72
     1
 10
0.1916986856153105
 20
0.2358735120484796
 11
0.208303243512014
 21
0.2495862649182301
 72
     1
 10
0.2083032435120131
 20
0.2495862649182304
 11
0.2244413812430811
 21
0.2628325976223432
 72
     1
 10
0.2244413812430812
 20
0.2628325976223429
 11
0.239460110576618
 21
0.2753326580614352
 72
     1
 10
0.2394601105766174
 20
0.2753326580614351
 11
0.2529862953801122
 21
0.2864334580036143
 72
     1
 10
0.2529862953801132
 20
0.2864334580036143
 11
0.2643669474216756
 21
0.2958551453494973
 72
     1
 10
0.2643669474216757
 20
0.2958551453494973
 11
0.2731356465356649
 21
0.3031312999334466
 72
     1
 10
0.273135646535664
 20
0.3031312999334466
 11
0.2788259725564443
 21
0.3077955015898243
 72
     1
 10
0.278825972556445
 20
0.3077955015898246
 11
0.2807849372521245
 21
0.3094746141861208
 72
     1
 10
0.2807849372521249
 20
0.3094746141861205
 11
0.2798520969208501
 21
0.3094746141861205
 72
     1
 10
0.2798520969208496
 20
0.3094746141861205
 11
0.2769602918938953
 21
0.3095678982192478
 72
     1
 10
0.2769602918938943
 20
0.3095678982192481
 11
0.2724826583037715
 21
0.3095678982192481
 72
     1
 10
0.2724826583037729
 20
0.3095678982192481
 11
0.2666057642167363
 21
0.3095678982192481
 72
     1
 10
0.266605764216735
 20
0.3095678982192481
 11
0.2597027457652953
 21
0.3095678982192481
 72
     1
 10
0.2597027457652956
 20
0.3095678982192481
 11
0.2519601710157094
 21
0.3095678982192481
 72
     1
 10
0.2519601710157104
 20
0.3095678982192481
 11
0.2437511761004851
 21
0.3095678982192481
 72
     1
 10
0.243751176100484
 20
0.3095678982192481
 11
0.2351690450527495
 21
0.3095678982192481
 72
     1
 10
0.2351690450527495
 20
0.3095678982192481
 11
0.2266801980381413
 21
0.3095678982192481
 72
     1
 10
0.2266801980381423
 20
0.3095678982192481
 11
0.2183779190897905
 21
0.3094746141861208
 72
     1
 10
0.2183779190897899
 20
0.3094746141861205
 11
0.2106353443402037
 21
0.3094746141861205
 72
     1
 10
0.2106353443402029
 20
0.3094746141861205
 11
0.2037323258887632
 21
0.3094746141861205
 72
     1
 10
0.203732325888764
 20
0.3094746141861205
 11
0.1978554318017273
 21
0.3094746141861205
 72
     1
 10
0.1978554318017278
 20
0.3094746141861205
 11
0.1932845141784786
 21
0.3094746141861205
 72
     1
 10
0.1932845141784787
 20
0.3094746141861205
 11
0.1903927091515244
 21
0.3094746141861205
 72
     1
 10
0.1903927091515234
 20
0.3094746141861205
 11
0.1893665847871204
 21
0.3094746141861205
 72
     1
 10
0.1893665847871206
 20
0.3094746141861205
 11
0.1879673242902067
 21
0.3077955015898243
 72
     1
 10
0.1879673242902076
 20
0.3077955015898246
 11
0.1841426789319786
 21
0.3030380159003196
 72
     1
 10
0.1841426789319787
 20
0.3030380159003192
 11
0.1780792167786874
 21
0.29576186131637
 72
     1
 10
0.1780792167786873
 20
0.29576186131637
 11
0.170243357995973
 21
0.2862468899373593
 72
     1
 10
0.170243357995973
 20
0.2862468899373593
 11
0.1610082387163447
 21
0.2750528059620528
 72
     1
 10
0.1610082387163438
 20
0.2750528059620528
 11
0.1507469950723126
 21
0.2624594614898328
 72
     1
 10
0.1507469950723133
 20
0.2624594614898328
 11
0.1396461951301336
 21
0.2491198447525922
 72
     1
 10
0.1396461951301333
 20
0.2491198447525922
 11
0.1282655430885727
 21
0.2352205238165866
 72
     1
 10
0.1282655430885726
 20
0.2352205238165868
 11
0.1168848910470102
 21
0.2214144869137089
 72
     1
 10
0.1168848910470102
 20
0.2214144869137087
 11
0.1058773751379587
 21
0.2079815861433408
 72
     1
 10
0.105877375137958
 20
0.2079815861433408
 11
0.0955228474608004
 21
0.1954815257042486
 72
     1
 10
0.0955228474608019
 20
0.1954815257042488
 11
0.0862877281811736
 21
0.1842874417289424
 72
     1
 10
0.0862877281811727
 20
0.1842874417289424
 11
0.0784518693984583
 21
0.1747724703499316
 72
     1
 10
0.0784518693984584
 20
0.1747724703499314
 11
0.0723884072451672
 21
0.1674963157659821
 72
     1
 10
0.0723884072451671
 20
0.1674963157659822
 11
0.0685637618869363
 21
0.1627388300764767
 72
     1
 10
0.0685637618869364
 20
0.1627388300764767
 11
0.0671645013900242
 21
0.1611530015133082
 72
     1
 10
0.0671645013900251
 20
0.1611530015133082
 11
0.0680040576881734
 21
0.1596604569832674
 72
     1
 10
0.0680040576881726
 20
0.1596604569832674
 11
0.0704294425494878
 21
0.1556492435587824
 72
     1
 10
0.0704294425494871
 20
0.1556492435587824
 11
0.0742540879077179
 21
0.1493059293061089
 72
     1
 10
0.0742540879077192
 20
0.1493059293061089
 11
0.0791048576303511
 21
0.1411902184240116
 72
     1
 10
0.0791048576303508
 20
0.1411902184240116
 11
0.0848884676842594
 21
0.1314886789787458
 72
     1
 10
0.0848884676842596
 20
0.1314886789787459
 11
0.0913250659700619
 21
0.1207610151690772
 72
     1
 10
0.0913250659700613
 20
0.1207610151690775
 11
0.0982280844214992
 21
0.1091937950612604
 72
     1
 10
0.0982280844214985
 20
0.1091937950612603
 11
0.1053176709391927
 21
0.0973467228540611
 72
     1
 10
0.105317670939193
 20
0.0973467228540612
 11
0.1124072574568872
 21
0.0854996506468619
 72
     1
 10
0.1124072574568871
 20
0.0854996506468617
 11
0.1193102759083267
 21
0.0739324305390446
 72
     1
 10
0.1193102759083278
 20
0.0739324305390448
 11
0.1257468741941283
 21
0.0632047667293762
 72
     1
 10
0.1257468741941277
 20
0.063204766729376
 11
0.1315304842480362
 21
0.0535032272841102
 72
     1
 10
0.1315304842480365
 20
0.0535032272841104
 11
0.1363812539706702
 21
0.0453875164020132
 72
     1
 10
0.1363812539706699
 20
0.0453875164020132
 11
0.1402058993288989
 21
0.0391374861824667
 72
     1
 10
0.1402058993288988
 20
0.0391374861824669
 11
0.1426312841902157
 21
0.0350329887248546
 72
     1
 10
0.1426312841902164
 20
0.0350329887248547
 11
0.1434708404883648
 21
0.0336337282279412
 72
     1
 10
0.143470840488364
 20
0.0336337282279411
 11
0.2706169776412211
 21
0.0336337282279411
 97
        0
 75
     0
 76
     1
 98
        1
 10
-0.3743130907707726
 20
-0.2500502867693841
1001
ACAD
1010
0.0
1020
0.0
1030
0.0
  0
HATCH
  5
B62
330
B5F
100
AcDbEntity
  8
Kawneer Logo-English
100
AcDbHatch
 10
0.0
 20
0.0
 30
0.0
210
0.0
220
0.0
230
1.0
  2
SOLID
 70
     1
 71
     0
 91
        1
 92
        1
 93
       18
 72
     1
 10
0.0001865656044393
 20
0.2563959993365415
 11
-0.0000000024618153
 21
0.113671428651383
 72
     1
 10
-0.0000000024618159
 20
0.1136714286513832
 11
0.0012126899688416
 21
0.1152572572145516
 72
     1
 10
0.0012126899688421
 20
0.1152572572145516
 11
0.0045709151614355
 21
0.1197348908046738
 72
     1
 10
0.004570915161435
 20
0.119734890804674
 11
0.0098881050497044
 21
0.1268244773223682
 72
     1
 10
0.0098881050497044
 20
0.1268244773223682
 11
0.0166978394680158
 21
0.1359663125688683
 72
     1
 10
0.016697839468016
 20
0.1359663125688683
 11
0.0248135503501131
 21
0.1467872604116651
 72
     1
 10
0.024813550350113
 20
0.1467872604116652
 11
0.0338621015634867
 21
0.1588209006851195
 72
     1
 10
0.0338621015634872
 20
0.1588209006851194
 11
0.0434703569756247
 21
0.1716940972567221
 72
     1
 10
0.0434703569756247
 20
0.1716940972567224
 11
0.0534517485202732
 21
0.1850337139939626
 72
     1
 10
0.0534517485202724
 20
0.1850337139939624
 11
0.0634331400649208
 21
0.1983733307312025
 72
     1
 10
0.0634331400649222
 20
0.1983733307312024
 11
0.0730413954770597
 21
0.2112465273028051
 72
     1
 10
0.0730413954770595
 20
0.2112465273028053
 11
0.0820899466904331
 21
0.2233734516093873
 72
     1
 10
0.0820899466904321
 20
0.2233734516093873
 11
0.0902056575725293
 21
0.2341943994521837
 72
     1
 10
0.0902056575725308
 20
0.2341943994521837
 11
0.0970153919908422
 21
0.2433362346986839
 72
     1
 10
0.0970153919908405
 20
0.2433362346986839
 11
0.1022392978459834
 21
0.2503325371832507
 72
     1
 10
0.1022392978459843
 20
0.2503325371832508
 11
0.1056908070717041
 21
0.2549034548065008
 72
     1
 10
0.1056908070717046
 20
0.254903454806501
 11
0.1069034995023621
 21
0.2564892833696694
 72
     1
 10
0.1069034995023625
 20
0.2564892833696695
 11
0.0001865656044399
 21
0.2563959993365418
 97
        0
 75
     0
 76
     1
 98
        1
 10
-0.3743130907707726
 20
-0.2500502867693841
1001
ACAD
1010
0.0
1020
0.0
1030
0.0
  0
HATCH
  5
B63
330
B5F
100
AcDbEntity
  8
Kawneer Logo-English
100
AcDbHatch
 10
0.0
 20
0.0
 30
0.0
210
0.0
220
0.0
230
1.0
  2
SOLID
 70
     1
 71
     0
 91
        2
 92
       16
 93
       76
 72
     1
 10
1.358402087941634
 20
0.1650709309046659
 11
1.358402087941634
 21
0.16796273593162
 72
     1
 10
1.358402087941634
 20
0.1679627359316202
 11
1.358402087941634
 21
0.1729067896873803
 72
     1
 10
1.358402087941634
 20
0.1729067896873803
 11
1.358402087941634
 21
0.1791568199069267
 72
     1
 10
1.358402087941634
 20
0.1791568199069267
 11
1.358402087941634
 21
0.1861531223914932
 72
     1
 10
1.358402087941634
 20
0.186153122391493
 11
1.358402087941634
 21
0.1931494248760595
 72
     1
 10
1.358402087941634
 20
0.1931494248760596
 11
1.358402087941634
 21
0.1994927391287338
 72
     1
 10
1.358402087941634
 20
0.1994927391287336
 11
1.358402087941634
 21
0.2044367928844937
 72
     1
 10
1.358402087941634
 20
0.2044367928844937
 11
1.358402087941634
 21
0.2072353138783208
 72
     1
 10
1.358402087941634
 20
0.2072353138783208
 11
1.359894632471676
 21
0.2072353138783208
 72
     1
 10
1.359894632471676
 20
0.2072353138783208
 11
1.362693153465502
 21
0.2072353138783208
 72
     1
 10
1.362693153465502
 20
0.2072353138783208
 11
1.366424514790605
 21
0.2072353138783208
 72
     1
 10
1.366424514790606
 20
0.2072353138783208
 11
1.371088716446983
 21
0.2072353138783208
 72
     1
 10
1.371088716446982
 20
0.2072353138783208
 11
1.376405906335254
 21
0.2072353138783208
 72
     1
 10
1.376405906335254
 20
0.2072353138783208
 11
1.382282800422289
 21
0.2072353138783208
 72
     1
 10
1.38228280042229
 20
0.2072353138783208
 11
1.388346262575581
 21
0.2072353138783208
 72
     1
 10
1.388346262575579
 20
0.2072353138783208
 11
1.394596292795125
 21
0.2072353138783208
 72
     1
 10
1.394596292795125
 20
0.2072353138783208
 11
1.400753038981545
 21
0.2072353138783208
 72
     1
 10
1.400753038981546
 20
0.2072353138783208
 11
1.406723217101709
 21
0.2072353138783208
 72
     1
 10
1.406723217101708
 20
0.2072353138783208
 11
1.412320259089362
 21
0.2072353138783208
 72
     1
 10
1.412320259089362
 20
0.2072353138783208
 11
1.417264312845122
 21
0.2072353138783208
 72
     1
 10
1.417264312845123
 20
0.2072353138783208
 11
1.421368810302735
 21
0.2072353138783208
 72
     1
 10
1.421368810302734
 20
0.2072353138783208
 11
1.424540467429071
 21
0.2072353138783208
 72
     1
 10
1.424540467429072
 20
0.2072353138783208
 11
1.426592716157878
 21
0.2072353138783208
 72
     1
 10
1.426592716157878
 20
0.2072353138783208
 11
1.427338988422898
 21
0.2072353138783208
 72
     1
 10
1.427338988422898
 20
0.2072353138783208
 11
1.430977065714873
 21
0.207142029845193
 72
     1
 10
1.430977065714872
 20
0.207142029845193
 11
1.434335290907465
 21
0.2068621777458102
 72
     1
 10
1.434335290907465
 20
0.2068621777458102
 11
1.435921119470633
 21
0.2066756096795552
 72
     1
 10
1.435921119470633
 20
0.206675609679555
 11
1.437413664000673
 21
0.2063957575801723
 72
     1
 10
1.437413664000674
 20
0.2063957575801723
 11
1.438906208530714
 21
0.2061159054807895
 72
     1
 10
1.438906208530714
 20
0.2061159054807898
 11
1.440398753060756
 21
0.2056494853151523
 72
     1
 10
1.440398753060756
 20
0.2056494853151521
 11
1.441704729524542
 21
0.2050897811163865
 72
     1
 10
1.441704729524542
 20
0.2050897811163866
 11
1.443010705988328
 21
0.204530076917621
 72
     1
 10
1.443010705988329
 20
0.204530076917621
 11
1.444223398418986
 21
0.2036905206194736
 72
     1
 10
1.444223398418985
 20
0.2036905206194736
 11
1.445436090849643
 21
0.2028509643213252
 72
     1
 10
1.445436090849643
 20
0.2028509643213252
 11
1.446555499247174
 21
0.2018248399569224
 72
     1
 10
1.446555499247173
 20
0.2018248399569223
 11
1.447581623611576
 21
0.2007054315593917
 72
     1
 10
1.447581623611578
 20
0.2007054315593915
 11
1.448607747975981
 21
0.1993061710624781
 72
     1
 10
1.448607747975981
 20
0.1993061710624781
 11
1.449540588307258
 21
0.1978136265324374
 72
     1
 10
1.449540588307256
 20
0.1978136265324373
 11
1.450380144605403
 21
0.1961345139361415
 72
     1
 10
1.450380144605404
 20
0.1961345139361415
 11
1.451126416870426
 21
0.1944554013398453
 72
     1
 10
1.451126416870426
 20
0.1944554013398454
 11
1.451592837036063
 21
0.1929628568098046
 72
     1
 10
1.451592837036062
 20
0.1929628568098046
 11
1.451965973168573
 21
0.1913770282466361
 72
     1
 10
1.451965973168574
 20
0.1913770282466361
 11
1.452245825267955
 21
0.1899777677497231
 72
     1
 10
1.452245825267954
 20
0.1899777677497231
 11
1.452432393334211
 21
0.188671791285937
 72
     1
 10
1.452432393334211
 20
0.1886717912859369
 11
1.452432393334211
 21
0.1874590988552789
 72
     1
 10
1.452432393334211
 20
0.1874590988552789
 11
1.452525677367338
 21
0.1863396904577482
 72
     1
 10
1.452525677367337
 20
0.1863396904577481
 11
1.452432393334211
 21
0.1844740097951972
 72
     1
 10
1.452432393334211
 20
0.1844740097951974
 11
1.452245825267955
 21
0.1827948971989012
 72
     1
 10
1.452245825267954
 20
0.1827948971989009
 11
1.451872689135445
 21
0.1810225005694773
 72
     1
 10
1.451872689135446
 20
0.1810225005694774
 11
1.451406268969809
 21
0.1794366720063093
 72
     1
 10
1.451406268969809
 20
0.1794366720063094
 11
1.450846564771043
 21
0.1779441274762682
 72
     1
 10
1.450846564771041
 20
0.1779441274762681
 11
1.450100292506021
 21
0.1764515829462274
 72
     1
 10
1.450100292506023
 20
0.1764515829462275
 11
1.449260736207875
 21
0.1750523224493141
 72
     1
 10
1.449260736207873
 20
0.1750523224493139
 11
1.448327895876597
 21
0.1737463459855283
 72
     1
 10
1.448327895876596
 20
0.1737463459855281
 11
1.44702191941281
 21
0.1723470854886151
 72
     1
 10
1.447021919412811
 20
0.1723470854886151
 11
1.445715942949025
 21
0.1711343930579568
 72
     1
 10
1.445715942949026
 20
0.1711343930579568
 11
1.444316682452114
 21
0.1700149846604262
 72
     1
 10
1.444316682452114
 20
0.1700149846604259
 11
1.442824137922072
 21
0.168988860296023
 72
     1
 10
1.442824137922072
 20
0.168988860296023
 11
1.441238309358904
 21
0.1682425880310024
 72
     1
 10
1.441238309358902
 20
0.1682425880310024
 11
1.439559196762608
 21
0.1674963157659821
 72
     1
 10
1.439559196762608
 20
0.1674963157659822
 11
1.437880084166311
 21
0.1669366115672166
 72
     1
 10
1.437880084166311
 20
0.1669366115672167
 11
1.436107687536888
 21
0.1664701914015788
 72
     1
 10
1.436107687536888
 20
0.1664701914015789
 11
1.434242006874337
 21
0.166003771235941
 72
     1
 10
1.434242006874337
 20
0.1660037712359412
 11
1.432376326211786
 21
0.1657239191365588
 72
     1
 10
1.432376326211785
 20
0.1657239191365585
 11
1.430417361516107
 21
0.1655373510703035
 72
     1
 10
1.430417361516108
 20
0.1655373510703037
 11
1.428458396820429
 21
0.1653507830040482
 72
     1
 10
1.428458396820428
 20
0.1653507830040482
 11
1.424353899362817
 21
0.1651642149377932
 72
     1
 10
1.424353899362817
 20
0.1651642149377932
 11
1.420156117872077
 21
0.1650709309046658
 72
     1
 10
1.420156117872076
 20
0.1650709309046659
 11
1.41773073301076
 21
0.1650709309046659
 72
     1
 10
1.417730733010761
 20
0.1650709309046659
 11
1.411107566658704
 21
0.1650709309046659
 72
     1
 10
1.411107566658702
 20
0.1650709309046659
 11
1.401779163345947
 21
0.1650709309046659
 72
     1
 10
1.401779163345949
 20
0.1650709309046659
 11
1.390958215503152
 21
0.1650709309046659
 72
     1
 10
1.390958215503152
 20
0.1650709309046659
 11
1.379950699594101
 21
0.1650709309046659
 72
     1
 10
1.379950699594099
 20
0.1650709309046659
 11
1.369969308049451
 21
0.1650709309046659
 72
     1
 10
1.369969308049451
 20
0.1650709309046659
 11
1.362320017332992
 21
0.1650709309046659
 72
     1
 10
1.362320017332992
 20
0.1650709309046659
 11
1.358402087941635
 21
0.1650709309046659
 97
        0
 92
        1
 93
      107
 72
     1
 10
1.443756978253348
 20
0.1485596570410883
 11
1.446928635379685
 21
0.1492126452729816
 72
     1
 10
1.446928635379685
 20
0.1492126452729817
 11
1.449540588307256
 21
0.1498656335048746
 72
     1
 10
1.449540588307256
 20
0.1498656335048745
 11
1.451872689135445
 21
0.1506119057698948
 72
     1
 10
1.451872689135446
 20
0.1506119057698946
 11
1.45401822189738
 21
0.1514514620680426
 72
     1
 10
1.45401822189738
 20
0.1514514620680425
 11
1.455883902559929
 21
0.1521977343330632
 72
     1
 10
1.455883902559929
 20
0.1521977343330631
 11
1.457563015156225
 21
0.1530372906312111
 72
     1
 10
1.457563015156225
 20
0.1530372906312111
 11
1.459148843719394
 21
0.1539701309624869
 72
     1
 10
1.459148843719394
 20
0.1539701309624866
 11
1.460641388249434
 21
0.1549029712937624
 72
     1
 10
1.460641388249434
 20
0.1549029712937622
 11
1.462133932779476
 21
0.155835811625038
 72
     1
 10
1.462133932779476
 20
0.155835811625038
 11
1.463439909243262
 21
0.1568619359894408
 72
     1
 10
1.463439909243262
 20
0.1568619359894408
 11
1.464745885707048
 21
0.1579813443869714
 72
     1
 10
1.464745885707047
 20
0.1579813443869716
 11
1.465865294104579
 21
0.1591007527845022
 72
     1
 10
1.465865294104579
 20
0.1591007527845025
 11
1.466984702502109
 21
0.1602201611820331
 72
     1
 10
1.466984702502108
 20
0.1602201611820328
 11
1.468010826866511
 21
0.1613395695795634
 72
     1
 10
1.468010826866511
 20
0.1613395695795637
 11
1.468943667197788
 21
0.1625522620102216
 72
     1
 10
1.468943667197788
 20
0.1625522620102216
 11
1.469876507529063
 21
0.1636716704077522
 72
     1
 10
1.469876507529063
 20
0.1636716704077524
 11
1.470622779794084
 21
0.1648843628384107
 72
     1
 10
1.470622779794084
 20
0.1648843628384107
 11
1.471462336092232
 21
0.1661903393021964
 72
     1
 10
1.471462336092232
 20
0.1661903393021967
 11
1.472115324324125
 21
0.1674030317328546
 72
     1
 10
1.472115324324124
 20
0.1674030317328546
 11
1.472768312556016
 21
0.1686157241635125
 72
     1
 10
1.472768312556017
 20
0.1686157241635125
 11
1.473328016754783
 21
0.1699217006272986
 72
     1
 10
1.473328016754782
 20
0.1699217006272989
 11
1.47379443692042
 21
0.1711343930579568
 72
     1
 10
1.47379443692042
 20
0.1711343930579568
 11
1.474260857086057
 21
0.1724403695217425
 72
     1
 10
1.474260857086058
 20
0.1724403695217424
 11
1.474727277251697
 21
0.1736530619524008
 72
     1
 10
1.474727277251697
 20
0.173653061952401
 11
1.475380265483589
 21
0.1760784468137175
 72
     1
 10
1.475380265483588
 20
0.1760784468137173
 11
1.475846685649225
 21
0.1785038316750338
 72
     1
 10
1.475846685649226
 20
0.1785038316750335
 11
1.476219821781737
 21
0.1808359325032223
 72
     1
 10
1.476219821781738
 20
0.1808359325032223
 11
1.47649967388112
 21
0.1830747492982838
 72
     1
 10
1.47649967388112
 20
0.1830747492982838
 11
1.476592957914248
 21
0.1851269980270901
 72
     1
 10
1.476592957914248
 20
0.1851269980270902
 11
1.476686241947374
 21
0.1870859627227688
 72
     1
 10
1.476686241947375
 20
0.1870859627227687
 11
1.476592957914249
 21
0.1888583593521923
 72
     1
 10
1.476592957914248
 20
0.1888583593521922
 11
1.476499673881119
 21
0.1906307559816158
 72
     1
 10
1.47649967388112
 20
0.1906307559816159
 11
1.476406389847991
 21
0.1924031526110394
 72
     1
 10
1.476406389847991
 20
0.1924031526110394
 11
1.476126537748608
 21
0.1940822652073352
 72
     1
 10
1.476126537748608
 20
0.1940822652073352
 11
1.475846685649226
 21
0.195761377803631
 72
     1
 10
1.475846685649226
 20
0.1957613778036309
 11
1.475566833549843
 21
0.1974404903999272
 72
     1
 10
1.475566833549843
 20
0.1974404903999272
 11
1.475100413384206
 21
0.1990263189630953
 72
     1
 10
1.475100413384205
 20
0.1990263189630952
 11
1.474633993218568
 21
0.2006121475262637
 72
     1
 10
1.474633993218568
 20
0.2006121475262639
 11
1.47416757305293
 21
0.2021046920563051
 72
     1
 10
1.474167573052932
 20
0.2021046920563049
 11
1.473514584821038
 21
0.2035972365863457
 72
     1
 10
1.473514584821037
 20
0.2035972365863459
 11
1.472954880622271
 21
0.2050897811163867
 72
     1
 10
1.472954880622272
 20
0.2050897811163866
 11
1.472208608357252
 21
0.2064890416133
 72
     1
 10
1.472208608357252
 20
0.2064890416133001
 11
1.471462336092232
 21
0.2078883021102135
 72
     1
 10
1.471462336092232
 20
0.2078883021102136
 11
1.470622779794083
 21
0.2091942785739993
 72
     1
 10
1.470622779794084
 20
0.2091942785739991
 11
1.469783223495935
 21
0.2105002550377848
 72
     1
 10
1.469783223495934
 20
0.2105002550377851
 11
1.468850383164659
 21
0.2118062315015707
 72
     1
 10
1.468850383164661
 20
0.2118062315015709
 11
1.467917542833386
 21
0.2130189239322288
 72
     1
 10
1.467917542833385
 20
0.2130189239322289
 11
1.466891418468982
 21
0.2141383323297595
 72
     1
 10
1.466891418468982
 20
0.2141383323297595
 11
1.465772010071451
 21
0.2153510247604178
 72
     1
 10
1.46577201007145
 20
0.215351024760418
 11
1.464652601673919
 21
0.2163771491248209
 72
     1
 10
1.46465260167392
 20
0.2163771491248209
 11
1.463533193276389
 21
0.2174032734892238
 72
     1
 10
1.463533193276389
 20
0.2174032734892238
 11
1.462227216812603
 21
0.2184293978536266
 72
     1
 10
1.462227216812602
 20
0.2184293978536266
 11
1.461014524381945
 21
0.2193622381849024
 72
     1
 10
1.461014524381946
 20
0.2193622381849023
 11
1.459615263885032
 21
0.2202950785161781
 72
     1
 10
1.459615263885031
 20
0.2202950785161782
 11
1.458309287421245
 21
0.2211346348143262
 72
     1
 10
1.458309287421246
 20
0.221134634814326
 11
1.456816742891206
 21
0.221974191112474
 72
     1
 10
1.456816742891206
 20
0.2219741911124738
 11
1.455417482394292
 21
0.2227204633774945
 72
     1
 10
1.455417482394291
 20
0.2227204633774944
 11
1.453831653831122
 21
0.2233734516093874
 72
     1
 10
1.453831653831123
 20
0.2233734516093873
 11
1.452339109301082
 21
0.2240264398412803
 72
     1
 10
1.452339109301082
 20
0.2240264398412803
 11
1.450659996704785
 21
0.2245861440400459
 72
     1
 10
1.450659996704787
 20
0.2245861440400457
 11
1.44907416814162
 21
0.2251458482388108
 72
     1
 10
1.449074168141619
 20
0.2251458482388109
 11
1.447301771512194
 21
0.2256122684044489
 72
     1
 10
1.447301771512194
 20
0.2256122684044488
 11
1.445249522783388
 21
0.2261719726032139
 72
     1
 10
1.445249522783388
 20
0.226171972603214
 11
1.44329055808771
 21
0.2265451087357246
 72
     1
 10
1.443290558087712
 20
0.2265451087357244
 11
1.441145025325778
 21
0.2269182448682345
 72
     1
 10
1.441145025325776
 20
0.2269182448682345
 11
1.438906208530714
 21
0.2271980969676173
 72
     1
 10
1.438906208530714
 20
0.2271980969676173
 11
1.436387539636271
 21
0.2273846650338724
 72
     1
 10
1.436387539636271
 20
0.2273846650338724
 11
1.433495734609316
 21
0.2275712331001274
 72
     1
 10
1.433495734609317
 20
0.2275712331001274
 11
1.430044225383597
 21
0.2276645171332552
 72
     1
 10
1.430044225383597
 20
0.2276645171332549
 11
1.42612629599224
 21
0.2277578011663822
 72
     1
 10
1.42612629599224
 20
0.2277578011663825
 11
1.426033011959112
 21
0.2277578011663825
 72
     1
 10
1.426033011959111
 20
0.2277578011663825
 11
1.33489451159349
 21
0.2277578011663825
 72
     1
 10
1.334894511593491
 20
0.2277578011663825
 11
1.334894511593491
 21
0.0926825211976832
 72
     1
 10
1.334894511593491
 20
0.0926825211976832
 11
1.358588656007891
 21
0.0926825211976832
 72
     1
 10
1.358588656007891
 20
0.0926825211976832
 11
1.358588656007891
 21
0.0947347699264896
 72
     1
 10
1.358588656007891
 20
0.0947347699264896
 11
1.358588656007891
 21
0.1001452438478876
 72
     1
 10
1.358588656007891
 20
0.1001452438478875
 11
1.358588656007891
 21
0.1079811026306024
 72
     1
 10
1.358588656007891
 20
0.1079811026306024
 11
1.358588656007891
 21
0.1170296538439752
 72
     1
 10
1.358588656007891
 20
0.1170296538439753
 11
1.358588656007891
 21
0.1262647731236032
 72
     1
 10
1.358588656007891
 20
0.1262647731236031
 11
1.358588656007891
 21
0.1347536201382103
 72
     1
 10
1.358588656007891
 20
0.1347536201382104
 11
1.358588656007891
 21
0.1412835024571394
 72
     1
 10
1.358588656007891
 20
0.1412835024571393
 11
1.358588656007891
 21
0.1448282957159864
 72
     1
 10
1.358588656007891
 20
0.1448282957159865
 11
1.362320017332992
 21
0.1448282957159865
 72
     1
 10
1.362320017332992
 20
0.1448282957159865
 11
1.369409603850688
 21
0.1448282957159865
 72
     1
 10
1.369409603850688
 20
0.1448282957159865
 11
1.378738007163443
 21
0.1448282957159865
 72
     1
 10
1.378738007163443
 20
0.1448282957159865
 11
1.388999250807475
 21
0.1448282957159865
 72
     1
 10
1.388999250807473
 20
0.1448282957159865
 11
1.399260494451505
 21
0.1448282957159865
 72
     1
 10
1.399260494451506
 20
0.1448282957159865
 11
1.408215761631749
 21
0.1448282957159865
 72
     1
 10
1.408215761631748
 20
0.1448282957159865
 11
1.414745643950677
 21
0.1448282957159865
 72
     1
 10
1.414745643950678
 20
0.1448282957159865
 11
1.41773073301076
 21
0.1448282957159865
 72
     1
 10
1.417730733010761
 20
0.1448282957159865
 11
1.420062833838949
 21
0.1420297747221594
 72
     1
 10
1.420062833838949
 20
0.1420297747221597
 11
1.425193455660966
 21
0.1359663125688683
 72
     1
 10
1.425193455660965
 20
0.1359663125688683
 11
1.432283042178659
 21
0.1275707495873888
 72
     1
 10
1.432283042178659
 20
0.1275707495873886
 11
1.440305469027628
 21
0.1180557782083779
 72
     1
 10
1.440305469027629
 20
0.1180557782083781
 11
1.448234611843471
 21
0.1087273748956225
 72
     1
 10
1.448234611843471
 20
0.1087273748956225
 11
1.455044346261782
 21
0.1006116640135252
 72
     1
 10
1.455044346261782
 20
0.1006116640135252
 11
1.459895115984414
 21
0.0948280539596167
 72
     1
 10
1.459895115984414
 20
0.0948280539596169
 11
1.461760796646965
 21
0.0926825211976832
 72
     1
 10
1.461760796646967
 20
0.0926825211976832
 11
1.49254452757906
 21
0.0926825211976832
 72
     1
 10
1.492544527579059
 20
0.0926825211976832
 11
1.490678846916508
 21
0.0948280539596169
 72
     1
 10
1.490678846916508
 20
0.0948280539596169
 11
1.48564150912762
 21
0.100518379980398
 72
     1
 10
1.48564150912762
 20
0.1005183799803981
 11
1.478458638576797
 21
0.1088206589287502
 72
     1
 10
1.478458638576798
 20
0.1088206589287502
 11
1.470063075595318
 21
0.1183356303077609
 72
     1
 10
1.470063075595317
 20
0.118335630307761
 11
1.461480944547582
 21
0.1282237378192818
 72
     1
 10
1.461480944547582
 20
0.1282237378192818
 11
1.453551801731739
 21
0.1372722890326546
 72
     1
 10
1.45355180173174
 20
0.1372722890326546
 11
1.447395055545323
 21
0.1444551595834761
 72
     1
 10
1.447395055545323
 20
0.1444551595834759
 11
1.443756978253349
 21
0.1485596570410882
 97
        0
 75
     0
 76
     1
 98
        1
 10
-0.3743130907707726
 20
-0.2500502867693841
1001
ACAD
1010
0.0
1020
0.0
1030
0.0
  0
HATCH
  5
B64
330
B5F
100
AcDbEntity
  8
Kawneer Logo-English
100
AcDbHatch
 10
0.0
 20
0.0
 30
0.0
210
0.0
220
0.0
230
1.0
  2
SOLID
 70
     1
 71
     0
 91
        1
 92
        1
 93
       87
 72
     1
 10
1.205602841678699
 20
0.1525708704655737
 11
1.207468522341251
 21
0.1525708704655737
 72
     1
 10
1.207468522341252
 20
0.1525708704655737
 11
1.211199883666355
 21
0.1525708704655737
 72
     1
 10
1.211199883666355
 20
0.1525708704655737
 11
1.216517073554626
 21
0.1525708704655737
 72
     1
 10
1.216517073554626
 20
0.1525708704655737
 11
1.223046955873555
 21
0.1525708704655737
 72
     1
 10
1.223046955873553
 20
0.1525708704655737
 11
1.230602962556885
 21
0.1525708704655737
 72
     1
 10
1.230602962556885
 20
0.1525708704655737
 11
1.238998525538365
 21
0.1525708704655737
 72
     1
 10
1.238998525538365
 20
0.1525708704655737
 11
1.247767224652354
 21
0.1525708704655737
 72
     1
 10
1.247767224652355
 20
0.1525708704655737
 11
1.256815775865728
 21
0.1525708704655737
 72
     1
 10
1.256815775865729
 20
0.1525708704655737
 11
1.265771043045974
 21
0.1525708704655737
 72
     1
 10
1.265771043045973
 20
0.1525708704655737
 11
1.274446458126836
 21
0.1525708704655737
 72
     1
 10
1.274446458126837
 20
0.1525708704655737
 11
1.282562169008935
 21
0.1525708704655737
 72
     1
 10
1.282562169008935
 20
0.1525708704655737
 11
1.289745039559756
 21
0.1525708704655737
 72
     1
 10
1.289745039559755
 20
0.1525708704655737
 11
1.295808501713046
 21
0.1525708704655737
 72
     1
 10
1.295808501713046
 20
0.1525708704655737
 11
1.300472703369423
 21
0.1525708704655737
 72
     1
 10
1.300472703369423
 20
0.1525708704655737
 11
1.303457792429505
 21
0.1525708704655737
 72
     1
 10
1.303457792429505
 20
0.1525708704655737
 11
1.304483916793908
 21
0.1525708704655737
 72
     1
 10
1.304483916793908
 20
0.1525708704655737
 11
1.304483916793908
 21
0.1730000737205081
 72
     1
 10
1.304483916793908
 20
0.1730000737205078
 11
1.303457792429505
 21
0.1730000737205078
 72
     1
 10
1.303457792429505
 20
0.1730000737205078
 11
1.300472703369423
 21
0.1730000737205078
 72
     1
 10
1.300472703369423
 20
0.1730000737205078
 11
1.295808501713045
 21
0.1730000737205078
 72
     1
 10
1.295808501713046
 20
0.1730000737205078
 11
1.289745039559754
 21
0.1730000737205078
 72
     1
 10
1.289745039559755
 20
0.1730000737205078
 11
1.282562169008934
 21
0.1730000737205078
 72
     1
 10
1.282562169008935
 20
0.1730000737205078
 11
1.274446458126837
 21
0.1730000737205078
 72
     1
 10
1.274446458126837
 20
0.1730000737205078
 11
1.265771043045975
 21
0.1730000737205078
 72
     1
 10
1.265771043045973
 20
0.1730000737205078
 11
1.256815775865728
 21
0.1730000737205078
 72
     1
 10
1.256815775865729
 20
0.1730000737205078
 11
1.247767224652355
 21
0.1730000737205078
 72
     1
 10
1.247767224652355
 20
0.1730000737205078
 11
1.238998525538365
 21
0.1730000737205078
 72
     1
 10
1.238998525538365
 20
0.1730000737205078
 11
1.230602962556885
 21
0.1730000737205078
 72
     1
 10
1.230602962556885
 20
0.1730000737205078
 11
1.223046955873553
 21
0.1730000737205078
 72
     1
 10
1.223046955873553
 20
0.1730000737205078
 11
1.216517073554625
 21
0.1730000737205078
 72
     1
 10
1.216517073554626
 20
0.1730000737205078
 11
1.211199883666355
 21
0.1730000737205078
 72
     1
 10
1.211199883666355
 20
0.1730000737205078
 11
1.207468522341252
 21
0.1730000737205078
 72
     1
 10
1.207468522341252
 20
0.1730000737205078
 11
1.205602841678701
 21
0.1730000737205078
 72
     1
 10
1.205602841678699
 20
0.1730000737205078
 11
1.205602841678699
 21
0.1754254585818243
 72
     1
 10
1.205602841678699
 20
0.1754254585818245
 11
1.205602841678699
 21
0.1794366720063095
 72
     1
 10
1.205602841678699
 20
0.1794366720063094
 11
1.205602841678699
 21
0.1843807257620694
 72
     1
 10
1.205602841678699
 20
0.1843807257620694
 11
1.205602841678699
 21
0.1898844837165951
 72
     1
 10
1.205602841678699
 20
0.1898844837165951
 11
1.205602841678699
 21
0.1952949576379935
 72
     1
 10
1.205602841678699
 20
0.1952949576379937
 11
1.205602841678699
 21
0.2003322954268815
 72
     1
 10
1.205602841678699
 20
0.2003322954268814
 11
1.205602841678699
 21
0.2042502248182386
 72
     1
 10
1.205602841678699
 20
0.2042502248182386
 11
1.205602841678699
 21
0.206675609679555
 72
     1
 10
1.205602841678699
 20
0.206675609679555
 11
1.207468522341251
 21
0.206675609679555
 72
     1
 10
1.207468522341252
 20
0.206675609679555
 11
1.211293167699483
 21
0.206675609679555
 72
     1
 10
1.211293167699483
 20
0.206675609679555
 11
1.21670364162088
 21
0.206675609679555
 72
     1
 10
1.216703641620879
 20
0.206675609679555
 11
1.223420092006063
 21
0.206675609679555
 72
     1
 10
1.223420092006064
 20
0.206675609679555
 11
1.231255950788778
 21
0.206675609679555
 72
     1
 10
1.231255950788778
 20
0.206675609679555
 11
1.239744797803386
 21
0.206675609679555
 72
     1
 10
1.239744797803385
 20
0.206675609679555
 11
1.248886633049885
 21
0.206675609679555
 72
     1
 10
1.248886633049885
 20
0.206675609679555
 11
1.258121752329513
 21
0.206675609679555
 72
     1
 10
1.258121752329514
 20
0.206675609679555
 11
1.267356871609143
 21
0.206675609679555
 72
     1
 10
1.267356871609142
 20
0.206675609679555
 11
1.276218854756259
 21
0.206675609679555
 72
     1
 10
1.276218854756259
 20
0.206675609679555
 11
1.284521133704611
 21
0.206675609679555
 72
     1
 10
1.284521133704611
 20
0.206675609679555
 11
1.291890572321688
 21
0.206675609679555
 72
     1
 10
1.291890572321688
 20
0.206675609679555
 11
1.298140602541234
 21
0.206675609679555
 72
     1
 10
1.298140602541234
 20
0.206675609679555
 11
1.30289808823074
 21
0.206675609679555
 72
     1
 10
1.30289808823074
 20
0.206675609679555
 11
1.305976461323949
 21
0.206675609679555
 72
     1
 10
1.305976461323949
 20
0.206675609679555
 11
1.30709586972148
 21
0.206675609679555
 72
     1
 10
1.307095869721479
 20
0.206675609679555
 11
1.307095869721479
 21
0.2277578011663822
 72
     1
 10
1.307095869721479
 20
0.2277578011663825
 11
1.304577200827036
 21
0.2277578011663825
 72
     1
 10
1.304577200827037
 20
0.2277578011663825
 11
1.182188549363684
 21
0.2277578011663825
 72
     1
 10
1.182188549363684
 20
0.2277578011663825
 11
1.182188549363684
 21
0.0926825211976832
 72
     1
 10
1.182188549363684
 20
0.0926825211976832
 11
1.311853355410986
 21
0.0926825211976832
 72
     1
 10
1.311853355410985
 20
0.0926825211976832
 11
1.311853355410985
 21
0.113671428651383
 72
     1
 10
1.311853355410985
 20
0.1136714286513832
 11
1.310733947013454
 21
0.1136714286513832
 72
     1
 10
1.310733947013455
 20
0.1136714286513832
 11
1.307469005853991
 21
0.1136714286513832
 72
     1
 10
1.307469005853991
 20
0.1136714286513832
 11
1.302431668065102
 21
0.1136714286513832
 72
     1
 10
1.302431668065103
 20
0.1136714286513832
 11
1.295901785746174
 21
0.1136714286513832
 72
     1
 10
1.295901785746174
 20
0.1136714286513832
 11
1.288159210996586
 21
0.1136714286513832
 72
     1
 10
1.288159210996587
 20
0.1136714286513832
 11
1.279483795915724
 21
0.1136714286513832
 72
     1
 10
1.279483795915723
 20
0.1136714286513832
 11
1.270155392602968
 21
0.1136714286513832
 72
     1
 10
1.270155392602969
 20
0.1136714286513832
 11
1.260547137190832
 21
0.1136714286513832
 72
     1
 10
1.260547137190831
 20
0.1136714286513832
 11
1.250752313712437
 21
0.1136714286513832
 72
     1
 10
1.250752313712437
 20
0.1136714286513832
 11
1.241330626366554
 21
0.1136714286513832
 72
     1
 10
1.241330626366555
 20
0.1136714286513832
 11
1.23237535918631
 21
0.1136714286513832
 72
     1
 10
1.232375359186308
 20
0.1136714286513832
 11
1.224166364271082
 21
0.1136714286513832
 72
     1
 10
1.224166364271083
 20
0.1136714286513832
 11
1.217170061786517
 21
0.1136714286513832
 72
     1
 10
1.217170061786517
 20
0.1136714286513832
 11
1.211479735765737
 21
0.1136714286513832
 72
     1
 10
1.211479735765737
 20
0.1136714286513832
 11
1.20756180637438
 21
0.1136714286513832
 72
     1
 10
1.207561806374379
 20
0.1136714286513832
 11
1.2056028416787
 21
0.1136714286513832
 72
     1
 10
1.205602841678699
 20
0.1136714286513832
 11
1.205602841678699
 21
0.1163766656120825
 72
     1
 10
1.205602841678699
 20
0.1163766656120823
 11
1.205602841678699
 21
0.1209475832353323
 72
     1
 10
1.205602841678699
 20
0.1209475832353325
 11
1.205602841678699
 21
0.1267311932892411
 72
     1
 10
1.205602841678699
 20
0.1267311932892408
 11
1.205602841678699
 21
0.1330745075419143
 72
     1
 10
1.205602841678699
 20
0.1330745075419144
 11
1.205602841678699
 21
0.1395111058277156
 72
     1
 10
1.205602841678699
 20
0.1395111058277158
 11
1.205602841678699
 21
0.1452947158816239
 72
     1
 10
1.205602841678699
 20
0.145294715881624
 11
1.205602841678699
 21
0.1498656335048746
 72
     1
 10
1.205602841678699
 20
0.1498656335048745
 11
1.205602841678699
 21
0.1525708704655738
 97
        0
 75
     0
 76
     1
 98
        1
 10
-0.3743130907707726
 20
-0.2500502867693841
1001
ACAD
1010
0.0
1020
0.0
1030
0.0
  0
HATCH
  5
B65
330
B5F
100
AcDbEntity
  8
Kawneer Logo-English
100
AcDbHatch
 10
0.0
 20
0.0
 30
0.0
210
0.0
220
0.0
230
1.0
  2
SOLID
 70
     1
 71
     0
 91
        1
 92
        1
 93
       87
 72
     1
 10
1.049352086190046
 20
0.1525708704655737
 11
1.051217766852597
 21
0.1525708704655737
 72
     1
 10
1.051217766852596
 20
0.1525708704655737
 11
1.054949128177699
 21
0.1525708704655737
 72
     1
 10
1.0549491281777
 20
0.1525708704655737
 11
1.060173034032843
 21
0.1525708704655737
 72
     1
 10
1.060173034032843
 20
0.1525708704655737
 11
1.0667962003849
 21
0.1525708704655737
 72
     1
 10
1.0667962003849
 20
0.1525708704655737
 11
1.074352207068231
 21
0.1525708704655737
 72
     1
 10
1.074352207068232
 20
0.1525708704655737
 11
1.082747770049711
 21
0.1525708704655737
 72
     1
 10
1.082747770049711
 20
0.1525708704655737
 11
1.0915164691637
 21
0.1525708704655737
 72
     1
 10
1.091516469163701
 20
0.1525708704655737
 11
1.100565020377075
 21
0.1525708704655737
 72
     1
 10
1.100565020377073
 20
0.1525708704655737
 11
1.109520287557319
 21
0.1525708704655737
 72
     1
 10
1.10952028755732
 20
0.1525708704655737
 11
1.118195702638183
 21
0.1525708704655737
 72
     1
 10
1.118195702638182
 20
0.1525708704655737
 11
1.126218129487151
 21
0.1525708704655737
 72
     1
 10
1.126218129487152
 20
0.1525708704655737
 11
1.133401000037974
 21
0.1525708704655737
 72
     1
 10
1.133401000037974
 20
0.1525708704655737
 11
1.139557746224391
 21
0.1525708704655737
 72
     1
 10
1.139557746224392
 20
0.1525708704655737
 11
1.14422194788077
 21
0.1525708704655737
 72
     1
 10
1.144221947880769
 20
0.1525708704655737
 11
1.147207036940851
 21
0.1525708704655737
 72
     1
 10
1.147207036940852
 20
0.1525708704655737
 11
1.148233161305255
 21
0.1525708704655737
 72
     1
 10
1.148233161305255
 20
0.1525708704655737
 11
1.148233161305255
 21
0.1730000737205081
 72
     1
 10
1.148233161305255
 20
0.1730000737205078
 11
1.147207036940852
 21
0.1730000737205078
 72
     1
 10
1.147207036940852
 20
0.1730000737205078
 11
1.14422194788077
 21
0.1730000737205078
 72
     1
 10
1.144221947880769
 20
0.1730000737205078
 11
1.139557746224391
 21
0.1730000737205078
 72
     1
 10
1.139557746224392
 20
0.1730000737205078
 11
1.133494284071101
 21
0.1730000737205078
 72
     1
 10
1.133494284071101
 20
0.1730000737205078
 11
1.126218129487152
 21
0.1730000737205078
 72
     1
 10
1.126218129487152
 20
0.1730000737205078
 11
1.118195702638183
 21
0.1730000737205078
 72
     1
 10
1.118195702638182
 20
0.1730000737205078
 11
1.10952028755732
 21
0.1730000737205078
 72
     1
 10
1.10952028755732
 20
0.1730000737205078
 11
1.100565020377074
 21
0.1730000737205078
 72
     1
 10
1.100565020377073
 20
0.1730000737205078
 11
1.0915164691637
 21
0.1730000737205078
 72
     1
 10
1.091516469163701
 20
0.1730000737205078
 11
1.082747770049712
 21
0.1730000737205078
 72
     1
 10
1.082747770049711
 20
0.1730000737205078
 11
1.074352207068231
 21
0.1730000737205078
 72
     1
 10
1.074352207068232
 20
0.1730000737205078
 11
1.0667962003849
 21
0.1730000737205078
 72
     1
 10
1.0667962003849
 20
0.1730000737205078
 11
1.060173034032843
 21
0.1730000737205078
 72
     1
 10
1.060173034032843
 20
0.1730000737205078
 11
1.054949128177701
 21
0.1730000737205078
 72
     1
 10
1.0549491281777
 20
0.1730000737205078
 11
1.051217766852597
 21
0.1730000737205078
 72
     1
 10
1.051217766852596
 20
0.1730000737205078
 11
1.049352086190045
 21
0.1730000737205078
 72
     1
 10
1.049352086190046
 20
0.1730000737205078
 11
1.049352086190046
 21
0.1754254585818243
 72
     1
 10
1.049352086190046
 20
0.1754254585818245
 11
1.049352086190046
 21
0.1794366720063095
 72
     1
 10
1.049352086190046
 20
0.1794366720063094
 11
1.049352086190046
 21
0.1843807257620694
 72
     1
 10
1.049352086190046
 20
0.1843807257620694
 11
1.049352086190046
 21
0.1898844837165951
 72
     1
 10
1.049352086190046
 20
0.1898844837165951
 11
1.049352086190046
 21
0.1952949576379935
 72
     1
 10
1.049352086190046
 20
0.1952949576379937
 11
1.049352086190046
 21
0.2003322954268815
 72
     1
 10
1.049352086190046
 20
0.2003322954268814
 11
1.049352086190046
 21
0.2042502248182386
 72
     1
 10
1.049352086190046
 20
0.2042502248182386
 11
1.049352086190046
 21
0.206675609679555
 72
     1
 10
1.049352086190046
 20
0.206675609679555
 11
1.051217766852597
 21
0.206675609679555
 72
     1
 10
1.051217766852596
 20
0.206675609679555
 11
1.055042412210825
 21
0.206675609679555
 72
     1
 10
1.055042412210827
 20
0.206675609679555
 11
1.060452886132226
 21
0.206675609679555
 72
     1
 10
1.060452886132225
 20
0.206675609679555
 11
1.067169336517409
 21
0.206675609679555
 72
     1
 10
1.06716933651741
 20
0.206675609679555
 11
1.075005195300124
 21
0.206675609679555
 72
     1
 10
1.075005195300123
 20
0.206675609679555
 11
1.083494042314731
 21
0.206675609679555
 72
     1
 10
1.083494042314732
 20
0.206675609679555
 11
1.092542593528105
 21
0.206675609679555
 72
     1
 10
1.092542593528106
 20
0.206675609679555
 11
1.10187099684086
 21
0.206675609679555
 72
     1
 10
1.101870996840861
 20
0.206675609679555
 11
1.111106116120489
 21
0.206675609679555
 72
     1
 10
1.111106116120488
 20
0.206675609679555
 11
1.119968099267605
 21
0.206675609679555
 72
     1
 10
1.119968099267605
 20
0.206675609679555
 11
1.128270378215957
 21
0.206675609679555
 72
     1
 10
1.128270378215957
 20
0.206675609679555
 11
1.135639816833034
 21
0.206675609679555
 72
     1
 10
1.135639816833034
 20
0.206675609679555
 11
1.14188984705258
 21
0.206675609679555
 72
     1
 10
1.141889847052581
 20
0.206675609679555
 11
1.146647332742086
 21
0.206675609679555
 72
     1
 10
1.146647332742086
 20
0.206675609679555
 11
1.149725705835295
 21
0.206675609679555
 72
     1
 10
1.149725705835296
 20
0.206675609679555
 11
1.150845114232827
 21
0.206675609679555
 72
     1
 10
1.150845114232826
 20
0.206675609679555
 11
1.150845114232826
 21
0.2277578011663822
 72
     1
 10
1.150845114232826
 20
0.2277578011663825
 11
1.148326445338383
 21
0.2277578011663825
 72
     1
 10
1.148326445338383
 20
0.2277578011663825
 11
1.025937793875031
 21
0.2277578011663825
 72
     1
 10
1.025937793875032
 20
0.2277578011663825
 11
1.025937793875032
 21
0.0926825211976832
 72
     1
 10
1.025937793875032
 20
0.0926825211976832
 11
1.155602599922332
 21
0.0926825211976832
 72
     1
 10
1.155602599922332
 20
0.0926825211976832
 11
1.155602599922332
 21
0.113671428651383
 72
     1
 10
1.155602599922332
 20
0.1136714286513832
 11
1.154483191524801
 21
0.1136714286513832
 72
     1
 10
1.154483191524799
 20
0.1136714286513832
 11
1.151218250365336
 21
0.1136714286513832
 72
     1
 10
1.151218250365338
 20
0.1136714286513832
 11
1.146180912576449
 21
0.1136714286513832
 72
     1
 10
1.146180912576449
 20
0.1136714286513832
 11
1.13965103025752
 21
0.1136714286513832
 72
     1
 10
1.13965103025752
 20
0.1136714286513832
 11
1.131908455507932
 21
0.1136714286513832
 72
     1
 10
1.131908455507931
 20
0.1136714286513832
 11
1.12323304042707
 21
0.1136714286513832
 72
     1
 10
1.123233040427071
 20
0.1136714286513832
 11
1.113904637114314
 21
0.1136714286513832
 72
     1
 10
1.113904637114314
 20
0.1136714286513832
 11
1.104296381702177
 21
0.1136714286513832
 72
     1
 10
1.104296381702177
 20
0.1136714286513832
 11
1.094501558223783
 21
0.1136714286513832
 72
     1
 10
1.094501558223784
 20
0.1136714286513832
 11
1.085079870877901
 21
0.1136714286513832
 72
     1
 10
1.085079870877899
 20
0.1136714286513832
 11
1.076124603697654
 21
0.1136714286513832
 72
     1
 10
1.076124603697655
 20
0.1136714286513832
 11
1.067915608782429
 21
0.1136714286513832
 72
     1
 10
1.067915608782429
 20
0.1136714286513832
 11
1.060919306297863
 21
0.1136714286513832
 72
     1
 10
1.060919306297863
 20
0.1136714286513832
 11
1.055228980277083
 21
0.1136714286513832
 72
     1
 10
1.055228980277082
 20
0.1136714286513832
 11
1.051311050885725
 21
0.1136714286513832
 72
     1
 10
1.051311050885726
 20
0.1136714286513832
 11
1.049352086190046
 21
0.1136714286513832
 72
     1
 10
1.049352086190046
 20
0.1136714286513832
 11
1.049352086190046
 21
0.1163766656120825
 72
     1
 10
1.049352086190046
 20
0.1163766656120823
 11
1.049352086190046
 21
0.1209475832353323
 72
     1
 10
1.049352086190046
 20
0.1209475832353325
 11
1.049352086190046
 21
0.1267311932892411
 72
     1
 10
1.049352086190046
 20
0.1267311932892408
 11
1.049352086190046
 21
0.1330745075419143
 72
     1
 10
1.049352086190046
 20
0.1330745075419144
 11
1.049352086190046
 21
0.1395111058277156
 72
     1
 10
1.049352086190046
 20
0.1395111058277158
 11
1.049352086190046
 21
0.1452947158816239
 72
     1
 10
1.049352086190046
 20
0.145294715881624
 11
1.049352086190046
 21
0.1498656335048746
 72
     1
 10
1.049352086190046
 20
0.1498656335048745
 11
1.049352086190046
 21
0.1525708704655738
 97
        0
 75
     0
 76
     1
 98
        1
 10
-0.3743130907707726
 20
-0.2500502867693841
1001
ACAD
1010
0.0
1020
0.0
1030
0.0
  0
HATCH
  5
B66
330
B5F
100
AcDbEntity
  8
Kawneer Logo-English
100
AcDbHatch
 10
0.0
 20
0.0
 30
0.0
210
0.0
220
0.0
230
1.0
  2
SOLID
 70
     1
 71
     0
 91
        1
 92
        1
 93
       42
 72
     1
 10
0.9725793269260698
 20
0.2277578011663825
 11
0.9725793269260698
 21
0.1354998924032311
 72
     1
 10
0.9725793269260698
 20
0.1354998924032311
 11
0.9729524630585808
 21
0.1264513411898582
 72
     1
 10
0.9729524630585796
 20
0.1264513411898583
 11
0.9729524630585796
 21
0.1255185008585825
 72
     1
 10
0.9729524630585796
 20
0.1255185008585824
 11
0.9731390311248343
 21
0.1238393882622866
 72
     1
 10
0.9731390311248349
 20
0.1238393882622866
 11
0.9717397706279211
 21
0.1254252168254551
 72
     1
 10
0.97173977062792
 20
0.1254252168254551
 11
0.9710867823960281
 21
0.1262647731236031
 72
     1
 10
0.9710867823960294
 20
0.1262647731236031
 11
0.9641837639445897
 21
0.1339140638400625
 72
     1
 10
0.9641837639445899
 20
0.1339140638400624
 11
0.8755639324734129
 21
0.2277578011663823
 72
     1
 10
0.8755639324734115
 20
0.2277578011663825
 11
0.8529891964565429
 21
0.2277578011663825
 72
     1
 10
0.8529891964565434
 20
0.2277578011663825
 11
0.8529891964565434
 21
0.0926825211976832
 72
     1
 10
0.8529891964565434
 20
0.0926825211976832
 11
0.8756572165065401
 21
0.0926825211976832
 72
     1
 10
0.875657216506541
 20
0.0926825211976832
 11
0.875657216506541
 21
0.1927762887435495
 72
     1
 10
0.875657216506541
 20
0.1927762887435495
 11
0.875657216506541
 21
0.1931494248760597
 72
     1
 10
0.875657216506541
 20
0.1931494248760596
 11
0.8755639324734129
 21
0.193988981174208
 72
     1
 10
0.8755639324734115
 20
0.1939889811742079
 11
0.8754706484402849
 21
0.1952949576379935
 72
     1
 10
0.8754706484402859
 20
0.1952949576379937
 11
0.8753773644071577
 21
0.1967875021680344
 72
     1
 10
0.875377364407158
 20
0.1967875021680343
 11
0.8755639324734126
 21
0.1965076500686515
 72
     1
 10
0.8755639324734115
 20
0.1965076500686517
 11
0.8756572165065396
 21
0.1963210820023967
 72
     1
 10
0.875657216506541
 20
0.1963210820023967
 11
0.8764967728046894
 21
0.1954815257042487
 72
     1
 10
0.8764967728046887
 20
0.1954815257042488
 11
0.8781758854009835
 21
0.1936158450416976
 72
     1
 10
0.8781758854009842
 20
0.1936158450416973
 11
0.8797617139641527
 21
0.1917501643791464
 72
     1
 10
0.879761713964152
 20
0.1917501643791466
 11
0.8805079862291723
 21
0.1909106080809982
 72
     1
 10
0.8805079862291727
 20
0.190910608080998
 11
0.8816273946267036
 21
0.1897911996834678
 72
     1
 10
0.8816273946267028
 20
0.1897911996834681
 11
0.884519199653657
 21
0.1867128265902584
 72
     1
 10
0.8845191996536581
 20
0.1867128265902582
 11
0.8891834013100353
 21
0.1818620568676254
 72
     1
 10
0.889183401310035
 20
0.1818620568676252
 11
0.8951535794301982
 21
0.1756120266480794
 72
     1
 10
0.8951535794301985
 20
0.1756120266480794
 11
0.9021498819147662
 21
0.1681493039978751
 72
     1
 10
0.9021498819147669
 20
0.1681493039978752
 11
0.9099857406974814
 21
0.1598470250495227
 72
     1
 10
0.9099857406974813
 20
0.1598470250495225
 11
0.9183813036789613
 21
0.1509850419024051
 72
     1
 10
0.9183813036789612
 20
0.1509850419024052
 11
0.9271500027929521
 21
0.1418432066559046
 72
     1
 10
0.9271500027929509
 20
0.1418432066559046
 11
0.9358254178738118
 21
0.1326080873762767
 72
     1
 10
0.9358254178738132
 20
0.1326080873762767
 11
0.9442209808552931
 21
0.1237461042291589
 72
     1
 10
0.9442209808552931
 20
0.1237461042291589
 11
0.9520568396380092
 21
0.1154438252808068
 72
     1
 10
0.9520568396380092
 20
0.1154438252808068
 11
0.9590531421225751
 21
0.1079811026306025
 72
     1
 10
0.959053142122574
 20
0.1079811026306024
 11
0.9650233202427372
 21
0.101731072411056
 72
     1
 10
0.9650233202427376
 20
0.101731072411056
 11
0.9695942378659868
 21
0.0968803026884232
 72
     1
 10
0.9695942378659871
 20
0.096880302688423
 11
0.9725793269260696
 21
0.0938019295952138
 72
     1
 10
0.9725793269260698
 20
0.093801929595214
 11
0.9736054512904727
 21
0.0926825211976834
 72
     1
 10
0.9736054512904726
 20
0.0926825211976832
 11
0.9952473469760661
 21
0.0926825211976832
 72
     1
 10
0.9952473469760651
 20
0.0926825211976832
 11
0.9952473469760651
 21
0.2277578011663825
 72
     1
 10
0.9952473469760651
 20
0.2277578011663825
 11
0.9927286780816201
 21
0.2277578011663825
 72
     1
 10
0.9927286780816203
 20
0.2277578011663825
 11
0.9725793269260686
 21
0.2277578011663825
 97
        0
 75
     0
 76
     1
 98
        1
 10
-0.3743130907707726
 20
-0.2500502867693841
1001
ACAD
1010
0.0
1020
0.0
1030
0.0
  0
HATCH
  5
B67
330
B5F
100
AcDbEntity
  8
Kawneer Logo-English
100
AcDbHatch
 10
0.0
 20
0.0
 30
0.0
210
0.0
220
0.0
230
1.0
  2
SOLID
 70
     1
 71
     0
 91
        2
 92
       16
 93
       32
 72
     1
 10
0.5269615006757409
 20
0.144641727649731
 11
0.5290137494045469
 21
0.148652941074216
 72
     1
 10
0.5290137494045464
 20
0.1486529410742159
 11
0.5322786905640116
 21
0.1551828233931449
 72
     1
 10
0.532278690564012
 20
0.1551828233931452
 11
0.5364764720547521
 21
0.1633918183083696
 72
     1
 10
0.5364764720547526
 20
0.1633918183083696
 11
0.5409541056448736
 21
0.1722538014554874
 72
     1
 10
0.5409541056448726
 20
0.1722538014554873
 11
0.545338455201869
 21
0.1808359325032223
 72
     1
 10
0.5453384552018701
 20
0.1808359325032223
 11
0.5490698165269726
 21
0.1882053711202994
 72
     1
 10
0.549069816526973
 20
0.1882053711202996
 11
0.5515884854214162
 21
0.1932427089091875
 72
     1
 10
0.5515884854214148
 20
0.1932427089091872
 11
0.5526146097858177
 21
0.1952016736048658
 72
     1
 10
0.5526146097858194
 20
0.1952016736048658
 11
0.552801177852074
 21
0.195761377803631
 72
     1
 10
0.5528011778520723
 20
0.1957613778036309
 11
0.5533608820508379
 21
0.1970673542674166
 72
     1
 10
0.5533608820508378
 20
0.1970673542674169
 11
0.5542004383489863
 21
0.1990263189630955
 72
     1
 10
0.5542004383489872
 20
0.1990263189630952
 11
0.5550399946471356
 21
0.2012651357581567
 72
     1
 10
0.5550399946471352
 20
0.2012651357581567
 11
0.5555064148127727
 21
0.2001457273606265
 72
     1
 10
0.5555064148127729
 20
0.2001457273606264
 11
0.5560661190115385
 21
0.198933034929968
 72
     1
 10
0.5560661190115379
 20
0.198933034929968
 11
0.5567191072434298
 21
0.197533774433055
 72
     1
 10
0.5567191072434304
 20
0.197533774433055
 11
0.5574653795084506
 21
0.1959479458698865
 72
     1
 10
0.557465379508451
 20
0.1959479458698865
 11
0.5583049358065995
 21
0.1942688332735902
 72
     1
 10
0.5583049358065986
 20
0.1942688332735903
 11
0.5606370366347874
 21
0.1896046316172126
 72
     1
 10
0.5606370366347871
 20
0.1896046316172126
 11
0.5639952618273804
 21
0.1828881812320289
 72
     1
 10
0.5639952618273814
 20
0.1828881812320287
 11
0.5680064752518651
 21
0.1748657543830587
 72
     1
 10
0.5680064752518637
 20
0.1748657543830589
 11
0.57239082480886
 21
0.1661903393021966
 72
     1
 10
0.5723908248088612
 20
0.1661903393021967
 11
0.5765886062996012
 21
0.1577947763207168
 72
     1
 10
0.5765886062996
 20
0.1577947763207165
 11
0.5803199676247008
 21
0.1503320536705122
 72
     1
 10
0.5803199676247015
 20
0.1503320536705122
 11
0.5831184886185295
 21
0.144641727649731
 72
     1
 10
0.5831184886185295
 20
0.144641727649731
 11
0.5791072751940441
 21
0.144641727649731
 72
     1
 10
0.5791072751940436
 20
0.144641727649731
 11
0.5724841088419869
 21
0.144641727649731
 72
     1
 10
0.5724841088419872
 20
0.144641727649731
 11
0.5641818298936356
 21
0.144641727649731
 72
     1
 10
0.5641818298936352
 20
0.144641727649731
 11
0.5550399946471351
 21
0.144641727649731
 72
     1
 10
0.5550399946471352
 20
0.144641727649731
 11
0.5458981594006351
 21
0.144641727649731
 72
     1
 10
0.5458981594006352
 20
0.144641727649731
 11
0.5375958804522815
 21
0.144641727649731
 72
     1
 10
0.5375958804522814
 20
0.144641727649731
 11
0.5310659981333528
 21
0.144641727649731
 72
     1
 10
0.5310659981333524
 20
0.144641727649731
 11
0.5269615006757405
 21
0.144641727649731
 97
        0
 92
        1
 93
      141
 72
     1
 10
0.5656743744236757
 20
0.2277578011663825
 11
0.544405614870593
 21
0.2277578011663825
 72
     1
 10
0.544405614870593
 20
0.2277578011663825
 11
0.4748157261574382
 21
0.0934287934627039
 72
     1
 10
0.4748157261574378
 20
0.0934287934627039
 11
0.4729500454948865
 21
0.0955743262246376
 72
     1
 10
0.4729500454948874
 20
0.0955743262246376
 11
0.4699649564348049
 21
0.0991191194834847
 72
     1
 10
0.4699649564348043
 20
0.0991191194834847
 11
0.4661403110765752
 21
0.1036900371067346
 72
     1
 10
0.4661403110765754
 20
0.1036900371067347
 11
0.4615693934533244
 21
0.1091005110281331
 72
     1
 10
0.461569393453325
 20
0.109100511028133
 11
0.456345487598182
 21
0.1152572572145517
 72
     1
 10
0.4563454875981812
 20
0.1152572572145516
 11
0.4506551615774008
 21
0.1219737075997353
 72
     1
 10
0.4506551615774015
 20
0.1219737075997354
 11
0.4447782674903648
 21
0.1290632941174296
 72
     1
 10
0.4447782674903636
 20
0.1290632941174296
 11
0.4387148053370722
 21
0.1362461646682511
 72
     1
 10
0.4387148053370727
 20
0.1362461646682512
 11
0.4326513431837832
 21
0.1433357511859454
 72
     1
 10
0.4326513431837844
 20
0.1433357511859453
 11
0.4268677331298759
 21
0.1502387696373844
 72
     1
 10
0.4268677331298756
 20
0.1502387696373844
 11
0.4214572592084763
 21
0.1566753679231857
 72
     1
 10
0.4214572592084754
 20
0.1566753679231858
 11
0.4165132054527153
 21
0.1625522620102216
 72
     1
 10
0.4165132054527163
 20
0.1625522620102216
 11
0.4123154239619763
 21
0.1674963157659821
 72
     1
 10
0.4123154239619753
 20
0.1674963157659822
 11
0.4088639147362555
 21
0.1715075291904667
 72
     1
 10
0.4088639147362568
 20
0.1715075291904669
 11
0.4065318139080681
 21
0.1743993342174211
 72
     1
 10
0.4065318139080665
 20
0.1743993342174211
 11
0.405319121477409
 21
0.1757985947143345
 72
     1
 10
0.4053191214774104
 20
0.1757985947143345
 11
0.4067183819743243
 21
0.1769180031118651
 72
     1
 10
0.4067183819743235
 20
0.1769180031118651
 11
0.4094236189350213
 21
0.1788769678075437
 72
     1
 10
0.4094236189350218
 20
0.1788769678075437
 11
0.4132482642932526
 21
0.1816754888013702
 72
     1
 10
0.4132482642932525
 20
0.1816754888013703
 11
0.4179124659496298
 21
0.1852202820602174
 72
     1
 10
0.417912465949629
 20
0.1852202820602174
 11
0.4232296558379
 21
0.189138211451575
 72
     1
 10
0.4232296558379001
 20
0.1891382114515751
 11
0.4291065499249351
 21
0.1935225610085696
 72
     1
 10
0.4291065499249367
 20
0.1935225610085698
 11
0.4352632961113562
 21
0.1981867626649482
 72
     1
 10
0.4352632961113554
 20
0.1981867626649479
 11
0.4416066103640296
 21
0.2028509643213252
 72
     1
 10
0.4416066103640293
 20
0.2028509643213252
 11
0.4479499246167016
 21
0.2076084500108307
 72
     1
 10
0.4479499246167018
 20
0.2076084500108307
 11
0.4540133867699932
 21
0.2120860836009535
 72
     1
 10
0.4540133867699927
 20
0.2120860836009535
 11
0.4596104287576467
 21
0.2162838650916932
 72
     1
 10
0.4596104287576468
 20
0.216283865091693
 11
0.4646477665465351
 21
0.2200152264167952
 72
     1
 10
0.464647766546535
 20
0.2200152264167951
 11
0.4689388320704013
 21
0.223186883543132
 72
     1
 10
0.4689388320704016
 20
0.2231868835431323
 11
0.4721104891967386
 21
0.2256122684044488
 72
     1
 10
0.4721104891967376
 20
0.2256122684044488
 11
0.4742560219586717
 21
0.2271980969676172
 72
     1
 10
0.4742560219586727
 20
0.2271980969676173
 11
0.475002294223693
 21
0.2277578011663825
 72
     1
 10
0.4750022942236929
 20
0.2277578011663825
 11
0.4674462875403612
 21
0.2277578011663825
 72
     1
 10
0.4674462875403611
 20
0.2277578011663825
 11
0.4395543616352215
 21
0.2277578011663825
 72
     1
 10
0.439554361635222
 20
0.2277578011663825
 11
0.4386215213039473
 21
0.2270115289013622
 72
     1
 10
0.4386215213039466
 20
0.2270115289013622
 11
0.4359162843432469
 21
0.2250525642056836
 72
     1
 10
0.4359162843432465
 20
0.2250525642056836
 11
0.4318117868856346
 21
0.2220674751456017
 72
     1
 10
0.4318117868856351
 20
0.2220674751456017
 11
0.4264013129642376
 21
0.2180562617211167
 72
     1
 10
0.4264013129642379
 20
0.2180562617211168
 11
0.4200579987115638
 21
0.2132987760316117
 72
     1
 10
0.4200579987115641
 20
0.2132987760316114
 11
0.4128751281607416
 21
0.2079815861433408
 72
     1
 10
0.4128751281607408
 20
0.2079815861433408
 11
0.4051325534111546
 21
0.20229126012256
 72
     1
 10
0.4051325534111552
 20
0.20229126012256
 11
0.397016842529058
 21
0.1963210820023964
 72
     1
 10
0.3970168425290583
 20
0.1963210820023967
 11
0.3889011316469611
 21
0.1903509038822331
 72
     1
 10
0.3889011316469611
 20
0.190350903882233
 11
0.3808787047979902
 21
0.1844740097951972
 72
     1
 10
0.3808787047979898
 20
0.1844740097951974
 11
0.3733226981146581
 21
0.1787836837744166
 72
     1
 10
0.373322698114658
 20
0.1787836837744166
 11
0.3663263956300919
 21
0.173653061952401
 72
     1
 10
0.3663263956300931
 20
0.173653061952401
 11
0.3601696494436735
 21
0.169082144329151
 72
     1
 10
0.3601696494436726
 20
0.1690821443291508
 11
0.3550390276216579
 21
0.1653507830040483
 72
     1
 10
0.3550390276216584
 20
0.1653507830040482
 11
0.3513076662965558
 21
0.1625522620102218
 72
     1
 10
0.3513076662965551
 20
0.1625522620102216
 11
0.3490688495014928
 21
0.1609664334470531
 72
     1
 10
0.3490688495014926
 20
0.1609664334470531
 11
0.3490688495014926
 21
0.1631119662089868
 72
     1
 10
0.3490688495014926
 20
0.1631119662089868
 11
0.3490688495014926
 21
0.1662836233353237
 72
     1
 10
0.3490688495014926
 20
0.1662836233353238
 11
0.3490688495014926
 21
0.1702948367598088
 72
     1
 10
0.3490688495014926
 20
0.1702948367598088
 11
0.3490688495014926
 21
0.1749590384161865
 72
     1
 10
0.3490688495014926
 20
0.1749590384161865
 11
0.3490688495014926
 21
0.1801829442713294
 72
     1
 10
0.3490688495014926
 20
0.1801829442713296
 11
0.3490688495014926
 21
0.185779986258983
 72
     1
 10
0.3490688495014926
 20
0.1857799862589829
 11
0.3490688495014926
 21
0.1916568803460187
 72
     1
 10
0.3490688495014926
 20
0.1916568803460186
 11
0.3490688495014926
 21
0.1975337744330549
 72
     1
 10
0.3490688495014926
 20
0.197533774433055
 11
0.3490688495014926
 21
0.2033173844869632
 72
     1
 10
0.3490688495014926
 20
0.2033173844869631
 11
0.3490688495014926
 21
0.2088211424414888
 72
     1
 10
0.3490688495014926
 20
0.2088211424414888
 11
0.3490688495014926
 21
0.2139517642635044
 72
     1
 10
0.3490688495014926
 20
0.2139517642635044
 11
0.3490688495014926
 21
0.2185226818867544
 72
     1
 10
0.3490688495014926
 20
0.2185226818867545
 11
0.3490688495014926
 21
0.2222540432118567
 72
     1
 10
0.3490688495014926
 20
0.2222540432118567
 11
0.3490688495014926
 21
0.2252391322719387
 72
     1
 10
0.3490688495014926
 20
0.2252391322719387
 11
0.3490688495014926
 21
0.2271048129344895
 72
     1
 10
0.3490688495014926
 20
0.2271048129344895
 11
0.3490688495014926
 21
0.2277578011663825
 72
     1
 10
0.3490688495014926
 20
0.2277578011663825
 11
0.3258411252527322
 21
0.2277578011663825
 72
     1
 10
0.3258411252527336
 20
0.2277578011663825
 11
0.3258411252527336
 21
0.0926825211976832
 72
     1
 10
0.3258411252527336
 20
0.0926825211976832
 11
0.3486957133689848
 21
0.0926825211976832
 72
     1
 10
0.3486957133689845
 20
0.0926825211976832
 11
0.3486957133689845
 21
0.0943616337939795
 72
     1
 10
0.3486957133689845
 20
0.0943616337939795
 11
0.3486957133689845
 21
0.0988392673841017
 72
     1
 10
0.3486957133689845
 20
0.0988392673841017
 11
0.3486957133689845
 21
0.1051825816367752
 72
     1
 10
0.3486957133689845
 20
0.1051825816367753
 11
0.3486957133689845
 21
0.1125520202538523
 72
     1
 10
0.3486957133689845
 20
0.1125520202538524
 11
0.3486957133689845
 21
0.1200147429040567
 72
     1
 10
0.3486957133689845
 20
0.1200147429040567
 11
0.3486957133689845
 21
0.1267311932892408
 72
     1
 10
0.3486957133689845
 20
0.1267311932892408
 11
0.3486957133689845
 21
0.1317685310781287
 72
     1
 10
0.3486957133689845
 20
0.1317685310781289
 11
0.3486957133689845
 21
0.1342871999725727
 72
     1
 10
0.3486957133689845
 20
0.1342871999725725
 11
0.3507479620977905
 21
0.1356864604694859
 72
     1
 10
0.35074796209779
 20
0.1356864604694859
 11
0.3548524595554018
 21
0.1387648335626952
 72
     1
 10
0.3548524595554015
 20
0.1387648335626952
 11
0.3605427855761835
 21
0.1428693310203079
 72
     1
 10
0.3605427855761842
 20
0.1428693310203079
 11
0.3668860998288565
 21
0.1476268167098129
 72
     1
 10
0.3668860998288568
 20
0.1476268167098129
 11
0.373322698114659
 21
0.1522910183661906
 72
     1
 10
0.373322698114658
 20
0.1522910183661908
 11
0.3791995922016947
 21
0.1565820838900582
 72
     1
 10
0.3791995922016946
 20
0.1565820838900582
 11
0.3836772257918156
 21
0.1599403090826502
 72
     1
 10
0.3836772257918159
 20
0.1599403090826503
 11
0.386195894686261
 21
0.1618059897452011
 72
     1
 10
0.3861958946862609
 20
0.1618059897452011
 11
0.3873153030837921
 21
0.1604067292482882
 72
     1
 10
0.3873153030837915
 20
0.1604067292482878
 11
0.3894608358457238
 21
0.1577947763207163
 72
     1
 10
0.3894608358457248
 20
0.1577947763207165
 11
0.3925392089389353
 21
0.1541566990287417
 72
     1
 10
0.3925392089389348
 20
0.1541566990287417
 11
0.396457138330292
 21
0.149492497372364
 72
     1
 10
0.3964571383302933
 20
0.149492497372364
 11
0.4009347719204161
 21
0.1442685915172211
 72
     1
 10
0.4009347719204146
 20
0.1442685915172209
 11
0.4057855416430466
 21
0.138391697430185
 72
     1
 10
0.4057855416430463
 20
0.1383916974301853
 11
0.4109161634650628
 21
0.1322349512437666
 72
     1
 10
0.410916163465064
 20
0.1322349512437666
 11
0.4162333533533335
 21
0.1259849210242201
 72
     1
 10
0.4162333533533334
 20
0.1259849210242201
 11
0.4215505432416044
 21
0.1196416067715466
 72
     1
 10
0.4215505432416045
 20
0.1196416067715466
 11
0.4265878810304927
 21
0.113671428651383
 72
     1
 10
0.4265878810304931
 20
0.1136714286513832
 11
0.4312520826868704
 21
0.1079811026306024
 72
     1
 10
0.4312520826868696
 20
0.1079811026306024
 11
0.4355431482107378
 21
0.1029437648417141
 72
     1
 10
0.435543148210738
 20
0.1029437648417139
 11
0.4390879414695842
 21
0.0987459833509739
 72
     1
 10
0.4390879414695843
 20
0.0987459833509741
 11
0.4417931784302841
 21
0.0954810421915098
 72
     1
 10
0.4417931784302845
 20
0.0954810421915096
 11
0.4435655750597076
 21
0.0934287934627037
 72
     1
 10
0.4435655750597074
 20
0.0934287934627039
 11
0.4442185632915993
 21
0.0926825211976832
 72
     1
 10
0.4442185632915985
 20
0.0926825211976832
 11
0.4743493059918004
 21
0.0926825211976832
 72
     1
 10
0.4743493059918001
 20
0.0926825211976832
 11
0.4753754303562029
 21
0.0926825211976832
 72
     1
 10
0.4753754303562033
 20
0.0926825211976832
 11
0.5008419714000258
 21
0.0926825211976832
 72
     1
 10
0.5008419714000265
 20
0.0926825211976832
 11
0.5014949596319184
 21
0.0939884976614689
 72
     1
 10
0.501494959631919
 20
0.0939884976614688
 11
0.5031740722282155
 21
0.0973467228540609
 72
     1
 10
0.503174072228215
 20
0.0973467228540612
 11
0.5055061730564038
 21
0.1021042085435666
 72
     1
 10
0.505506173056403
 20
0.1021042085435665
 11
0.5083046940502291
 21
0.1077012505312196
 72
     1
 10
0.5083046940502292
 20
0.1077012505312194
 11
0.5111032150440553
 21
0.1134848605851279
 72
     1
 10
0.5111032150440549
 20
0.1134848605851281
 11
0.5137151679716264
 21
0.1186154824071433
 72
     1
 10
0.5137151679716277
 20
0.1186154824071433
 11
0.5156741326673071
 21
0.1226266958316283
 72
     1
 10
0.5156741326673076
 20
0.122626695831628
 11
0.5167002570317104
 21
0.1247722285935621
 72
     1
 10
0.5167002570317103
 20
0.1247722285935622
 11
0.5180062334954961
 21
0.1247722285935622
 72
     1
 10
0.5180062334954961
 20
0.1247722285935622
 11
0.5207114704561957
 21
0.1247722285935622
 72
     1
 10
0.5207114704561944
 20
0.1247722285935622
 11
0.5246293998475517
 21
0.1247722285935622
 72
     1
 10
0.5246293998475525
 20
0.1247722285935622
 11
0.5295734536033125
 21
0.1247722285935622
 72
     1
 10
0.5295734536033115
 20
0.1247722285935622
 11
0.5352637796240919
 21
0.1247722285935622
 72
     1
 10
0.5352637796240929
 20
0.1247722285935622
 11
0.5415138098436386
 21
0.1247722285935622
 72
     1
 10
0.5415138098436394
 20
0.1247722285935622
 11
0.5482302602288245
 21
0.1247722285935622
 72
     1
 10
0.5482302602288236
 20
0.1247722285935622
 11
0.5551332786802616
 21
0.1247722285935622
 72
     1
 10
0.5551332786802608
 20
0.1247722285935622
 11
0.5620362971317004
 21
0.1247722285935622
 72
     1
 10
0.5620362971317015
 20
0.1247722285935622
 11
0.5687527475168847
 21
0.1247722285935622
 72
     1
 10
0.5687527475168839
 20
0.1247722285935622
 11
0.5750027777364317
 21
0.1247722285935622
 72
     1
 10
0.5750027777364322
 20
0.1247722285935622
 11
0.5806931037572126
 21
0.1247722285935622
 72
     1
 10
0.5806931037572119
 20
0.1247722285935622
 11
0.585637157512972
 21
0.1247722285935622
 72
     1
 10
0.5856371575129727
 20
0.1247722285935622
 11
0.5895550869043299
 21
0.1247722285935622
 72
     1
 10
0.5895550869043289
 20
0.1247722285935622
 11
0.5922603238650286
 21
0.1247722285935622
 72
     1
 10
0.5922603238650291
 20
0.1247722285935622
 11
0.5935663003288148
 21
0.1247722285935622
 72
     1
 10
0.5935663003288148
 20
0.1247722285935622
 11
0.5945924246932176
 21
0.1226266958316281
 72
     1
 10
0.5945924246932175
 20
0.122626695831628
 11
0.5965513893888953
 21
0.1186154824071431
 72
     1
 10
0.5965513893888957
 20
0.1186154824071433
 11
0.5991633423164672
 21
0.1134848605851281
 72
     1
 10
0.5991633423164667
 20
0.1134848605851281
 11
0.6019618633102946
 21
0.1077012505312196
 72
     1
 10
0.6019618633102959
 20
0.1077012505312194
 11
0.604760384304122
 21
0.1021042085435664
 72
     1
 10
0.6047603843041221
 20
0.1021042085435665
 11
0.6070924851323109
 21
0.0973467228540611
 72
     1
 10
0.6070924851323101
 20
0.0973467228540612
 11
0.6087715977286067
 21
0.0939884976614691
 72
     1
 10
0.6087715977286062
 20
0.0939884976614688
 11
0.609424585960498
 21
0.0926825211976832
 72
     1
 10
0.6094245859604986
 20
0.0926825211976832
 11
0.6363836715343633
 21
0.0926825211976832
 72
     1
 10
0.6363836715343641
 20
0.0926825211976832
 11
0.5671669189537184
 21
0.2277578011663825
 72
     1
 10
0.5671669189537179
 20
0.2277578011663825
 11
0.5656743744236758
 21
0.2277578011663825
 97
        0
 75
     0
 76
     1
 98
        1
 10
-0.3743130907707726
 20
-0.2500502867693841
1001
ACAD
1010
0.0
1020
0.0
1030
0.0
  0
HATCH
  5
B68
330
B5F
100
AcDbEntity
  8
Kawneer Logo-English
100
AcDbHatch
 10
0.0
 20
0.0
 30
0.0
210
0.0
220
0.0
230
1.0
  2
SOLID
 70
     1
 71
     0
 91
        1
 92
        1
 93
       69
 72
     1
 10
0.8092389849197205
 20
0.2277578011663825
 11
0.778921674153266
 21
0.1309289747799811
 72
     1
 10
0.778921674153267
 20
0.1309289747799809
 11
0.7781754018882468
 21
0.1287834420180468
 72
     1
 10
0.7781754018882468
 20
0.1287834420180467
 11
0.7776156976894812
 21
0.1270110453886236
 72
     1
 10
0.7776156976894813
 20
0.1270110453886237
 11
0.7771492775238438
 21
0.1253319327923275
 72
     1
 10
0.7771492775238436
 20
0.1253319327923274
 11
0.7766828573582045
 21
0.1238393882622867
 72
     1
 10
0.7766828573582046
 20
0.1238393882622866
 11
0.7764030052588217
 21
0.1248655126266895
 72
     1
 10
0.776403005258822
 20
0.1248655126266896
 11
0.7761231531594392
 21
0.1259849210242202
 72
     1
 10
0.7761231531594391
 20
0.1259849210242201
 11
0.7759365850931844
 21
0.1268244773223681
 72
     1
 10
0.7759365850931843
 20
0.1268244773223682
 11
0.7758433010600562
 21
0.1271976134548783
 72
     1
 10
0.7758433010600552
 20
0.1271976134548783
 11
0.7755634489606744
 21
0.1280371697530267
 72
     1
 10
0.775563448960674
 20
0.1280371697530267
 11
0.7750970287950349
 21
0.1291565781505569
 72
     1
 10
0.7750970287950363
 20
0.1291565781505568
 11
0.773977620397507
 21
0.1323282352768938
 72
     1
 10
0.7739776203975062
 20
0.1323282352768939
 11
0.7721119397349549
 21
0.1372722890326544
 72
     1
 10
0.7721119397349554
 20
0.1372722890326546
 11
0.7697798389067666
 21
0.1436156032853281
 72
     1
 10
0.769779838906767
 20
0.1436156032853281
 11
0.7670746019460673
 21
0.1511716099686602
 72
     1
 10
0.7670746019460668
 20
0.15117160996866
 11
0.7639962288528581
 21
0.1595671729501399
 72
     1
 10
0.7639962288528582
 20
0.15956717295014
 11
0.7606380036602665
 21
0.1686157241635125
 72
     1
 10
0.7606380036602652
 20
0.1686157241635125
 11
0.7572797784676718
 21
0.1778508434431408
 72
     1
 10
0.7572797784676726
 20
0.1778508434431408
 11
0.753921553275081
 21
0.187179246755896
 72
     1
 10
0.7539215532750814
 20
0.1871792467558961
 11
0.7505633280824898
 21
0.1962277979692689
 72
     1
 10
0.7505633280824902
 20
0.1962277979692689
 11
0.7474849549892814
 21
0.2046233609507488
 72
     1
 10
0.7474849549892797
 20
0.2046233609507488
 11
0.74477971802858
 21
0.2121793676340809
 72
     1
 10
0.7447797180285814
 20
0.2121793676340809
 11
0.7424476172003926
 21
0.2185226818867544
 72
     1
 10
0.7424476172003929
 20
0.2185226818867545
 11
0.7405819365378416
 21
0.2234667356425151
 72
     1
 10
0.7405819365378408
 20
0.2234667356425151
 11
0.7394625281403098
 21
0.2266383927688516
 72
     1
 10
0.7394625281403103
 20
0.2266383927688516
 11
0.7390893920078009
 21
0.2277578011663822
 72
     1
 10
0.7390893920078004
 20
0.2277578011663825
 11
0.7191266089185034
 21
0.2277578011663825
 72
     1
 10
0.7191266089185029
 20
0.2277578011663825
 11
0.6843316645619254
 21
0.1336342117406798
 72
     1
 10
0.6843316645619267
 20
0.1336342117406795
 11
0.6832122561643957
 21
0.130649122680598
 72
     1
 10
0.6832122561643961
 20
0.1306491226805981
 11
0.6823726998662476
 21
0.1282237378192816
 72
     1
 10
0.6823726998662468
 20
0.1282237378192818
 11
0.6817197116343549
 21
0.1260782050573481
 72
     1
 10
0.6817197116343552
 20
0.1260782050573481
 11
0.6811600074355896
 21
0.1241192403616695
 72
     1
 10
0.6811600074355884
 20
0.1241192403616695
 11
0.6808801553362055
 21
0.1250520806929446
 72
     1
 10
0.6808801553362059
 20
0.1250520806929445
 11
0.6805070192036949
 21
0.1261714890904751
 72
     1
 10
0.680507019203696
 20
0.1261714890904752
 11
0.6802271671043131
 21
0.1272908974880058
 72
     1
 10
0.680227167104313
 20
0.1272908974880061
 11
0.6798540309718037
 21
0.1286901579849195
 72
     1
 10
0.6798540309718031
 20
0.1286901579849194
 11
0.6794808948392922
 21
0.12980956638245
 72
     1
 10
0.6794808948392932
 20
0.1298095663824503
 11
0.6784547704748904
 21
0.1328879394756595
 72
     1
 10
0.67845477047489
 20
0.1328879394756595
 11
0.6769622259448497
 21
0.1378319932314196
 72
     1
 10
0.6769622259448496
 20
0.1378319932314196
 11
0.6750032612491701
 21
0.1441753074840938
 72
     1
 10
0.6750032612491697
 20
0.1441753074840937
 11
0.6725778763878547
 21
0.1516380301342981
 72
     1
 10
0.6725778763878556
 20
0.1516380301342981
 11
0.6699659234602841
 21
0.160033593115778
 72
     1
 10
0.6699659234602829
 20
0.160033593115778
 11
0.6671674024664549
 21
0.168988860296023
 72
     1
 10
0.6671674024664554
 20
0.168988860296023
 11
0.6642755974395012
 21
0.1782239795756509
 72
     1
 10
0.6642755974395019
 20
0.178223979575651
 11
0.6613837924125477
 21
0.1874590988552789
 72
     1
 10
0.6613837924125466
 20
0.1874590988552789
 11
0.6585852714187205
 21
0.1964143660355239
 72
     1
 10
0.6585852714187204
 20
0.1964143660355237
 11
0.6559733184911489
 21
0.2047166449838762
 72
     1
 10
0.6559733184911494
 20
0.2047166449838765
 11
0.6536412176629606
 21
0.2122726516672082
 72
     1
 10
0.6536412176629614
 20
0.2122726516672082
 11
0.6515889689341538
 21
0.2186159659198823
 72
     1
 10
0.6515889689341537
 20
0.2186159659198821
 11
0.6500964244041133
 21
0.2234667356425149
 72
     1
 10
0.6500964244041132
 20
0.2234667356425151
 11
0.6490703000397104
 21
0.2266383927688516
 72
     1
 10
0.6490703000397105
 20
0.2266383927688516
 11
0.6487904479403276
 21
0.2277578011663822
 72
     1
 10
0.648790447940328
 20
0.2277578011663825
 11
0.6237903270621445
 21
0.2277578011663825
 72
     1
 10
0.6237903270621437
 20
0.2277578011663825
 11
0.6676338226320932
 21
0.0926825211976832
 72
     1
 10
0.6676338226320926
 20
0.0926825211976832
 11
0.6922608073777669
 21
0.0926825211976832
 72
     1
 10
0.6922608073777666
 20
0.0926825211976832
 11
0.726029627369941
 21
0.1855001341596003
 72
     1
 10
0.7260296273699423
 20
0.1855001341596003
 11
0.7269624677012189
 21
0.1882986551534267
 72
     1
 10
0.7269624677012177
 20
0.1882986551534266
 11
0.7278020239993661
 21
0.1906307559816158
 72
     1
 10
0.727802023999367
 20
0.1906307559816159
 11
0.7284550122312589
 21
0.1927762887435496
 72
     1
 10
0.7284550122312581
 20
0.1927762887435495
 11
0.7290147164300237
 21
0.1947352534392281
 72
     1
 10
0.7290147164300232
 20
0.1947352534392282
 11
0.7298542727281716
 21
0.192216584544784
 72
     1
 10
0.729854272728173
 20
0.1922165845447839
 11
0.7306938290263214
 21
0.1894180635509575
 72
     1
 10
0.7306938290263206
 20
0.1894180635509575
 11
0.7318132374238499
 21
0.1863396904577483
 72
     1
 10
0.7318132374238511
 20
0.1863396904577481
 11
0.7331192138876387
 21
0.1827016131657736
 72
     1
 10
0.7331192138876382
 20
0.1827016131657737
 11
0.7654887733828987
 21
0.0926825211976834
 72
     1
 10
0.7654887733828986
 20
0.0926825211976832
 11
0.7895560539298075
 21
0.0926825211976832
 72
     1
 10
0.7895560539298075
 20
0.0926825211976832
 11
0.8341458217647785
 21
0.2277578011663825
 72
     1
 10
0.8341458217647783
 20
0.2277578011663825
 11
0.830601028505932
 21
0.2277578011663825
 72
     1
 10
0.8306010285059324
 20
0.2277578011663825
 11
0.8092389849197216
 21
0.2277578011663825
 97
        0
 75
     0
 76
     1
 98
        1
 10
-0.3743130907707726
 20
-0.2500502867693841
1001
ACAD
1010
0.0
1020
0.0
1030
0.0
  0
ENDBLK
  5
B6C
330
B5F
100
AcDbEntity
  8
0
100
AcDbBlockEnd
  0
ENDSEC
  0
SECTION
  2
ENTITIES
  0
LWPOLYLINE
  5
4D
330
2
100
AcDbEntity
  8
R-SWTS-DET1
100
AcDbPolyline
 90
       60
 70
     1
 43
0.0
 10
32.04343846927111
 20
12.8147158499291
 10
32.0661560815679
 20
12.7299325666108
 42
-0.0655434628152395
 10
32.06700793591068
 20
12.72346209048321
 10
32.06700793591071
 20
12.50766971027362
 10
32.70200793591135
 20
12.50766971027362
 10
32.72200793591137
 20
12.48766971027363
 10
32.74200793591138
 20
12.50766971027362
 10
32.76200793591136
 20
12.48766971027363
 10
32.78200793591137
 20
12.50766971027362
 10
32.80200793591135
 20
12.48766971027363
 10
32.82200793591136
 20
12.50766971027362
 10
32.84200793591137
 20
12.48766971027363
 10
32.86200793591135
 20
12.50766971027362
 10
32.88200793591136
 20
12.48766971027363
 10
32.90200793591135
 20
12.50766971027362
 10
32.92200793591135
 20
12.48766971027363
 10
32.94200793591134
 20
12.50766971027362
 10
32.96200793591135
 20
12.48766971027363
 10
32.98200793591135
 20
12.50766971027362
 10
33.00200793591134
 20
12.48766971027363
 10
33.02200793591135
 20
12.50766971027362
 10
33.04200793591133
 20
12.48766971027363
 10
33.06200793591134
 20
12.50766971027362
 10
33.08200793591135
 20
12.48766971027363
 10
33.10200793591133
 20
12.50766971027362
 10
33.12200793591134
 20
12.48766971027363
 10
33.14200793591135
 20
12.50766971027362
 10
33.19200793591134
 20
12.50766971027362
 10
33.19200793591134
 20
12.44266971027362
 10
32.31700793591315
 20
12.44266971027362
 10
32.31700793591315
 20
10.39266971027363
 10
31.69200793591134
 20
10.39266971027363
 10
31.69200793591134
 20
12.44266971027362
 10
31.69200793591134
 20
12.50766971027362
 10
31.89200793591135
 20
12.50766971027359
 10
31.93365608156848
 20
12.50766971027362
 42
1.00000000000321
 10
31.93365608156848
 20
12.64266971027423
 10
31.75000793591059
 20
12.64266971027423
 42
-0.4142135623730951
 10
31.69200793591057
 20
12.70066971027423
 10
31.69200793591057
 20
12.72346209047173
 42
-0.0655434628152775
 10
31.69285979025335
 20
12.72993256659929
 10
31.71557740255324
 20
12.81471584992907
 10
31.70614285759504
 20
12.8915540524592
 42
-0.7132930678969658
 10
31.72313938692332
 20
12.89984381370512
 10
31.81347105526345
 20
12.80951214536499
 42
-0.7725978076383388
 10
31.79879073467373
 20
12.78446931094773
 42
0.3431487919937011
 10
31.78741466805462
 20
12.77984515581481
 10
31.77807973268193
 20
12.7636765734638
 42
0.1316524975860435
 10
31.7770079359122
 20
12.75967657346378
 10
31.7770079359122
 20
12.74082016700323
 42
0.4142135623731602
 10
31.78500793591221
 20
12.73282016700322
 10
31.97400793591214
 20
12.73282016700322
 42
0.4142135623731602
 10
31.98200793591215
 20
12.74082016700323
 10
31.98200793591215
 20
12.75967657346378
 42
0.1316524975860434
 10
31.98093613914242
 20
12.7636765734638
 10
31.97160120376978
 20
12.77984515581467
 42
0.3431487919942175
 10
31.96022513715064
 20
12.78446931094767
 42
-0.7725978076396093
 10
31.9455448165609
 20
12.80951214536499
 10
32.03587648490103
 20
12.89984381370512
 42
-0.713293067896966
 10
32.05287301422931
 20
12.8915540524592
  0
DIMENSION
  5
4E
330
2
100
AcDbEntity
  8
R-ANNO-DIMS
100
AcDbDimension
  2
*D14
 10
35.19287543522833
 20
9.174120236745629
 30
0.0
 11
34.06744168556983
 21
9.424120236745629
 31
0.0
 70
    32
  1
D.L.O.
 71
     5
 42
2.000867499316996
  3
Open-end
100
AcDbAlignedDimension
 13
33.19200793591134
 23
12.44266971027362
 33
0.0
 14
35.19287543522833
 24
10.12766971027363
 34
0.0
100
AcDbRotatedDimension
  0
DIMENSION
  5
5C
330
2
100
AcDbEntity
  8
R-ANNO-DIMS
100
AcDbDimension
  2
*D13
 10
33.19200793591134
 20
9.174120236745629
 30
0.0
 11
32.44193386308311
 21
9.489596427221819
 31
0.0
 70
    32
 71
     5
 42
1.500148145656453
  3
STANDARD
100
AcDbAlignedDimension
 13
31.69185979025488
 23
10.37766971027363
 33
0.0
 14
33.19200793591134
 24
12.44266971027362
 34
0.0
100
AcDbRotatedDimension
  0
LWPOLYLINE
  5
6B
330
2
100
AcDbEntity
  8
R-SWTS-DET1
100
AcDbPolyline
 90
        6
 70
     0
 43
0.0
 10
35.19287543522833
 20
10.12766971027363
 10
35.19287543522833
 20
13.27082558453755
 10
34.98066024224616
 20
13.32389416627404
 10
35.40507498323635
 20
13.43144525427522
 10
35.19285979025412
 20
13.48451383601171
 10
35.19285979025412
 20
16.62766971027563
  0
LINE
  5
6C
330
2
100
AcDbEntity
  8
R-SWTS-DET1
100
AcDbLine
 10
31.69185979025488
 20
10.37766971027363
 30
0.0
 11
31.69185979025488
 21
16.37766971027564
 31
0.0
  0
DIMENSION
  5
6E
330
2
100
AcDbEntity
  8
R-ANNO-DIMS
100
AcDbDimension
  2
*D4
 10
8.564465157636711
 20
8.957469604836916
 30
0.0
 11
7.814465157636711
 21
9.272945795313106
 31
0.0
 70
    32
 71
     5
 42
1.5
  3
STANDARD
100
AcDbAlignedDimension
 13
7.064465157636711
 23
16.02330581420541
 33
0.0
 14
8.564465157636711
 24
10.45746960483691
 34
0.0
100
AcDbRotatedDimension
  0
DIMENSION
  5
7D
330
2
100
AcDbEntity
  8
R-ANNO-DIMS
100
AcDbDimension
  2
*D3
 10
5.063628948268195
 20
8.957469604836916
 30
0.0
 11
6.189047052952453
 21
9.207469604836916
 31
0.0
 70
    32
  1
D.L.O.
 71
     5
 42
2.000836209368515
  3
Open-end
100
AcDbAlignedDimension
 13
7.064465157636711
 23
16.02330581420541
 33
0.0
 14
5.063628948268195
 24
13.70830581420541
 34
0.0
100
AcDbRotatedDimension
  0
DIMENSION
  5
89
330
2
100
AcDbEntity
  8
R-ANNO-DIMS
100
AcDbDimension
  2
*D2
 10
5.063628948268195
 20
8.207453959862675
 30
0.0
 11
6.939047052952453
 21
8.457453959862675
 31
0.0
 70
    32
  1
F.W.
 71
     5
 42
3.500836209368515
  3
Open-end
100
AcDbAlignedDimension
 13
8.564465157636711
 23
10.45746960483691
 33
0.0
 14
5.063628948268195
 24
13.70830581420541
 34
0.0
100
AcDbRotatedDimension
  0
LINE
  5
95
330
2
100
AcDbEntity
  8
R-SWTS-DET2
100
AcDbLine
 10
12.11537847847294
 20
12.4579865457149
 30
0.0
 11
12.11537847847294
 21
10.25656487239942
 31
0.0
  0
LWPOLYLINE
  5
97
330
2
100
AcDbEntity
  8
R-SWTS-DET1
100
AcDbPolyline
 90
        6
 70
     0
 43
0.0
 10
8.314465157636711
 20
10.45746960483691
 10
11.95762103190058
 20
10.45746960483691
 10
12.01068961363709
 20
10.66968479781909
 10
12.11824070163826
 20
10.2452700568289
 10
12.17130928337477
 20
10.45748524981113
 10
14.8144651576387
 20
10.45748524981113
  0
DIMENSION
  5
98
330
2
100
AcDbEntity
  8
R-ANNO-DIMS
100
AcDbDimension
  2
*D1
 10
14.5644651576387
 20
8.207453959862718
 30
0.0
 11
11.5644651576377
 21
8.481263483672242
 31
0.0
 70
    32
 71
     5
 42
6.000000000001989
  3
STANDARD
100
AcDbAlignedDimension
 13
8.564465157636711
 23
10.45746960483691
 33
0.0
 14
14.5644651576387
 24
10.45745395986272
 34
0.0
100
AcDbRotatedDimension
  0
LWPOLYLINE
  5
A5
330
2
100
AcDbEntity
  8
R-SWTS-DET2
100
AcDbPolyline
 90
       20
 70
     1
 43
0.0
 10
31.63185979025488
 20
10.45766971027363
 42
0.4142135623730951
 10
31.64185979025487
 20
10.46766971027364
 10
31.64185979025487
 20
11.00766971027364
 42
-0.4142135623730951
 10
31.65185979025486
 20
11.01766971027363
 10
31.68185979025489
 20
11.01766971027363
 42
-0.4142135623730951
 10
31.69185979025488
 20
11.00766971027364
 10
31.69185979025488
 20
10.42266971027363
 42
-0.4142135623730939
 10
31.66185979025491
 20
10.39266971027363
 10
25.73685979025289
 20
10.39266971027363
 42
-0.414213562373096
 10
25.70685979025292
 20
10.42266971027362
 10
25.70685979025292
 20
16.34766971027563
 42
-0.4142135623730953
 10
25.73685979025289
 20
16.37766971027563
 10
26.32185979025293
 20
16.37766971027563
 42
-0.4142135623730898
 10
26.33185979025292
 20
16.36766971027564
 10
26.33185979025292
 20
16.33766971027564
 42
-0.4142135623730951
 10
26.32185979025293
 20
16.32766971027563
 10
25.78185979025291
 20
16.32766971027563
 42
0.4142135623730951
 10
25.77185979025291
 20
16.31766971027564
 10
25.77185979025291
 20
10.48766971027363
 42
0.4142135623730951
 10
25.80185979025289
 20
10.45766971027363
  0
DIMENSION
  5
A7
330
2
100
AcDbEntity
  8
R-ANNO-DIMS
100
AcDbDimension
  2
*D12
 10
25.69185979025293
 20
8.424120236745615
 30
0.0
 11
28.6918597902539
 21
8.697929760555139
 31
0.0
 70
    32
 71
     5
 42
6.000000000001953
  3
STANDARD
100
AcDbAlignedDimension
 13
31.69185979025488
 23
10.37766971027363
 33
0.0
 14
25.69185979025293
 24
16.37766971027563
 34
0.0
100
AcDbRotatedDimension
  0
DIMENSION
  5
B4
330
2
100
AcDbEntity
  8
R-ANNO-DIMS
100
AcDbDimension
  2
*D17
 10
23.69664403984198
 20
10.37766971027364
 30
0.0
 11
23.42283451603245
 21
13.37766971027464
 31
0.0
 70
    32
 71
     5
 42
6.000000000001996
  3
STANDARD
100
AcDbAlignedDimension
 13
25.69185979025293
 23
16.37766971027563
 33
0.0
 14
31.69185979025488
 24
10.37766971027363
 34
0.0
 50
90.0
100
AcDbRotatedDimension
  0
LINE
  5
C1
330
2
100
AcDbEntity
  8
0
100
AcDbLine
 10
0.0000000000000142
 20
23.24873374485759
 30
0.0
 11
0.0
 21
0.0
 31
0.0
  0
LINE
  5
C3
330
2
100
AcDbEntity
  8
0
100
AcDbLine
 10
0.0
 20
0.0
 30
0.0
 11
43.29487984337851
 21
0.0
 31
0.0
  0
TEXT
  5
C5
330
2
100
AcDbEntity
  8
0
 62
     2
100
AcDbText
 10
6.763988070848306
 20
6.460302251293887
 30
0.0
 40
0.375
  1
%%u90° INSIDE CORNER
  7
ROMAND
 72
     4
 11
9.314039230466313
 21
6.647930150338908
 31
0.0
100
AcDbText
  0
TEXT
  5
C7
330
2
100
AcDbEntity
  8
0
 62
     2
100
AcDbText
 10
26.79852177443309
 20
6.460302251293887
 30
0.0
 40
0.375
  1
%%u90° OUTSIDE CORNER
  7
ROMAND
 72
     4
 11
29.63954326147265
 21
6.647930150338908
 31
0.0
100
AcDbText
  0
TEXT
  5
C8
330
2
100
AcDbEntity
  8
0
 62
     2
100
AcDbText
 10
22.72092305322179
 20
1.027790458568759
 30
0.0
 40
0.375
  1
DETAIL SCALE: 1" = 1"
  7
ROMAND
 72
     1
 11
25.49108846932002
 21
1.027790458568759
 31
0.0
100
AcDbText
1001
ACAD
1000
MTEXTBEGIN
1070
    73
1070
     1
1070
    44
1040
1.0
1070
    74
1070
     0
1000
MTEXTEND
1000
MTEXTBEGIN
1070
    73
1070
     1
1070
    44
1040
1.0
1070
    74
1070
     0
1000
MTEXTEND
1000
MTEXTBEGIN
1070
    73
1070
     1
1070
    44
1040
1.0
1070
    74
1070
     0
1000
MTEXTEND
1000
MTEXTBEGIN
1070
    73
1070
     1
1070
    44
1040
1.0
1070
    74
1070
     0
1000
MTEXTEND
1000
MTEXTBEGIN
1070
    73
1070
     1
1070
    44
1040
1.0
1070
    74
1070
     0
1000
MTEXTEND
1000
MTEXTBEGIN
1070
    73
1070
     1
1070
    44
1040
1.0
1070
    74
1070
     0
1000
MTEXTEND
1000
MTEXTBEGIN
1070
    73
1070
     1
1070
    44
1040
1.0
1070
    74
1070
     0
1000
MTEXTEND
  0
DIMENSION
  5
CC
330
2
100
AcDbEntity
  8
R-ANNO-DIMS
100
AcDbDimension
  2
*D11
 10
35.19287543522833
 20
8.424120236745629
 30
0.0
 11
33.31736761274161
 21
8.674120236745629
 31
0.0
 70
    32
  1
F.W.
 71
     5
 42
3.501015644973449
  3
Open-end
100
AcDbAlignedDimension
 13
31.69185979025488
 23
10.37766971027363
 33
0.0
 14
35.19287543522833
 24
10.12766971027363
 34
0.0
100
AcDbRotatedDimension
  0
LINE
  5
D8
330
2
100
AcDbEntity
  8
R-SWTS-DET1
100
AcDbLine
 10
31.69185979025488
 20
10.37766971027363
 30
0.0
 11
35.19338069515575
 21
10.37766971027363
 31
0.0
  0
TEXT
  5
D9
330
2
100
AcDbEntity
  8
PART_NUMBERS
100
AcDbText
 10
36.00580625179552
 20
17.34511468523599
 30
0.0
 40
0.25
  1
558230
  7
ROMAND
100
AcDbText
  0
TEXT
  5
DA
330
2
100
AcDbEntity
  8
PART_NUMBERS
100
AcDbText
 10
36.00580625179552
 20
16.13311468523599
 30
0.0
 40
0.25
  1
556011
  7
ROMAND
100
AcDbText
  0
TEXT
  5
DB
330
2
100
AcDbEntity
  8
PART_NUMBERS
100
AcDbText
 10
36.00580625179552
 20
16.94111468523599
 30
0.0
 40
0.25
  1
JAMB
  7
ROMAND
100
AcDbText
  0
TEXT
  5
DC
330
2
100
AcDbEntity
  8
PART_NUMBERS
100
AcDbText
 10
36.00580625179552
 20
18.15311468523599
 30
0.0
 40
0.25
  1
INTERIOR GLAZING GASKET
  7
ROMAND
100
AcDbText
  0
TEXT
  5
DD
330
2
100
AcDbEntity
  8
PART_NUMBERS
100
AcDbText
 10
36.00580625179552
 20
14.92111468523599
 30
0.0
 40
0.25
  1
027799
  7
ROMAND
100
AcDbText
  0
TEXT
  5
DE
330
2
100
AcDbEntity
  8
PART_NUMBERS
100
AcDbText
 10
36.00580625179552
 20
13.30511468523599
 30
0.0
 40
0.25
  1
1/8" PRESHIM GLAZING TAPE
  7
ROMAND
100
AcDbText
  0
TEXT
  5
DF
330
2
100
AcDbEntity
  8
PART_NUMBERS
100
AcDbText
 10
36.00580625179552
 20
14.51711468523599
 30
0.0
 40
0.25
  1
AIR SEAL GASKET
  7
ROMAND
100
AcDbText
  0
TEXT
  5
E0
330
2
100
AcDbEntity
  8
PART_NUMBERS
100
AcDbText
 10
36.00580625179552
 20
14.11311468523598
 30
0.0
 40
0.25
  1
(FOR RAIN SCREEN APPLICATION)
  7
ROMAND
100
AcDbText
  0
TEXT
  5
E1
330
2
100
AcDbEntity
  8
PART_NUMBERS
100
AcDbText
 10
36.00580625179552
 20
15.72911468523598
 30
0.0
 40
0.25
  1
GLASS STOP
  7
ROMAND
100
AcDbText
  0
LINE
  5
E2
330
2
100
AcDbEntity
  8
R-SWTS-DET2
100
AcDbLine
 10
7.064145889146153
 20
17.50921913504164
 30
0.0
 11
5.264533680705632
 21
17.50921913504164
 31
0.0
  0
LWPOLYLINE
  5
E3
330
2
100
AcDbEntity
  8
R-SWTS-DET3
100
AcDbPolyline
 90
        4
 70
     0
 43
0.0
 10
5.063613303293927
 20
16.21308967401076
 10
7.625613303293938
 20
16.21308967401076
 10
7.625613303293938
 20
16.46308967401077
 10
5.063613303293927
 20
16.46308967401077
  0
LWPOLYLINE
  5
E4
330
2
100
AcDbEntity
  8
R-SWTS-DET3
100
AcDbPolyline
 90
        4
 70
     0
 43
0.0
 10
5.063613303293927
 20
16.96308967401076
 10
7.625613303293938
 20
16.96308967401076
 10
7.625613303293938
 20
17.21308967401077
 10
5.063613303293927
 20
17.21308967401077
  0
LINE
  5
E5
330
2
100
AcDbEntity
  8
R-SWTS-DET1
100
AcDbLine
 10
5.063628948268195
 20
16.02330581420541
 30
0.0
 11
8.564465157636711
 21
16.02330581420541
 31
0.0
  0
LINE
  5
E6
330
2
100
AcDbEntity
  8
R-SWTS-DET1
100
AcDbLine
 10
5.063628948268195
 20
15.95830581420542
 30
0.0
 11
8.564465157636654
 21
15.95830581420542
 31
0.0
  0
LINE
  5
E7
330
2
100
AcDbEntity
  8
R-SWTS-DET1
100
AcDbLine
 10
5.063628948268195
 20
13.95830581420542
 30
0.0
 11
8.564465157636725
 21
13.95830581420541
 31
0.0
  0
DIMENSION
  5
E8
330
2
100
AcDbEntity
  8
R-ANNO-DIMS
100
AcDbDimension
  2
*D8
 10
3.563628948268195
 20
13.95830581420542
 30
0.0
 11
3.248152757792003
 21
13.20830581420543
 31
0.0
 70
    32
 71
     5
 42
1.499999999999978
  3
STANDARD
100
AcDbAlignedDimension
 13
10.62946515763665
 23
12.45830581420544
 33
0.0
 14
5.063628948268195
 24
13.95830581420542
 34
0.0
 50
90.0
100
AcDbRotatedDimension
  0
LINE
  5
F7
330
2
100
AcDbEntity
  8
R-SWTS-DET1
100
AcDbLine
 10
7.064145889146153
 20
18.27230143888552
 30
0.0
 11
5.063613303294097
 21
18.27230143888552
 31
0.0
  0
LINE
  5
F8
330
2
100
AcDbEntity
  8
R-SWTS-DET1
100
AcDbLine
 10
5.063613303293983
 20
19.95830581420742
 30
0.0
 11
8.564465157636654
 21
19.95830581420742
 31
0.0
  0
DIMENSION
  5
F9
330
2
100
AcDbEntity
  8
R-ANNO-DIMS
100
AcDbDimension
  2
*D7
 10
3.563628948268195
 20
10.45746960483691
 30
0.0
 11
3.313628948268194
 21
11.58288770952118
 31
0.0
 70
    32
  1
D.L.O.
 71
     5
 42
2.000836209368522
  3
Open-end
100
AcDbAlignedDimension
 13
10.62946515763665
 23
12.45830581420544
 33
0.0
 14
8.314465157636711
 24
10.45746960483691
 34
0.0
 50
90.0
100
AcDbRotatedDimension
  0
DIMENSION
  5
105
330
2
100
AcDbEntity
  8
R-ANNO-DIMS
100
AcDbDimension
  2
*D6
 10
2.813613303293927
 20
10.45746960483691
 30
0.0
 11
2.563613303293925
 21
12.33288770952117
 31
0.0
 70
    32
  1
F.W.
 71
     5
 42
3.5008362093685
  3
Open-end
100
AcDbAlignedDimension
 13
5.063628948268195
 23
13.95830581420542
 33
0.0
 14
8.314465157636711
 24
10.45746960483691
 34
0.0
 50
90.0
100
AcDbRotatedDimension
  0
LWPOLYLINE
  5
111
330
2
100
AcDbEntity
  8
R-SWTS-DET1
100
AcDbPolyline
 90
        6
 70
     0
 43
0.0
 10
5.063628948268195
 20
13.70830581420541
 10
5.063628948268195
 20
17.35146168846933
 10
4.851413755286024
 20
17.40453027020583
 10
5.275828496276211
 20
17.512081358207
 10
5.063613303293983
 20
17.5651499399435
 10
5.063613303293983
 20
20.20830581420742
  0
DIMENSION
  5
112
330
2
100
AcDbEntity
  8
R-ANNO-DIMS
100
AcDbDimension
  2
*D5
 10
2.813613303293983
 20
19.95830581420742
 30
0.0
 11
2.539803779484456
 21
16.95830581420642
 31
0.0
 70
    32
 71
     5
 42
6.000000000002001
  3
STANDARD
100
AcDbAlignedDimension
 13
5.063628948268195
 23
13.95830581420542
 33
0.0
 14
5.063613303293983
 24
19.95830581420742
 34
0.0
 50
90.0
100
AcDbRotatedDimension
  0
TEXT
  5
11F
330
2
100
AcDbEntity
  8
PART_NUMBERS
100
AcDbText
 10
15.37689071427847
 20
14.96973385838706
 30
0.0
 40
0.25
  1
(FOR RAIN SCREEN APPLICATION)
  7
ROMAND
100
AcDbText
  0
LWPOLYLINE
  5
120
330
2
100
AcDbEntity
  8
R-SWTS-DET1
100
AcDbPolyline
 90
      130
 70
     1
 43
0.0
 10
8.016583581641306
 20
19.1221515448843
 10
8.006853482784869
 20
19.12445917922358
 42
0.1169703560206769
 10
8.006854257980229
 20
19.08614918088891
 10
8.016584263439632
 20
19.08845720899958
 42
0.283507087290093
 10
8.070767572616695
 20
19.03427609255554
 10
8.068459938277364
 20
19.02454599369908
 42
0.1169703560206769
 10
8.106769936612046
 20
19.02454676889444
 10
8.104461908501356
 20
19.03427677435385
 42
0.1605226430949019
 10
8.143388690881103
 20
19.05820904001403
 42
-0.2208810136133025
 10
8.158669618987268
 20
19.0653058142076
 10
8.16783287189876
 20
19.0653058142076
 42
-0.4142135623730951
 10
8.187832871898741
 20
19.04530581420761
 10
8.187832871898741
 20
19.00944226110857
 42
-0.2220475164447751
 10
8.180668002875599
 20
18.99410409261273
 42
-0.2918218255974009
 10
8.025988303293367
 20
18.97405277852842
 42
0.5494743523524548
 10
8.004613303293332
 20
18.96047487828575
 10
8.004613303293275
 20
18.32500208128289
 10
8.138788597598455
 20
18.32500208128289
 10
8.312822713182448
 20
18.12133775062654
 10
8.312822713182448
 20
17.54908972397564
 10
8.137075439964554
 20
17.50199838404492
 10
8.137075439964554
 20
17.38733897879437
 10
8.254465157635742
 20
17.38733897879437
 10
8.254465157635742
 20
17.3121566914011
 42
0.5494743523522922
 10
8.27584015761878
 20
17.29857879115843
 42
-0.2918218255973563
 10
8.430519857201012
 20
17.27852747707411
 42
-0.222047516444722
 10
8.437684726224155
 20
17.26318930857827
 10
8.437684726224155
 20
17.22732575547924
 42
-0.4142135623731471
 10
8.417684726224173
 20
17.20732575547924
 10
8.408521473312681
 20
17.20732575547924
 42
-0.2208810136133066
 10
8.39324054520646
 20
17.21442252967278
 42
0.1605330212146638
 10
8.354310888295437
 20
17.23835547713133
 10
8.356618522634711
 20
17.24808557598781
 42
0.116970356020677
 10
8.318308524300029
 20
17.24808480079245
 10
8.320616552410776
 20
17.23835479533298
 42
0.283507087290051
 10
8.26643543596672
 20
17.18417148615594
 10
8.256705337110226
 20
17.18647912049521
 42
0.1169703560206769
 10
8.256706112305643
 20
17.14816912216054
 10
8.266436117765046
 20
17.15047715027122
 42
0.2835070872899558
 10
8.320619426942052
 20
17.09629603382723
 10
8.318311792602777
 20
17.08656593497076
 42
0.1169703560206765
 10
8.35662179093746
 20
17.08656671016612
 10
8.35431376282677
 20
17.0962967156255
 42
0.1605226430949548
 10
8.393240545206516
 20
17.12022898128568
 42
-0.2208810136133165
 10
8.408521473312681
 20
17.12732575547924
 10
8.417684726224173
 20
17.12732575547924
 42
-0.4142135623730951
 10
8.437684726224155
 20
17.10732575547924
 10
8.437684726224155
 20
17.07146220238021
 42
-0.2220475164447311
 10
8.430519857201012
 20
17.05612403388436
 42
-0.1410634256728592
 10
8.357157668737308
 20
17.02366920322404
 42
0.9341031171555698
 10
8.360252415887863
 20
16.97830581420831
 10
8.506465157636547
 20
16.97830581420864
 42
-0.4142135623740998
 10
8.564465157636711
 20
16.92030581420863
 10
8.564465157636995
 20
16.89751343400846
 42
-0.0655434628180566
 10
8.563613303294211
 20
16.89104295788061
 10
8.540895690994751
 20
16.80625967455251
 10
8.550330235953005
 20
16.72942147202241
 42
-0.713293067896938
 10
8.533333706624695
 20
16.72113171077649
 10
8.443002038284568
 20
16.81146337911662
 42
-0.7725978076385306
 10
8.457682358874286
 20
16.83650621353386
 42
0.3431487919936307
 10
8.469058425493393
 20
16.84113036866681
 10
8.478393360866085
 20
16.85729895101781
 42
0.1316524975860437
 10
8.479465157635821
 20
16.8612989510178
 10
8.479465157635821
 20
16.88015535747836
 42
0.4142135623731602
 10
8.47146515763584
 20
16.88815535747835
 10
8.282465157635876
 20
16.88815535747835
 42
0.4142135623731602
 10
8.274465157635894
 20
16.88015535747836
 10
8.274465157635894
 20
16.8612989510178
 42
0.1316524975860435
 10
8.275536954405573
 20
16.85729895101781
 10
8.284871889778266
 20
16.84113036866688
 42
0.3431487919941411
 10
8.296247956397373
 20
16.83650621353389
 42
-0.7725978076394044
 10
8.310928276987091
 20
16.81146337911662
 10
8.220596608646964
 20
16.72113171077649
 42
-0.7132930678969421
 10
8.203600079318711
 20
16.72942147202241
 10
8.213034624276907
 20
16.8062596745525
 10
8.190317011979551
 20
16.89104295787295
 42
-0.0655434628120725
 10
8.189465157636767
 20
16.89751343400019
 10
8.189465157631367
 20
17.32233897879437
 10
7.989613303292095
 20
17.32233897879436
 10
7.989613303292095
 20
17.26033897879436
 10
7.981458137114522
 20
17.26033897879436
 42
-0.3255049610922494
 10
7.952906878581678
 20
17.28112889539668
 10
7.939613303292084
 20
17.32233897879437
 10
7.939613303292084
 20
17.49492987510562
 42
-0.4142135623732337
 10
7.954613303292127
 20
17.50992987510563
 10
7.974613303292166
 20
17.50992987510563
 42
-0.4142135623728176
 10
7.989613303292152
 20
17.49492987510564
 10
7.989613303292209
 20
17.38733897879437
 10
8.072075439964557
 20
17.38733897879437
 10
8.072075439964557
 20
17.55187463826355
 10
8.247822713182451
 20
17.59896597819427
 10
8.247822713182451
 20
18.09896597819426
 10
8.107075439964525
 20
18.2600020812829
 10
8.004613303293275
 20
18.2600020812829
 10
8.004613303293275
 20
18.20785433134095
 42
-0.3639702342661772
 10
7.996349785069959
 20
18.19800625381083
 10
7.951349785068636
 20
18.19007153967872
 42
-0.4663076581547077
 10
7.93961330329197
 20
18.19991961720883
 10
7.939613303290606
 20
19.94330581420759
 10
8.564613303293164
 20
19.94330581420759
 10
8.564613303293164
 20
19.70330581420758
 42
-0.4142135623730951
 10
8.554613303293116
 20
19.69330581420759
 10
8.549613303293121
 20
19.69330581420759
 42
0.4142135623730951
 10
8.53961330329313
 20
19.68330581420758
 10
8.539613303293073
 20
19.38330581420759
 42
0.4142135623731992
 10
8.549613303293121
 20
19.37330581420759
 10
8.554613303293116
 20
19.37330581420759
 42
-0.4142135623731992
 10
8.564613303293107
 20
19.36330581420759
 10
8.564613303293107
 20
19.32830581420759
 42
-0.4142135623730951
 10
8.554613303293116
 20
19.31830581420759
 10
8.499613303293166
 20
19.31830581420759
 42
-0.4142135623730951
 10
8.489613303293175
 20
19.32830581420759
 10
8.489613303293175
 20
19.73830581420759
 42
-0.4142135623730951
 10
8.499613303293166
 20
19.74830581420758
 10
8.504613303293162
 20
19.74830581420758
 42
0.4142135623730951
 10
8.514613303293153
 20
19.75830581420759
 10
8.514613303293153
 20
19.87830581420759
 10
8.004613303293389
 20
19.87830581420756
 10
8.004613303293389
 20
19.25013675012947
 42
0.5494743523523319
 10
8.025988303293367
 20
19.23655884988679
 42
-0.2918218255973577
 10
8.180668002875599
 20
19.21650753580246
 42
-0.2220475164447702
 10
8.187832871898741
 20
19.20116936730663
 10
8.187832871898741
 20
19.1653058142076
 42
-0.4142135623730951
 10
8.16783287189876
 20
19.1453058142076
 10
8.158669618987268
 20
19.1453058142076
 42
-0.2208810136133115
 10
8.143388690881046
 20
19.15240258840114
 42
0.1605330212145298
 10
8.10445903397008
 20
19.17633553585965
 10
8.106766668309354
 20
19.18606563471613
 42
0.116970356020677
 10
8.068456669974672
 20
19.18606485952077
 10
8.070764698085362
 20
19.17633485406135
 42
0.2835070872900811
  0
LINE
  5
121
330
2
100
AcDbEntity
  8
R-SWTS-DET1
100
AcDbLine
 10
8.564465157636725
 20
13.95830581420541
 30
0.0
 11
8.564465157636654
 21
19.95830581420742
 31
0.0
  0
LWPOLYLINE
  5
122
330
2
100
AcDbEntity
  8
R-SWTS-DET2
100
AcDbPolyline
 90
       20
 70
     1
 43
0.0
 10
8.624613303293166
 20
19.87830581420759
 42
0.4142135623730951
 10
8.614613303293175
 20
19.8683058142076
 10
8.614613303293175
 20
19.32830581420759
 42
-0.4142135623730951
 10
8.604613303293184
 20
19.31830581420759
 10
8.574613303293155
 20
19.31830581420759
 42
-0.4142135623730951
 10
8.564613303293164
 20
19.32830581420759
 10
8.564613303293164
 20
19.91330581420759
 42
-0.4142135623730951
 10
8.594613303293193
 20
19.94330581420759
 10
14.51946515763885
 20
19.9433058142076
 42
-0.414213562373096
 10
14.54946515763888
 20
19.9133058142076
 10
14.54946515763888
 20
13.98830581420542
 42
-0.4142135623731039
 10
14.51946515763885
 20
13.95830581420542
 10
13.93446515763887
 20
13.95830581420542
 42
-0.4142135623730951
 10
13.92446515763888
 20
13.96830581420542
 10
13.92446515763888
 20
13.99830581420542
 42
-0.4142135623731211
 10
13.93446515763887
 20
14.00830581420541
 10
14.47446515763884
 20
14.00830581420542
 42
0.4142135623731211
 10
14.48446515763889
 20
14.01830581420542
 10
14.48446515763889
 20
19.84830581420759
 42
0.4142135623730951
 10
14.45446515763886
 20
19.87830581420759
  0
LEADER
  5
123
330
2
100
AcDbEntity
  8
PART_NUMBERS
100
AcDbLeader
  3
Open-end
 76
     3
 10
7.50187959621909
 20
18.27230143888552
 30
0.0
 10
15.0644651576387
 20
19.9433058142076
 30
0.0
 10
15.3144651576387
 20
19.9433058142076
 30
0.0
1001
ACAD
1000
DSTYLE
1002
{
1070
   147
1040
0.0625
1070
    77
1070
     0
1002
}
  0
LWPOLYLINE
  5
124
330
2
100
AcDbEntity
  8
R-SWTS-DET1
100
AcDbPolyline
 90
      130
 70
     1
 43
0.0
 10
13.72831088831558
 20
13.41042423821005
 10
13.73061852265486
 20
13.40069413935359
 42
-0.1169703560206769
 10
13.69230852432017
 20
13.40069491454895
 10
13.69461655243086
 20
13.41042492000837
 42
-0.283507087290093
 10
13.64043543598681
 20
13.46460822918541
 10
13.63070533713031
 20
13.46230059484613
 42
-0.1169703560206769
 10
13.63070611232567
 20
13.50061059318081
 10
13.64043611778513
 20
13.49830256507012
 42
-0.1605226430949019
 10
13.6643683834453
 20
13.53722934744982
 42
0.2208810136133025
 10
13.67146515763884
 20
13.55251027555603
 10
13.67146515763884
 20
13.56167352846748
 42
0.4142135623730951
 10
13.65146515763886
 20
13.58167352846748
 10
13.61560160453982
 20
13.58167352846749
 42
0.2220475164447751
 10
13.60026343604401
 20
13.57450865944435
 42
0.2918218255974009
 10
13.58021212195965
 20
13.41982895986213
 42
-0.5494743523524548
 10
13.56663422171701
 20
13.39845395986208
 10
12.93116142471414
 20
13.39845395986202
 10
12.93116142471414
 20
13.53262925416721
 10
12.72749709405779
 20
13.70666336975119
 10
12.15524906740692
 20
13.70666336975119
 10
12.1081577274762
 20
13.53091609653327
 10
11.99349832222564
 20
13.53091609653327
 10
11.99349832222564
 20
13.64830581420449
 10
11.91831603483238
 20
13.64830581420449
 42
-0.5494743523522922
 10
11.90473813458968
 20
13.66968081418753
 42
0.2918218255973563
 10
11.88468682050539
 20
13.82436051376974
 42
0.222047516444722
 10
11.86934865200951
 20
13.83152538279289
 10
11.83348509891048
 20
13.83152538279289
 42
0.4142135623731471
 10
11.8134850989105
 20
13.81152538279289
 10
11.8134850989105
 20
13.80236212988144
 42
0.2208810136133066
 10
11.82058187310404
 20
13.78708120177521
 42
-0.1605330212146638
 10
11.84451482056259
 20
13.74815154486418
 10
11.85424491941908
 20
13.75045917920347
 42
-0.116970356020677
 10
11.85424414422372
 20
13.71214918086879
 10
11.84451413876426
 20
13.71445720897949
 42
-0.283507087290051
 10
11.7903308295872
 20
13.66027609253546
 10
11.79263846392647
 20
13.65054599367899
 42
-0.1169703560206769
 10
11.75432846559179
 20
13.65054676887435
 10
11.75663649370248
 20
13.66027677433377
 42
-0.2835070872899558
 10
11.70245537725848
 20
13.71446008351079
 10
11.69272527840204
 20
13.71215244917151
 42
-0.1169703560206765
 10
11.6927260535974
 20
13.75046244750619
 10
11.70245605905675
 20
13.74815441939551
 42
-0.1605226430949548
 10
11.72638832471691
 20
13.78708120177523
 42
0.2208810136133165
 10
11.73348509891051
 20
13.80236212988143
 10
11.73348509891051
 20
13.81152538279289
 42
0.4142135623730951
 10
11.71348509891047
 20
13.83152538279289
 10
11.6776215458115
 20
13.83152538279289
 42
0.2220475164447311
 10
11.66228337731562
 20
13.82436051376975
 42
0.1410634256728592
 10
11.62982854665532
 20
13.75099832530603
 42
-0.9341031171555698
 10
11.58446515763959
 20
13.75409307245661
 10
11.58446515763987
 20
13.90030581420527
 42
0.4142135623740998
 10
11.52646515763988
 20
13.95830581420547
 10
11.50367277743974
 20
13.95830581420573
 42
0.0655434628180566
 10
11.49720230131189
 20
13.95745395986295
 10
11.41241901798376
 20
13.93473634756351
 10
11.33558081545366
 20
13.94417089252172
 42
0.713293067896938
 10
11.32729105420774
 20
13.92717436319345
 10
11.41762272254787
 20
13.83684269485332
 42
0.7725978076385306
 10
11.44266555696513
 20
13.85152301544302
 42
-0.3431487919936307
 10
11.44728971209807
 20
13.86289908206213
 10
11.46345829444906
 20
13.87223401743483
 42
-0.1316524975860437
 10
11.46745829444908
 20
13.87330581420455
 10
11.48631470090962
 20
13.87330581420456
 42
-0.4142135623731602
 10
11.4943147009096
 20
13.86530581420456
 10
11.4943147009096
 20
13.67630581420461
 42
-0.4142135623731602
 10
11.48631470090962
 20
13.66830581420461
 10
11.46745829444908
 20
13.66830581420461
 42
-0.1316524975860435
 10
11.46345829444906
 20
13.66937761097434
 10
11.44728971209813
 20
13.678712546347
 42
-0.3431487919941411
 10
11.44266555696513
 20
13.69008861296613
 42
0.7725978076394044
 10
11.41762272254787
 20
13.70476893355585
 10
11.32729105420774
 20
13.61443726521572
 42
0.7132930678969421
 10
11.33558081545366
 20
13.59744073588744
 10
11.41241901798376
 20
13.60687528084566
 10
11.49720230130422
 20
13.58415766854828
 42
0.0655434628120725
 10
11.50367277743144
 20
13.5833058142055
 10
11.92849832222564
 20
13.58330581420009
 10
11.92849832222564
 20
13.38345395986085
 10
11.86649832222563
 20
13.38345395986085
 10
11.86649832222563
 20
13.37529879368323
 42
0.3255049610922494
 10
11.88728823882795
 20
13.34674753515042
 10
11.92849832222564
 20
13.33345395986084
 10
12.10108921853689
 20
13.33345395986084
 42
0.4142135623732337
 10
12.11608921853688
 20
13.34845395986084
 10
12.11608921853688
 20
13.36845395986089
 42
0.4142135623728176
 10
12.10108921853689
 20
13.38345395986089
 10
11.99349832222564
 20
13.38345395986096
 10
11.99349832222564
 20
13.46591609653327
 10
12.15803398169479
 20
13.46591609653327
 10
12.20512532162551
 20
13.64166336975119
 10
12.70512532162551
 20
13.64166336975119
 10
12.86616142471414
 20
13.50091609653327
 10
12.86616142471414
 20
13.398453959862
 10
12.81401367477222
 20
13.398453959862
 42
0.3639702342661772
 10
12.80416559724208
 20
13.39019044163867
 10
12.79623088310999
 20
13.34519044163736
 42
0.4663076581547077
 10
12.80607896064007
 20
13.3334539598607
 10
14.54946515763882
 20
13.33345395985935
 10
14.54946515763882
 20
13.95845395986191
 10
14.30946515763882
 20
13.95845395986188
 42
0.4142135623730951
 10
14.29946515763883
 20
13.94845395986188
 10
14.29946515763883
 20
13.94345395986188
 42
-0.4142135623730951
 10
14.28946515763884
 20
13.93345395986188
 10
13.98946515763882
 20
13.93345395986184
 42
-0.4142135623731992
 10
13.97946515763883
 20
13.94345395986184
 10
13.97946515763883
 20
13.94845395986183
 42
0.4142135623731992
 10
13.96946515763884
 20
13.95845395986184
 10
13.93446515763887
 20
13.95845395986184
 42
0.4142135623730951
 10
13.92446515763882
 20
13.94845395986183
 10
13.92446515763882
 20
13.89345395986191
 42
0.4142135623730951
 10
13.93446515763887
 20
13.88345395986191
 10
14.34446515763884
 20
13.88345395986191
 42
0.4142135623730951
 10
14.35446515763883
 20
13.89345395986191
 10
14.35446515763883
 20
13.89845395986192
 42
-0.4142135623730951
 10
14.36446515763882
 20
13.90845395986191
 10
14.48446515763883
 20
13.90845395986191
 10
14.48446515763883
 20
13.39845395986214
 10
13.85629609356071
 20
13.39845395986212
 42
-0.5494743523523319
 10
13.84271819331807
 20
13.41982895986213
 42
0.2918218255973577
 10
13.82266687923371
 20
13.57450865944433
 42
0.2220475164447702
 10
13.8073287107379
 20
13.58167352846747
 10
13.77146515763886
 20
13.58167352846749
 42
0.4142135623730951
 10
13.75146515763888
 20
13.56167352846748
 10
13.75146515763888
 20
13.55251027555603
 42
0.2208810136133115
 10
13.75856193183242
 20
13.53722934744981
 42
-0.1605330212145298
 10
13.78249487929091
 20
13.4982996905388
 10
13.79222497814741
 20
13.50060732487809
 42
-0.116970356020677
 10
13.79222420295205
 20
13.46229732654341
 10
13.78249419749259
 20
13.4646053546541
 42
-0.2835070872900811
  0
LEADER
  5
125
330
2
100
AcDbEntity
  8
PART_NUMBERS
100
AcDbLeader
  3
Open-end
 76
     3
 10
7.368550629144095
 20
17.34025160532558
 30
0.0
 10
15.0312089400646
 20
18.77380436109942
 30
0.0
 10
15.2812089400646
 20
18.77380436109942
 30
0.0
1001
ACAD
1000
DSTYLE
1002
{
1070
   147
1040
0.0625
1070
    77
1070
     0
1002
}
  0
LEADER
  5
126
330
2
100
AcDbEntity
  8
PART_NUMBERS
100
AcDbLeader
  3
Open-end
 76
     3
 10
11.89812835005228
 20
12.93154410183295
 30
0.0
 10
15.0644651576387
 20
15.9033058142076
 30
0.0
 10
15.3144651576387
 20
15.9033058142076
 30
0.0
1001
ACAD
1000
DSTYLE
1002
{
1070
   147
1040
0.0625
1070
    77
1070
     0
1002
}
  0
LINE
  5
127
330
2
100
AcDbEntity
  8
R-SWTS-DET1
100
AcDbLine
 10
8.564465157636711
 20
13.95830581420542
 30
0.0
 11
14.5644651576387
 21
13.95830581420542
 31
0.0
  0
LEADER
  5
128
330
2
100
AcDbEntity
  8
PART_NUMBERS
100
AcDbLeader
  3
Open-end
 76
     3
 10
8.564465157636711
 20
16.08830581420541
 30
0.0
 10
15.0644651576387
 20
17.9233058142076
 30
0.0
 10
15.3144651576387
 20
17.9233058142076
 30
0.0
1001
ACAD
1000
DSTYLE
1002
{
1070
   147
1040
0.0625
1070
    77
1070
     0
1002
}
  0
LEADER
  5
129
330
2
100
AcDbEntity
  8
PART_NUMBERS
100
AcDbLeader
  3
Open-end
 76
     3
 10
10.80718552821575
 20
12.63695395986269
 30
0.0
 10
15.0644651576387
 20
16.7113058142076
 30
0.0
 10
15.3144651576387
 20
16.7113058142076
 30
0.0
1001
ACAD
1000
DSTYLE
1002
{
1070
   147
1040
0.0625
1070
    77
1070
     0
1002
}
  0
LWPOLYLINE
  5
12A
330
2
100
AcDbEntity
  8
R-SWTS-DET1
100
AcDbPolyline
 90
       60
 70
     1
 43
0.0
 10
8.213034624276936
 20
16.39535195386089
 10
8.190317011980148
 20
16.31056867054259
 42
0.0655434628152395
 10
8.189465157637364
 20
16.304098194415
 10
8.189465157637336
 20
16.08830581420541
 10
7.554465157636691
 20
16.08830581420541
 10
7.534465157636681
 20
16.06830581420543
 10
7.514465157636671
 20
16.08830581420541
 10
7.494465157636689
 20
16.06830581420543
 10
7.474465157636679
 20
16.08830581420541
 10
7.454465157636697
 20
16.06830581420543
 10
7.434465157636687
 20
16.08830581420541
 10
7.414465157636676
 20
16.06830581420543
 10
7.394465157636695
 20
16.08830581420541
 10
7.374465157636684
 20
16.06830581420543
 10
7.354465157636703
 20
16.08830581420541
 10
7.334465157636692
 20
16.06830581420543
 10
7.314465157636711
 20
16.08830581420541
 10
7.2944651576367
 20
16.06830581420543
 10
7.27446515763669
 20
16.08830581420541
 10
7.254465157636708
 20
16.06830581420543
 10
7.234465157636698
 20
16.08830581420541
 10
7.214465157636716
 20
16.06830581420543
 10
7.194465157636706
 20
16.08830581420541
 10
7.174465157636696
 20
16.06830581420543
 10
7.154465157636714
 20
16.08830581420541
 10
7.134465157636704
 20
16.06830581420543
 10
7.114465157636693
 20
16.08830581420541
 10
7.064465157636711
 20
16.08830581420541
 10
7.064465157636711
 20
16.02330581420541
 10
7.939465157634892
 20
16.02330581420541
 10
7.939465157634892
 20
13.97330581420543
 10
8.564465157636711
 20
13.97330581420543
 10
8.564465157636711
 20
16.02330581420541
 10
8.564465157636711
 20
16.08830581420541
 10
8.364465157636693
 20
16.08830581420538
 10
8.322817011979573
 20
16.08830581420541
 42
-1.00000000000321
 10
8.322817011979573
 20
16.22330581420603
 10
8.506465157637457
 20
16.22330581420603
 42
0.4142135623730951
 10
8.564465157637478
 20
16.28130581420602
 10
8.564465157637478
 20
16.30409819440352
 42
0.0655434628152775
 10
8.563613303294694
 20
16.31056867053108
 10
8.540895690994808
 20
16.39535195386087
 10
8.550330235953005
 20
16.47219015639099
 42
0.7132930678969658
 10
8.533333706624723
 20
16.48047991763691
 10
8.443002038284596
 20
16.39014824929678
 42
0.7725978076383388
 10
8.457682358874315
 20
16.36510541487952
 42
-0.3431487919937011
 10
8.469058425493422
 20
16.3604812597466
 10
8.478393360866114
 20
16.34431267739559
 42
-0.1316524975860435
 10
8.47946515763585
 20
16.34031267739557
 10
8.47946515763585
 20
16.32145627093503
 42
-0.4142135623731602
 10
8.47146515763584
 20
16.31345627093502
 10
8.282465157635904
 20
16.31345627093502
 42
-0.4142135623731602
 10
8.274465157635894
 20
16.32145627093503
 10
8.274465157635894
 20
16.34031267739557
 42
-0.1316524975860434
 10
8.27553695440563
 20
16.34431267739559
 10
8.284871889778266
 20
16.36048125974646
 42
-0.3431487919942175
 10
8.296247956397401
 20
16.36510541487946
 42
0.7725978076396093
 10
8.310928276987148
 20
16.39014824929678
 10
8.220596608647021
 20
16.48047991763691
 42
0.713293067896966
 10
8.203600079318739
 20
16.47219015639099
  0
LWPOLYLINE
  5
12B
330
2
100
AcDbEntity
  8
R-SWTS-DET1
100
AcDbPolyline
 90
       32
 70
     1
 43
0.0
 10
8.143240545222631
 20
15.49520904001183
 42
-0.1605226430948981
 10
8.104313762842942
 20
15.47127677435163
 10
8.106621790953603
 20
15.46154676889223
 42
-0.1169703560206769
 10
8.068311792618949
 20
15.46154599369687
 10
8.070619426958224
 20
15.47127609255334
 42
-0.2835070872900951
 10
8.016436117781161
 20
15.52545720899739
 10
8.006706112321758
 20
15.5231491808867
 42
-0.1169703560206769
 10
8.006705337126398
 20
15.56145917922139
 10
8.016435435982863
 20
15.55915154488208
 42
-0.2835070872900714
 10
8.070616552426919
 20
15.61333485405915
 10
8.068308524316229
 20
15.62306485951855
 42
-0.1169703560206769
 10
8.106618522650911
 20
15.62306563471391
 10
8.104310888311609
 20
15.61333553585744
 42
-0.1605330212145323
 10
8.143240545222603
 20
15.58940258839895
 42
0.2208810136133236
 10
8.158521473328825
 20
15.58230581420541
 10
8.167684726240288
 20
15.58230581420541
 42
0.4142135623730951
 10
8.187684726240298
 20
15.60230581420539
 10
8.187684726240298
 20
15.63816936730443
 42
0.2220475164447456
 10
8.180519857217156
 20
15.65350753580027
 42
0.2918218255973576
 10
8.025840157634924
 20
15.6735588498846
 42
-0.5494743523524516
 10
8.004465157634918
 20
15.68713675012726
 10
8.004465157634918
 20
16.02330581420541
 10
8.499465157636713
 20
16.02330581420541
 10
8.499465157636713
 20
14.03830581420543
 10
8.004465157634918
 20
14.03830581420543
 10
8.004465157634918
 20
15.39747487828354
 42
-0.5494743523524291
 10
8.025840157634924
 20
15.41105277852621
 42
0.2918218255973997
 10
8.180519857217156
 20
15.43110409261054
 42
0.2220475164447454
 10
8.187684726240298
 20
15.44644226110638
 10
8.187684726240298
 20
15.48230581420539
 42
0.4142135623730951
 10
8.167684726240288
 20
15.5023058142054
 10
8.158521473328825
 20
15.5023058142054
 42
0.2208810136132929
  0
LWPOLYLINE
  5
12C
330
2
100
AcDbEntity
  8
R-SWTS-DET2
100
AcDbPolyline
 90
        6
 70
     1
 43
0.0
 10
8.564465157636711
 20
15.08330581420543
 10
8.564465157636711
 20
13.95830581420542
 10
9.689465157636711
 20
13.95830581420543
 10
9.689465157636711
 20
14.08330581420543
 10
8.689465157636711
 20
14.08330581420542
 10
8.689465157636711
 20
15.08330581420543
  0
LWPOLYLINE
  5
12D
330
2
100
AcDbEntity
  8
R-SWTS-DET1
100
AcDbPolyline
 90
       60
 70
     1
 43
0.0
 10
11.00151129729213
 20
13.60687528084566
 10
10.91672801397383
 20
13.58415766854887
 42
-0.0655434628152395
 10
10.91025753784624
 20
13.58330581420609
 10
10.69446515763665
 20
13.58330581420606
 10
10.69446515763665
 20
12.94830581420542
 10
10.67446515763667
 20
12.92830581420541
 10
10.69446515763665
 20
12.9083058142054
 10
10.67446515763667
 20
12.88830581420542
 10
10.69446515763665
 20
12.8683058142054
 10
10.67446515763667
 20
12.84830581420542
 10
10.69446515763665
 20
12.82830581420541
 10
10.67446515763667
 20
12.8083058142054
 10
10.69446515763665
 20
12.78830581420542
 10
10.67446515763667
 20
12.76830581420541
 10
10.69446515763665
 20
12.74830581420543
 10
10.67446515763667
 20
12.72830581420542
 10
10.69446515763665
 20
12.70830581420544
 10
10.67446515763667
 20
12.68830581420543
 10
10.69446515763665
 20
12.66830581420542
 10
10.67446515763667
 20
12.64830581420543
 10
10.69446515763665
 20
12.62830581420542
 10
10.67446515763667
 20
12.60830581420544
 10
10.69446515763665
 20
12.58830581420543
 10
10.67446515763667
 20
12.56830581420542
 10
10.69446515763665
 20
12.54830581420544
 10
10.67446515763667
 20
12.52830581420543
 10
10.69446515763665
 20
12.50830581420542
 10
10.69446515763665
 20
12.45830581420544
 10
10.62946515763665
 20
12.45830581420544
 10
10.62946515763665
 20
13.33330581420362
 10
8.579465157636668
 20
13.33330581420362
 10
8.579465157636668
 20
13.95830581420544
 10
10.62946515763665
 20
13.95830581420544
 10
10.69446515763665
 20
13.95830581420544
 10
10.69446515763662
 20
13.75830581420542
 10
10.69446515763665
 20
13.7166576685483
 42
1.00000000000321
 10
10.82946515763726
 20
13.7166576685483
 10
10.82946515763726
 20
13.90030581420618
 42
-0.4142135623730951
 10
10.88746515763726
 20
13.9583058142062
 10
10.91025753783476
 20
13.9583058142062
 42
-0.0655434628152775
 10
10.91672801396232
 20
13.95745395986342
 10
11.0015112972921
 20
13.93473634756353
 10
11.07834949982223
 20
13.94417089252173
 42
-0.7132930678969658
 10
11.08663926106815
 20
13.92717436319345
 10
10.99630759272802
 20
13.83684269485332
 42
-0.7725978076383388
 10
10.97126475831076
 20
13.85152301544304
 42
0.3431487919937011
 10
10.96664060317784
 20
13.86289908206215
 10
10.95047202082683
 20
13.87223401743484
 42
0.1316524975860435
 10
10.94647202082681
 20
13.87330581420458
 10
10.92761561436627
 20
13.87330581420458
 42
0.4142135623731602
 10
10.91961561436626
 20
13.86530581420457
 10
10.91961561436626
 20
13.67630581420463
 42
0.4142135623731602
 10
10.92761561436627
 20
13.66830581420462
 10
10.94647202082681
 20
13.66830581420462
 42
0.1316524975860434
 10
10.95047202082683
 20
13.66937761097436
 10
10.9666406031777
 20
13.67871254634699
 42
0.3431487919942175
 10
10.9712647583107
 20
13.69008861296613
 42
-0.7725978076396093
 10
10.99630759272802
 20
13.70476893355587
 10
11.08663926106815
 20
13.61443726521575
 42
-0.713293067896966
 10
11.07834949982223
 20
13.59744073588746
  0
LWPOLYLINE
  5
12E
330
2
100
AcDbEntity
  8
R-SWTS-DET1
100
AcDbPolyline
 90
       32
 70
     1
 43
0.0
 10
10.10136838344307
 20
13.53708120179136
 42
0.1605226430948981
 10
10.07743611778287
 20
13.49815441941167
 10
10.06770611232347
 20
13.50046244752233
 42
0.1169703560206769
 10
10.06770533712811
 20
13.46215244918768
 10
10.07743543598457
 20
13.46446008352695
 42
0.2835070872900951
 10
10.13161655242863
 20
13.41027677434989
 10
10.12930852431794
 20
13.40054676889048
 42
0.1169703560206769
 10
10.16761852265262
 20
13.40054599369512
 10
10.16531088831332
 20
13.41027609255159
 42
0.2835070872900714
 10
10.21949419749038
 20
13.46445720899565
 10
10.22922420294978
 20
13.46214918088495
 42
0.1169703560206769
 10
10.22922497814515
 20
13.50045917921964
 10
10.21949487928868
 20
13.49815154488033
 42
0.1605330212145323
 10
10.19556193183019
 20
13.53708120179133
 42
-0.2208810136133236
 10
10.18846515763665
 20
13.55236212989755
 10
10.18846515763665
 20
13.56152538280901
 42
-0.4142135623730951
 10
10.20846515763663
 20
13.58152538280902
 10
10.24432871073566
 20
13.58152538280902
 42
-0.2220475164447456
 10
10.25966687923151
 20
13.57436051378588
 42
-0.2918218255973576
 10
10.27971819331583
 20
13.41968081420365
 42
0.5494743523524516
 10
10.2932960935585
 20
13.39830581420364
 10
10.62946515763665
 20
13.39830581420364
 10
10.62946515763665
 20
13.89330581420544
 10
8.644465157636666
 20
13.89330581420544
 10
8.644465157636666
 20
13.39830581420364
 10
10.00363422171478
 20
13.39830581420364
 42
0.5494743523524291
 10
10.01721212195745
 20
13.41968081420365
 42
-0.2918218255973997
 10
10.03726343604177
 20
13.57436051378588
 42
-0.2220475164447454
 10
10.05260160453762
 20
13.58152538280902
 10
10.08846515763663
 20
13.58152538280902
 42
-0.4142135623730951
 10
10.10846515763663
 20
13.56152538280901
 10
10.10846515763663
 20
13.55236212989755
 42
-0.2208810136132929
  0
LINE
  5
12F
330
2
100
AcDbEntity
  8
R-SWTS-DET1
100
AcDbLine
 10
8.564465157636711
 20
10.45746960483691
 30
0.0
 11
8.564465157636711
 21
13.95830581420542
 31
0.0
  0
LWPOLYLINE
  5
130
330
2
100
AcDbEntity
  8
R-SWTS-DET1
100
AcDbPolyline
 90
       41
 70
     1
 43
0.0
 10
12.05639771635939
 20
12.7109865457149
 42
0.4142135623730431
 10
12.07139771635938
 20
12.6959865457149
 10
12.10339771635936
 20
12.6959865457149
 42
-0.4142135623730951
 10
12.1183977163594
 20
12.6809865457149
 10
12.1183977163594
 20
12.57087850527824
 42
0.4184033046059118
 10
12.18128326051377
 20
12.50888482970121
 10
12.75852442220569
 20
12.51713038913379
 42
0.4139326425428041
 10
12.81766211800912
 20
12.57792369949104
 10
12.80872457745537
 20
13.24865699431098
 42
0.4077932646411109
 10
12.79385559248616
 20
13.26345657601482
 42
-0.413875507397508
 10
12.72446274651745
 20
13.33397834923885
 42
0.4122343511257975
 10
12.70967696301151
 20
13.34908919469538
 10
12.19158801539104
 20
13.35647428715698
 42
-0.3394542588633734
 10
12.17725906099648
 20
13.36779738283182
 10
12.16866639468467
 20
13.40179685404654
 10
12.06118555914165
 20
13.40332893828029
 10
12.06111429394364
 20
13.39832944617895
 42
-0.9999999999999847
 10
12.03111734133549
 20
13.39875703736689
 10
12.03120477864039
 20
13.40489105688144
 42
-0.3727193515204652
 10
12.05732865170328
 20
13.43421240273056
 10
12.07736787275335
 20
13.43682135299509
 10
12.16307035706737
 20
13.4479791479295
 42
-0.3800361709519329
 10
12.21800132293809
 20
13.4106488549652
 10
12.2191543838799
 20
13.40608642220252
 10
12.78749471504356
 20
13.39798502201906
 42
-0.4577045202689281
 10
12.80208830640138
 20
13.38059044645594
 10
12.79446078231681
 20
13.3334539598607
 10
12.87846078231681
 20
13.3334539598607
 10
12.87846078231681
 20
12.4579865457149
 10
12.05832889570107
 20
12.45798654571492
 42
-0.267949192431115
 10
12.04533851464428
 20
12.46548654571491
 10
12.00838809741615
 20
12.5294865457149
 42
-0.577350269189628
 10
12.02137847847289
 20
12.55198654571491
 10
12.06839771635939
 20
12.55198654571491
 10
12.06839771635939
 20
12.6459865457149
 10
12.03639771635941
 20
12.6459865457149
 42
-0.4142135623730948
 10
12.00639771635938
 20
12.67598654571491
 10
12.00639771635938
 20
12.72998654571491
 42
-0.4142135623731297
 10
12.02139771635936
 20
12.74498654571491
 10
12.0413977163594
 20
12.74498654571491
 42
-0.4142135623730431
 10
12.05639771635939
 20
12.72998654571491
  0
LWPOLYLINE
  5
131
330
2
100
AcDbEntity
  8
R-SWTS-DET2
100
AcDbPolyline
 90
       12
 70
     1
 43
0.0
 10
11.99036462194235
 20
12.45798654571492
 10
12.11537847847288
 20
12.45798654571492
 10
12.11537847847288
 20
12.45560473951747
 42
-0.3639702342662026
 10
12.09579394028359
 20
12.43226479577107
 10
11.81953495128889
 20
12.32128701702321
 10
11.81953495128889
 20
12.42585694167621
 42
0.3145636000813645
 10
11.8734077031925
 20
12.76913527448556
 10
11.87744319471333
 20
12.79564750328695
 10
11.90391240186503
 20
12.79564750328695
 42
-0.2645518979873512
 10
12.02899857059257
 20
12.56121617392634
 10
12.01011778094037
 20
12.55788698129358
 42
0.315298788878984
 10
12.00752207029925
 20
12.55529127065247
  0
LWPOLYLINE
  5
132
330
2
100
AcDbEntity
  8
R-SWTS-DET2
100
AcDbPolyline
 90
        4
 70
     1
 43
0.0
 10
10.81924901744205
 20
12.76041906303673
 42
0.9999999999999998
 10
10.69446515763682
 20
12.76041906303673
 10
10.69446515763682
 20
12.51348885668865
 42
0.9999999999999998
 10
10.81924901744205
 20
12.51348885668865
  0
LINE
  5
133
330
2
100
AcDbEntity
  8
R-SWTS-DET1
100
AcDbLine
 10
10.56446515763665
 20
10.45746960483691
 30
0.0
 11
10.56446515763665
 21
13.95830581420542
 31
0.0
  0
LINE
  5
134
330
2
100
AcDbEntity
  8
R-SWTS-DET1
100
AcDbLine
 10
10.62946515763665
 20
10.45746960483691
 30
0.0
 11
10.62946515763665
 21
13.95830581420543
 31
0.0
  0
LWPOLYLINE
  5
135
330
2
100
AcDbEntity
  8
R-SWTS-DET3
100
AcDbPolyline
 90
        4
 70
     0
 43
0.0
 10
11.81924901744199
 20
10.45745395986269
 10
11.81924901744199
 20
13.01945395986269
 10
11.569249017442
 20
13.01945395986269
 10
11.569249017442
 20
10.45745395986269
  0
LWPOLYLINE
  5
136
330
2
100
AcDbEntity
  8
R-SWTS-DET3
100
AcDbPolyline
 90
        4
 70
     0
 43
0.0
 10
11.06924901744199
 20
10.45745395986269
 10
11.06924901744199
 20
13.01945395986269
 10
10.819249017442
 20
13.01945395986269
 10
10.819249017442
 20
10.45745395986269
  0
LINE
  5
137
330
2
100
AcDbEntity
  8
R-SWTS-DET1
100
AcDbLine
 10
12.87846078231681
 20
12.4579865457149
 30
0.0
 11
12.87846078231681
 21
10.45745395986282
 31
0.0
  0
LINE
  5
138
330
2
100
AcDbEntity
  8
0
100
AcDbLine
 10
11.3343621220196
 20
13.94424543100533
 30
0.0
 11
11.07956819325628
 21
13.94424543100534
 31
0.0
  0
LINE
  5
139
330
2
100
AcDbEntity
  8
0
100
AcDbLine
 10
11.3343621220196
 20
13.59736619740387
 30
0.0
 11
11.07956819325628
 21
13.59736619740387
 31
0.0
  0
LWPOLYLINE
  5
13A
330
2
100
AcDbEntity
  8
R-SWTS-DET3
100
AcDbPolyline
 90
        4
 70
     1
 43
0.0
 10
11.569249017442
 20
13.01945395986269
 10
11.569249017442
 20
12.76945395986269
 10
11.06924901744199
 20
12.76945395986269
 10
11.06924901744199
 20
13.01945395986269
  0
LWPOLYLINE
  5
13B
330
2
100
AcDbEntity
  8
R-SWTS-DET2
  6
HIDDEN2
100
AcDbPolyline
 90
       18
 70
     1
 43
0.0
 10
11.86378921853524
 20
13.3184539598609
 10
12.11878921853523
 20
13.3184539598609
 42
0.4142135623730951
 10
12.12378921853523
 20
13.3234539598609
 10
12.12378921853523
 20
13.37845395986092
 42
-0.9999999999999287
 10
12.14878921853526
 20
13.37845395986092
 10
12.14878921853526
 20
13.3059539598609
 42
-0.4142135623730951
 10
12.13628921853527
 20
13.2934539598609
 10
11.96395685829939
 20
13.2934539598609
 42
0.3706321426687706
 10
11.95159919368573
 20
13.28283495037055
 10
11.84465750641883
 20
12.58025325329535
 42
-0.9950963693897204
 10
11.82686881019723
 20
12.58300179067238
 10
11.92496956877213
 20
13.27920984874527
 42
0.4558347385663113
 10
11.91259184376245
 20
13.2934539598609
 10
11.84628921853525
 20
13.2934539598609
 42
-0.4142135623730951
 10
11.83378921853526
 20
13.3059539598609
 10
11.83378921853526
 20
13.3784539598609
 42
-1.0
 10
11.85878921853524
 20
13.3784539598609
 10
11.85878921853524
 20
13.3234539598609
 42
0.4142135623730951
  0
CIRCLE
  5
13D
330
2
100
AcDbEntity
  8
R-SWTS-DET2
100
AcDbCircle
 10
10.75685708753943
 20
12.63695395986269
 30
0.0
 40
0.0503284406763105
  0
HATCH
  5
13E
330
2
100
AcDbEntity
  8
0
100
AcDbHatch
 10
0.0
 20
0.0
 30
0.0
210
0.0
220
0.0
230
1.0
  2
ANSI37
 70
     0
 71
     0
 91
        2
 92
        7
 72
     1
 73
     1
 93
       36
 10
11.4943147009096
 20
13.86530581420457
 42
0.41421356237316
 10
11.48631470090962
 20
13.87330581420457
 42
0.0
 10
11.46745829444908
 20
13.87330581420457
 42
0.1316524975870078
 10
11.46345829444906
 20
13.87223401743484
 42
0.0
 10
11.44728971209813
 20
13.86289908206215
 42
0.3431487919937766
 10
11.44266555696513
 20
13.85152301544304
 42
-0.7725978076387533
 10
11.41762272254787
 20
13.83684269485332
 42
0.0
 10
11.32729105420774
 20
13.92717436319346
 42
-0.6681786379191954
 10
11.3343621220196
 20
13.94424543100533
 42
0.0
 10
11.07956819325628
 20
13.94424543100534
 42
-0.6681786379197768
 10
11.08663926106815
 20
13.92717436319347
 42
0.0
 10
10.99630759272802
 20
13.83684269485334
 42
-0.7725978076387183
 10
10.97126475831081
 20
13.85152301544305
 42
0.3431487919942695
 10
10.96664060317781
 20
13.86289908206214
 42
0.0
 10
10.95047202082683
 20
13.87223401743484
 42
0.1316524975870076
 10
10.94647202082681
 20
13.87330581420457
 42
0.0
 10
10.92761561436627
 20
13.87330581420457
 42
0.4142135623726397
 10
10.91961561436628
 20
13.86530581420457
 42
0.0
 10
10.91961561436628
 20
13.67630581420462
 42
0.4142135623726397
 10
10.92761561436627
 20
13.66830581420463
 42
0.0
 10
10.94647202082681
 20
13.66830581420463
 42
0.1316524975859829
 10
10.95047202082683
 20
13.66937761097434
 42
0.0
 10
10.9666406031777
 20
13.67871254634698
 42
0.3431487919942175
 10
10.9712647583107
 20
13.69008861296611
 42
-0.7725978076394532
 10
10.99630759272802
 20
13.70476893355587
 42
0.0
 10
11.08663926106815
 20
13.61443726521573
 42
-0.6681786379180224
 10
11.07956819325628
 20
13.59736619740387
 42
0.0
 10
11.3343621220196
 20
13.59736619740387
 42
-0.6681786379191376
 10
11.32729105420774
 20
13.61443726521572
 42
0.0
 10
11.41762272254787
 20
13.70476893355586
 42
-0.7725978076384913
 10
11.44266555696513
 20
13.69008861296615
 42
0.343148791993908
 10
11.44728971209813
 20
13.67871254634702
 42
0.0
 10
11.46345829444906
 20
13.66937761097435
 42
0.1316524975864953
 10
11.46745829444908
 20
13.66830581420463
 42
0.0
 10
11.48631470090962
 20
13.66830581420463
 42
0.41421356237316
 10
11.4943147009096
 20
13.67630581420462
 42
0.0
 97
        0
 92
       22
 72
     1
 73
     1
 93
       12
 10
11.30021399782587
 20
13.71054054443411
 42
0.0
 10
11.28719270896565
 20
13.68687848471459
 42
-0.2734560415960702
 10
11.23462646876735
 20
13.65580581420452
 42
0.0
 10
11.1794543037083
 20
13.65580581420454
 42
-0.2734560434247903
 10
11.12688806331321
 20
13.6868784850724
 42
0.0
 10
11.11386677376814
 20
13.71054054641769
 42
-0.2569805071130905
 10
11.11386677458862
 20
13.83107108595917
 42
0.0
 10
11.12688806276365
 20
13.85473314405226
 42
-0.2734560397666548
 10
11.17945430276493
 20
13.88580581420447
 42
0.0
 10
11.23462646876758
 20
13.8858058142045
 42
-0.2734560415951895
 10
11.28719270896577
 20
13.85473314369461
 42
0.0
 10
11.30021399782564
 20
13.83107108397593
 42
-0.2569805071138714
 97
        0
 75
     0
 76
     1
 52
0.0
 41
0.5
 77
     0
 78
     2
 53
45.0
 43
-73.15401984236379
 44
-46.7195936828753
 45
-0.0441941738241592
 46
0.0441941738241592
 79
     0
 53
135.0
 43
-73.15401984236379
 44
-46.7195936828753
 45
-0.0441941738241592
 46
-0.0441941738241592
 79
     0
 47
0.0091032376506059
 98
        2
 10
11.39752077066166
 20
13.78626492692605
 10
11.39752077066166
 20
13.78626492692605
  0
LWPOLYLINE
  5
13F
330
2
100
AcDbEntity
  8
0
100
AcDbPolyline
 90
       12
 70
     1
 43
0.0
 10
11.28719270896577
 20
13.8547331436946
 42
0.2734560415951634
 10
11.23462646876758
 20
13.8858058142045
 10
11.17945430276499
 20
13.88580581420447
 42
0.2734560397667185
 10
11.12688806276365
 20
13.85473314405226
 10
11.11386677417838
 20
13.83107108521373
 42
0.2569805071132461
 10
11.11386677417838
 20
13.71054054567219
 10
11.12688806331321
 20
13.68687848507238
 42
0.2734560434246889
 10
11.1794543037083
 20
13.65580581420454
 10
11.23462646876735
 20
13.65580581420452
 42
0.2734560415960701
 10
11.28719270896565
 20
13.68687848471459
 10
11.30021399782581
 20
13.71054054443404
 42
0.2569805071137504
 10
11.3002139978257
 20
13.8310710839758
  0
LWPOLYLINE
  5
140
330
2
100
AcDbEntity
  8
R-SWTS-DET3
100
AcDbPolyline
 90
        4
 70
     1
 43
0.0
 10
7.625613303293938
 20
16.46308967401077
 10
7.375613303293938
 20
16.46308967401077
 10
7.375613303293938
 20
16.96308967401076
 10
7.625613303293938
 20
16.96308967401076
  0
HATCH
  5
141
330
2
100
AcDbEntity
  8
0
100
AcDbHatch
 10
0.0
 20
0.0
 30
0.0
210
0.0
220
0.0
230
1.0
  2
ANSI37
 70
     0
 71
     0
 91
        2
 92
        7
 72
     1
 73
     1
 93
       36
 10
8.443002038284568
 20
16.8114633791166
 42
-0.7725978076386412
 10
8.457682358874286
 20
16.83650621353386
 42
0.3431487919940097
 10
8.469058425493393
 20
16.84113036866684
 42
0.0
 10
8.478393360866085
 20
16.85729895101779
 42
0.1316524975864955
 10
8.479465157635821
 20
16.86129895101781
 42
0.0
 10
8.479465157635821
 20
16.88015535747836
 42
0.41421356237316
 10
8.47146515763584
 20
16.88815535747835
 42
0.0
 10
8.282465157635876
 20
16.88815535747835
 42
0.4142135623726397
 10
8.274465157635894
 20
16.88015535747836
 42
0.0
 10
8.274465157635894
 20
16.86129895101781
 42
0.1316524975867212
 10
8.27553695440563
 20
16.85729895101779
 42
0.0
 10
8.284871889778266
 20
16.84113036866687
 42
0.3431487919941409
 10
8.296247956397429
 20
16.83650621353388
 42
-0.7725978076395159
 10
8.310928276987148
 20
16.81146337911662
 42
0.0
 10
8.220596608646964
 20
16.72113171077649
 42
-0.6681786379195006
 10
8.203525540835109
 20
16.72820277858835
 42
0.0
 10
8.203525540835109
 20
16.47340884982502
 42
-0.6681786379187491
 10
8.220596608647021
 20
16.48047991763687
 42
0.0
 10
8.310928276987148
 20
16.39014824929674
 42
-0.7725978076399433
 10
8.296247956397373
 20
16.36510541487943
 42
0.3431487919937516
 10
8.284871889778266
 20
16.36048125974645
 42
0.0
 10
8.27553695440563
 20
16.34431267739556
 42
0.1316524975867211
 10
8.274465157635894
 20
16.34031267739556
 42
0.0
 10
8.274465157635894
 20
16.32145627093501
 42
0.4142135623726397
 10
8.282465157635876
 20
16.31345627093502
 42
0.0
 10
8.47146515763584
 20
16.31345627093502
 42
0.41421356237316
 10
8.479465157635821
 20
16.32145627093501
 42
0.0
 10
8.479465157635821
 20
16.34031267739556
 42
0.1316524975867211
 10
8.478393360866085
 20
16.34431267739556
 42
0.0
 10
8.469058425493393
 20
16.36048125974655
 42
0.3431487919937087
 10
8.457682358874343
 20
16.36510541487952
 42
-0.7725978076392078
 10
8.443002038284568
 20
16.39014824929676
 42
0.0
 10
8.533333706624695
 20
16.48047991763688
 42
-0.6681786379192629
 10
8.550404774436607
 20
16.47340884982502
 42
0.0
 10
8.550404774436607
 20
16.72820277858835
 42
-0.6681786379200723
 10
8.533333706624695
 20
16.72113171077649
 42
0.0
 97
        0
 92
       22
 72
     1
 73
     1
 93
       12
 10
8.437230427406326
 20
16.69405465439459
 42
0.0
 10
8.460892487125853
 20
16.68103336553437
 42
-0.2734560415961339
 10
8.491965157635924
 20
16.62846712533609
 42
0.0
 10
8.491965157635924
 20
16.57329496027705
 42
-0.2734560434246571
 10
8.460892486768081
 20
16.52072871988193
 42
0.0
 10
8.437230425422832
 20
16.50770743033689
 42
-0.2569805071132116
 10
8.31669988588127
 20
16.50770743115734
 42
0.0
 10
8.293037827788204
 20
16.52072871933238
 42
-0.2734560397667185
 10
8.261965157635962
 20
16.57329495933369
 42
0.0
 10
8.261965157635962
 20
16.62846712533634
 42
-0.2734560415951692
 10
8.293037828145862
 20
16.68103336553453
 42
0.0
 10
8.316699887864594
 20
16.69405465439441
 42
-0.2569805071136812
 97
        0
 75
     0
 76
     1
 52
0.0
 41
0.5
 77
     0
 78
     2
 53
45.0
 43
-75.15487169670606
 44
-44.71874182853308
 45
-0.0441941738241592
 46
0.0441941738241592
 79
     0
 53
135.0
 43
-75.15487169670606
 44
-44.71874182853308
 45
-0.0441941738241592
 46
-0.0441941738241592
 79
     0
 47
0.0091032376506059
 98
        2
 10
8.358592649565572
 20
16.77936974492792
 10
8.358592649565572
 20
16.77936974492792
  0
LWPOLYLINE
  5
142
330
2
100
AcDbEntity
  8
0
100
AcDbPolyline
 90
       12
 70
     1
 43
0.0
 10
8.293037828145862
 20
16.68103336553452
 42
0.2734560415951634
 10
8.261965157635962
 20
16.62846712533633
 10
8.261965157635962
 20
16.57329495933369
 42
0.2734560397667185
 10
8.293037827788204
 20
16.52072871933238
 10
8.316699886626714
 20
16.50770743074712
 42
0.2569805071132461
 10
8.437230426168277
 20
16.50770743074712
 10
8.460892486768081
 20
16.52072871988193
 42
0.2734560434246889
 10
8.491965157635924
 20
16.57329496027705
 10
8.491965157635924
 20
16.6284671253361
 42
0.2734560415960701
 10
8.460892487125853
 20
16.68103336553437
 10
8.43723042740644
 20
16.69405465439455
 42
0.2569805071137504
 10
8.31669988786465
 20
16.69405465439443
  0
LINE
  5
143
330
2
100
AcDbEntity
  8
0
100
AcDbLine
 10
8.203525540835109
 20
16.72820277858835
 30
0.0
 11
8.203525540835109
 21
16.47340884982502
 31
0.0
  0
CIRCLE
  5
144
330
2
100
AcDbEntity
  8
R-SWTS-DET2
100
AcDbCircle
 10
7.243113303293945
 20
16.15069774410815
 30
0.0
 40
0.0503284406763105
  0
LWPOLYLINE
  5
145
330
2
100
AcDbEntity
  8
R-SWTS-DET2
100
AcDbPolyline
 90
        4
 70
     1
 43
0.0
 10
7.366578406468001
 20
16.21308967401076
 10
7.11964820011989
 20
16.21308967401076
 42
0.9999999999999998
 10
7.11964820011989
 20
16.08830581420553
 10
7.366578406468001
 20
16.08830581420553
 42
0.9999999999999998
  0
LINE
  5
146
330
2
100
AcDbEntity
  8
0
100
AcDbLine
 10
8.550404774436607
 20
16.72820277858835
 30
0.0
 11
8.550404774436607
 21
16.47340884982502
 31
0.0
  0
LWPOLYLINE
  5
147
330
2
100
AcDbEntity
  8
R-SWTS-DET1
100
AcDbPolyline
 90
       41
 70
     1
 43
0.0
 10
7.317145889146139
 20
17.45023837292812
 42
-0.4142135623730431
 10
7.302145889146153
 20
17.46523837292812
 10
7.302145889146153
 20
17.49723837292811
 42
0.4142135623730951
 10
7.287145889146167
 20
17.51223837292811
 10
7.177037848709495
 20
17.51223837292811
 42
-0.4184033046059118
 10
7.115044173132481
 20
17.57512391708251
 10
7.123289732565048
 20
18.15236507877441
 42
-0.4139326425428041
 10
7.184083042922317
 20
18.21150277457784
 10
7.854816337742228
 20
18.20256523402408
 42
-0.4077932646411109
 10
7.869615919446097
 20
18.18769624905488
 42
0.413875507397508
 10
7.940137692670113
 20
18.11830340308618
 42
-0.4122343511257975
 10
7.95524853812666
 20
18.10351761958026
 10
7.962633630588221
 20
17.5854286719598
 42
0.3394542588633734
 10
7.973956726263089
 20
17.57109971756519
 10
8.007956197477803
 20
17.56250705125342
 10
8.009488281711561
 20
17.4550262157104
 10
8.004488789610185
 20
17.45495495051239
 42
0.9999999999999847
 10
8.004916380798171
 20
17.42495799790424
 10
8.011050400312718
 20
17.42504543520913
 42
0.3727193515204652
 10
8.040371746161817
 20
17.45116930827202
 10
8.042980696426333
 20
17.47120852932208
 10
8.054138491360767
 20
17.55691101363612
 42
0.3800361709519329
 10
8.016808198396439
 20
17.61184197950683
 10
8.012245765633771
 20
17.61299504044863
 10
8.004144365450294
 20
18.1813353716123
 42
0.4577045202689281
 10
7.986749789887177
 20
18.19592896297013
 10
7.93961330329197
 20
18.18830143888552
 10
7.93961330329197
 20
18.27230143888552
 10
7.064145889146153
 20
18.27230143888552
 10
7.064145889146153
 20
17.45216955226978
 42
0.267949192431115
 10
7.071645889146147
 20
17.43917917121302
 10
7.135645889146168
 20
17.40222875398488
 42
0.577350269189628
 10
7.158145889146148
 20
17.41521913504164
 10
7.158145889146148
 20
17.46223837292812
 10
7.252145889146142
 20
17.46223837292812
 10
7.252145889146142
 20
17.43023837292812
 42
0.4142135623730948
 10
7.282145889146171
 20
17.40023837292812
 10
7.336145889146145
 20
17.40023837292811
 42
0.4142135623731297
 10
7.351145889146188
 20
17.41523837292811
 10
7.351145889146188
 20
17.43523837292812
 42
0.4142135623730431
 10
7.336145889146145
 20
17.45023837292812
  0
LWPOLYLINE
  5
148
330
2
100
AcDbEntity
  8
R-SWTS-DET2
100
AcDbPolyline
 90
       12
 70
     1
 43
0.0
 10
7.064145889146153
 20
17.38420527851108
 10
7.064145889146153
 20
17.50921913504164
 10
7.06176408294872
 20
17.50921913504164
 42
0.3639702342662026
 10
7.038424139202312
 20
17.48963459685235
 10
6.927446360454474
 20
17.21337560785762
 10
7.032016285107467
 20
17.21337560785762
 42
-0.3145636000813645
 10
7.375294617916814
 20
17.26724835976123
 10
7.401806846718194
 20
17.27128385128204
 10
7.401806846718194
 20
17.29775305843376
 42
0.2645518979873512
 10
7.167375517357619
 20
17.42283922716129
 10
7.164046324724814
 20
17.40395843750908
 42
-0.315298788878984
 10
7.161450614083754
 20
17.40136272686798
  0
LWPOLYLINE
  5
149
330
2
100
AcDbEntity
  8
R-SWTS-DET2
  6
HIDDEN2
100
AcDbPolyline
 90
       18
 70
     1
 43
0.0
 10
7.924613303292154
 20
17.25762987510399
 10
7.924613303292154
 20
17.51262987510399
 42
-0.4142135623730951
 10
7.92961330329215
 20
17.51762987510398
 10
7.984613303292157
 20
17.517629875104
 42
0.9999999999999287
 10
7.984613303292157
 20
17.542629875104
 10
7.912113303292166
 20
17.542629875104
 42
0.4142135623730951
 10
7.899613303292177
 20
17.530129875104
 10
7.899613303292177
 20
17.35779751486812
 42
-0.3706321426687706
 10
7.888994293801808
 20
17.3454398502545
 10
7.186412596726576
 20
17.23849816298759
 42
0.9950963693897204
 10
7.189161134103621
 20
17.22070946676596
 10
7.885369192176518
 20
17.31881022534089
 42
-0.4558347385663113
 10
7.899613303292177
 20
17.30643250033116
 10
7.899613303292177
 20
17.24012987510399
 42
0.4142135623730951
 10
7.912113303292166
 20
17.22762987510399
 10
7.984613303292157
 20
17.22762987510399
 42
1.0
 10
7.984613303292157
 20
17.252629875104
 10
7.92961330329215
 20
17.252629875104
 42
-0.4142135623730951
  0
DIMENSION
  5
14A
330
2
100
AcDbEntity
  8
R-ANNO-DIMS
100
AcDbDimension
  2
*D9
 10
15.29946515763883
 20
13.95845395986191
 30
0.0
 11
14.98398896716263
 21
12.75468467069083
 31
0.0
 70
   160
 71
     5
 42
0.6250000000025651
  3
STANDARD
100
AcDbAlignedDimension
 13
14.54946515763882
 23
13.33345395985935
 33
0.0
 14
14.54946515763882
 24
13.95845395986191
 34
0.0
 50
90.0
100
AcDbRotatedDimension
  0
LINE
  5
157
330
2
100
AcDbEntity
  8
R-SWTS-DET1
100
AcDbLine
 10
14.5644651576387
 20
10.45748524981113
 30
0.0
 11
14.5644651576387
 21
13.95830581420542
 31
0.0
  0
TEXT
  5
158
330
2
100
AcDbEntity
  8
PART_NUMBERS
100
AcDbText
 10
15.37689071427847
 20
15.37373385838707
 30
0.0
 40
0.25
  1
AIR SEAL GASKET
  7
ROMAND
100
AcDbText
  0
TEXT
  5
159
330
2
100
AcDbEntity
  8
PART_NUMBERS
100
AcDbText
 10
15.37689071427847
 20
16.58573385838708
 30
0.0
 40
0.25
  1
1/8" PRESHIM GLAZING TAPE
  7
ROMAND
100
AcDbText
  0
TEXT
  5
15A
330
2
100
AcDbEntity
  8
PART_NUMBERS
100
AcDbText
 10
15.37689071427847
 20
18.60573385838708
 30
0.0
 40
0.25
  1
INTERIOR GLAZING GASKET
  7
ROMAND
100
AcDbText
  0
TEXT
  5
15B
330
2
100
AcDbEntity
  8
PART_NUMBERS
100
AcDbText
 10
15.37689071427847
 20
15.77773385838708
 30
0.0
 40
0.25
  1
027799
  7
ROMAND
100
AcDbText
  0
TEXT
  5
15C
330
2
100
AcDbEntity
  8
PART_NUMBERS
100
AcDbText
 10
15.37689071427847
 20
17.39373385838708
 30
0.0
 40
0.25
  1
JAMB
  7
ROMAND
100
AcDbText
  0
TEXT
  5
15D
330
2
100
AcDbEntity
  8
PART_NUMBERS
100
AcDbText
 10
15.37689071427847
 20
17.79773385838708
 30
0.0
 40
0.25
  1
558230
  7
ROMAND
100
AcDbText
  0
DIMENSION
  5
15E
330
2
100
AcDbEntity
  8
R-ANNO-DIMS
100
AcDbDimension
  2
*D10
 10
8.564613303293164
 20
20.69330581420759
 30
0.0
 11
8.252113303291885
 21
21.00878200468378
 31
0.0
 70
    32
 71
     5
 42
0.625000000002558
  3
STANDARD
100
AcDbAlignedDimension
 13
7.939613303290606
 23
19.94330581420759
 33
0.0
 14
8.564613303293164
 24
19.94330581420759
 34
0.0
100
AcDbRotatedDimension
  0
TEXT
  5
16D
330
2
100
AcDbEntity
  8
PART_NUMBERS
100
AcDbText
 10
15.37689071427847
 20
19.41373385838707
 30
0.0
 40
0.25
  1
GLASS STOP
  7
ROMAND
100
AcDbText
  0
TEXT
  5
16E
330
2
100
AcDbEntity
  8
PART_NUMBERS
100
AcDbText
 10
15.37689071427847
 20
19.81773385838708
 30
0.0
 40
0.25
  1
556011
  7
ROMAND
100
AcDbText
  0
LINE
  5
16F
330
2
100
AcDbEntity
  8
R-SWTS-DET1
100
AcDbLine
 10
31.69185979025488
 20
16.37766971027563
 30
0.0
 11
31.69185979025488
 21
19.87866971027485
 31
0.0
  0
LINE
  5
170
330
2
100
AcDbEntity
  8
R-SWTS-DET1
100
AcDbLine
 10
30.005855414933
 20
17.87813712442263
 30
0.0
 11
30.005855414933
 21
19.87866971027471
 31
0.0
  0
LWPOLYLINE
  5
171
330
2
100
AcDbEntity
  8
R-SWTS-DET3
100
AcDbPolyline
 90
        4
 70
     0
 43
0.0
 10
28.19664403984197
 20
19.87866971027485
 10
28.19664403984197
 20
17.31666971027486
 10
27.94664403984197
 20
17.31666971027486
 10
27.94664403984197
 20
19.87866971027485
  0
LWPOLYLINE
  5
172
330
2
100
AcDbEntity
  8
R-SWTS-DET3
100
AcDbPolyline
 90
        4
 70
     0
 43
0.0
 10
28.94664403984197
 20
19.87866971027485
 10
28.94664403984197
 20
17.31666971027486
 10
28.69664403984197
 20
17.31666971027486
 10
28.69664403984197
 20
19.87866971027485
  0
LINE
  5
173
330
2
100
AcDbEntity
  8
R-SWTS-DET2
100
AcDbLine
 10
29.24277311108907
 20
17.87813712442263
 30
0.0
 11
29.24277311108907
 21
19.87866971027485
 31
0.0
  0
LINE
  5
174
330
2
100
AcDbEntity
  8
R-SWTS-DET1
100
AcDbLine
 10
27.75685979025289
 20
16.37766971027563
 30
0.0
 11
27.75685979025289
 21
19.87865406530064
 31
0.0
  0
LINE
  5
175
330
2
100
AcDbEntity
  8
R-SWTS-DET1
100
AcDbLine
 10
27.69185979025289
 20
16.37766971027562
 30
0.0
 11
27.69185979025289
 21
19.87865406530064
 31
0.0
  0
LINE
  5
176
330
2
100
AcDbEntity
  8
R-SWTS-DET1
100
AcDbLine
 10
25.69185979025293
 20
16.37766971027563
 30
0.0
 11
25.69185979025293
 21
19.87919061517647
 31
0.0
  0
DIMENSION
  5
177
330
2
100
AcDbEntity
  8
R-ANNO-DIMS
100
AcDbDimension
  2
*D16
 10
23.69664403984198
 20
19.87865406530065
 30
0.0
 11
23.44664403984197
 21
18.00316188778814
 31
0.0
 70
    32
  1
F.W.
 71
     5
 42
3.500984355025011
  3
Open-end
100
AcDbAlignedDimension
 13
25.69185979025293
 23
16.37766971027563
 33
0.0
 14
25.4418597902529
 24
19.87865406530064
 34
0.0
 50
90.0
100
AcDbRotatedDimension
  0
DIMENSION
  5
183
330
2
100
AcDbEntity
  8
R-ANNO-DIMS
100
AcDbDimension
  2
*D18
 10
24.44664403984198
 20
19.87865406530064
 30
0.0
 11
24.19664403984198
 21
18.75323596061637
 31
0.0
 70
    32
  1
D.L.O.
 71
     5
 42
2.000836209368557
  3
Open-end
100
AcDbAlignedDimension
 13
27.75685979025289
 23
17.87781785593208
 33
0.0
 14
25.4418597902529
 24
19.87865406530064
 34
0.0
 50
90.0
100
AcDbRotatedDimension
  0
LWPOLYLINE
  5
18F
330
2
100
AcDbEntity
  8
R-SWTS-DET1
100
AcDbPolyline
 90
      130
 70
     1
 43
0.0
 10
30.85570552093177
 20
16.92569943192748
 10
30.85801315527104
 20
16.93542953078395
 42
0.1169703560206769
 10
30.81970315693636
 20
16.93542875558859
 10
30.82201118504705
 20
16.92569875012917
 42
0.283507087290093
 10
30.76783006860299
 20
16.87151544095212
 10
30.75809996974655
 20
16.8738230752914
 42
0.1169703560206769
 10
30.75810074494191
 20
16.83551307695673
 10
30.76783075040132
 20
16.8378211050674
 42
0.1605226430949019
 10
30.79176301606148
 20
16.7988943226877
 42
-0.2208810136133025
 10
30.79885979025508
 20
16.78361339458151
 10
30.79885979025508
 20
16.77445014167004
 42
-0.4142135623730951
 10
30.77885979025504
 20
16.75445014167005
 10
30.74299623715601
 20
16.75445014167005
 42
-0.2220475164447751
 10
30.72765806866019
 20
16.76161501069319
 42
-0.2918218255974009
 10
30.70760675457589
 20
16.91629471027539
 42
0.5494743523524548
 10
30.6940288543332
 20
16.93766971027544
 10
30.05855605733038
 20
16.93766971027551
 10
30.05855605733038
 20
16.8034944159703
 10
29.85489172667403
 20
16.62946030038634
 10
29.2826437000231
 20
16.62946030038634
 10
29.23555236009239
 20
16.80520757360425
 10
29.12089295484182
 20
16.80520757360425
 10
29.12089295484182
 20
16.68781785593303
 10
29.04571066744856
 20
16.68781785593303
 42
0.5494743523522922
 10
29.03213276720587
 20
16.66644285594999
 42
-0.2918218255973563
 10
29.01208145312157
 20
16.51176315636778
 42
-0.222047516444722
 10
28.99674328462575
 20
16.50459828734463
 10
28.96087973152672
 20
16.50459828734463
 42
-0.4142135623731471
 10
28.94087973152668
 20
16.52459828734464
 10
28.94087973152668
 20
16.53376154025609
 42
-0.2208810136133066
 10
28.94797650572022
 20
16.54904246836231
 42
0.1605330212146638
 10
28.97190945317877
 20
16.58797212527334
 10
28.98163955203526
 20
16.58566449093406
 42
0.116970356020677
 10
28.9816387768399
 20
16.62397448926873
 10
28.97190877138044
 20
16.62166646115803
 42
0.283507087290051
 10
28.91772546220338
 20
16.67584757760206
 10
28.92003309654266
 20
16.68557767645853
 42
0.1169703560206769
 10
28.88172309820797
 20
16.68557690126317
 10
28.88403112631866
 20
16.67584689580375
 42
0.2835070872899558
 10
28.82985000987466
 20
16.62166358662673
 10
28.82011991101823
 20
16.62397122096601
 42
0.1169703560206765
 10
28.82012068621359
 20
16.58566122263134
 10
28.82985069167293
 20
16.58796925074201
 42
0.1605226430949548
 10
28.85378295733315
 20
16.54904246836229
 42
-0.2208810136133165
 10
28.86087973152669
 20
16.53376154025609
 10
28.86087973152669
 20
16.52459828734464
 42
-0.4142135623730951
 10
28.84087973152671
 20
16.50459828734463
 10
28.80501617842768
 20
16.50459828734463
 42
-0.2220475164447311
 10
28.7896780099318
 20
16.51176315636778
 42
-0.1410634256728592
 10
28.75722317927151
 20
16.58512534483149
 42
0.9341031171555698
 10
28.71185979025577
 20
16.58203059768091
 10
28.71185979025611
 20
16.43581785593225
 42
-0.4142135623740998
 10
28.65385979025607
 20
16.37781785593205
 10
28.63106741005592
 20
16.37781785593179
 42
-0.0655434628180566
 10
28.62459693392807
 20
16.37866971027457
 10
28.5398136506
 20
16.40138732257401
 10
28.46297544806984
 20
16.3919527776158
 42
-0.713293067896938
 10
28.45468568682392
 20
16.40894930694407
 10
28.54501735516405
 20
16.4992809752842
 42
-0.7725978076385306
 10
28.57006018958131
 20
16.4846006546945
 42
0.3431487919936307
 10
28.57468434471426
 20
16.47322458807539
 10
28.59085292706524
 20
16.46388965270269
 42
0.1316524975860437
 10
28.59485292706526
 20
16.46281785593297
 10
28.6137093335258
 20
16.46281785593297
 42
0.4142135623731602
 10
28.62170933352579
 20
16.47081785593296
 10
28.62170933352579
 20
16.65981785593291
 42
0.4142135623731602
 10
28.6137093335258
 20
16.66781785593291
 10
28.59485292706526
 20
16.66781785593291
 42
0.1316524975860435
 10
28.59085292706524
 20
16.66674605916319
 10
28.57468434471432
 20
16.65741112379052
 42
0.3431487919941411
 10
28.57006018958137
 20
16.64603505717139
 42
-0.7725978076394044
 10
28.54501735516405
 20
16.63135473658168
 10
28.45468568682392
 20
16.7216864049218
 42
-0.7132930678969421
 10
28.46297544806984
 20
16.73868293425008
 10
28.53981365059994
 20
16.72924838929186
 10
28.6245969339204
 20
16.75196600158924
 42
-0.0655434628120725
 10
28.63106741004768
 20
16.75281785593202
 10
29.05589295484182
 20
16.75281785593743
 10
29.05589295484182
 20
16.95266971027668
 10
28.99389295484181
 20
16.95266971027668
 10
28.99389295484181
 20
16.96082487645429
 42
-0.3255049610922494
 10
29.01468287144414
 20
16.9893761349871
 10
29.05589295484182
 20
17.00266971027668
 10
29.22848385115307
 20
17.00266971027668
 42
-0.4142135623732337
 10
29.24348385115312
 20
16.98766971027668
 10
29.24348385115312
 20
16.96766971027664
 42
-0.4142135623728176
 10
29.22848385115307
 20
16.95266971027663
 10
29.12089295484182
 20
16.95266971027655
 10
29.12089295484182
 20
16.87020757360426
 10
29.28542861431103
 20
16.87020757360426
 10
29.33251995424175
 20
16.69446030038634
 10
29.83251995424175
 20
16.69446030038634
 10
29.99355605733038
 20
16.83520757360425
 10
29.99355605733038
 20
16.93766971027551
 10
29.9414083073884
 20
16.93766971027551
 42
-0.3639702342661772
 10
29.93156022985827
 20
16.94593322849884
 10
29.92362551572617
 20
16.99093322850017
 42
-0.4663076581547077
 10
29.93347359325631
 20
17.00266971027683
 10
31.67685979025506
 20
17.00266971027818
 10
31.67685979025506
 20
16.37766971027561
 10
31.43685979025506
 20
16.37766971027565
 42
-0.4142135623730951
 10
31.42685979025507
 20
16.38766971027564
 10
31.42685979025507
 20
16.39266971027565
 42
0.4142135623730951
 10
31.41685979025508
 20
16.40266971027564
 10
31.11685979025506
 20
16.40266971027569
 42
0.4142135623731992
 10
31.10685979025507
 20
16.39266971027568
 10
31.10685979025507
 20
16.38766971027569
 42
-0.4142135623731992
 10
31.09685979025503
 20
16.37766971027569
 10
31.06185979025506
 20
16.37766971027569
 42
-0.4142135623730951
 10
31.05185979025506
 20
16.38766971027569
 10
31.05185979025506
 20
16.44266971027561
 42
-0.4142135623730951
 10
31.06185979025506
 20
16.45266971027561
 10
31.47185979025503
 20
16.45266971027561
 42
-0.4142135623730951
 10
31.48185979025502
 20
16.44266971027561
 10
31.48185979025502
 20
16.43766971027561
 42
0.4142135623730951
 10
31.49185979025507
 20
16.42766971027561
 10
31.61185979025507
 20
16.42766971027561
 10
31.61185979025501
 20
16.9376697102754
 10
30.98369072617695
 20
16.93766971027541
 42
0.5494743523523319
 10
30.97011282593425
 20
16.91629471027541
 42
-0.2918218255973577
 10
30.9500615118499
 20
16.76161501069319
 42
-0.2220475164447702
 10
30.93472334335408
 20
16.75445014167005
 10
30.89885979025505
 20
16.75445014167005
 42
-0.4142135623730951
 10
30.87885979025506
 20
16.77445014167004
 10
30.87885979025506
 20
16.78361339458151
 42
-0.2208810136133115
 10
30.88595656444861
 20
16.79889432268773
 42
0.1605330212145298
 10
30.9098895119071
 20
16.83782397959872
 10
30.91961961076359
 20
16.83551634525944
 42
0.116970356020677
 10
30.91961883556823
 20
16.87382634359412
 10
30.90988883010883
 20
16.87151831548343
 42
0.2835070872900811
  0
LINE
  5
190
330
2
100
AcDbEntity
  8
R-SWTS-DET1
100
AcDbLine
 10
25.69185979025293
 20
16.37766971027563
 30
0.0
 11
31.69185979025488
 21
16.37766971027563
 31
0.0
  0
DIMENSION
  5
191
330
2
100
AcDbEntity
  8
R-ANNO-DIMS
100
AcDbDimension
  2
*D15
 10
24.44664403984198
 20
17.87781785593208
 30
0.0
 11
24.13116784936578
 21
17.12774378310387
 31
0.0
 70
    32
 71
     5
 42
1.500148145656453
  3
STANDARD
100
AcDbAlignedDimension
 13
25.69185979025293
 23
16.37766971027563
 33
0.0
 14
27.75685979025289
 24
17.87781785593208
 34
0.0
 50
90.0
100
AcDbRotatedDimension
  0
LWPOLYLINE
  5
1A0
330
2
100
AcDbEntity
  8
R-SWTS-DET1
100
AcDbPolyline
 90
       60
 70
     1
 43
0.0
 10
28.12890592990837
 20
16.72924838929186
 10
28.04412264659007
 20
16.75196600158865
 42
0.0655434628152395
 10
28.03765217046248
 20
16.75281785593143
 10
27.82185979025289
 20
16.75281785593146
 10
27.82185979025289
 20
17.3878178559321
 10
27.8018597902529
 20
17.40781785593211
 10
27.82185979025289
 20
17.42781785593212
 10
27.8018597902529
 20
17.44781785593211
 10
27.82185979025289
 20
17.46781785593212
 10
27.8018597902529
 20
17.4878178559321
 10
27.82185979025289
 20
17.50781785593211
 10
27.8018597902529
 20
17.52781785593212
 10
27.82185979025289
 20
17.5478178559321
 10
27.8018597902529
 20
17.56781785593211
 10
27.82185979025289
 20
17.58781785593209
 10
27.8018597902529
 20
17.6078178559321
 10
27.82185979025289
 20
17.62781785593208
 10
27.8018597902529
 20
17.6478178559321
 10
27.82185979025289
 20
17.66781785593211
 10
27.8018597902529
 20
17.68781785593209
 10
27.82185979025289
 20
17.7078178559321
 10
27.8018597902529
 20
17.72781785593208
 10
27.82185979025289
 20
17.74781785593209
 10
27.8018597902529
 20
17.7678178559321
 10
27.82185979025289
 20
17.78781785593208
 10
27.8018597902529
 20
17.80781785593209
 10
27.82185979025289
 20
17.8278178559321
 10
27.82185979025289
 20
17.87781785593208
 10
27.75685979025289
 20
17.87781785593208
 10
27.75685979025289
 20
17.0028178559339
 10
25.70685979025292
 20
17.0028178559339
 10
25.70685979025292
 20
16.37781785593208
 10
27.75685979025289
 20
16.37781785593208
 10
27.82185979025289
 20
16.37781785593208
 10
27.82185979025286
 20
16.5778178559321
 10
27.82185979025289
 20
16.61946600158922
 42
-1.00000000000321
 10
27.9568597902535
 20
16.61946600158922
 10
27.9568597902535
 20
16.43581785593134
 42
0.4142135623730951
 10
28.0148597902535
 20
16.37781785593132
 10
28.037652170451
 20
16.37781785593132
 42
0.0655434628152775
 10
28.04412264657856
 20
16.3786697102741
 10
28.12890592990834
 20
16.40138732257399
 10
28.20574413243847
 20
16.39195277761579
 42
0.7132930678969658
 10
28.21403389368439
 20
16.40894930694407
 10
28.12370222534426
 20
16.4992809752842
 42
0.7725978076383388
 10
28.098659390927
 20
16.48460065469448
 42
-0.3431487919937011
 10
28.09403523579408
 20
16.47322458807537
 10
28.07786665344307
 20
16.46388965270268
 42
-0.1316524975860435
 10
28.07386665344305
 20
16.46281785593294
 10
28.05501024698251
 20
16.46281785593294
 42
-0.4142135623731602
 10
28.0470102469825
 20
16.47081785593296
 10
28.0470102469825
 20
16.65981785593289
 42
-0.4142135623731602
 10
28.05501024698251
 20
16.6678178559329
 10
28.07386665344305
 20
16.6678178559329
 42
-0.1316524975860434
 10
28.07786665344307
 20
16.66674605916316
 10
28.09403523579394
 20
16.65741112379053
 42
-0.3431487919942175
 10
28.09865939092694
 20
16.64603505717139
 42
0.7725978076396093
 10
28.12370222534426
 20
16.63135473658165
 10
28.21403389368439
 20
16.72168640492177
 42
0.713293067896966
 10
28.20574413243847
 20
16.73868293425005
  0
LWPOLYLINE
  5
1A1
330
2
100
AcDbEntity
  8
R-SWTS-DET1
100
AcDbPolyline
 90
       32
 70
     1
 43
0.0
 10
27.22876301605931
 20
16.79904246834616
 42
-0.1605226430948981
 10
27.20483075039911
 20
16.83796925072585
 10
27.19510074493971
 20
16.83566122261519
 42
-0.1169703560206769
 10
27.19509996974435
 20
16.87397122094985
 10
27.20483006860082
 20
16.87166358661057
 42
-0.2835070872900951
 10
27.25901118504487
 20
16.92584689578763
 10
27.25670315693418
 20
16.93557690124704
 42
-0.1169703560206769
 10
27.29501315526886
 20
16.9355776764424
 10
27.29270552092956
 20
16.92584757758593
 42
-0.2835070872900714
 10
27.34688883010662
 20
16.87166646114188
 10
27.35661883556602
 20
16.87397448925256
 42
-0.1169703560206769
 10
27.35661961076139
 20
16.83566449091788
 10
27.34688951190492
 20
16.83797212525719
 42
-0.1605330212145323
 10
27.32295656444643
 20
16.79904246834619
 42
0.2208810136133236
 10
27.31585979025289
 20
16.78376154023997
 10
27.31585979025289
 20
16.77459828732851
 42
0.4142135623730951
 10
27.33585979025287
 20
16.7545982873285
 10
27.3717233433519
 20
16.7545982873285
 42
0.2220475164447456
 10
27.38706151184775
 20
16.76176315635164
 42
0.2918218255973576
 10
27.40711282593208
 20
16.91644285593387
 42
-0.5494743523524516
 10
27.42069072617474
 20
16.93781785593388
 10
27.75685979025289
 20
16.93781785593388
 10
27.75685979025289
 20
16.44281785593208
 10
25.77185979025291
 20
16.44281785593208
 10
25.77185979025291
 20
16.93781785593388
 10
27.13102885433102
 20
16.93781785593388
 42
-0.5494743523524291
 10
27.14460675457369
 20
16.91644285593387
 42
0.2918218255973997
 10
27.16465806865802
 20
16.76176315635164
 42
0.2220475164447454
 10
27.17999623715386
 20
16.7545982873285
 10
27.21585979025287
 20
16.7545982873285
 42
0.4142135623730951
 10
27.23585979025287
 20
16.77459828732851
 10
27.23585979025287
 20
16.78376154023997
 42
0.2208810136132929
  0
LINE
  5
1A2
330
2
100
AcDbEntity
  8
0
100
AcDbLine
 10
28.46175675463584
 20
16.73875747273366
 30
0.0
 11
28.20696282587247
 21
16.73875747273367
 31
0.0
  0
LINE
  5
1A3
330
2
100
AcDbEntity
  8
0
100
AcDbLine
 10
28.46175675463584
 20
16.3918782391322
 30
0.0
 11
28.20696282587247
 21
16.3918782391322
 31
0.0
  0
HATCH
  5
1A4
330
2
100
AcDbEntity
  8
0
100
AcDbHatch
 10
0.0
 20
0.0
 30
0.0
210
0.0
220
0.0
230
1.0
  2
ANSI37
 70
     0
 71
     0
 91
        2
 92
        7
 72
     1
 73
     1
 93
       36
 10
28.62170933352584
 20
16.65981785593291
 42
0.41421356237316
 10
28.6137093335258
 20
16.6678178559329
 42
0.0
 10
28.59485292706526
 20
16.6678178559329
 42
0.1316524975870078
 10
28.59085292706524
 20
16.66674605916317
 42
0.0
 10
28.57468434471432
 20
16.65741112379049
 42
0.3431487919937766
 10
28.57006018958131
 20
16.64603505717137
 42
-0.7725978076387533
 10
28.54501735516411
 20
16.63135473658165
 42
0.0
 10
28.45468568682392
 20
16.7216864049218
 42
-0.6681786379191954
 10
28.46175675463579
 20
16.73875747273366
 42
0.0
 10
28.20696282587247
 20
16.73875747273367
 42
-0.6681786379197768
 10
28.21403389368439
 20
16.7216864049218
 42
0.0
 10
28.12370222534426
 20
16.63135473658167
 42
-0.7725978076387183
 10
28.098659390927
 20
16.64603505717138
 42
0.3431487919942695
 10
28.094035235794
 20
16.65741112379047
 42
0.0
 10
28.07786665344307
 20
16.66674605916317
 42
0.1316524975870076
 10
28.07386665344305
 20
16.6678178559329
 42
0.0
 10
28.05501024698245
 20
16.6678178559329
 42
0.4142135623726397
 10
28.04701024698247
 20
16.65981785593291
 42
0.0
 10
28.04701024698247
 20
16.47081785593296
 42
0.4142135623726397
 10
28.05501024698245
 20
16.46281785593296
 42
0.0
 10
28.07386665344305
 20
16.46281785593296
 42
0.1316524975859829
 10
28.07786665344301
 20
16.46388965270267
 42
0.0
 10
28.09403523579394
 20
16.47322458807531
 42
0.3431487919942175
 10
28.09865939092688
 20
16.48460065469445
 42
-0.7725978076394532
 10
28.12370222534421
 20
16.4992809752842
 42
0.0
 10
28.21403389368433
 20
16.40894930694406
 42
-0.6681786379180224
 10
28.20696282587247
 20
16.3918782391322
 42
0.0
 10
28.46175675463579
 20
16.3918782391322
 42
-0.6681786379191376
 10
28.45468568682392
 20
16.40894930694405
 42
0.0
 10
28.54501735516405
 20
16.49928097528419
 42
-0.7725978076384913
 10
28.57006018958131
 20
16.48460065469448
 42
0.343148791993908
 10
28.57468434471432
 20
16.47322458807535
 42
0.0
 10
28.59085292706524
 20
16.46388965270268
 42
0.1316524975864953
 10
28.59485292706526
 20
16.46281785593296
 42
0.0
 10
28.6137093335258
 20
16.46281785593296
 42
0.41421356237316
 10
28.62170933352584
 20
16.47081785593296
 42
0.0
 97
        0
 92
       22
 72
     1
 73
     1
 93
       12
 10
28.42760863044205
 20
16.50505258616245
 42
0.0
 10
28.41458734158184
 20
16.48139052644293
 42
-0.2734560415960702
 10
28.36202110138359
 20
16.45031785593286
 42
0.0
 10
28.30684893632454
 20
16.45031785593287
 42
-0.2734560434247903
 10
28.25428269592939
 20
16.48139052680073
 42
0.0
 10
28.24126140638433
 20
16.50505258814602
 42
-0.2569805071130905
 10
28.2412614072048
 20
16.6255831276875
 42
0.0
 10
28.25428269537983
 20
16.64924518578059
 42
-0.2734560397666548
 10
28.30684893538117
 20
16.6803178559328
 42
0.0
 10
28.36202110138376
 20
16.68031785593283
 42
-0.2734560415951895
 10
28.41458734158195
 20
16.64924518542295
 42
0.0
 10
28.42760863044182
 20
16.62558312570426
 42
-0.2569805071138714
 97
        0
 75
     0
 76
     1
 52
0.0
 41
0.5
 77
     0
 78
     2
 53
45.0
 43
-56.0266252097476
 44
-43.92508164114697
 45
-0.0441941738241592
 46
0.0441941738241592
 79
     0
 53
135.0
 43
-56.0266252097476
 44
-43.92508164114697
 45
-0.0441941738241592
 46
-0.0441941738241592
 79
     0
 47
0.0091032376506059
 98
        2
 10
28.52491540327785
 20
16.58077696865438
 10
28.52491540327785
 20
16.58077696865438
  0
LWPOLYLINE
  5
1A5
330
2
100
AcDbEntity
  8
0
100
AcDbPolyline
 90
       12
 70
     1
 43
0.0
 10
28.41458734158195
 20
16.64924518542293
 42
0.2734560415951634
 10
28.36202110138382
 20
16.68031785593283
 10
28.30684893538117
 20
16.6803178559328
 42
0.2734560397667185
 10
28.25428269537983
 20
16.64924518578059
 10
28.24126140679457
 20
16.62558312694207
 42
0.2569805071132461
 10
28.24126140679457
 20
16.50505258740052
 10
28.25428269592939
 20
16.48139052680071
 42
0.2734560434246889
 10
28.30684893632454
 20
16.45031785593287
 10
28.36202110138359
 20
16.45031785593286
 42
0.2734560415960701
 10
28.41458734158184
 20
16.48139052644293
 10
28.427608630442
 20
16.50505258616237
 42
0.2569805071137504
 10
28.42760863044188
 20
16.62558312570413
  0
LWPOLYLINE
  5
1A6
330
2
100
AcDbEntity
  8
R-SWTS-DET3
100
AcDbPolyline
 90
        4
 70
     1
 43
0.0
 10
28.69664403984197
 20
17.31666971027486
 10
28.69664403984197
 20
17.56666971027486
 10
28.19664403984197
 20
17.56666971027486
 10
28.19664403984197
 20
17.31666971027486
  0
LWPOLYLINE
  5
1A7
330
2
100
AcDbEntity
  8
R-SWTS-DET2
100
AcDbPolyline
 90
        4
 70
     1
 43
0.0
 10
27.94664403984197
 20
17.8226348134489
 42
0.9999999999999998
 10
27.82186018003674
 20
17.8226348134489
 10
27.82186018003674
 20
17.57570460710082
 42
0.9999999999999998
 10
27.94664403984197
 20
17.57570460710082
  0
CIRCLE
  5
1A8
330
2
100
AcDbEntity
  8
R-SWTS-DET2
100
AcDbCircle
 10
27.88425210993935
 20
17.69916971027486
 30
0.0
 40
0.0503284406763105
  0
LWPOLYLINE
  5
1A9
330
2
100
AcDbEntity
  8
R-SWTS-DET1
100
AcDbPolyline
 90
      130
 70
     1
 43
0.0
 10
32.23988951190674
 20
15.5415154409525
 10
32.24961961076318
 20
15.54382307529178
 42
-0.1169703560206769
 10
32.24961883556782
 20
15.50551307695711
 10
32.23988883010842
 20
15.50782110506779
 42
-0.283507087290093
 10
32.18570552093135
 20
15.45363998862375
 10
32.18801315527063
 20
15.44390988976728
 42
-0.1169703560206769
 10
32.149703156936
 20
15.44391066496264
 10
32.15201118504663
 20
15.45364067042206
 42
-0.1605226430949019
 10
32.11308440266694
 20
15.47757293608224
 42
0.2208810136133025
 10
32.09780347456078
 20
15.48466971027581
 10
32.08864022164929
 20
15.4846697102758
 42
0.4142135623730951
 10
32.06864022164931
 20
15.4646697102758
 10
32.06864022164931
 20
15.42880615717678
 42
0.2220475164447751
 10
32.07580509067245
 20
15.41346798868093
 42
0.2918218255974009
 10
32.23048479025462
 20
15.39341667459661
 42
-0.5494743523524548
 10
32.25185979025471
 20
15.37983877435395
 10
32.25185979025477
 20
14.7443659773511
 10
32.11768449594953
 20
14.7443659773511
 10
31.9436503803656
 20
14.54070164669475
 10
31.9436503803656
 20
13.96845362004384
 10
32.11939765358349
 20
13.92136228011313
 10
32.11939765358349
 20
13.80670287486257
 10
32.00200793591231
 20
13.80670287486257
 10
32.00200793591231
 20
13.7315205874693
 42
-0.5494743523522922
 10
31.98063293592927
 20
13.71794268722664
 42
0.2918218255973563
 10
31.82595323634703
 20
13.6978913731423
 42
0.222047516444722
 10
31.81878836732389
 20
13.68255320464647
 10
31.81878836732389
 20
13.64668965154745
 42
0.4142135623731471
 10
31.83878836732387
 20
13.62668965154744
 10
31.84795162023537
 20
13.62668965154744
 42
0.2208810136133066
 10
31.86323254834159
 20
13.63378642574099
 42
-0.1605330212146638
 10
31.90216220525261
 20
13.65771937319954
 10
31.89985457091334
 20
13.66744947205602
 42
-0.116970356020677
 10
31.93816456924796
 20
13.66744869686066
 10
31.93585654113727
 20
13.65771869140118
 42
-0.283507087290051
 10
31.99003765758133
 20
13.60353538222414
 10
31.99976775643776
 20
13.60584301656342
 42
-0.1169703560206769
 10
31.99976698124241
 20
13.56753301822874
 10
31.990036975783
 20
13.56984104633943
 42
-0.2835070872899558
 10
31.93585366660599
 20
13.51565992989543
 10
31.93816130094527
 20
13.50592983103897
 42
-0.1169703560206765
 10
31.89985130261059
 20
13.50593060623433
 10
31.90215933072128
 20
13.5156606116937
 42
-0.1605226430949548
 10
31.86323254834153
 20
13.53959287735388
 42
0.2208810136133165
 10
31.84795162023537
 20
13.54668965154744
 10
31.83878836732387
 20
13.54668965154744
 42
0.4142135623730951
 10
31.81878836732389
 20
13.52668965154744
 10
31.81878836732389
 20
13.49082609844841
 42
0.2220475164447311
 10
31.82595323634703
 20
13.47548792995257
 42
0.1410634256728592
 10
31.89931542481074
 20
13.44303309929225
 42
-0.9341031171555698
 10
31.89622067766018
 20
13.39766971027651
 10
31.7500079359115
 20
13.39766971027684
 42
0.4142135623740998
 10
31.69200793591128
 20
13.33966971027684
 10
31.69200793591105
 20
13.31687733007666
 42
0.0655434628180566
 10
31.69285979025384
 20
13.31040685394882
 10
31.71557740255324
 20
13.22562357062072
 10
31.70614285759504
 20
13.14878536809061
 42
0.713293067896938
 10
31.72313938692335
 20
13.14049560684469
 10
31.81347105526348
 20
13.23082727518482
 42
0.7725978076385306
 10
31.79879073467376
 20
13.25587010960207
 42
-0.3431487919936307
 10
31.78741466805465
 20
13.26049426473502
 10
31.77807973268196
 20
13.27666284708601
 42
-0.1316524975860437
 10
31.77700793591223
 20
13.280662847086
 10
31.77700793591223
 20
13.29951925354656
 42
-0.4142135623731602
 10
31.78500793591221
 20
13.30751925354656
 10
31.97400793591217
 20
13.30751925354656
 42
-0.4142135623731602
 10
31.98200793591215
 20
13.29951925354656
 10
31.98200793591215
 20
13.280662847086
 42
-0.1316524975860435
 10
31.98093613914242
 20
13.27666284708601
 10
31.97160120376978
 20
13.26049426473508
 42
-0.3431487919941411
 10
31.96022513715062
 20
13.25587010960209
 42
0.7725978076394044
 10
31.94554481656096
 20
13.23082727518482
 10
32.03587648490108
 20
13.14049560684469
 42
0.7132930678969421
 10
32.05287301422933
 20
13.14878536809061
 10
32.04343846927114
 20
13.2256235706207
 10
32.06615608156849
 20
13.31040685394115
 42
0.0655434628120725
 10
32.06700793591128
 20
13.3168773300684
 10
32.06700793591668
 20
13.74170287486257
 10
32.26685979025595
 20
13.74170287486257
 10
32.26685979025595
 20
13.67970287486257
 10
32.27501495643352
 20
13.67970287486257
 42
0.3255049610922494
 10
32.30356621496637
 20
13.70049279146489
 10
32.3168597902559
 20
13.74170287486257
 10
32.3168597902559
 20
13.91429377117382
 42
0.4142135623732337
 10
32.30185979025592
 20
13.92929377117384
 10
32.28185979025588
 20
13.92929377117384
 42
0.4142135623728176
 10
32.26685979025589
 20
13.91429377117384
 10
32.26685979025578
 20
13.80670287486257
 10
32.18439765358349
 20
13.80670287486257
 10
32.18439765358349
 20
13.97123853433176
 10
32.00865038036559
 20
14.01832987426248
 10
32.00865038036559
 20
14.51832987426247
 10
32.14939765358352
 20
14.6793659773511
 10
32.25185979025477
 20
14.6793659773511
 10
32.25185979025477
 20
14.62721822740916
 42
0.3639702342661772
 10
32.26012330847809
 20
14.61737014987903
 10
32.30512330847941
 20
14.60943543574692
 42
0.4663076581547077
 10
32.31685979025608
 20
14.61928351327704
 10
32.31685979025744
 20
16.36266971027579
 10
31.69185979025488
 20
16.36266971027579
 10
31.69185979025488
 20
16.12266971027579
 42
0.4142135623730951
 10
31.70185979025487
 20
16.11266971027579
 10
31.70685979025492
 20
16.11266971027579
 42
-0.4142135623730951
 10
31.71685979025492
 20
16.1026697102758
 10
31.71685979025492
 20
15.80266971027579
 42
-0.4142135623731992
 10
31.70685979025492
 20
15.79266971027579
 10
31.70185979025493
 20
15.79266971027579
 42
0.4142135623731992
 10
31.69185979025494
 20
15.78266971027579
 10
31.69185979025494
 20
15.74766971027579
 42
0.4142135623730951
 10
31.70185979025493
 20
15.73766971027579
 10
31.75685979025488
 20
15.73766971027579
 42
0.4142135623730951
 10
31.76685979025487
 20
15.74766971027579
 10
31.76685979025487
 20
16.1576697102758
 42
0.4142135623730951
 10
31.75685979025488
 20
16.16766971027579
 10
31.75185979025489
 20
16.16766971027579
 42
-0.4142135623730951
 10
31.7418597902549
 20
16.17766971027579
 10
31.7418597902549
 20
16.2976697102758
 10
32.25185979025466
 20
16.29766971027577
 10
32.25185979025466
 20
15.66950064619767
 42
-0.5494743523523319
 10
32.23048479025468
 20
15.65592274595499
 42
0.2918218255973577
 10
32.07580509067245
 20
15.63587143187067
 42
0.2220475164447702
 10
32.06864022164931
 20
15.62053326337483
 10
32.06864022164931
 20
15.5846697102758
 42
0.4142135623730951
 10
32.08864022164929
 20
15.56466971027581
 10
32.09780347456078
 20
15.56466971027581
 42
0.2208810136133115
 10
32.113084402667
 20
15.57176648446935
 42
-0.1605330212145298
 10
32.15201405957797
 20
15.59569943192785
 10
32.14970642523869
 20
15.60542953078433
 42
-0.116970356020677
 10
32.18801642357338
 20
15.60542875558897
 10
32.18570839546269
 20
15.59569875012956
 42
-0.2835070872900811
  0
LWPOLYLINE
  5
1AA
330
2
100
AcDbEntity
  8
R-SWTS-DET1
100
AcDbPolyline
 90
       41
 70
     1
 43
0.0
 10
32.93932720440185
 20
13.86960226899631
 42
0.4142135623730431
 10
32.95432720440189
 20
13.88460226899631
 10
32.95432720440189
 20
13.91660226899631
 42
-0.4142135623730951
 10
32.96932720440188
 20
13.93160226899631
 10
33.07943524483855
 20
13.93160226899631
 42
0.4184033046059118
 10
33.14142892041556
 20
13.99448781315071
 10
33.133183360983
 20
14.57172897484261
 42
0.4139326425428041
 10
33.07239005062573
 20
14.63086667064604
 10
32.40165675580582
 20
14.62192913009228
 42
0.4077932646411109
 10
32.38685717410195
 20
14.60706014512308
 42
-0.413875507397508
 10
32.31633540087794
 20
14.53766729915438
 42
0.4122343511257975
 10
32.30122455542139
 20
14.52288151564846
 10
32.29383946295982
 20
14.00479256802799
 42
-0.3394542588633734
 10
32.28251636728496
 20
13.99046361363339
 10
32.24851689607024
 20
13.98187094732162
 10
32.24698481183648
 20
13.87439011177859
 10
32.25198430393786
 20
13.87431884658059
 42
-0.9999999999999847
 10
32.25155671274988
 20
13.84432189397245
 10
32.24542269323533
 20
13.84440933127733
 42
-0.3727193515204652
 10
32.21610134738623
 20
13.87053320434022
 10
32.21349239712171
 20
13.89057242539029
 10
32.20233460218728
 20
13.97627490970431
 42
-0.3800361709519329
 10
32.23966489515161
 20
14.03120587557502
 10
32.24422732791428
 20
14.03235893651683
 10
32.25232872809769
 20
14.60069926768049
 42
-0.4577045202689281
 10
32.26972330366087
 20
14.61529285903835
 10
32.31685979025608
 20
14.60766533495373
 10
32.31685979025608
 20
14.69166533495374
 10
33.19232720440189
 20
14.69166533495374
 10
33.19232720440189
 20
13.87153344833798
 42
-0.267949192431115
 10
33.1848272044019
 20
13.85854306728122
 10
33.12082720440188
 20
13.82159265005309
 42
-0.577350269189628
 10
33.0983272044019
 20
13.83458303110986
 10
33.0983272044019
 20
13.88160226899632
 10
33.00432720440185
 20
13.88160226899632
 10
33.00432720440185
 20
13.84960226899632
 42
-0.4142135623730948
 10
32.97432720440188
 20
13.81960226899632
 10
32.9203272044019
 20
13.81960226899632
 42
-0.4142135623731297
 10
32.90532720440186
 20
13.83460226899632
 10
32.90532720440186
 20
13.85460226899631
 42
-0.4142135623730431
 10
32.92032720440185
 20
13.86960226899631
  0
LEADER
  5
1AB
330
2
100
AcDbEntity
  8
PART_NUMBERS
100
AcDbLeader
  3
Open-end
 76
     3
 10
33.19232720440189
 20
14.28159939164586
 30
0.0
 10
35.69338069515576
 20
16.25868664105651
 30
0.0
 10
35.94338069515575
 20
16.25868664105651
 30
0.0
1001
ACAD
1000
DSTYLE
1002
{
1070
   147
1040
0.0625
1070
    77
1070
     0
1002
}
  0
LEADER
  5
1AC
330
2
100
AcDbEntity
  8
PART_NUMBERS
100
AcDbLeader
  3
Open-end
 76
     3
 10
32.71876964828383
 20
13.71133290268924
 30
0.0
 10
35.69338069515576
 20
15.04668664105651
 30
0.0
 10
35.94338069515575
 20
15.04668664105651
 30
0.0
1001
ACAD
1000
DSTYLE
1002
{
1070
   147
1040
0.0625
1070
    77
1070
     0
1002
}
  0
LWPOLYLINE
  5
1AD
330
2
100
AcDbEntity
  8
R-SWTS-DET2
  6
HIDDEN2
100
AcDbPolyline
 90
       18
 70
     1
 43
0.0
 10
32.33185979025589
 20
13.67699377117219
 10
32.33185979025589
 20
13.93199377117219
 42
0.4142135623730951
 10
32.32685979025589
 20
13.93699377117218
 10
32.27185979025589
 20
13.9369937711722
 42
-0.9999999999999287
 10
32.27185979025589
 20
13.9619937711722
 10
32.34435979025588
 20
13.9619937711722
 42
-0.4142135623730951
 10
32.35685979025587
 20
13.9494937711722
 10
32.35685979025587
 20
13.77716141093631
 42
0.3706321426687706
 10
32.36747879974624
 20
13.7648037463227
 10
33.07006049682141
 20
13.65786205905578
 42
-0.9950963693897204
 10
33.06731195944442
 20
13.64007336283416
 10
32.37110390137153
 20
13.73817412140909
 42
0.4558347385663113
 10
32.35685979025587
 20
13.72579639639937
 10
32.35685979025587
 20
13.65949377117219
 42
-0.4142135623730951
 10
32.34435979025588
 20
13.64699377117219
 10
32.27185979025589
 20
13.64699377117219
 42
-1.0
 10
32.27185979025589
 20
13.67199377117219
 10
32.32685979025589
 20
13.67199377117219
 42
0.4142135623730951
  0
LINE
  5
1AE
330
2
100
AcDbEntity
  8
R-SWTS-DET1
100
AcDbLine
 10
31.69185979025488
 20
12.37766971027361
 30
0.0
 11
35.19287543522833
 21
12.37766971027362
 31
0.0
  0
LINE
  5
1AF
330
2
100
AcDbEntity
  8
R-SWTS-DET1
100
AcDbLine
 10
31.69185979025488
 20
12.44266971027362
 30
0.0
 11
35.19287543522833
 21
12.44266971027362
 31
0.0
  0
LWPOLYLINE
  5
1B0
330
2
100
AcDbEntity
  8
R-SWTS-DET1
100
AcDbPolyline
 90
       32
 70
     1
 43
0.0
 10
32.11323254832541
 20
11.91457293608003
 42
0.1605226430948981
 10
32.1521593307051
 20
11.89064067041984
 10
32.14985130259444
 20
11.88091066496044
 42
0.1169703560206769
 10
32.1881613009291
 20
11.88090988976508
 10
32.18585366658982
 20
11.89063998862154
 42
0.2835070872900951
 10
32.24003697576689
 20
11.9448211050656
 10
32.24976698122629
 20
11.94251307695491
 42
0.1169703560206769
 10
32.24976775642165
 20
11.98082307528959
 10
32.24003765756518
 20
11.97851544095029
 42
0.2835070872900714
 10
32.18585654112113
 20
12.03269875012735
 10
32.18816456923182
 20
12.04242875558675
 42
0.1169703560206769
 10
32.14985457089714
 20
12.04242953078211
 10
32.15216220523644
 20
12.03269943192565
 42
0.1605330212145323
 10
32.11323254832544
 20
12.00876648446716
 42
-0.2208810136133236
 10
32.09795162021922
 20
12.00166971027362
 10
32.08878836730776
 20
12.00166971027362
 42
-0.4142135623730951
 10
32.06878836730775
 20
12.0216697102736
 10
32.06878836730775
 20
12.05753326337263
 42
-0.2220475164447456
 10
32.07595323633089
 20
12.07287143186848
 42
-0.2918218255973576
 10
32.23063293591312
 20
12.0929227459528
 42
0.5494743523524516
 10
32.25200793591313
 20
12.10650064619547
 10
32.25200793591313
 20
12.44266971027362
 10
31.75700793591133
 20
12.44266971027362
 10
31.75700793591133
 20
10.45766971027363
 10
32.25200793591313
 20
10.45766971027363
 10
32.25200793591313
 20
11.81683877435175
 42
0.5494743523524291
 10
32.23063293591312
 20
11.83041667459441
 42
-0.2918218255973997
 10
32.07595323633089
 20
11.85046798867874
 42
-0.2220475164447454
 10
32.06878836730775
 20
11.86580615717459
 10
32.06878836730775
 20
11.90166971027359
 42
-0.4142135623730951
 10
32.08878836730776
 20
11.9216697102736
 10
32.09795162021922
 20
11.9216697102736
 42
-0.2208810136132929
  0
HATCH
  5
1B1
330
2
100
AcDbEntity
  8
0
100
AcDbHatch
 10
0.0
 20
0.0
 30
0.0
210
0.0
220
0.0
230
1.0
  2
ANSI37
 70
     0
 71
     0
 91
        2
 92
        7
 72
     1
 73
     1
 93
       36
 10
31.94554481656096
 20
13.23082727518481
 42
-0.7725978076386412
 10
31.96022513715062
 20
13.25587010960207
 42
0.3431487919940097
 10
31.97160120376978
 20
13.26049426473504
 42
0.0
 10
31.98093613914247
 20
13.276662847086
 42
0.1316524975864955
 10
31.98200793591215
 20
13.28066284708602
 42
0.0
 10
31.98200793591215
 20
13.29951925354656
 42
0.41421356237316
 10
31.97400793591217
 20
13.30751925354656
 42
0.0
 10
31.78500793591221
 20
13.30751925354656
 42
0.4142135623726397
 10
31.77700793591223
 20
13.29951925354656
 42
0.0
 10
31.77700793591223
 20
13.28066284708602
 42
0.1316524975867212
 10
31.77807973268196
 20
13.276662847086
 42
0.0
 10
31.7874146680546
 20
13.26049426473507
 42
0.3431487919941409
 10
31.79879073467376
 20
13.25587010960208
 42
-0.7725978076395159
 10
31.81347105526348
 20
13.23082727518482
 42
0.0
 10
31.72313938692335
 20
13.14049560684469
 42
-0.6681786379195006
 10
31.7060683191115
 20
13.14756667465656
 42
0.0
 10
31.7060683191115
 20
12.89277274589322
 42
-0.6681786379187491
 10
31.72313938692335
 20
12.89984381370507
 42
0.0
 10
31.81347105526348
 20
12.80951214536495
 42
-0.7725978076399433
 10
31.7987907346737
 20
12.78446931094764
 42
0.3431487919937516
 10
31.7874146680546
 20
12.77984515581465
 42
0.0
 10
31.77807973268196
 20
12.76367657346377
 42
0.1316524975867211
 10
31.77700793591223
 20
12.75967657346376
 42
0.0
 10
31.77700793591223
 20
12.74082016700322
 42
0.4142135623726397
 10
31.78500793591221
 20
12.73282016700322
 42
0.0
 10
31.97400793591217
 20
12.73282016700322
 42
0.41421356237316
 10
31.98200793591215
 20
12.74082016700322
 42
0.0
 10
31.98200793591215
 20
12.75967657346376
 42
0.1316524975867211
 10
31.98093613914247
 20
12.76367657346377
 42
0.0
 10
31.97160120376973
 20
12.77984515581475
 42
0.3431487919937087
 10
31.96022513715067
 20
12.78446931094773
 42
-0.7725978076392078
 10
31.94554481656096
 20
12.80951214536496
 42
0.0
 10
32.03587648490108
 20
12.89984381370509
 42
-0.6681786379192629
 10
32.05294755271294
 20
12.89277274589322
 42
0.0
 10
32.05294755271294
 20
13.14756667465656
 42
-0.6681786379200723
 10
32.03587648490108
 20
13.14049560684469
 42
0.0
 97
        0
 92
       22
 72
     1
 73
     1
 93
       12
 10
31.93977320568271
 20
13.11341855046279
 42
0.0
 10
31.96343526540224
 20
13.10039726160258
 42
-0.2734560415961339
 10
31.99450793591231
 20
13.04783102140429
 42
0.0
 10
31.99450793591225
 20
12.99265885634526
 42
-0.2734560434246571
 10
31.96343526504441
 20
12.94009261595013
 42
0.0
 10
31.93977320369916
 20
12.9270713264051
 42
-0.2569805071132116
 10
31.8192426641576
 20
12.92707132722554
 42
0.0
 10
31.79558060606453
 20
12.94009261540059
 42
-0.2734560397667185
 10
31.76450793591235
 20
12.9926588554019
 42
0.0
 10
31.76450793591229
 20
13.04783102140455
 42
-0.2734560415951692
 10
31.79558060642219
 20
13.10039726160274
 42
0.0
 10
31.81924266614092
 20
13.11341855046261
 42
-0.2569805071136812
 97
        0
 75
     0
 76
     1
 52
0.0
 41
0.5
 77
     0
 78
     2
 53
45.0
 43
-51.65232891842967
 44
-48.29937793246488
 45
-0.0441941738241592
 46
0.0441941738241592
 79
     0
 53
135.0
 43
-51.65232891842967
 44
-48.29937793246488
 45
-0.0441941738241592
 46
-0.0441941738241592
 79
     0
 47
0.0091032376506059
 98
        2
 10
31.86113542784196
 20
13.19873364099612
 10
31.86113542784196
 20
13.19873364099612
  0
LWPOLYLINE
  5
1B2
330
2
100
AcDbEntity
  8
0
100
AcDbPolyline
 90
       12
 70
     1
 43
0.0
 10
31.79558060642219
 20
13.10039726160272
 42
0.2734560415951634
 10
31.76450793591229
 20
13.04783102140453
 10
31.76450793591235
 20
12.9926588554019
 42
0.2734560397667185
 10
31.79558060606453
 20
12.94009261540059
 10
31.81924266490304
 20
12.92707132681532
 42
0.2569805071132461
 10
31.93977320444461
 20
12.92707132681532
 10
31.96343526504441
 20
12.94009261595013
 42
0.2734560434246889
 10
31.99450793591225
 20
12.99265885634526
 10
31.99450793591231
 20
13.04783102140431
 42
0.2734560415960701
 10
31.96343526540224
 20
13.10039726160258
 10
31.93977320568277
 20
13.11341855046275
 42
0.2569805071137504
 10
31.81924266614098
 20
13.11341855046264
  0
LINE
  5
1B3
330
2
100
AcDbEntity
  8
0
100
AcDbLine
 10
31.7060683191115
 20
13.14756667465656
 30
0.0
 11
31.7060683191115
 21
12.89277274589322
 31
0.0
  0
LINE
  5
1B4
330
2
100
AcDbEntity
  8
0
100
AcDbLine
 10
32.05294755271294
 20
13.14756667465656
 30
0.0
 11
32.05294755271294
 21
12.89277274589322
 31
0.0
  0
CIRCLE
  5
1B5
330
2
100
AcDbEntity
  8
R-SWTS-DET2
100
AcDbCircle
 10
33.0133597902541
 20
12.57006164017635
 30
0.0
 40
0.0503284406763105
  0
LWPOLYLINE
  5
1B6
330
2
100
AcDbEntity
  8
R-SWTS-DET2
100
AcDbPolyline
 90
        4
 70
     1
 43
0.0
 10
32.88989468708005
 20
12.63245357007896
 42
0.9999999999999998
 10
32.88989468708005
 20
12.50766971027373
 10
33.13682489342816
 20
12.50766971027373
 42
0.9999999999999998
 10
33.13682489342816
 20
12.63245357007896
  0
LINE
  5
1B7
330
2
100
AcDbEntity
  8
R-SWTS-DET2
100
AcDbLine
 10
33.19232720440189
 20
13.92858303110982
 30
0.0
 11
35.19285979025412
 21
13.92858303110982
 31
0.0
  0
LWPOLYLINE
  5
1B8
330
2
100
AcDbEntity
  8
R-SWTS-DET3
100
AcDbPolyline
 90
        4
 70
     0
 43
0.0
 10
35.19287543522833
 20
13.38245357007896
 10
32.63085979025411
 20
13.38245357007896
 10
32.63085979025411
 20
13.63245357007896
 10
35.19287543522833
 20
13.63245357007896
  0
LWPOLYLINE
  5
1B9
330
2
100
AcDbEntity
  8
R-SWTS-DET3
100
AcDbPolyline
 90
        4
 70
     0
 43
0.0
 10
35.19287543522833
 20
12.63245357007896
 10
32.63085979025411
 20
12.63245357007896
 10
32.63085979025411
 20
12.88245357007896
 10
35.19287543522833
 20
12.88245357007896
  0
LEADER
  5
1BA
330
2
100
AcDbEntity
  8
PART_NUMBERS
100
AcDbLeader
  3
Open-end
 76
     3
 10
33.19921682333077
 20
12.57006164017635
 30
0.0
 10
35.69338069515576
 20
13.43068664105651
 30
0.0
 10
35.94338069515575
 20
13.43068664105651
 30
0.0
1001
ACAD
1000
DSTYLE
1002
{
1070
   147
1040
0.0625
1070
    77
1070
     0
1002
}
  0
LWPOLYLINE
  5
1BB
330
2
100
AcDbEntity
  8
R-SWTS-DET3
100
AcDbPolyline
 90
        4
 70
     1
 43
0.0
 10
32.63085979025411
 20
12.88245357007896
 10
32.88085979025411
 20
12.88245357007896
 10
32.88085979025411
 20
13.38245357007896
 10
32.63085979025411
 20
13.38245357007896
  0
LWPOLYLINE
  5
1BC
330
2
100
AcDbEntity
  8
R-SWTS-DET2
100
AcDbPolyline
 90
       12
 70
     1
 43
0.0
 10
33.19232720440189
 20
13.80356917457928
 10
33.19232720440189
 20
13.92858303110984
 10
33.19470901059933
 20
13.92858303110984
 42
-0.3639702342662026
 10
33.21804895434573
 20
13.90899849292054
 10
33.32902673309357
 20
13.63273950392582
 10
33.22445680844058
 20
13.63273950392582
 42
0.3145636000813645
 10
32.88117847563123
 20
13.68661225582943
 10
32.85466624682985
 20
13.69064774735024
 10
32.85466624682985
 20
13.71711695450197
 42
-0.2645518979873512
 10
33.08909757619043
 20
13.84220312322951
 10
33.09242676882323
 20
13.82332233357729
 42
0.315298788878984
 10
33.09502247946429
 20
13.82072662293618
  0
LEADER
  5
1BD
330
2
100
AcDbEntity
  8
PART_NUMBERS
100
AcDbLeader
  3
Open-end
 76
     3
 10
30.005855414933
 20
17.44040341734972
 30
0.0
 10
35.69338069515576
 20
18.27868664105651
 30
0.0
 10
35.94338069515575
 20
18.27868664105651
 30
0.0
1001
ACAD
1000
DSTYLE
1002
{
1070
   147
1040
0.0625
1070
    77
1070
     0
1002
}
  0
LINE
  5
1BE
330
2
100
AcDbEntity
  8
R-SWTS-DET1
100
AcDbLine
 10
31.69185979025488
 20
16.37766971027563
 30
0.0
 11
35.19285979025412
 21
16.37766971027563
 31
0.0
  0
LEADER
  5
1BF
330
2
100
AcDbEntity
  8
PART_NUMBERS
100
AcDbLeader
  3
Open-end
 76
     3
 10
32.31685979025665
 20
15.32082921765463
 30
0.0
 10
35.69338069515576
 20
17.47068664105651
 30
0.0
 10
35.94338069515575
 20
17.47068664105651
 30
0.0
1001
ACAD
1000
DSTYLE
1002
{
1070
   147
1040
0.0625
1070
    77
1070
     0
1002
}
  0
LWPOLYLINE
  5
1C0
330
2
100
AcDbEntity
  8
R-SWTS-DET2
100
AcDbPolyline
 90
        6
 70
     1
 43
0.0
 10
31.06685979025488
 20
16.37766971027563
 10
31.06685979025488
 20
16.25266971027563
 10
31.56685979025488
 20
16.25266971027563
 10
31.56685979025488
 20
15.75266971027562
 10
31.69185979025488
 20
15.75266971027562
 10
31.69185979025488
 20
16.37766971027562
  0
LWPOLYLINE
  5
1C1
330
2
100
AcDbEntity
  8
R-SWTS-DET1
100
AcDbPolyline
 90
       41
 70
     1
 43
0.0
 10
29.18379234897557
 20
17.62513712442263
 42
-0.4142135623730431
 10
29.19879234897556
 20
17.64013712442263
 10
29.2307923489756
 20
17.64013712442263
 42
0.4142135623730951
 10
29.24579234897559
 20
17.65513712442263
 10
29.24579234897559
 20
17.76524516485929
 42
-0.4184033046059118
 10
29.30867789312996
 20
17.82723884043633
 10
29.88591905482187
 20
17.81899328100373
 42
-0.4139326425428041
 10
29.9450567506253
 20
17.75819997064649
 10
29.93611921007155
 20
17.08746667582655
 42
-0.4077932646411109
 10
29.92125022510234
 20
17.07266709412271
 42
0.413875507397508
 10
29.85185737913364
 20
17.0021453208987
 42
-0.4122343511257975
 10
29.83707159562775
 20
16.98703447544215
 10
29.31898264800728
 20
16.97964938298055
 42
0.3394542588633734
 10
29.30465369361267
 20
16.96832628730572
 10
29.29606102730091
 20
16.93432681609099
 10
29.18858019175784
 20
16.93279473185723
 10
29.18850892655988
 20
16.93779422395859
 42
0.9999999999999847
 10
29.15851197395168
 20
16.93736663277064
 10
29.15859941125658
 20
16.93123261325609
 42
0.3727193515204652
 10
29.18472328431946
 20
16.90191126740696
 10
29.20476250536953
 20
16.89930231714243
 10
29.29046498968356
 20
16.88814452220803
 42
0.3800361709519329
 10
29.34539595555427
 20
16.92547481517234
 10
29.34654901649608
 20
16.93003724793501
 10
29.91488934765974
 20
16.93813864811847
 42
0.4577045202689281
 10
29.92948293901762
 20
16.9555332236816
 10
29.92185541493299
 20
17.00266971027683
 10
30.005855414933
 20
17.00266971027683
 10
30.005855414933
 20
17.87813712442263
 10
29.18572352831726
 20
17.87813712442263
 42
0.267949192431115
 10
29.17273314726046
 20
17.87063712442262
 10
29.13578273003233
 20
17.80663712442263
 42
0.577350269189628
 10
29.14877311108913
 20
17.78413712442263
 10
29.19579234897557
 20
17.78413712442263
 10
29.19579234897557
 20
17.69013712442262
 10
29.16379234897559
 20
17.69013712442262
 42
0.4142135623730948
 10
29.13379234897556
 20
17.66013712442262
 10
29.13379234897556
 20
17.60613712442262
 42
0.4142135623731297
 10
29.14879234897555
 20
17.59113712442262
 10
29.16879234897559
 20
17.59113712442262
 42
0.4142135623730431
 10
29.18379234897557
 20
17.60613712442262
  0
LWPOLYLINE
  5
1C2
330
2
100
AcDbEntity
  8
R-SWTS-DET2
  6
HIDDEN2
100
AcDbPolyline
 90
       18
 70
     1
 43
0.0
 10
28.99118424093521
 20
17.01766971027665
 10
29.24618424093521
 20
17.01766971027665
 42
-0.4142135623730951
 10
29.2511842409352
 20
17.01266971027665
 10
29.2511842409352
 20
16.95766971027664
 42
0.9999999999999287
 10
29.27618424093524
 20
16.95766971027664
 10
29.27618424093524
 20
17.03016971027664
 42
0.4142135623730951
 10
29.26368424093525
 20
17.04266971027665
 10
29.09135188069937
 20
17.04266971027665
 42
-0.3706321426687706
 10
29.07899421608571
 20
17.05328871976699
 10
28.97205252881881
 20
17.75587041684221
 42
0.9950963693897204
 10
28.95426383259715
 20
17.75312187946517
 10
29.05236459117211
 20
17.05691382139229
 42
-0.4558347385663113
 10
29.03998686616237
 20
17.04266971027665
 10
28.97368424093523
 20
17.04266971027665
 42
0.4142135623730951
 10
28.96118424093524
 20
17.03016971027664
 10
28.96118424093524
 20
16.95766971027664
 42
1.0
 10
28.98618424093522
 20
16.95766971027664
 10
28.98618424093522
 20
17.01266971027665
 42
-0.4142135623730951
  0
LWPOLYLINE
  5
1C3
330
2
100
AcDbEntity
  8
R-SWTS-DET2
100
AcDbPolyline
 90
       12
 70
     1
 43
0.0
 10
29.11775925455854
 20
17.87813712442263
 10
29.24277311108912
 20
17.87813712442263
 10
29.24277311108912
 20
17.88051893062006
 42
0.3639702342662026
 10
29.22318857289983
 20
17.90385887436645
 10
28.94692958390507
 20
18.01483665311433
 10
28.94692958390507
 20
17.91026672846131
 42
-0.3145636000813645
 10
29.00080233580869
 20
17.56698839565198
 10
29.00483782732951
 20
17.54047616685059
 10
29.03130703448122
 20
17.54047616685059
 42
0.2645518979873512
 10
29.15639320320875
 20
17.77490749621119
 10
29.13751241355655
 20
17.77823668884397
 42
-0.315298788878984
 10
29.13491670291544
 20
17.78083239948507
  0
LINE
  5
1C4
330
2
100
AcDbEntity
  8
R-SWTS-DET1
100
AcDbLine
 10
33.19232720440189
 20
14.69166533495371
 30
0.0
 11
35.19285979025395
 21
14.69166533495371
 31
0.0
  0
LWPOLYLINE
  5
1C5
330
2
100
AcDbEntity
  8
R-SWTS-DET1
100
AcDbPolyline
 90
        6
 70
     0
 43
0.0
 10
25.4418597902529
 20
19.87865406530064
 10
28.58501566451682
 20
19.87865406530064
 10
28.63808424625333
 20
20.09086925828281
 10
28.7456353342545
 20
19.66645451729263
 10
28.79870391599096
 20
19.87866971027485
 10
31.94185979025488
 20
19.87866971027485
  0
MTEXT
  5
678
102
{ACAD_XDICTIONARY
360
679
102
}
330
2
100
AcDbEntity
  8
TEXT
100
AcDbMText
 10
1.000000084398437
 20
2.0
 30
0.0
 40
0.375
 41
15.4571868900598
 71
     1
 72
     5
  1
ENGINEERING CHANGE:  97910-095 (MARCH 2017)\PFILE NAME:  KCDE101B SHEET 02 OF 02.DWG
 73
     1
 44
1.0
1001
ACAD
1000
ACAD_MTEXT_COLUMN_INFO_BEGIN
1070
    75
1070
     2
1070
    79
1070
     0
1070
    76
1070
     1
1070
    78
1070
     0
1070
    48
1040
15.4571868900598
1070
    49
1040
1.25
1070
    50
1070
     1
1040
0.0
1000
ACAD_MTEXT_COLUMN_INFO_END
1000
MTEXTBEGIN
1070
    73
1070
     1
1070
    44
1040
1.0
1070
    74
1070
     0
1000
MTEXTEND
  0
MTEXT
  5
707
330
2
100
AcDbEntity
  8
0
 62
     2
100
AcDbMText
 10
25.49108846932002
 20
4.676049552037916
 30
0.0
 40
0.5
 41
13.27471961289257
 71
     2
 72
     5
  1
518 THERMAL WINDOWS \PCORNER DETAILS \P6" DEEP (1" INFILL)
  7
ROMAND
 73
     1
 44
1.0
1001
ACAD
1000
MTEXTBEGIN
1070
    73
1070
     1
1070
    44
1040
1.0
1070
    74
1070
     0
1000
MTEXTEND
  0
INSERT
  5
B6D
330
2
100
AcDbEntity
  8
0
100
AcDbBlockReference
  2
Kawneer Logo English
 10
1.0
 20
2.5
 30
0.0
 41
5.337
 42
5.337
 43
5.337
  0
ENDSEC
  0
SECTION
  2
OBJECTS
  0
DICTIONARY
  5
9
330
0
100
AcDbDictionary
281
     1
  3
ACAD_CIP_PREVIOUS_PRODUCT_INFO
350
652
  3
ACAD_COLOR
350
2AE
  3
ACAD_FIELDLIST
350
676
  3
ACAD_GROUP
350
49
  3
ACAD_LAYOUT
350
D
  3
ACAD_MATERIAL
350
2AD
  3
ACAD_MLEADERSTYLE
350
5CD
  3
ACAD_MLINESTYLE
350
4A
  3
ACAD_PLOTSETTINGS
350
4B
  3
ACAD_PLOTSTYLENAME
350
8
  3
ACAD_SCALELIST
350
5BB
  3
ACAD_TABLESTYLE
350
57C
  3
ACAD_VISUALSTYLE
350
5A2
  3
ACDB_RECOMPOSE_DATA
350
BCA
  3
AcDbVariableDictionary
350
578
  3
DWGPROPS
350
BCB
  0
DICTIONARY
  5
612
330
3C
100
AcDbDictionary
280
     1
281
     1
  0
DICTIONARY
  5
15
330
14
100
AcDbDictionary
280
     1
281
     1
  3
ACAD_LAYERFILTERS
360
16
  3
ACAD_LAYERSTATES
360
5EE
  0
DICTIONARY
  5
5FD
330
6
100
AcDbDictionary
280
     1
281
     1
  3
ADSK_XREC_LAYER_RECONCILED
360
5FE
  0
DICTIONARY
  5
5FF
330
303
100
AcDbDictionary
280
     1
281
     1
  3
ADSK_XREC_LAYER_RECONCILED
360
600
  0
DICTIONARY
  5
601
330
304
100
AcDbDictionary
280
     1
281
     1
  3
ADSK_XREC_LAYER_RECONCILED
360
602
  0
DICTIONARY
  5
603
330
305
100
AcDbDictionary
280
     1
281
     1
  3
ADSK_XREC_LAYER_RECONCILED
360
604
  0
DICTIONARY
  5
605
330
306
100
AcDbDictionary
280
     1
281
     1
  3
ADSK_XREC_LAYER_RECONCILED
360
606
  0
DICTIONARY
  5
607
330
307
100
AcDbDictionary
280
     1
281
     1
  3
ADSK_XREC_LAYER_RECONCILED
360
608
  0
DICTIONARY
  5
667
330
666
100
AcDbDictionary
280
     1
281
     1
  0
DICTIONARY
  5
3
330
2
100
AcDbDictionary
280
     1
281
     1
  3
ACAD_LAYOUTSELFREF
360
4
  0
DICTIONARY
  5
F
330
E
100
AcDbDictionary
280
     1
281
     1
  3
ACAD_LAYOUTSELFREF
360
10
  0
DICTIONARY
  5
B69
330
B5F
100
AcDbDictionary
280
     1
281
     1
  3
ACAD_SORTENTS
360
B6A
  0
DICTIONARY
  5
BC8
330
B60
100
AcDbDictionary
280
     1
281
     1
  3
ACAD_MTEXT_2008_RT
360
BC9
  0
DICTIONARY
  5
679
330
678
100
AcDbDictionary
280
     1
281
     1
  0
XRECORD
  5
652
102
{ACAD_REACTORS
330
9
102
}
330
9
100
AcDbXrecord
280
     1
300
ACD
300
2012
300
85730ACD_2012_0F
  0
DICTIONARY
  5
2AE
102
{ACAD_REACTORS
330
9
102
}
330
9
100
AcDbDictionary
281
     1
  0
FIELDLIST
  5
676
102
{ACAD_REACTORS
330
9
102
}
330
9
100
AcDbIdSet
 90
        0
100
AcDbFieldList
  0
DICTIONARY
  5
49
102
{ACAD_REACTORS
330
9
102
}
330
9
100
AcDbDictionary
281
     1
  0
DICTIONARY
  5
D
102
{ACAD_REACTORS
330
9
102
}
330
9
100
AcDbDictionary
281
     1
  3
Layout1
350
13
  3
Model
350
C
  0
DICTIONARY
  5
2AD
102
{ACAD_REACTORS
330
9
102
}
330
9
100
AcDbDictionary
281
     1
  3
ByBlock
350
592
  3
ByLayer
350
58A
  3
Global
350
59A
  0
DICTIONARY
  5
5CD
102
{ACAD_REACTORS
330
9
102
}
330
9
100
AcDbDictionary
281
     1
  3
Standard
350
5CE
  0
DICTIONARY
  5
4A
102
{ACAD_REACTORS
330
9
102
}
330
9
100
AcDbDictionary
281
     1
  3
STANDARD
350
4C
  0
DICTIONARY
  5
4B
102
{ACAD_REACTORS
330
9
102
}
330
9
100
AcDbDictionary
281
     1
  0
ACDBDICTIONARYWDFLT
  5
8
102
{ACAD_REACTORS
330
9
102
}
330
9
100
AcDbDictionary
281
     1
  3
Normal
350
7
100
AcDbDictionaryWithDefault
340
7
  0
DICTIONARY
  5
5BB
102
{ACAD_REACTORS
330
9
102
}
330
9
100
AcDbDictionary
281
     1
  3
A0
350
5BC
  3
A1
350
B3D
  3
A2
350
B3E
  3
A3
350
B3F
  3
A4
350
B40
  3
A5
350
B41
  3
A6
350
B42
  3
A7
350
B43
  3
A8
350
B44
  3
A9
350
B45
  3
B0
350
B46
  3
B1
350
B47
  3
B2
350
B48
  3
B3
350
B49
  3
B4
350
B4A
  3
B5
350
B4B
  3
B6
350
B4C
  0
DICTIONARY
  5
57C
102
{ACAD_REACTORS
330
9
102
}
330
9
100
AcDbDictionary
281
     1
  3
Standard
350
57D
  0
DICTIONARY
  5
5A2
102
{ACAD_REACTORS
330
9
102
}
330
9
100
AcDbDictionary
281
     1
  3
2dWireframe
350
5A8
  3
3D Hidden
350
B5D
  3
3dWireframe
350
B5E
  3
Basic
350
5A7
  3
Brighten
350
5AE
  3
ColorChange
350
5B2
  3
Conceptual
350
5AB
  3
Dim
350
5AD
  3
EdgeColorOff
350
5BA
  3
Facepattern
350
5B1
  3
Flat
350
5A3
  3
FlatWithEdges
350
5A4
  3
Gouraud
350
5A5
  3
GouraudWithEdges
350
5A6
  3
Hidden
350
5AA
  3
JitterOff
350
5B8
  3
Linepattern
350
5B0
  3
OverhangOff
350
5B9
  3
Realistic
350
5AC
  3
Shaded
350
5B7
  3
Shaded with edges
350
5B6
  3
Shades of Gray
350
5B3
  3
Sketchy
350
5B4
  3
Thicken
350
5AF
  3
Wireframe
350
5A9
  3
X-Ray
350
5B5
  0
XRECORD
  5
BCA
102
{ACAD_REACTORS
330
9
102
}
330
9
100
AcDbXrecord
280
     1
 90
        1
330
57D
330
678
330
B60
  0
DICTIONARY
  5
578
102
{ACAD_REACTORS
330
9
102
}
330
9
100
AcDbDictionary
281
     1
  3
CANNOSCALE
350
64A
  3
CMLEADERSTYLE
350
649
  3
CTABLESTYLE
350
582
  3
DIMASSOC
350
579
  3
INDEXCTL
350
64C
  3
LAYEREVAL
350
BBA
  3
LAYERNOTIFY
350
BBB
  3
LIGHTINGUNITS
350
BB9
  3
MSLTSCALE
350
BB8
  3
PROJECTNAME
350
57A
  3
SORTENTS
350
64B
  3
XCLIPFRAME
350
BC6
  0
XRECORD
  5
BCB
102
{ACAD_REACTORS
330
9
102
}
330
9
100
AcDbXrecord
280
     1
  1
DWGPROPS COOKIE
  2

  3

  4

  6

  7

  8
quadiss
  9

300
=
301
=
302
=
303
=
304
=
305
=
306
=
307
=
308
=
309
=
 40
3.255106331018518
 41
2450525.426291088
 42
2457809.478897743
  1

 90
        0
  0
DICTIONARY
  5
16
102
{ACAD_REACTORS
330
15
102
}
330
15
100
AcDbDictionary
280
     1
281
     1
  0
DICTIONARY
  5
5EE
102
{ACAD_REACTORS
330
15
102
}
330
15
100
AcDbDictionary
281
     1
  0
XRECORD
  5
5FE
102
{ACAD_REACTORS
330
5FD
102
}
330
5FD
100
AcDbXrecord
280
     1
290
     1
  0
XRECORD
  5
600
102
{ACAD_REACTORS
330
5FF
102
}
330
5FF
100
AcDbXrecord
280
     1
290
     1
  0
XRECORD
  5
602
102
{ACAD_REACTORS
330
601
102
}
330
601
100
AcDbXrecord
280
     1
290
     1
  0
XRECORD
  5
604
102
{ACAD_REACTORS
330
603
102
}
330
603
100
AcDbXrecord
280
     1
290
     1
  0
XRECORD
  5
606
102
{ACAD_REACTORS
330
605
102
}
330
605
100
AcDbXrecord
280
     1
290
     1
  0
XRECORD
  5
608
102
{ACAD_REACTORS
330
607
102
}
330
607
100
AcDbXrecord
280
     1
290
     1
  0
XRECORD
  5
4
102
{ACAD_REACTORS
330
3
102
}
330
3
100
AcDbXrecord
280
     1
340
2
  0
XRECORD
  5
10
102
{ACAD_REACTORS
330
F
102
}
330
F
100
AcDbXrecord
280
     1
340
E
  0
SORTENTSTABLE
  5
B6A
102
{ACAD_REACTORS
330
B69
102
}
330
B69
100
AcDbSortentsTable
330
B5F
  0
XRECORD
  5
BC9
102
{ACAD_REACTORS
330
BC8
102
}
330
BC8
100
AcDbXrecord
280
     1
 40
102645.0
  1
\pxqr;{\fArial TUR|b0|i0|c0|p34;\T1.05;AN ARCONIC COMPANY}
  0
LAYOUT
  5
13
102
{ACAD_XDICTIONARY
360
BCE
102
}
102
{ACAD_REACTORS
330
D
102
}
330
D
100
AcDbPlotSettings
  1

  2
\\KAWNEER\xerox.Scarborough.Kawneer
  4

  6

 40
0.0
 41
0.0
 42
0.0
 43
0.0
 44
0.0
 45
0.0
 46
0.0
 47
0.0
 48
0.0
 49
0.0
140
0.0
141
0.0
142
1.0
143
1.0
 70
   688
 72
     0
 73
     0
 74
     5
  7
hp5000n.ctb
 75
    16
147
1.0
148
0.0
149
0.0
100
AcDbLayout
  1
Layout1
 70
     0
 71
     1
 10
0.0
 20
0.0
 11
12.0
 21
9.0
 12
0.0
 22
0.0
 32
0.0
 14
1.000000000000000E+20
 24
1.000000000000000E+20
 34
1.000000000000000E+20
 15
-1.000000000000000E+20
 25
-1.000000000000000E+20
 35
-1.000000000000000E+20
146
0.0
 13
0.0
 23
0.0
 33
0.0
 16
1.0
 26
0.0
 36
0.0
 17
0.0
 27
1.0
 37
0.0
 76
     0
330
E
  0
LAYOUT
  5
C
102
{ACAD_XDICTIONARY
360
BCC
102
}
102
{ACAD_REACTORS
330
D
102
}
330
D
100
AcDbPlotSettings
  1

  2
Drafting 11x17.pc3
  4
ANSI_B_(11.00_x_17.00_Inches)
  6

 40
5.027082920074462
 41
5.027082920074462
 42
9.26043701171875
 43
5.027069091796875
 44
279.3999938964844
 45
431.7999877929687
 46
27.686
 47
0.0
 48
0.0000000000000142
 49
0.0
140
43.29487984337851
141
21.50950917048501
142
1.0
143
2.607592678233916
 70
 28340
 72
     0
 73
     1
 74
     1
  7
hp5000n.ctb
 75
     0
147
0.3834954777819383
148
0.0203307606361477
149
0.0103439878841954
100
AcDbLayout
  1
Model
 70
     1
 71
     0
 10
0.0
 20
0.0
 11
12.0
 21
9.0
 12
0.0
 22
0.0
 32
0.0
 14
0.0
 24
0.0
 34
0.0
 15
0.0
 25
0.0
 35
0.0
146
0.0
 13
0.0
 23
0.0
 33
0.0
 16
1.0
 26
0.0
 36
0.0
 17
0.0
 27
1.0
 37
0.0
 76
     0
330
2
331
588
  0
MATERIAL
  5
592
102
{ACAD_XDICTIONARY
360
593
102
}
102
{ACAD_REACTORS
330
2AD
102
}
330
2AD
100
AcDbMaterial
  1
ByBlock
 72
     0
 43
0.0208333333333333
 43
0.0
 43
0.0
 43
0.0
 43
0.0
 43
0.0208333333333333
 43
0.0
 43
0.0
 43
0.0
 43
0.0
 43
1.0
 43
0.0
 43
0.0
 43
0.0
 43
0.0
 43
1.0
 77
     0
 47
0.0208333333333333
 47
0.0
 47
0.0
 47
0.0
 47
0.0
 47
0.0208333333333333
 47
0.0
 47
0.0
 47
0.0
 47
0.0
 47
1.0
 47
0.0
 47
0.0
 47
0.0
 47
0.0
 47
1.0
171
     0
 49
0.0208333333333333
 49
0.0
 49
0.0
 49
0.0
 49
0.0
 49
0.0208333333333333
 49
0.0
 49
0.0
 49
0.0
 49
0.0
 49
1.0
 49
0.0
 49
0.0
 49
0.0
 49
0.0
 49
1.0
175
     0
142
0.0208333333333333
142
0.0
142
0.0
142
0.0
142
0.0
142
0.0208333333333333
142
0.0
142
0.0
142
0.0
142
0.0
142
1.0
142
0.0
142
0.0
142
0.0
142
0.0
142
1.0
179
     0
144
0.0208333333333333
144
0.0
144
0.0
144
0.0
144
0.0
144
0.0208333333333333
144
0.0
144
0.0
144
0.0
144
0.0
144
1.0
144
0.0
144
0.0
144
0.0
144
0.0
144
1.0
147
0.0208333333333333
147
0.0
147
0.0
147
0.0
147
0.0
147
0.0208333333333333
147
0.0
147
0.0
147
0.0
147
0.0
147
1.0
147
0.0
147
0.0
147
0.0
147
0.0
147
1.0
  0
MATERIAL
  5
58A
102
{ACAD_XDICTIONARY
360
58B
102
}
102
{ACAD_REACTORS
330
2AD
102
}
330
2AD
100
AcDbMaterial
  1
ByLayer
 72
     0
 43
0.0208333333333333
 43
0.0
 43
0.0
 43
0.0
 43
0.0
 43
0.0208333333333333
 43
0.0
 43
0.0
 43
0.0
 43
0.0
 43
1.0
 43
0.0
 43
0.0
 43
0.0
 43
0.0
 43
1.0
 77
     0
 47
0.0208333333333333
 47
0.0
 47
0.0
 47
0.0
 47
0.0
 47
0.0208333333333333
 47
0.0
 47
0.0
 47
0.0
 47
0.0
 47
1.0
 47
0.0
 47
0.0
 47
0.0
 47
0.0
 47
1.0
171
     0
 49
0.0208333333333333
 49
0.0
 49
0.0
 49
0.0
 49
0.0
 49
0.0208333333333333
 49
0.0
 49
0.0
 49
0.0
 49
0.0
 49
1.0
 49
0.0
 49
0.0
 49
0.0
 49
0.0
 49
1.0
175
     0
142
0.0208333333333333
142
0.0
142
0.0
142
0.0
142
0.0
142
0.0208333333333333
142
0.0
142
0.0
142
0.0
142
0.0
142
1.0
142
0.0
142
0.0
142
0.0
142
0.0
142
1.0
179
     0
144
0.0208333333333333
144
0.0
144
0.0
144
0.0
144
0.0
144
0.0208333333333333
144
0.0
144
0.0
144
0.0
144
0.0
144
1.0
144
0.0
144
0.0
144
0.0
144
0.0
144
1.0
147
0.0208333333333333
147
0.0
147
0.0
147
0.0
147
0.0
147
0.0208333333333333
147
0.0
147
0.0
147
0.0
147
0.0
147
1.0
147
0.0
147
0.0
147
0.0
147
0.0
147
1.0
  0
MATERIAL
  5
59A
102
{ACAD_XDICTIONARY
360
59B
102
}
102
{ACAD_REACTORS
330
2AD
102
}
330
2AD
100
AcDbMaterial
  1
Global
 72
     0
 43
0.0208333333333333
 43
0.0
 43
0.0
 43
0.0
 43
0.0
 43
0.0208333333333333
 43
0.0
 43
0.0
 43
0.0
 43
0.0
 43
1.0
 43
0.0
 43
0.0
 43
0.0
 43
0.0
 43
1.0
 77
     0
 47
0.0208333333333333
 47
0.0
 47
0.0
 47
0.0
 47
0.0
 47
0.0208333333333333
 47
0.0
 47
0.0
 47
0.0
 47
0.0
 47
1.0
 47
0.0
 47
0.0
 47
0.0
 47
0.0
 47
1.0
171
     0
 49
0.0208333333333333
 49
0.0
 49
0.0
 49
0.0
 49
0.0
 49
0.0208333333333333
 49
0.0
 49
0.0
 49
0.0
 49
0.0
 49
1.0
 49
0.0
 49
0.0
 49
0.0
 49
0.0
 49
1.0
175
     0
142
0.0208333333333333
142
0.0
142
0.0
142
0.0
142
0.0
142
0.0208333333333333
142
0.0
142
0.0
142
0.0
142
0.0
142
1.0
142
0.0
142
0.0
142
0.0
142
0.0
142
1.0
179
     0
144
0.0208333333333333
144
0.0
144
0.0
144
0.0
144
0.0
144
0.0208333333333333
144
0.0
144
0.0
144
0.0
144
0.0
144
1.0
144
0.0
144
0.0
144
0.0
144
0.0
144
1.0
147
0.0208333333333333
147
0.0
147
0.0
147
0.0
147
0.0
147
0.0208333333333333
147
0.0
147
0.0
147
0.0
147
0.0
147
1.0
147
0.0
147
0.0
147
0.0
147
0.0
147
1.0
  0
MLEADERSTYLE
  5
5CE
102
{ACAD_REACTORS
330
5CD
102
}
330
5CD
100
AcDbMLeaderStyle
170
     2
171
     1
172
     0
 90
        2
 40
0.0
 41
0.0
173
     1
 91
-1056964608
340
38
 92
       -2
290
     1
 42
0.09
291
     1
 43
0.36
  3
Standard
 44
0.18
300

342
35
174
     1
178
     6
175
     1
176
     0
 93
-1056964608
 45
0.18
292
     0
297
     0
 46
0.18
 94
-1056964608
 47
1.0
 49
1.0
140
1.0
293
     1
141
0.0
294
     1
177
     0
142
1.0
295
     0
296
     0
143
0.125
1001
ACAD_MLEADERVER
1070
     2
  0
MLINESTYLE
  5
4C
102
{ACAD_REACTORS
330
4A
102
}
330
4A
100
AcDbMlineStyle
  2
STANDARD
 70
     0
  3

 62
   256
 51
90.0
 52
90.0
 71
     2
 49
0.5
 62
   256
  6
BYLAYER
 49
-0.5
 62
   256
  6
BYLAYER
  0
ACDBPLACEHOLDER
  5
7
102
{ACAD_REACTORS
330
8
102
}
330
8
  0
SCALE
  5
5BC
102
{ACAD_REACTORS
330
5BB
102
}
330
5BB
100
AcDbScale
 70
     0
300
1:1
140
1.0
141
1.0
290
     1
  0
SCALE
  5
B3D
102
{ACAD_REACTORS
330
5BB
102
}
330
5BB
100
AcDbScale
 70
     0
300
1/128" = 1'-0"
140
0.0078125
141
12.0
290
     0
  0
SCALE
  5
B3E
102
{ACAD_REACTORS
330
5BB
102
}
330
5BB
100
AcDbScale
 70
     0
300
1/64" = 1'-0"
140
0.015625
141
12.0
290
     0
  0
SCALE
  5
B3F
102
{ACAD_REACTORS
330
5BB
102
}
330
5BB
100
AcDbScale
 70
     0
300
1/32" = 1'-0"
140
0.03125
141
12.0
290
     0
  0
SCALE
  5
B40
102
{ACAD_REACTORS
330
5BB
102
}
330
5BB
100
AcDbScale
 70
     0
300
1/16" = 1'-0"
140
0.0625
141
12.0
290
     0
  0
SCALE
  5
B41
102
{ACAD_REACTORS
330
5BB
102
}
330
5BB
100
AcDbScale
 70
     0
300
3/32" = 1'-0"
140
0.09375
141
12.0
290
     0
  0
SCALE
  5
B42
102
{ACAD_REACTORS
330
5BB
102
}
330
5BB
100
AcDbScale
 70
     0
300
1/8" = 1'-0"
140
0.125
141
12.0
290
     0
  0
SCALE
  5
B43
102
{ACAD_REACTORS
330
5BB
102
}
330
5BB
100
AcDbScale
 70
     0
300
3/16" = 1'-0"
140
0.1875
141
12.0
290
     0
  0
SCALE
  5
B44
102
{ACAD_REACTORS
330
5BB
102
}
330
5BB
100
AcDbScale
 70
     0
300
1/4" = 1'-0"
140
0.25
141
12.0
290
     0
  0
SCALE
  5
B45
102
{ACAD_REACTORS
330
5BB
102
}
330
5BB
100
AcDbScale
 70
     0
300
3/8" = 1'-0"
140
0.375
141
12.0
290
     0
  0
SCALE
  5
B46
102
{ACAD_REACTORS
330
5BB
102
}
330
5BB
100
AcDbScale
 70
     0
300
1/2" = 1'-0"
140
0.5
141
12.0
290
     0
  0
SCALE
  5
B47
102
{ACAD_REACTORS
330
5BB
102
}
330
5BB
100
AcDbScale
 70
     0
300
3/4" = 1'-0"
140
0.75
141
12.0
290
     0
  0
SCALE
  5
B48
102
{ACAD_REACTORS
330
5BB
102
}
330
5BB
100
AcDbScale
 70
     0
300
1" = 1'-0"
140
1.0
141
12.0
290
     0
  0
SCALE
  5
B49
102
{ACAD_REACTORS
330
5BB
102
}
330
5BB
100
AcDbScale
 70
     0
300
1-1/2" = 1'-0"
140
1.5
141
12.0
290
     0
  0
SCALE
  5
B4A
102
{ACAD_REACTORS
330
5BB
102
}
330
5BB
100
AcDbScale
 70
     0
300
3" = 1'-0"
140
3.0
141
12.0
290
     0
  0
SCALE
  5
B4B
102
{ACAD_REACTORS
330
5BB
102
}
330
5BB
100
AcDbScale
 70
     0
300
6" = 1'-0"
140
6.0
141
12.0
290
     0
  0
SCALE
  5
B4C
102
{ACAD_REACTORS
330
5BB
102
}
330
5BB
100
AcDbScale
 70
     0
300
1'-0" = 1'-0"
140
12.0
141
12.0
290
     0
  0
TABLESTYLE
  5
57D
102
{ACAD_XDICTIONARY
360
60A
102
}
102
{ACAD_REACTORS
330
57C
102
}
330
57C
100
AcDbTableStyle
  3
Standard
 70
     0
 71
     0
 40
0.06
 41
0.06
280
     0
281
     0
  7
STANDARD
140
0.18
170
     2
 62
     0
 63
     7
283
     0
274
    -2
284
     1
 64
     0
275
    -2
285
     1
 65
     0
276
    -2
286
     1
 66
     0
277
    -2
287
     1
 67
     0
278
    -2
288
     1
 68
     0
279
    -2
289
     1
 69
     0
  7
STANDARD
140
0.25
170
     5
 62
     0
 63
     7
283
     0
274
    -2
284
     1
 64
     0
275
    -2
285
     1
 65
     0
276
    -2
286
     1
 66
     0
277
    -2
287
     1
 67
     0
278
    -2
288
     1
 68
     0
279
    -2
289
     1
 69
     0
  7
STANDARD
140
0.18
170
     5
 62
     0
 63
     7
283
     0
274
    -2
284
     1
 64
     0
275
    -2
285
     1
 65
     0
276
    -2
286
     1
 66
     0
277
    -2
287
     1
 67
     0
278
    -2
288
     1
 68
     0
279
    -2
289
     1
 69
     0
  0
VISUALSTYLE
  5
5A8
102
{ACAD_XDICTIONARY
360
BDE
102
}
102
{ACAD_REACTORS
330
5A2
102
}
330
5A2
100
AcDbVisualStyle
  2
2dWireframe
 70
     4
 71
     0
 72
     2
 73
     0
 90
        0
 40
-0.6
 41
-30.0
 62
     5
 63
     7
 74
     1
 91
        4
 64
     7
 65
   257
 75
     1
175
     1
 42
1.0
 92
        0
 66
   257
 43
1.0
 76
     1
 77
     6
 78
     2
 67
     7
 79
     5
170
     0
171
     0
290
     0
174
     0
 93
        1
 44
0.0
173
     0
291
     0
 45
0.0
1001
ACAD
1000
AcDbSavedByObjectVersion
1070
     0
  0
VISUALSTYLE
  5
B5D
102
{ACAD_XDICTIONARY
360
C04
102
}
102
{ACAD_REACTORS
330
5A2
102
}
330
5A2
100
AcDbVisualStyle
  2
3D Hidden
 70
     6
 71
     1
 72
     2
 73
     2
 90
        0
 40
-0.6
 41
-30.0
 62
     5
 63
     7
 74
     2
 91
        2
 64
     7
 65
   257
 75
     2
175
     1
 42
40.0
 92
        0
 66
   257
 43
1.0
 76
     1
 77
     6
 78
     2
 67
     7
 79
     3
170
     0
171
     0
290
     0
174
     0
 93
        1
 44
0.0
173
     0
291
     0
 45
0.0
1001
ACAD
1000
AcDbSavedByObjectVersion
1070
     0
  0
VISUALSTYLE
  5
B5E
102
{ACAD_XDICTIONARY
360
C06
102
}
102
{ACAD_REACTORS
330
5A2
102
}
330
5A2
100
AcDbVisualStyle
  2
3dWireframe
 70
     5
 71
     0
 72
     2
 73
     0
 90
        0
 40
-0.6
 41
-30.0
 62
     5
 63
     7
 74
     1
 91
        4
 64
     7
 65
   257
 75
     1
175
     1
 42
1.0
 92
        0
 66
   257
 43
1.0
 76
     1
 77
     6
 78
     2
 67
     7
 79
     5
170
     0
171
     0
290
     0
174
     0
 93
        1
 44
0.0
173
     0
291
     0
 45
0.0
1001
ACAD
1000
AcDbSavedByObjectVersion
1070
     0
  0
VISUALSTYLE
  5
5A7
102
{ACAD_XDICTIONARY
360
BDC
102
}
102
{ACAD_REACTORS
330
5A2
102
}
330
5A2
100
AcDbVisualStyle
  2
Basic
 70
     7
 71
     1
 72
     0
 73
     1
 90
        0
 40
-0.6
 41
-30.0
 62
     5
 63
     7
 74
     0
 91
        4
 64
     7
 65
   257
 75
     1
175
     1
 42
1.0
 92
        8
 66
     7
 43
1.0
 76
     1
 77
     6
 78
     2
 67
     7
 79
     5
170
     0
171
     0
290
     0
174
     0
 93
        1
 44
0.0
173
     0
291
     1
 45
0.0
1001
ACAD
1000
AcDbSavedByObjectVersion
1070
     0
  0
VISUALSTYLE
  5
5AE
102
{ACAD_XDICTIONARY
360
BEA
102
}
102
{ACAD_REACTORS
330
5A2
102
}
330
5A2
100
AcDbVisualStyle
  2
Brighten
 70
    12
 71
     2
 72
     2
 73
     0
 90
        0
 40
-0.6
 41
-30.0
 62
     5
 63
     7
 74
     1
 91
        4
 64
     7
 65
   257
 75
     1
175
     1
 42
1.0
 92
        8
 66
     7
 43
1.0
 76
     1
 77
     6
 78
     2
 67
     7
 79
     5
170
     0
171
     0
290
     0
174
     0
 93
        1
 44
50.0
173
     0
291
     1
 45
0.0
1001
ACAD
1000
AcDbSavedByObjectVersion
1070
     0
  0
VISUALSTYLE
  5
5B2
102
{ACAD_XDICTIONARY
360
BF2
102
}
102
{ACAD_REACTORS
330
5A2
102
}
330
5A2
100
AcDbVisualStyle
  2
ColorChange
 70
    16
 71
     2
 72
     2
 73
     3
 90
        0
 40
-0.6
 41
-30.0
 62
     5
 63
     8
 74
     1
 91
        4
 64
     7
 65
   257
 75
     1
175
     1
 42
1.0
 92
        8
 66
     8
 43
1.0
 76
     1
 77
     6
 78
     2
 67
     7
 79
     5
170
     0
171
     0
290
     0
174
     0
 93
        1
 44
0.0
173
     0
291
     1
 45
0.0
1001
ACAD
1000
AcDbSavedByObjectVersion
1070
     0
  0
VISUALSTYLE
  5
5AB
102
{ACAD_XDICTIONARY
360
BE4
102
}
102
{ACAD_REACTORS
330
5A2
102
}
330
5A2
100
AcDbVisualStyle
  2
Conceptual
 70
     9
 71
     3
 72
     2
 73
     0
 90
        0
 40
-0.6
 41
-30.0
 62
     5
 63
     7
 74
     2
 91
        2
 64
     7
 65
   257
 75
     1
175
     1
 42
179.0
 92
        8
 66
     7
 43
1.0
 76
     1
 77
     6
 78
     2
 67
     7
 79
     3
170
     0
171
     0
290
     0
174
     0
 93
        1
 44
0.0
173
     0
291
     0
 45
0.0
1001
ACAD
1000
AcDbSavedByObjectVersion
1070
     0
  0
VISUALSTYLE
  5
5AD
102
{ACAD_XDICTIONARY
360
BE8
102
}
102
{ACAD_REACTORS
330
5A2
102
}
330
5A2
100
AcDbVisualStyle
  2
Dim
 70
    11
 71
     2
 72
     2
 73
     0
 90
        0
 40
-0.6
 41
-30.0
 62
     5
 63
     7
 74
     1
 91
        4
 64
     7
 65
   257
 75
     1
175
     1
 42
1.0
 92
        8
 66
     7
 43
1.0
 76
     1
 77
     6
 78
     2
 67
     7
 79
     5
170
     0
171
     0
290
     0
174
     0
 93
        1
 44
-50.0
173
     0
291
     1
 45
0.0
1001
ACAD
1000
AcDbSavedByObjectVersion
1070
     0
  0
VISUALSTYLE
  5
5BA
102
{ACAD_XDICTIONARY
360
C02
102
}
102
{ACAD_REACTORS
330
5A2
102
}
330
5A2
100
AcDbVisualStyle
  2
EdgeColorOff
 70
    22
 71
     2
 72
     2
 73
     0
 90
        0
 40
-0.6
 41
-30.0
 62
     5
 63
     7
 74
     1
 91
        4
 64
     7
 65
   257
 75
     1
175
     1
 42
1.0
 92
        8
 66
     7
 43
1.0
 76
     1
 77
     6
 78
     2
 67
     7
 79
     5
170
     0
171
     0
290
     0
174
     0
 93
        1
 44
0.0
173
     0
291
     1
 45
0.0
1001
ACAD
1000
AcDbSavedByObjectVersion
1070
     0
  0
VISUALSTYLE
  5
5B1
102
{ACAD_XDICTIONARY
360
BF0
102
}
102
{ACAD_REACTORS
330
5A2
102
}
330
5A2
100
AcDbVisualStyle
  2
Facepattern
 70
    15
 71
     2
 72
     2
 73
     0
 90
        0
 40
-0.6
 41
-30.0
 62
     5
 63
     7
 74
     1
 91
        4
 64
     7
 65
   257
 75
     1
175
     1
 42
1.0
 92
        8
 66
     7
 43
1.0
 76
     1
 77
     6
 78
     2
 67
     7
 79
     5
170
     0
171
     0
290
     0
174
     0
 93
        1
 44
0.0
173
     0
291
     1
 45
0.0
1001
ACAD
1000
AcDbSavedByObjectVersion
1070
     0
  0
VISUALSTYLE
  5
5A3
102
{ACAD_XDICTIONARY
360
BD4
102
}
102
{ACAD_REACTORS
330
5A2
102
}
330
5A2
100
AcDbVisualStyle
  2
Flat
 70
     0
 71
     2
 72
     1
 73
     1
 90
        2
 40
-0.6
 41
30.0
 62
     5
 63
     7
 74
     0
 91
        0
 64
     7
 65
   257
 75
     1
175
     1
 42
1.0
 92
        8
 66
     7
 43
1.0
 76
     1
 77
     6
 78
     2
 67
     7
 79
     5
170
     0
171
     0
290
     0
174
     0
 93
       13
 44
0.0
173
     0
291
     1
 45
0.0
1001
ACAD
1000
AcDbSavedByObjectVersion
1070
     0
  0
VISUALSTYLE
  5
5A4
102
{ACAD_XDICTIONARY
360
BD6
102
}
102
{ACAD_REACTORS
330
5A2
102
}
330
5A2
100
AcDbVisualStyle
  2
FlatWithEdges
 70
     1
 71
     2
 72
     1
 73
     1
 90
        2
 40
-0.6
 41
30.0
 62
     5
 63
     7
 74
     1
 91
        0
 64
     7
 65
   257
 75
     1
175
     1
 42
1.0
 92
        0
 66
   257
 43
1.0
 76
     1
 77
     6
 78
     2
 67
     7
 79
     5
170
     0
171
     0
290
     0
174
     0
 93
       13
 44
0.0
173
     0
291
     1
 45
0.0
1001
ACAD
1000
AcDbSavedByObjectVersion
1070
     0
  0
VISUALSTYLE
  5
5A5
102
{ACAD_XDICTIONARY
360
BD8
102
}
102
{ACAD_REACTORS
330
5A2
102
}
330
5A2
100
AcDbVisualStyle
  2
Gouraud
 70
     2
 71
     2
 72
     2
 73
     1
 90
        2
 40
-0.6
 41
30.0
 62
     5
 63
     7
 74
     0
 91
        0
 64
     7
 65
   257
 75
     1
175
     1
 42
1.0
 92
        0
 66
     7
 43
1.0
 76
     1
 77
     6
 78
     2
 67
     7
 79
     5
170
     0
171
     0
290
     0
174
     0
 93
       13
 44
0.0
173
     0
291
     1
 45
0.0
1001
ACAD
1000
AcDbSavedByObjectVersion
1070
     0
  0
VISUALSTYLE
  5
5A6
102
{ACAD_XDICTIONARY
360
BDA
102
}
102
{ACAD_REACTORS
330
5A2
102
}
330
5A2
100
AcDbVisualStyle
  2
GouraudWithEdges
 70
     3
 71
     2
 72
     2
 73
     1
 90
        2
 40
-0.6
 41
30.0
 62
     5
 63
     7
 74
     1
 91
        0
 64
     7
 65
   257
 75
     1
175
     1
 42
1.0
 92
        0
 66
   257
 43
1.0
 76
     1
 77
     6
 78
     2
 67
     7
 79
     5
170
     0
171
     0
290
     0
174
     0
 93
       13
 44
0.0
173
     0
291
     1
 45
0.0
1001
ACAD
1000
AcDbSavedByObjectVersion
1070
     0
  0
VISUALSTYLE
  5
5AA
102
{ACAD_XDICTIONARY
360
BE2
102
}
102
{ACAD_REACTORS
330
5A2
102
}
330
5A2
100
AcDbVisualStyle
  2
Hidden
 70
     6
 71
     1
 72
     2
 73
     2
 90
        0
 40
-0.6
 41
-30.0
 62
     5
 63
     7
 74
     2
 91
        2
 64
     7
 65
   257
 75
     2
175
     1
 42
40.0
 92
        0
 66
   257
 43
1.0
 76
     1
 77
     6
 78
     2
 67
     7
 79
     3
170
     0
171
     0
290
     0
174
     0
 93
        1
 44
0.0
173
     0
291
     0
 45
0.0
1001
ACAD
1000
AcDbSavedByObjectVersion
1070
     0
  0
VISUALSTYLE
  5
5B8
102
{ACAD_XDICTIONARY
360
BFE
102
}
102
{ACAD_REACTORS
330
5A2
102
}
330
5A2
100
AcDbVisualStyle
  2
JitterOff
 70
    20
 71
     2
 72
     2
 73
     0
 90
        0
 40
-0.6
 41
-30.0
 62
     5
 63
     7
 74
     1
 91
        4
 64
     7
 65
   257
 75
     1
175
     1
 42
1.0
 92
       10
 66
     7
 43
1.0
 76
     1
 77
     6
 78
     2
 67
     7
 79
     5
170
     0
171
     0
290
     0
174
     0
 93
        1
 44
0.0
173
     0
291
     1
 45
0.0
1001
ACAD
1000
AcDbSavedByObjectVersion
1070
     0
  0
VISUALSTYLE
  5
5B0
102
{ACAD_XDICTIONARY
360
BEE
102
}
102
{ACAD_REACTORS
330
5A2
102
}
330
5A2
100
AcDbVisualStyle
  2
Linepattern
 70
    14
 71
     2
 72
     2
 73
     0
 90
        0
 40
-0.6
 41
-30.0
 62
     5
 63
     7
 74
     1
 91
        4
 64
     7
 65
   257
 75
     7
175
     7
 42
1.0
 92
        8
 66
     7
 43
1.0
 76
     1
 77
     6
 78
     2
 67
     7
 79
     5
170
     0
171
     0
290
     0
174
     0
 93
        1
 44
0.0
173
     0
291
     1
 45
0.0
1001
ACAD
1000
AcDbSavedByObjectVersion
1070
     0
  0
VISUALSTYLE
  5
5B9
102
{ACAD_XDICTIONARY
360
C00
102
}
102
{ACAD_REACTORS
330
5A2
102
}
330
5A2
100
AcDbVisualStyle
  2
OverhangOff
 70
    21
 71
     2
 72
     2
 73
     0
 90
        0
 40
-0.6
 41
-30.0
 62
     5
 63
     7
 74
     1
 91
        4
 64
     7
 65
   257
 75
     1
175
     1
 42
1.0
 92
        9
 66
     7
 43
1.0
 76
     1
 77
     6
 78
     2
 67
     7
 79
     5
170
     0
171
     0
290
     0
174
     0
 93
        1
 44
0.0
173
     0
291
     1
 45
0.0
1001
ACAD
1000
AcDbSavedByObjectVersion
1070
     0
  0
VISUALSTYLE
  5
5AC
102
{ACAD_XDICTIONARY
360
BE6
102
}
102
{ACAD_REACTORS
330
5A2
102
}
330
5A2
100
AcDbVisualStyle
  2
Realistic
 70
     8
 71
     2
 72
     2
 73
     0
 90
        2
 40
-0.6
 41
30.0
 62
     5
 63
     7
 74
     0
 91
        0
 64
     7
 65
   257
 75
     1
175
     1
 42
1.0
 92
        8
 66
   257
 43
1.0
 76
     1
 77
     6
 78
     2
 67
     7
 79
     3
170
     0
171
     0
290
     0
174
     0
 93
       13
 44
0.0
173
     0
291
     0
 45
0.0
1001
ACAD
1000
AcDbSavedByObjectVersion
1070
     0
  0
VISUALSTYLE
  5
5B7
102
{ACAD_XDICTIONARY
360
BFC
102
}
102
{ACAD_REACTORS
330
5A2
102
}
330
5A2
100
AcDbVisualStyle
  2
Shaded
 70
    27
 71
     2
 72
     2
 73
     1
 90
        2
 40
-0.6
 41
30.0
 62
     5
 63
     7
 74
     0
 91
        4
 64
     7
 65
   257
 75
     1
175
     1
 42
1.0
 92
        8
 66
   257
 43
1.0
 76
     1
 77
     6
 78
     2
 67
     8
 79
     3
170
     0
171
     0
290
     0
174
     0
 93
        5
 44
0.0
173
     0
291
     0
 45
0.0
1001
ACAD
1000
AcDbSavedByObjectVersion
1070
     0
  0
VISUALSTYLE
  5
5B6
102
{ACAD_XDICTIONARY
360
BFA
102
}
102
{ACAD_REACTORS
330
5A2
102
}
330
5A2
100
AcDbVisualStyle
  2
Shaded with edges
 70
    26
 71
     2
 72
     2
 73
     1
 90
        2
 40
-0.6
 41
30.0
 62
     5
 63
     7
 74
     1
 91
       10
 64
     7
 65
   257
 75
     2
175
     1
 42
1.0
 92
        8
 66
   257
 43
1.0
 76
     1
 77
     6
 78
     2
 67
     7
 79
     3
170
     0
171
     0
290
     0
174
     0
 93
        5
 44
0.0
173
     0
291
     0
 45
0.0
1001
ACAD
1000
AcDbSavedByObjectVersion
1070
     0
  0
VISUALSTYLE
  5
5B3
102
{ACAD_XDICTIONARY
360
BF4
102
}
102
{ACAD_REACTORS
330
5A2
102
}
330
5A2
100
AcDbVisualStyle
  2
Shades of Gray
 70
    23
 71
     2
 72
     2
 73
     3
 90
        0
 40
-0.6
 41
-30.0
 62
     5
 63
     7
 74
     2
 91
        2
 64
     7
 65
     7
 75
     1
175
     1
 42
40.0
 92
        8
 66
     7
 43
1.0
 76
     1
 77
     6
 78
     2
 67
     7
 79
     3
170
     0
171
     0
290
     0
174
     0
 93
        1
 44
0.0
173
     0
291
     0
 45
0.0
1001
ACAD
1000
AcDbSavedByObjectVersion
1070
     0
  0
VISUALSTYLE
  5
5B4
102
{ACAD_XDICTIONARY
360
BF6
102
}
102
{ACAD_REACTORS
330
5A2
102
}
330
5A2
100
AcDbVisualStyle
  2
Sketchy
 70
    24
 71
     1
 72
     2
 73
     2
 90
        0
 40
-0.6
 41
-30.0
 62
     5
 63
     7
 74
     2
 91
        2
 64
     7
 65
     7
 75
     1
175
     1
 42
40.0
 92
       11
 66
     7
 43
1.0
 76
     1
 77
     6
 78
     2
 67
     7
 79
     6
170
     0
171
     0
290
     0
174
     0
 93
        1
 44
0.0
173
     0
291
     0
 45
0.0
1001
ACAD
1000
AcDbSavedByObjectVersion
1070
     0
  0
VISUALSTYLE
  5
5AF
102
{ACAD_XDICTIONARY
360
BEC
102
}
102
{ACAD_REACTORS
330
5A2
102
}
330
5A2
100
AcDbVisualStyle
  2
Thicken
 70
    13
 71
     2
 72
     2
 73
     0
 90
        0
 40
-0.6
 41
-30.0
 62
     5
 63
     7
 74
     1
 91
        4
 64
     7
 65
   257
 75
     1
175
     1
 42
1.0
 92
       12
 66
     7
 43
1.0
 76
     1
 77
     6
 78
     2
 67
     7
 79
     5
170
     0
171
     0
290
     0
174
     0
 93
        1
 44
0.0
173
     0
291
     1
 45
0.0
1001
ACAD
1000
AcDbSavedByObjectVersion
1070
     0
  0
VISUALSTYLE
  5
5A9
102
{ACAD_XDICTIONARY
360
BE0
102
}
102
{ACAD_REACTORS
330
5A2
102
}
330
5A2
100
AcDbVisualStyle
  2
Wireframe
 70
     5
 71
     0
 72
     2
 73
     0
 90
        0
 40
-0.6
 41
-30.0
 62
     5
 63
     7
 74
     1
 91
        4
 64
     7
 65
   257
 75
     1
175
     1
 42
1.0
 92
        0
 66
   257
 43
1.0
 76
     1
 77
     6
 78
     2
 67
     7
 79
     3
170
     0
171
     0
290
     0
174
     0
 93
        1
 44
0.0
173
     0
291
     0
 45
0.0
1001
ACAD
1000
AcDbSavedByObjectVersion
1070
     0
  0
VISUALSTYLE
  5
5B5
102
{ACAD_XDICTIONARY
360
BF8
102
}
102
{ACAD_REACTORS
330
5A2
102
}
330
5A2
100
AcDbVisualStyle
  2
X-Ray
 70
    25
 71
     2
 72
     2
 73
     1
 90
        1
 40
0.5
 41
-30.0
 62
     5
 63
     7
 74
     1
 91
        0
 64
     7
 65
   257
 75
     1
175
     1
 42
1.0
 92
        8
 66
     7
 43
1.0
 76
     1
 77
     6
 78
     2
 67
     7
 79
     3
170
     0
171
     0
290
     0
174
     0
 93
       13
 44
0.0
173
     0
291
     0
 45
0.0
1001
ACAD
1000
AcDbSavedByObjectVersion
1070
     0
  0
DICTIONARYVAR
  5
64A
102
{ACAD_REACTORS
330
578
102
}
330
578
100
DictionaryVariables
280
     0
  1
1:1
  0
DICTIONARYVAR
  5
649
102
{ACAD_REACTORS
330
578
102
}
330
578
100
DictionaryVariables
280
     0
  1
STANDARD
  0
DICTIONARYVAR
  5
582
102
{ACAD_REACTORS
330
578
102
}
330
578
100
DictionaryVariables
280
     0
  1
STANDARD
  0
DICTIONARYVAR
  5
579
102
{ACAD_REACTORS
330
578
102
}
330
578
100
DictionaryVariables
280
     0
  1
1
  0
DICTIONARYVAR
  5
64C
102
{ACAD_REACTORS
330
578
102
}
330
578
100
DictionaryVariables
280
     0
  1
0
  0
DICTIONARYVAR
  5
BBA
102
{ACAD_REACTORS
330
578
102
}
330
578
100
DictionaryVariables
280
     0
  1
1
  0
DICTIONARYVAR
  5
BBB
102
{ACAD_REACTORS
330
578
102
}
330
578
100
DictionaryVariables
280
     0
  1
15
  0
DICTIONARYVAR
  5
BB9
102
{ACAD_REACTORS
330
578
102
}
330
578
100
DictionaryVariables
280
     0
  1
0
  0
DICTIONARYVAR
  5
BB8
102
{ACAD_REACTORS
330
578
102
}
330
578
100
DictionaryVariables
280
     0
  1
0
  0
DICTIONARYVAR
  5
57A
102
{ACAD_REACTORS
330
578
102
}
330
578
100
DictionaryVariables
280
     0
  1

  0
DICTIONARYVAR
  5
64B
102
{ACAD_REACTORS
330
578
102
}
330
578
100
DictionaryVariables
280
     0
  1
127
  0
DICTIONARYVAR
  5
BC6
102
{ACAD_REACTORS
330
578
102
}
330
578
100
DictionaryVariables
280
     0
  1
2
  0
DICTIONARY
  5
BCE
330
13
100
AcDbDictionary
280
     1
281
     1
  3
ACAD_XREC_ROUNDTRIP
360
BCF
  0
DICTIONARY
  5
BCC
330
C
100
AcDbDictionary
280
     1
281
     1
  3
ACAD_XREC_ROUNDTRIP
360
BCD
  0
DICTIONARY
  5
593
330
592
100
AcDbDictionary
280
     1
281
     1
  3
ACAD_XREC_ROUNDTRIP
360
BD2
  3
BUMPTILE
360
595
  3
DIFFUSETILE
360
594
  3
OPACITYTILE
360
598
  3
REFLECTIONTILE
360
597
  3
REFRACTIONTILE
360
599
  3
SPECULARTILE
360
596
  0
DICTIONARY
  5
58B
330
58A
100
AcDbDictionary
280
     1
281
     1
  3
ACAD_XREC_ROUNDTRIP
360
BD1
  3
BUMPTILE
360
58D
  3
DIFFUSETILE
360
58C
  3
OPACITYTILE
360
590
  3
REFLECTIONTILE
360
58F
  3
REFRACTIONTILE
360
591
  3
SPECULARTILE
360
58E
  0
DICTIONARY
  5
59B
330
59A
100
AcDbDictionary
280
     1
281
     1
  3
ACAD_XREC_ROUNDTRIP
360
BD3
  3
BUMPTILE
360
59D
  3
DIFFUSETILE
360
59C
  3
OPACITYTILE
360
5A0
  3
REFLECTIONTILE
360
59F
  3
REFRACTIONTILE
360
5A1
  3
SPECULARTILE
360
59E
  0
DICTIONARY
  5
60A
330
57D
100
AcDbDictionary
280
     1
281
     1
  3
ACAD_ROUNDTRIP_2008_TABLESTYLE_CELLSTYLEMAP
360
BC7
  3
ACAD_XREC_ROUNDTRIP
360
BD0
  0
DICTIONARY
  5
BDE
330
5A8
100
AcDbDictionary
280
     1
281
     1
  3
ACAD_XREC_ROUNDTRIP
360
BDF
  0
DICTIONARY
  5
C04
330
B5D
100
AcDbDictionary
280
     1
281
     1
  3
ACAD_XREC_ROUNDTRIP
360
C05
  0
DICTIONARY
  5
C06
330
B5E
100
AcDbDictionary
280
     1
281
     1
  3
ACAD_XREC_ROUNDTRIP
360
C07
  0
DICTIONARY
  5
BDC
330
5A7
100
AcDbDictionary
280
     1
281
     1
  3
ACAD_XREC_ROUNDTRIP
360
BDD
  0
DICTIONARY
  5
BEA
330
5AE
100
AcDbDictionary
280
     1
281
     1
  3
ACAD_XREC_ROUNDTRIP
360
BEB
  0
DICTIONARY
  5
BF2
330
5B2
100
AcDbDictionary
280
     1
281
     1
  3
ACAD_XREC_ROUNDTRIP
360
BF3
  0
DICTIONARY
  5
BE4
330
5AB
100
AcDbDictionary
280
     1
281
     1
  3
ACAD_XREC_ROUNDTRIP
360
BE5
  0
DICTIONARY
  5
BE8
330
5AD
100
AcDbDictionary
280
     1
281
     1
  3
ACAD_XREC_ROUNDTRIP
360
BE9
  0
DICTIONARY
  5
C02
330
5BA
100
AcDbDictionary
280
     1
281
     1
  3
ACAD_XREC_ROUNDTRIP
360
C03
  0
DICTIONARY
  5
BF0
330
5B1
100
AcDbDictionary
280
     1
281
     1
  3
ACAD_XREC_ROUNDTRIP
360
BF1
  0
DICTIONARY
  5
BD4
330
5A3
100
AcDbDictionary
280
     1
281
     1
  3
ACAD_XREC_ROUNDTRIP
360
BD5
  0
DICTIONARY
  5
BD6
330
5A4
100
AcDbDictionary
280
     1
281
     1
  3
ACAD_XREC_ROUNDTRIP
360
BD7
  0
DICTIONARY
  5
BD8
330
5A5
100
AcDbDictionary
280
     1
281
     1
  3
ACAD_XREC_ROUNDTRIP
360
BD9
  0
DICTIONARY
  5
BDA
330
5A6
100
AcDbDictionary
280
     1
281
     1
  3
ACAD_XREC_ROUNDTRIP
360
BDB
  0
DICTIONARY
  5
BE2
330
5AA
100
AcDbDictionary
280
     1
281
     1
  3
ACAD_XREC_ROUNDTRIP
360
BE3
  0
DICTIONARY
  5
BFE
330
5B8
100
AcDbDictionary
280
     1
281
     1
  3
ACAD_XREC_ROUNDTRIP
360
BFF
  0
DICTIONARY
  5
BEE
330
5B0
100
AcDbDictionary
280
     1
281
     1
  3
ACAD_XREC_ROUNDTRIP
360
BEF
  0
DICTIONARY
  5
C00
330
5B9
100
AcDbDictionary
280
     1
281
     1
  3
ACAD_XREC_ROUNDTRIP
360
C01
  0
DICTIONARY
  5
BE6
330
5AC
100
AcDbDictionary
280
     1
281
     1
  3
ACAD_XREC_ROUNDTRIP
360
BE7
  0
DICTIONARY
  5
BFC
330
5B7
100
AcDbDictionary
280
     1
281
     1
  3
ACAD_XREC_ROUNDTRIP
360
BFD
  0
DICTIONARY
  5
BFA
330
5B6
100
AcDbDictionary
280
     1
281
     1
  3
ACAD_XREC_ROUNDTRIP
360
BFB
  0
DICTIONARY
  5
BF4
330
5B3
100
AcDbDictionary
280
     1
281
     1
  3
ACAD_XREC_ROUNDTRIP
360
BF5
  0
DICTIONARY
  5
BF6
330
5B4
100
AcDbDictionary
280
     1
281
     1
  3
ACAD_XREC_ROUNDTRIP
360
BF7
  0
DICTIONARY
  5
BEC
330
5AF
100
AcDbDictionary
280
     1
281
     1
  3
ACAD_XREC_ROUNDTRIP
360
BED
  0
DICTIONARY
  5
BE0
330
5A9
100
AcDbDictionary
280
     1
281
     1
  3
ACAD_XREC_ROUNDTRIP
360
BE1
  0
DICTIONARY
  5
BF8
330
5B5
100
AcDbDictionary
280
     1
281
     1
  3
ACAD_XREC_ROUNDTRIP
360
BF9
  0
XRECORD
  5
BCF
102
{ACAD_REACTORS
330
BCE
102
}
330
BCE
100
AcDbXrecord
280
     1
102
SHADEPLOT
 70
     0
102
SHADEPLOTRESLEVEL
 70
     2
102
SHADEPLOTCUSTOMDPI
 70
   300
  0
XRECORD
  5
BCD
102
{ACAD_REACTORS
330
BCC
102
}
330
BCC
100
AcDbXrecord
280
     1
102
SHADEPLOT
 70
     0
102
SHADEPLOTRESLEVEL
 70
     2
102
SHADEPLOTCUSTOMDPI
 70
   300
  0
XRECORD
  5
BD2
102
{ACAD_REACTORS
330
593
102
}
330
593
100
AcDbXrecord
280
     1
102
MATERIAL
148
0.0
149
0.0
149
0.0
 93
        0
 94
      127
282
     0
 72
     0
 77
     0
171
     0
175
     0
179
     0
273
     0
  0
XRECORD
  5
595
102
{ACAD_REACTORS
330
593
102
}
330
593
100
AcDbXrecord
280
     1
270
     1
271
     1
  0
XRECORD
  5
594
102
{ACAD_REACTORS
330
593
102
}
330
593
100
AcDbXrecord
280
     1
270
     1
271
     1
  0
XRECORD
  5
598
102
{ACAD_REACTORS
330
593
102
}
330
593
100
AcDbXrecord
280
     1
270
     1
271
     1
  0
XRECORD
  5
597
102
{ACAD_REACTORS
330
593
102
}
330
593
100
AcDbXrecord
280
     1
270
     1
271
     1
  0
XRECORD
  5
599
102
{ACAD_REACTORS
330
593
102
}
330
593
100
AcDbXrecord
280
     1
270
     1
271
     1
  0
XRECORD
  5
596
102
{ACAD_REACTORS
330
593
102
}
330
593
100
AcDbXrecord
280
     1
270
     1
271
     1
  0
XRECORD
  5
BD1
102
{ACAD_REACTORS
330
58B
102
}
330
58B
100
AcDbXrecord
280
     1
102
MATERIAL
148
0.0
149
0.0
149
0.0
 93
        0
 94
      127
282
     0
 72
     0
 77
     0
171
     0
175
     0
179
     0
273
     0
  0
XRECORD
  5
58D
102
{ACAD_REACTORS
330
58B
102
}
330
58B
100
AcDbXrecord
280
     1
270
     1
271
     1
  0
XRECORD
  5
58C
102
{ACAD_REACTORS
330
58B
102
}
330
58B
100
AcDbXrecord
280
     1
270
     1
271
     1
  0
XRECORD
  5
590
102
{ACAD_REACTORS
330
58B
102
}
330
58B
100
AcDbXrecord
280
     1
270
     1
271
     1
  0
XRECORD
  5
58F
102
{ACAD_REACTORS
330
58B
102
}
330
58B
100
AcDbXrecord
280
     1
270
     1
271
     1
  0
XRECORD
  5
591
102
{ACAD_REACTORS
330
58B
102
}
330
58B
100
AcDbXrecord
280
     1
270
     1
271
     1
  0
XRECORD
  5
58E
102
{ACAD_REACTORS
330
58B
102
}
330
58B
100
AcDbXrecord
280
     1
270
     1
271
     1
  0
XRECORD
  5
BD3
102
{ACAD_REACTORS
330
59B
102
}
330
59B
100
AcDbXrecord
280
     1
102
MATERIAL
148
0.0
149
0.0
149
0.0
 93
        0
 94
      127
282
     0
 72
     0
 77
     0
171
     0
175
     0
179
     0
273
     0
  0
XRECORD
  5
59D
102
{ACAD_REACTORS
330
59B
102
}
330
59B
100
AcDbXrecord
280
     1
270
     1
271
     1
  0
XRECORD
  5
59C
102
{ACAD_REACTORS
330
59B
102
}
330
59B
100
AcDbXrecord
280
     1
270
     1
271
     1
  0
XRECORD
  5
5A0
102
{ACAD_REACTORS
330
59B
102
}
330
59B
100
AcDbXrecord
280
     1
270
     1
271
     1
  0
XRECORD
  5
59F
102
{ACAD_REACTORS
330
59B
102
}
330
59B
100
AcDbXrecord
280
     1
270
     1
271
     1
  0
XRECORD
  5
5A1
102
{ACAD_REACTORS
330
59B
102
}
330
59B
100
AcDbXrecord
280
     1
270
     1
271
     1
  0
XRECORD
  5
59E
102
{ACAD_REACTORS
330
59B
102
}
330
59B
100
AcDbXrecord
280
     1
270
     1
271
     1
  0
CELLSTYLEMAP
  5
BC7
102
{ACAD_REACTORS
330
60A
102
}
330
60A
100
AcDbCellStyleMap
 90
        3
300
CELLSTYLE
  1
TABLEFORMAT_BEGIN
 90
        5
170
     1
 91
        0
 92
    32768
 62
   257
 93
        1
300
CONTENTFORMAT
  1
CONTENTFORMAT_BEGIN
 90
        0
 91
        0
 92
        4
 93
        0
300

 40
0.0
140
1.0
 94
        5
 62
     0
340
35
144
0.25
309
CONTENTFORMAT_END
171
     0
 94
        6
 95
        1
302
GRIDFORMAT
  1
GRIDFORMAT_BEGIN
 90
        0
 91
        1
 62
     0
 92
       -2
340
0
 93
        0
 40
0.045
309
GRIDFORMAT_END
 95
        2
302
GRIDFORMAT
  1
GRIDFORMAT_BEGIN
 90
        0
 91
        1
 62
     0
 92
       -2
340
0
 93
        0
 40
0.045
309
GRIDFORMAT_END
 95
        4
302
GRIDFORMAT
  1
GRIDFORMAT_BEGIN
 90
        0
 91
        1
 62
     0
 92
       -2
340
0
 93
        0
 40
0.045
309
GRIDFORMAT_END
 95
        8
302
GRIDFORMAT
  1
GRIDFORMAT_BEGIN
 90
        0
 91
        1
 62
     0
 92
       -2
340
0
 93
        0
 40
0.045
309
GRIDFORMAT_END
 95
       16
302
GRIDFORMAT
  1
GRIDFORMAT_BEGIN
 90
        0
 91
        1
 62
     0
 92
       -2
340
0
 93
        0
 40
0.045
309
GRIDFORMAT_END
 95
       32
302
GRIDFORMAT
  1
GRIDFORMAT_BEGIN
 90
        0
 91
        1
 62
     0
 92
       -2
340
0
 93
        0
 40
0.045
309
GRIDFORMAT_END
309
TABLEFORMAT_END
  1
CELLSTYLE_BEGIN
 90
        1
 91
        1
300
_TITLE
309
CELLSTYLE_END
300
CELLSTYLE
  1
TABLEFORMAT_BEGIN
 90
        5
170
     1
 91
        0
 92
        0
 62
   257
 93
        1
300
CONTENTFORMAT
  1
CONTENTFORMAT_BEGIN
 90
        0
 91
        0
 92
        4
 93
        0
300

 40
0.0
140
1.0
 94
        5
 62
     0
340
35
144
0.18
309
CONTENTFORMAT_END
171
     0
 94
        6
 95
        1
302
GRIDFORMAT
  1
GRIDFORMAT_BEGIN
 90
        0
 91
        1
 62
     0
 92
       -2
340
0
 93
        0
 40
0.045
309
GRIDFORMAT_END
 95
        2
302
GRIDFORMAT
  1
GRIDFORMAT_BEGIN
 90
        0
 91
        1
 62
     0
 92
       -2
340
0
 93
        0
 40
0.045
309
GRIDFORMAT_END
 95
        4
302
GRIDFORMAT
  1
GRIDFORMAT_BEGIN
 90
        0
 91
        1
 62
     0
 92
       -2
340
0
 93
        0
 40
0.045
309
GRIDFORMAT_END
 95
        8
302
GRIDFORMAT
  1
GRIDFORMAT_BEGIN
 90
        0
 91
        1
 62
     0
 92
       -2
340
0
 93
        0
 40
0.045
309
GRIDFORMAT_END
 95
       16
302
GRIDFORMAT
  1
GRIDFORMAT_BEGIN
 90
        0
 91
        1
 62
     0
 92
       -2
340
0
 93
        0
 40
0.045
309
GRIDFORMAT_END
 95
       32
302
GRIDFORMAT
  1
GRIDFORMAT_BEGIN
 90
        0
 91
        1
 62
     0
 92
       -2
340
0
 93
        0
 40
0.045
309
GRIDFORMAT_END
309
TABLEFORMAT_END
  1
CELLSTYLE_BEGIN
 90
        2
 91
        1
300
_HEADER
309
CELLSTYLE_END
300
CELLSTYLE
  1
TABLEFORMAT_BEGIN
 90
        5
170
     1
 91
        0
 92
        0
 62
   257
 93
        1
300
CONTENTFORMAT
  1
CONTENTFORMAT_BEGIN
 90
        0
 91
        0
 92
        4
 93
        0
300

 40
0.0
140
1.0
 94
        2
 62
     0
340
35
144
0.18
309
CONTENTFORMAT_END
171
     0
 94
        6
 95
        1
302
GRIDFORMAT
  1
GRIDFORMAT_BEGIN
 90
        0
 91
        1
 62
     0
 92
       -2
340
0
 93
        0
 40
0.045
309
GRIDFORMAT_END
 95
        2
302
GRIDFORMAT
  1
GRIDFORMAT_BEGIN
 90
        0
 91
        1
 62
     0
 92
       -2
340
0
 93
        0
 40
0.045
309
GRIDFORMAT_END
 95
        4
302
GRIDFORMAT
  1
GRIDFORMAT_BEGIN
 90
        0
 91
        1
 62
     0
 92
       -2
340
0
 93
        0
 40
0.045
309
GRIDFORMAT_END
 95
        8
302
GRIDFORMAT
  1
GRIDFORMAT_BEGIN
 90
        0
 91
        1
 62
     0
 92
       -2
340
0
 93
        0
 40
0.045
309
GRIDFORMAT_END
 95
       16
302
GRIDFORMAT
  1
GRIDFORMAT_BEGIN
 90
        0
 91
        1
 62
     0
 92
       -2
340
0
 93
        0
 40
0.045
309
GRIDFORMAT_END
 95
       32
302
GRIDFORMAT
  1
GRIDFORMAT_BEGIN
 90
        0
 91
        1
 62
     0
 92
       -2
340
0
 93
        0
 40
0.045
309
GRIDFORMAT_END
309
TABLEFORMAT_END
  1
CELLSTYLE_BEGIN
 90
        3
 91
        2
300
_DATA
309
CELLSTYLE_END
  0
XRECORD
  5
BD0
102
{ACAD_REACTORS
330
60A
102
}
330
60A
100
AcDbXrecord
280
     1
102
ACAD_ROUNDTRIP_PRE2007_TABLESTYLE
 90
        4
 91
        0
  1

 92
        4
 93
        0
  2

 94
        4
 95
        0
  3

  0
XRECORD
  5
BDF
102
{ACAD_REACTORS
330
BDE
102
}
330
BDE
100
AcDbXrecord
280
     1
102
RTVSPropertyOp0
 70
     1
102
RTVSPropertyOp1
 70
     1
102
RTVSPropertyOp2
 70
     1
102
RTVSPropertyOp3
 70
     1
102
RTVSPropertyOp4
 70
     1
102
RTVSPropertyOp5
 70
     1
102
RTVSPropertyOp6
 70
     1
102
RTVSPropertyOp7
 70
     1
102
RTVSPropertyOp8
 70
     1
102
RTVSPropertyOp9
 70
     1
102
RTVSPropertyOp10
 70
     1
102
RTVSPropertyOp11
 70
     1
102
RTVSPropertyOp12
 70
     1
102
RTVSPropertyOp13
 70
     1
102
RTVSPropertyOp14
 70
     1
102
RTVSPropertyOp15
 70
     1
102
RTVSPropertyOp16
 70
     1
102
RTVSPropertyOp17
 70
     1
102
RTVSPropertyOp18
 70
     1
102
RTVSPropertyOp19
 70
     1
102
RTVSPropertyOp20
 70
     1
102
RTVSPropertyOp21
 70
     1
102
RTVSPropertyOp22
 70
     1
102
RTVSPropertyOp23
 70
     1
102
RTVSPropertyOp24
 70
     1
102
RTVSPropertyOp25
 70
     1
102
RTVSPropertyOp26
 70
     1
102
RTVSPropertyOp27
 70
     1
102
RTVSPropertyOp28
 70
     1
102
RTVSPropertyOp29
 70
     1
102
RTVSPropertyOp30
 70
     1
102
RTVSPropertyOp31
 70
     1
102
RTVSPropertyOp32
 70
     1
  0
XRECORD
  5
C05
102
{ACAD_REACTORS
330
C04
102
}
330
C04
100
AcDbXrecord
280
     1
102
RTVSPropertyOp0
 70
     1
102
RTVSPropertyOp1
 70
     1
102
RTVSPropertyOp2
 70
     1
102
RTVSPropertyOp3
 70
     1
102
RTVSPropertyOp4
 70
     1
102
RTVSPropertyOp5
 70
     1
102
RTVSPropertyOp6
 70
     1
102
RTVSPropertyOp7
 70
     1
102
RTVSPropertyOp8
 70
     1
102
RTVSPropertyOp9
 70
     1
102
RTVSPropertyOp10
 70
     1
102
RTVSPropertyOp11
 70
     1
102
RTVSPropertyOp12
 70
     1
102
RTVSPropertyOp13
 70
     1
102
RTVSPropertyOp14
 70
     1
102
RTVSPropertyOp15
 70
     1
102
RTVSPropertyOp16
 70
     1
102
RTVSPropertyOp17
 70
     1
102
RTVSPropertyOp18
 70
     1
102
RTVSPropertyOp19
 70
     1
102
RTVSPropertyOp20
 70
     1
102
RTVSPropertyOp21
 70
     1
102
RTVSPropertyOp22
 70
     1
102
RTVSPropertyOp23
 70
     1
102
RTVSPropertyOp24
 70
     1
102
RTVSPropertyOp25
 70
     1
102
RTVSPropertyOp26
 70
     1
102
RTVSPropertyOp27
 70
     1
102
RTVSPropertyOp28
 70
     1
102
RTVSPropertyOp29
 70
     1
102
RTVSPropertyOp30
 70
     1
102
RTVSPropertyOp31
 70
     1
102
RTVSPropertyOp32
 70
     1
  0
XRECORD
  5
C07
102
{ACAD_REACTORS
330
C06
102
}
330
C06
100
AcDbXrecord
280
     1
102
RTVSPropertyOp0
 70
     1
102
RTVSPropertyOp1
 70
     1
102
RTVSPropertyOp2
 70
     1
102
RTVSPropertyOp3
 70
     1
102
RTVSPropertyOp4
 70
     1
102
RTVSPropertyOp5
 70
     1
102
RTVSPropertyOp6
 70
     1
102
RTVSPropertyOp7
 70
     1
102
RTVSPropertyOp8
 70
     1
102
RTVSPropertyOp9
 70
     1
102
RTVSPropertyOp10
 70
     1
102
RTVSPropertyOp11
 70
     1
102
RTVSPropertyOp12
 70
     1
102
RTVSPropertyOp13
 70
     1
102
RTVSPropertyOp14
 70
     1
102
RTVSPropertyOp15
 70
     1
102
RTVSPropertyOp16
 70
     1
102
RTVSPropertyOp17
 70
     1
102
RTVSPropertyOp18
 70
     1
102
RTVSPropertyOp19
 70
     1
102
RTVSPropertyOp20
 70
     1
102
RTVSPropertyOp21
 70
     1
102
RTVSPropertyOp22
 70
     1
102
RTVSPropertyOp23
 70
     1
102
RTVSPropertyOp24
 70
     1
102
RTVSPropertyOp25
 70
     1
102
RTVSPropertyOp26
 70
     1
102
RTVSPropertyOp27
 70
     1
102
RTVSPropertyOp28
 70
     1
102
RTVSPropertyOp29
 70
     1
102
RTVSPropertyOp30
 70
     1
102
RTVSPropertyOp31
 70
     1
102
RTVSPropertyOp32
 70
     1
  0
XRECORD
  5
BDD
102
{ACAD_REACTORS
330
BDC
102
}
330
BDC
100
AcDbXrecord
280
     1
102
RTVSPropertyOp0
 70
     1
102
RTVSPropertyOp1
 70
     1
102
RTVSPropertyOp2
 70
     1
102
RTVSPropertyOp3
 70
     1
102
RTVSPropertyOp4
 70
     1
102
RTVSPropertyOp5
 70
     1
102
RTVSPropertyOp6
 70
     1
102
RTVSPropertyOp7
 70
     1
102
RTVSPropertyOp8
 70
     1
102
RTVSPropertyOp9
 70
     1
102
RTVSPropertyOp10
 70
     1
102
RTVSPropertyOp11
 70
     1
102
RTVSPropertyOp12
 70
     1
102
RTVSPropertyOp13
 70
     1
102
RTVSPropertyOp14
 70
     1
102
RTVSPropertyOp15
 70
     1
102
RTVSPropertyOp16
 70
     1
102
RTVSPropertyOp17
 70
     1
102
RTVSPropertyOp18
 70
     1
102
RTVSPropertyOp19
 70
     1
102
RTVSPropertyOp20
 70
     1
102
RTVSPropertyOp21
 70
     1
102
RTVSPropertyOp22
 70
     1
102
RTVSPropertyOp23
 70
     1
102
RTVSPropertyOp24
 70
     1
102
RTVSPropertyOp25
 70
     1
102
RTVSPropertyOp26
 70
     1
102
RTVSPropertyOp27
 70
     1
102
RTVSPropertyOp28
 70
     1
102
RTVSPropertyOp29
 70
     1
102
RTVSPropertyOp30
 70
     1
102
RTVSPropertyOp31
 70
     1
102
RTVSPropertyOp32
 70
     1
  0
XRECORD
  5
BEB
102
{ACAD_REACTORS
330
BEA
102
}
330
BEA
100
AcDbXrecord
280
     1
102
RTVSPropertyOp0
 70
     1
102
RTVSPropertyOp1
 70
     1
102
RTVSPropertyOp2
 70
     1
102
RTVSPropertyOp3
 70
     1
102
RTVSPropertyOp4
 70
     1
102
RTVSPropertyOp5
 70
     1
102
RTVSPropertyOp6
 70
     1
102
RTVSPropertyOp7
 70
     1
102
RTVSPropertyOp8
 70
     1
102
RTVSPropertyOp9
 70
     1
102
RTVSPropertyOp10
 70
     1
102
RTVSPropertyOp11
 70
     1
102
RTVSPropertyOp12
 70
     1
102
RTVSPropertyOp13
 70
     1
102
RTVSPropertyOp14
 70
     1
102
RTVSPropertyOp15
 70
     1
102
RTVSPropertyOp16
 70
     1
102
RTVSPropertyOp17
 70
     1
102
RTVSPropertyOp18
 70
     1
102
RTVSPropertyOp19
 70
     1
102
RTVSPropertyOp20
 70
     1
102
RTVSPropertyOp21
 70
     1
102
RTVSPropertyOp22
 70
     1
102
RTVSPropertyOp23
 70
     1
102
RTVSPropertyOp24
 70
     1
102
RTVSPropertyOp25
 70
     1
102
RTVSPropertyOp26
 70
     1
102
RTVSPropertyOp27
 70
     1
102
RTVSPropertyOp28
 70
     1
102
RTVSPropertyOp29
 70
     1
102
RTVSPropertyOp30
 70
     1
102
RTVSPropertyOp31
 70
     1
102
RTVSPropertyOp32
 70
     1
  0
XRECORD
  5
BF3
102
{ACAD_REACTORS
330
BF2
102
}
330
BF2
100
AcDbXrecord
280
     1
102
RTVSPropertyOp0
 70
     1
102
RTVSPropertyOp1
 70
     1
102
RTVSPropertyOp2
 70
     1
102
RTVSPropertyOp3
 70
     1
102
RTVSPropertyOp4
 70
     1
102
RTVSPropertyOp5
 70
     1
102
RTVSPropertyOp6
 70
     1
102
RTVSPropertyOp7
 70
     1
102
RTVSPropertyOp8
 70
     1
102
RTVSPropertyOp9
 70
     1
102
RTVSPropertyOp10
 70
     1
102
RTVSPropertyOp11
 70
     1
102
RTVSPropertyOp12
 70
     1
102
RTVSPropertyOp13
 70
     1
102
RTVSPropertyOp14
 70
     1
102
RTVSPropertyOp15
 70
     1
102
RTVSPropertyOp16
 70
     1
102
RTVSPropertyOp17
 70
     1
102
RTVSPropertyOp18
 70
     1
102
RTVSPropertyOp19
 70
     1
102
RTVSPropertyOp20
 70
     1
102
RTVSPropertyOp21
 70
     1
102
RTVSPropertyOp22
 70
     1
102
RTVSPropertyOp23
 70
     1
102
RTVSPropertyOp24
 70
     1
102
RTVSPropertyOp25
 70
     1
102
RTVSPropertyOp26
 70
     1
102
RTVSPropertyOp27
 70
     1
102
RTVSPropertyOp28
 70
     1
102
RTVSPropertyOp29
 70
     1
102
RTVSPropertyOp30
 70
     1
102
RTVSPropertyOp31
 70
     1
102
RTVSPropertyOp32
 70
     1
  0
XRECORD
  5
BE5
102
{ACAD_REACTORS
330
BE4
102
}
330
BE4
100
AcDbXrecord
280
     1
102
RTVSPropertyOp0
 70
     1
102
RTVSPropertyOp1
 70
     1
102
RTVSPropertyOp2
 70
     1
102
RTVSPropertyOp3
 70
     1
102
RTVSPropertyOp4
 70
     1
102
RTVSPropertyOp5
 70
     1
102
RTVSPropertyOp6
 70
     1
102
RTVSPropertyOp7
 70
     1
102
RTVSPropertyOp8
 70
     1
102
RTVSPropertyOp9
 70
     1
102
RTVSPropertyOp10
 70
     1
102
RTVSPropertyOp11
 70
     1
102
RTVSPropertyOp12
 70
     1
102
RTVSPropertyOp13
 70
     1
102
RTVSPropertyOp14
 70
     1
102
RTVSPropertyOp15
 70
     1
102
RTVSPropertyOp16
 70
     1
102
RTVSPropertyOp17
 70
     1
102
RTVSPropertyOp18
 70
     1
102
RTVSPropertyOp19
 70
     1
102
RTVSPropertyOp20
 70
     1
102
RTVSPropertyOp21
 70
     1
102
RTVSPropertyOp22
 70
     1
102
RTVSPropertyOp23
 70
     1
102
RTVSPropertyOp24
 70
     1
102
RTVSPropertyOp25
 70
     1
102
RTVSPropertyOp26
 70
     1
102
RTVSPropertyOp27
 70
     1
102
RTVSPropertyOp28
 70
     1
102
RTVSPropertyOp29
 70
     1
102
RTVSPropertyOp30
 70
     1
102
RTVSPropertyOp31
 70
     1
102
RTVSPropertyOp32
 70
     1
  0
XRECORD
  5
BE9
102
{ACAD_REACTORS
330
BE8
102
}
330
BE8
100
AcDbXrecord
280
     1
102
RTVSPropertyOp0
 70
     1
102
RTVSPropertyOp1
 70
     1
102
RTVSPropertyOp2
 70
     1
102
RTVSPropertyOp3
 70
     1
102
RTVSPropertyOp4
 70
     1
102
RTVSPropertyOp5
 70
     1
102
RTVSPropertyOp6
 70
     1
102
RTVSPropertyOp7
 70
     1
102
RTVSPropertyOp8
 70
     1
102
RTVSPropertyOp9
 70
     1
102
RTVSPropertyOp10
 70
     1
102
RTVSPropertyOp11
 70
     1
102
RTVSPropertyOp12
 70
     1
102
RTVSPropertyOp13
 70
     1
102
RTVSPropertyOp14
 70
     1
102
RTVSPropertyOp15
 70
     1
102
RTVSPropertyOp16
 70
     1
102
RTVSPropertyOp17
 70
     1
102
RTVSPropertyOp18
 70
     1
102
RTVSPropertyOp19
 70
     1
102
RTVSPropertyOp20
 70
     1
102
RTVSPropertyOp21
 70
     1
102
RTVSPropertyOp22
 70
     1
102
RTVSPropertyOp23
 70
     1
102
RTVSPropertyOp24
 70
     1
102
RTVSPropertyOp25
 70
     1
102
RTVSPropertyOp26
 70
     1
102
RTVSPropertyOp27
 70
     1
102
RTVSPropertyOp28
 70
     1
102
RTVSPropertyOp29
 70
     1
102
RTVSPropertyOp30
 70
     1
102
RTVSPropertyOp31
 70
     1
102
RTVSPropertyOp32
 70
     1
  0
XRECORD
  5
C03
102
{ACAD_REACTORS
330
C02
102
}
330
C02
100
AcDbXrecord
280
     1
102
RTVSPropertyOp0
 70
     0
102
RTVSPropertyOp1
 70
     0
102
RTVSPropertyOp2
 70
     0
102
RTVSPropertyOp3
 70
     0
102
RTVSPropertyOp4
 70
     0
102
RTVSPropertyOp5
 70
     0
102
RTVSPropertyOp6
 70
     0
102
RTVSPropertyOp7
 70
     0
102
RTVSPropertyOp8
 70
     0
102
RTVSPropertyOp9
 70
     0
102
RTVSPropertyOp10
 70
     0
102
RTVSPropertyOp11
 70
     0
102
RTVSPropertyOp12
 70
     0
102
RTVSPropertyOp13
 70
     0
102
RTVSPropertyOp14
 70
     2
102
RTVSPropertyOp15
 70
     0
102
RTVSPropertyOp16
 70
     0
102
RTVSPropertyOp17
 70
     0
102
RTVSPropertyOp18
 70
     0
102
RTVSPropertyOp19
 70
     0
102
RTVSPropertyOp20
 70
     0
102
RTVSPropertyOp21
 70
     0
102
RTVSPropertyOp22
 70
     0
102
RTVSPropertyOp23
 70
     0
102
RTVSPropertyOp24
 70
     0
102
RTVSPropertyOp25
 70
     0
102
RTVSPropertyOp26
 70
     0
102
RTVSPropertyOp27
 70
     0
102
RTVSPropertyOp28
 70
     1
102
RTVSPropertyOp29
 70
     1
102
RTVSPropertyOp30
 70
     1
102
RTVSPropertyOp31
 70
     1
102
RTVSPropertyOp32
 70
     1
  0
XRECORD
  5
BF1
102
{ACAD_REACTORS
330
BF0
102
}
330
BF0
100
AcDbXrecord
280
     1
102
RTVSPropertyOp0
 70
     1
102
RTVSPropertyOp1
 70
     1
102
RTVSPropertyOp2
 70
     1
102
RTVSPropertyOp3
 70
     1
102
RTVSPropertyOp4
 70
     1
102
RTVSPropertyOp5
 70
     1
102
RTVSPropertyOp6
 70
     1
102
RTVSPropertyOp7
 70
     1
102
RTVSPropertyOp8
 70
     1
102
RTVSPropertyOp9
 70
     1
102
RTVSPropertyOp10
 70
     1
102
RTVSPropertyOp11
 70
     1
102
RTVSPropertyOp12
 70
     1
102
RTVSPropertyOp13
 70
     1
102
RTVSPropertyOp14
 70
     1
102
RTVSPropertyOp15
 70
     1
102
RTVSPropertyOp16
 70
     1
102
RTVSPropertyOp17
 70
     1
102
RTVSPropertyOp18
 70
     1
102
RTVSPropertyOp19
 70
     1
102
RTVSPropertyOp20
 70
     1
102
RTVSPropertyOp21
 70
     1
102
RTVSPropertyOp22
 70
     1
102
RTVSPropertyOp23
 70
     1
102
RTVSPropertyOp24
 70
     1
102
RTVSPropertyOp25
 70
     1
102
RTVSPropertyOp26
 70
     1
102
RTVSPropertyOp27
 70
     1
102
RTVSPropertyOp28
 70
     1
102
RTVSPropertyOp29
 70
     1
102
RTVSPropertyOp30
 70
     1
102
RTVSPropertyOp31
 70
     1
102
RTVSPropertyOp32
 70
     1
  0
XRECORD
  5
BD5
102
{ACAD_REACTORS
330
BD4
102
}
330
BD4
100
AcDbXrecord
280
     1
102
RTVSPropertyOp0
 70
     1
102
RTVSPropertyOp1
 70
     1
102
RTVSPropertyOp2
 70
     1
102
RTVSPropertyOp3
 70
     1
102
RTVSPropertyOp4
 70
     1
102
RTVSPropertyOp5
 70
     1
102
RTVSPropertyOp6
 70
     1
102
RTVSPropertyOp7
 70
     1
102
RTVSPropertyOp8
 70
     1
102
RTVSPropertyOp9
 70
     1
102
RTVSPropertyOp10
 70
     1
102
RTVSPropertyOp11
 70
     1
102
RTVSPropertyOp12
 70
     1
102
RTVSPropertyOp13
 70
     1
102
RTVSPropertyOp14
 70
     1
102
RTVSPropertyOp15
 70
     1
102
RTVSPropertyOp16
 70
     1
102
RTVSPropertyOp17
 70
     1
102
RTVSPropertyOp18
 70
     1
102
RTVSPropertyOp19
 70
     1
102
RTVSPropertyOp20
 70
     1
102
RTVSPropertyOp21
 70
     1
102
RTVSPropertyOp22
 70
     1
102
RTVSPropertyOp23
 70
     1
102
RTVSPropertyOp24
 70
     1
102
RTVSPropertyOp25
 70
     1
102
RTVSPropertyOp26
 70
     1
102
RTVSPropertyOp27
 70
     1
102
RTVSPropertyOp28
 70
     1
102
RTVSPropertyOp29
 70
     1
102
RTVSPropertyOp30
 70
     1
102
RTVSPropertyOp31
 70
     1
102
RTVSPropertyOp32
 70
     1
  0
XRECORD
  5
BD7
102
{ACAD_REACTORS
330
BD6
102
}
330
BD6
100
AcDbXrecord
280
     1
102
RTVSPropertyOp0
 70
     1
102
RTVSPropertyOp1
 70
     1
102
RTVSPropertyOp2
 70
     1
102
RTVSPropertyOp3
 70
     1
102
RTVSPropertyOp4
 70
     1
102
RTVSPropertyOp5
 70
     1
102
RTVSPropertyOp6
 70
     1
102
RTVSPropertyOp7
 70
     1
102
RTVSPropertyOp8
 70
     1
102
RTVSPropertyOp9
 70
     1
102
RTVSPropertyOp10
 70
     1
102
RTVSPropertyOp11
 70
     1
102
RTVSPropertyOp12
 70
     1
102
RTVSPropertyOp13
 70
     1
102
RTVSPropertyOp14
 70
     1
102
RTVSPropertyOp15
 70
     1
102
RTVSPropertyOp16
 70
     1
102
RTVSPropertyOp17
 70
     1
102
RTVSPropertyOp18
 70
     1
102
RTVSPropertyOp19
 70
     1
102
RTVSPropertyOp20
 70
     1
102
RTVSPropertyOp21
 70
     1
102
RTVSPropertyOp22
 70
     1
102
RTVSPropertyOp23
 70
     1
102
RTVSPropertyOp24
 70
     1
102
RTVSPropertyOp25
 70
     1
102
RTVSPropertyOp26
 70
     1
102
RTVSPropertyOp27
 70
     1
102
RTVSPropertyOp28
 70
     1
102
RTVSPropertyOp29
 70
     1
102
RTVSPropertyOp30
 70
     1
102
RTVSPropertyOp31
 70
     1
102
RTVSPropertyOp32
 70
     1
  0
XRECORD
  5
BD9
102
{ACAD_REACTORS
330
BD8
102
}
330
BD8
100
AcDbXrecord
280
     1
102
RTVSPropertyOp0
 70
     1
102
RTVSPropertyOp1
 70
     1
102
RTVSPropertyOp2
 70
     1
102
RTVSPropertyOp3
 70
     1
102
RTVSPropertyOp4
 70
     1
102
RTVSPropertyOp5
 70
     1
102
RTVSPropertyOp6
 70
     1
102
RTVSPropertyOp7
 70
     1
102
RTVSPropertyOp8
 70
     1
102
RTVSPropertyOp9
 70
     1
102
RTVSPropertyOp10
 70
     1
102
RTVSPropertyOp11
 70
     1
102
RTVSPropertyOp12
 70
     1
102
RTVSPropertyOp13
 70
     1
102
RTVSPropertyOp14
 70
     1
102
RTVSPropertyOp15
 70
     1
102
RTVSPropertyOp16
 70
     1
102
RTVSPropertyOp17
 70
     1
102
RTVSPropertyOp18
 70
     1
102
RTVSPropertyOp19
 70
     1
102
RTVSPropertyOp20
 70
     1
102
RTVSPropertyOp21
 70
     1
102
RTVSPropertyOp22
 70
     1
102
RTVSPropertyOp23
 70
     1
102
RTVSPropertyOp24
 70
     1
102
RTVSPropertyOp25
 70
     1
102
RTVSPropertyOp26
 70
     1
102
RTVSPropertyOp27
 70
     1
102
RTVSPropertyOp28
 70
     1
102
RTVSPropertyOp29
 70
     1
102
RTVSPropertyOp30
 70
     1
102
RTVSPropertyOp31
 70
     1
102
RTVSPropertyOp32
 70
     1
  0
XRECORD
  5
BDB
102
{ACAD_REACTORS
330
BDA
102
}
330
BDA
100
AcDbXrecord
280
     1
102
RTVSPropertyOp0
 70
     1
102
RTVSPropertyOp1
 70
     1
102
RTVSPropertyOp2
 70
     1
102
RTVSPropertyOp3
 70
     1
102
RTVSPropertyOp4
 70
     1
102
RTVSPropertyOp5
 70
     1
102
RTVSPropertyOp6
 70
     1
102
RTVSPropertyOp7
 70
     1
102
RTVSPropertyOp8
 70
     1
102
RTVSPropertyOp9
 70
     1
102
RTVSPropertyOp10
 70
     1
102
RTVSPropertyOp11
 70
     1
102
RTVSPropertyOp12
 70
     1
102
RTVSPropertyOp13
 70
     1
102
RTVSPropertyOp14
 70
     1
102
RTVSPropertyOp15
 70
     1
102
RTVSPropertyOp16
 70
     1
102
RTVSPropertyOp17
 70
     1
102
RTVSPropertyOp18
 70
     1
102
RTVSPropertyOp19
 70
     1
102
RTVSPropertyOp20
 70
     1
102
RTVSPropertyOp21
 70
     1
102
RTVSPropertyOp22
 70
     1
102
RTVSPropertyOp23
 70
     1
102
RTVSPropertyOp24
 70
     1
102
RTVSPropertyOp25
 70
     1
102
RTVSPropertyOp26
 70
     1
102
RTVSPropertyOp27
 70
     1
102
RTVSPropertyOp28
 70
     1
102
RTVSPropertyOp29
 70
     1
102
RTVSPropertyOp30
 70
     1
102
RTVSPropertyOp31
 70
     1
102
RTVSPropertyOp32
 70
     1
  0
XRECORD
  5
BE3
102
{ACAD_REACTORS
330
BE2
102
}
330
BE2
100
AcDbXrecord
280
     1
102
RTVSPropertyOp0
 70
     1
102
RTVSPropertyOp1
 70
     1
102
RTVSPropertyOp2
 70
     1
102
RTVSPropertyOp3
 70
     1
102
RTVSPropertyOp4
 70
     1
102
RTVSPropertyOp5
 70
     1
102
RTVSPropertyOp6
 70
     1
102
RTVSPropertyOp7
 70
     1
102
RTVSPropertyOp8
 70
     1
102
RTVSPropertyOp9
 70
     1
102
RTVSPropertyOp10
 70
     1
102
RTVSPropertyOp11
 70
     1
102
RTVSPropertyOp12
 70
     1
102
RTVSPropertyOp13
 70
     1
102
RTVSPropertyOp14
 70
     1
102
RTVSPropertyOp15
 70
     1
102
RTVSPropertyOp16
 70
     1
102
RTVSPropertyOp17
 70
     1
102
RTVSPropertyOp18
 70
     1
102
RTVSPropertyOp19
 70
     1
102
RTVSPropertyOp20
 70
     1
102
RTVSPropertyOp21
 70
     1
102
RTVSPropertyOp22
 70
     1
102
RTVSPropertyOp23
 70
     1
102
RTVSPropertyOp24
 70
     1
102
RTVSPropertyOp25
 70
     1
102
RTVSPropertyOp26
 70
     1
102
RTVSPropertyOp27
 70
     1
102
RTVSPropertyOp28
 70
     1
102
RTVSPropertyOp29
 70
     1
102
RTVSPropertyOp30
 70
     1
102
RTVSPropertyOp31
 70
     1
102
RTVSPropertyOp32
 70
     1
  0
XRECORD
  5
BFF
102
{ACAD_REACTORS
330
BFE
102
}
330
BFE
100
AcDbXrecord
280
     1
102
RTVSPropertyOp0
 70
     0
102
RTVSPropertyOp1
 70
     0
102
RTVSPropertyOp2
 70
     0
102
RTVSPropertyOp3
 70
     0
102
RTVSPropertyOp4
 70
     0
102
RTVSPropertyOp5
 70
     0
102
RTVSPropertyOp6
 70
     0
102
RTVSPropertyOp7
 70
     0
102
RTVSPropertyOp8
 70
     0
102
RTVSPropertyOp9
 70
     0
102
RTVSPropertyOp10
 70
     0
102
RTVSPropertyOp11
 70
     0
102
RTVSPropertyOp12
 70
     0
102
RTVSPropertyOp13
 70
     0
102
RTVSPropertyOp14
 70
     2
102
RTVSPropertyOp15
 70
     0
102
RTVSPropertyOp16
 70
     0
102
RTVSPropertyOp17
 70
     0
102
RTVSPropertyOp18
 70
     0
102
RTVSPropertyOp19
 70
     0
102
RTVSPropertyOp20
 70
     0
102
RTVSPropertyOp21
 70
     0
102
RTVSPropertyOp22
 70
     0
102
RTVSPropertyOp23
 70
     0
102
RTVSPropertyOp24
 70
     0
102
RTVSPropertyOp25
 70
     0
102
RTVSPropertyOp26
 70
     0
102
RTVSPropertyOp27
 70
     0
102
RTVSPropertyOp28
 70
     1
102
RTVSPropertyOp29
 70
     1
102
RTVSPropertyOp30
 70
     1
102
RTVSPropertyOp31
 70
     1
102
RTVSPropertyOp32
 70
     1
  0
XRECORD
  5
BEF
102
{ACAD_REACTORS
330
BEE
102
}
330
BEE
100
AcDbXrecord
280
     1
102
RTVSPropertyOp0
 70
     1
102
RTVSPropertyOp1
 70
     1
102
RTVSPropertyOp2
 70
     1
102
RTVSPropertyOp3
 70
     1
102
RTVSPropertyOp4
 70
     1
102
RTVSPropertyOp5
 70
     1
102
RTVSPropertyOp6
 70
     1
102
RTVSPropertyOp7
 70
     1
102
RTVSPropertyOp8
 70
     1
102
RTVSPropertyOp9
 70
     1
102
RTVSPropertyOp10
 70
     1
102
RTVSPropertyOp11
 70
     1
102
RTVSPropertyOp12
 70
     1
102
RTVSPropertyOp13
 70
     1
102
RTVSPropertyOp14
 70
     1
102
RTVSPropertyOp15
 70
     1
102
RTVSPropertyOp16
 70
     1
102
RTVSPropertyOp17
 70
     1
102
RTVSPropertyOp18
 70
     1
102
RTVSPropertyOp19
 70
     1
102
RTVSPropertyOp20
 70
     1
102
RTVSPropertyOp21
 70
     1
102
RTVSPropertyOp22
 70
     1
102
RTVSPropertyOp23
 70
     1
102
RTVSPropertyOp24
 70
     1
102
RTVSPropertyOp25
 70
     1
102
RTVSPropertyOp26
 70
     1
102
RTVSPropertyOp27
 70
     1
102
RTVSPropertyOp28
 70
     1
102
RTVSPropertyOp29
 70
     1
102
RTVSPropertyOp30
 70
     1
102
RTVSPropertyOp31
 70
     1
102
RTVSPropertyOp32
 70
     1
  0
XRECORD
  5
C01
102
{ACAD_REACTORS
330
C00
102
}
330
C00
100
AcDbXrecord
280
     1
102
RTVSPropertyOp0
 70
     0
102
RTVSPropertyOp1
 70
     0
102
RTVSPropertyOp2
 70
     0
102
RTVSPropertyOp3
 70
     0
102
RTVSPropertyOp4
 70
     0
102
RTVSPropertyOp5
 70
     0
102
RTVSPropertyOp6
 70
     0
102
RTVSPropertyOp7
 70
     0
102
RTVSPropertyOp8
 70
     0
102
RTVSPropertyOp9
 70
     0
102
RTVSPropertyOp10
 70
     0
102
RTVSPropertyOp11
 70
     0
102
RTVSPropertyOp12
 70
     0
102
RTVSPropertyOp13
 70
     0
102
RTVSPropertyOp14
 70
     2
102
RTVSPropertyOp15
 70
     0
102
RTVSPropertyOp16
 70
     0
102
RTVSPropertyOp17
 70
     0
102
RTVSPropertyOp18
 70
     0
102
RTVSPropertyOp19
 70
     0
102
RTVSPropertyOp20
 70
     0
102
RTVSPropertyOp21
 70
     0
102
RTVSPropertyOp22
 70
     0
102
RTVSPropertyOp23
 70
     0
102
RTVSPropertyOp24
 70
     0
102
RTVSPropertyOp25
 70
     0
102
RTVSPropertyOp26
 70
     0
102
RTVSPropertyOp27
 70
     0
102
RTVSPropertyOp28
 70
     1
102
RTVSPropertyOp29
 70
     1
102
RTVSPropertyOp30
 70
     1
102
RTVSPropertyOp31
 70
     1
102
RTVSPropertyOp32
 70
     1
  0
XRECORD
  5
BE7
102
{ACAD_REACTORS
330
BE6
102
}
330
BE6
100
AcDbXrecord
280
     1
102
RTVSPropertyOp0
 70
     1
102
RTVSPropertyOp1
 70
     1
102
RTVSPropertyOp2
 70
     1
102
RTVSPropertyOp3
 70
     1
102
RTVSPropertyOp4
 70
     1
102
RTVSPropertyOp5
 70
     1
102
RTVSPropertyOp6
 70
     1
102
RTVSPropertyOp7
 70
     1
102
RTVSPropertyOp8
 70
     1
102
RTVSPropertyOp9
 70
     1
102
RTVSPropertyOp10
 70
     1
102
RTVSPropertyOp11
 70
     1
102
RTVSPropertyOp12
 70
     1
102
RTVSPropertyOp13
 70
     1
102
RTVSPropertyOp14
 70
     1
102
RTVSPropertyOp15
 70
     1
102
RTVSPropertyOp16
 70
     1
102
RTVSPropertyOp17
 70
     1
102
RTVSPropertyOp18
 70
     1
102
RTVSPropertyOp19
 70
     1
102
RTVSPropertyOp20
 70
     1
102
RTVSPropertyOp21
 70
     1
102
RTVSPropertyOp22
 70
     1
102
RTVSPropertyOp23
 70
     1
102
RTVSPropertyOp24
 70
     1
102
RTVSPropertyOp25
 70
     1
102
RTVSPropertyOp26
 70
     1
102
RTVSPropertyOp27
 70
     1
102
RTVSPropertyOp28
 70
     1
102
RTVSPropertyOp29
 70
     1
102
RTVSPropertyOp30
 70
     1
102
RTVSPropertyOp31
 70
     1
102
RTVSPropertyOp32
 70
     1
  0
XRECORD
  5
BFD
102
{ACAD_REACTORS
330
BFC
102
}
330
BFC
100
AcDbXrecord
280
     1
102
RTVSPropertyOp0
 70
     1
102
RTVSPropertyOp1
 70
     1
102
RTVSPropertyOp2
 70
     1
102
RTVSPropertyOp3
 70
     1
102
RTVSPropertyOp4
 70
     1
102
RTVSPropertyOp5
 70
     1
102
RTVSPropertyOp6
 70
     1
102
RTVSPropertyOp7
 70
     1
102
RTVSPropertyOp8
 70
     1
102
RTVSPropertyOp9
 70
     1
102
RTVSPropertyOp10
 70
     1
102
RTVSPropertyOp11
 70
     1
102
RTVSPropertyOp12
 70
     1
102
RTVSPropertyOp13
 70
     1
102
RTVSPropertyOp14
 70
     1
102
RTVSPropertyOp15
 70
     1
102
RTVSPropertyOp16
 70
     1
102
RTVSPropertyOp17
 70
     1
102
RTVSPropertyOp18
 70
     1
102
RTVSPropertyOp19
 70
     1
102
RTVSPropertyOp20
 70
     1
102
RTVSPropertyOp21
 70
     1
102
RTVSPropertyOp22
 70
     1
102
RTVSPropertyOp23
 70
     1
102
RTVSPropertyOp24
 70
     1
102
RTVSPropertyOp25
 70
     1
102
RTVSPropertyOp26
 70
     1
102
RTVSPropertyOp27
 70
     1
102
RTVSPropertyOp28
 70
     1
102
RTVSPropertyOp29
 70
     1
102
RTVSPropertyOp30
 70
     1
102
RTVSPropertyOp31
 70
     1
102
RTVSPropertyOp32
 70
     1
  0
XRECORD
  5
BFB
102
{ACAD_REACTORS
330
BFA
102
}
330
BFA
100
AcDbXrecord
280
     1
102
RTVSPropertyOp0
 70
     1
102
RTVSPropertyOp1
 70
     1
102
RTVSPropertyOp2
 70
     1
102
RTVSPropertyOp3
 70
     1
102
RTVSPropertyOp4
 70
     1
102
RTVSPropertyOp5
 70
     1
102
RTVSPropertyOp6
 70
     1
102
RTVSPropertyOp7
 70
     1
102
RTVSPropertyOp8
 70
     1
102
RTVSPropertyOp9
 70
     1
102
RTVSPropertyOp10
 70
     1
102
RTVSPropertyOp11
 70
     1
102
RTVSPropertyOp12
 70
     1
102
RTVSPropertyOp13
 70
     1
102
RTVSPropertyOp14
 70
     1
102
RTVSPropertyOp15
 70
     1
102
RTVSPropertyOp16
 70
     1
102
RTVSPropertyOp17
 70
     1
102
RTVSPropertyOp18
 70
     1
102
RTVSPropertyOp19
 70
     1
102
RTVSPropertyOp20
 70
     1
102
RTVSPropertyOp21
 70
     1
102
RTVSPropertyOp22
 70
     1
102
RTVSPropertyOp23
 70
     1
102
RTVSPropertyOp24
 70
     1
102
RTVSPropertyOp25
 70
     1
102
RTVSPropertyOp26
 70
     1
102
RTVSPropertyOp27
 70
     1
102
RTVSPropertyOp28
 70
     1
102
RTVSPropertyOp29
 70
     1
102
RTVSPropertyOp30
 70
     1
102
RTVSPropertyOp31
 70
     1
102
RTVSPropertyOp32
 70
     1
  0
XRECORD
  5
BF5
102
{ACAD_REACTORS
330
BF4
102
}
330
BF4
100
AcDbXrecord
280
     1
102
RTVSPropertyOp0
 70
     1
102
RTVSPropertyOp1
 70
     1
102
RTVSPropertyOp2
 70
     1
102
RTVSPropertyOp3
 70
     1
102
RTVSPropertyOp4
 70
     1
102
RTVSPropertyOp5
 70
     1
102
RTVSPropertyOp6
 70
     1
102
RTVSPropertyOp7
 70
     1
102
RTVSPropertyOp8
 70
     1
102
RTVSPropertyOp9
 70
     1
102
RTVSPropertyOp10
 70
     1
102
RTVSPropertyOp11
 70
     1
102
RTVSPropertyOp12
 70
     1
102
RTVSPropertyOp13
 70
     1
102
RTVSPropertyOp14
 70
     1
102
RTVSPropertyOp15
 70
     1
102
RTVSPropertyOp16
 70
     1
102
RTVSPropertyOp17
 70
     1
102
RTVSPropertyOp18
 70
     1
102
RTVSPropertyOp19
 70
     1
102
RTVSPropertyOp20
 70
     1
102
RTVSPropertyOp21
 70
     1
102
RTVSPropertyOp22
 70
     1
102
RTVSPropertyOp23
 70
     1
102
RTVSPropertyOp24
 70
     1
102
RTVSPropertyOp25
 70
     1
102
RTVSPropertyOp26
 70
     1
102
RTVSPropertyOp27
 70
     1
102
RTVSPropertyOp28
 70
     1
102
RTVSPropertyOp29
 70
     1
102
RTVSPropertyOp30
 70
     1
102
RTVSPropertyOp31
 70
     1
102
RTVSPropertyOp32
 70
     1
  0
XRECORD
  5
BF7
102
{ACAD_REACTORS
330
BF6
102
}
330
BF6
100
AcDbXrecord
280
     1
102
RTVSPropertyOp0
 70
     1
102
RTVSPropertyOp1
 70
     1
102
RTVSPropertyOp2
 70
     1
102
RTVSPropertyOp3
 70
     1
102
RTVSPropertyOp4
 70
     1
102
RTVSPropertyOp5
 70
     1
102
RTVSPropertyOp6
 70
     1
102
RTVSPropertyOp7
 70
     1
102
RTVSPropertyOp8
 70
     1
102
RTVSPropertyOp9
 70
     1
102
RTVSPropertyOp10
 70
     1
102
RTVSPropertyOp11
 70
     1
102
RTVSPropertyOp12
 70
     1
102
RTVSPropertyOp13
 70
     1
102
RTVSPropertyOp14
 70
     1
102
RTVSPropertyOp15
 70
     1
102
RTVSPropertyOp16
 70
     1
102
RTVSPropertyOp17
 70
     1
102
RTVSPropertyOp18
 70
     1
102
RTVSPropertyOp19
 70
     1
102
RTVSPropertyOp20
 70
     1
102
RTVSPropertyOp21
 70
     1
102
RTVSPropertyOp22
 70
     1
102
RTVSPropertyOp23
 70
     1
102
RTVSPropertyOp24
 70
     1
102
RTVSPropertyOp25
 70
     1
102
RTVSPropertyOp26
 70
     1
102
RTVSPropertyOp27
 70
     1
102
RTVSPropertyOp28
 70
     1
102
RTVSPropertyOp29
 70
     1
102
RTVSPropertyOp30
 70
     1
102
RTVSPropertyOp31
 70
     1
102
RTVSPropertyOp32
 70
     1
  0
XRECORD
  5
BED
102
{ACAD_REACTORS
330
BEC
102
}
330
BEC
100
AcDbXrecord
280
     1
102
RTVSPropertyOp0
 70
     1
102
RTVSPropertyOp1
 70
     1
102
RTVSPropertyOp2
 70
     1
102
RTVSPropertyOp3
 70
     1
102
RTVSPropertyOp4
 70
     1
102
RTVSPropertyOp5
 70
     1
102
RTVSPropertyOp6
 70
     1
102
RTVSPropertyOp7
 70
     1
102
RTVSPropertyOp8
 70
     1
102
RTVSPropertyOp9
 70
     1
102
RTVSPropertyOp10
 70
     1
102
RTVSPropertyOp11
 70
     1
102
RTVSPropertyOp12
 70
     1
102
RTVSPropertyOp13
 70
     1
102
RTVSPropertyOp14
 70
     1
102
RTVSPropertyOp15
 70
     1
102
RTVSPropertyOp16
 70
     1
102
RTVSPropertyOp17
 70
     1
102
RTVSPropertyOp18
 70
     1
102
RTVSPropertyOp19
 70
     1
102
RTVSPropertyOp20
 70
     1
102
RTVSPropertyOp21
 70
     1
102
RTVSPropertyOp22
 70
     1
102
RTVSPropertyOp23
 70
     1
102
RTVSPropertyOp24
 70
     1
102
RTVSPropertyOp25
 70
     1
102
RTVSPropertyOp26
 70
     1
102
RTVSPropertyOp27
 70
     1
102
RTVSPropertyOp28
 70
     1
102
RTVSPropertyOp29
 70
     1
102
RTVSPropertyOp30
 70
     1
102
RTVSPropertyOp31
 70
     1
102
RTVSPropertyOp32
 70
     1
  0
XRECORD
  5
BE1
102
{ACAD_REACTORS
330
BE0
102
}
330
BE0
100
AcDbXrecord
280
     1
102
RTVSPropertyOp0
 70
     1
102
RTVSPropertyOp1
 70
     1
102
RTVSPropertyOp2
 70
     1
102
RTVSPropertyOp3
 70
     1
102
RTVSPropertyOp4
 70
     1
102
RTVSPropertyOp5
 70
     1
102
RTVSPropertyOp6
 70
     1
102
RTVSPropertyOp7
 70
     1
102
RTVSPropertyOp8
 70
     1
102
RTVSPropertyOp9
 70
     1
102
RTVSPropertyOp10
 70
     1
102
RTVSPropertyOp11
 70
     1
102
RTVSPropertyOp12
 70
     1
102
RTVSPropertyOp13
 70
     1
102
RTVSPropertyOp14
 70
     1
102
RTVSPropertyOp15
 70
     1
102
RTVSPropertyOp16
 70
     1
102
RTVSPropertyOp17
 70
     1
102
RTVSPropertyOp18
 70
     1
102
RTVSPropertyOp19
 70
     1
102
RTVSPropertyOp20
 70
     1
102
RTVSPropertyOp21
 70
     1
102
RTVSPropertyOp22
 70
     1
102
RTVSPropertyOp23
 70
     1
102
RTVSPropertyOp24
 70
     1
102
RTVSPropertyOp25
 70
     1
102
RTVSPropertyOp26
 70
     1
102
RTVSPropertyOp27
 70
     1
102
RTVSPropertyOp28
 70
     1
102
RTVSPropertyOp29
 70
     1
102
RTVSPropertyOp30
 70
     1
102
RTVSPropertyOp31
 70
     1
102
RTVSPropertyOp32
 70
     1
  0
XRECORD
  5
BF9
102
{ACAD_REACTORS
330
BF8
102
}
330
BF8
100
AcDbXrecord
280
     1
102
RTVSPropertyOp0
 70
     1
102
RTVSPropertyOp1
 70
     1
102
RTVSPropertyOp2
 70
     1
102
RTVSPropertyOp3
 70
     1
102
RTVSPropertyOp4
 70
     1
102
RTVSPropertyOp5
 70
     1
102
RTVSPropertyOp6
 70
     1
102
RTVSPropertyOp7
 70
     1
102
RTVSPropertyOp8
 70
     1
102
RTVSPropertyOp9
 70
     1
102
RTVSPropertyOp10
 70
     1
102
RTVSPropertyOp11
 70
     1
102
RTVSPropertyOp12
 70
     1
102
RTVSPropertyOp13
 70
     1
102
RTVSPropertyOp14
 70
     1
102
RTVSPropertyOp15
 70
     1
102
RTVSPropertyOp16
 70
     1
102
RTVSPropertyOp17
 70
     1
102
RTVSPropertyOp18
 70
     1
102
RTVSPropertyOp19
 70
     1
102
RTVSPropertyOp20
 70
     1
102
RTVSPropertyOp21
 70
     1
102
RTVSPropertyOp22
 70
     1
102
RTVSPropertyOp23
 70
     1
102
RTVSPropertyOp24
 70
     1
102
RTVSPropertyOp25
 70
     1
102
RTVSPropertyOp26
 70
     1
102
RTVSPropertyOp27
 70
     1
102
RTVSPropertyOp28
 70
     1
102
RTVSPropertyOp29
 70
     1
102
RTVSPropertyOp30
 70
     1
102
RTVSPropertyOp31
 70
     1
102
RTVSPropertyOp32
 70
     1
  0
ENDSEC
  0
EOF
