  0
SECTION
  2
HEADER
  9
$ACADVER
  1
AC1015
  9
$ACADMAINTVER
 70
    20
  9
$DWGCODEPAGE
  3
ANSI_1252
  9
$INSBASE
 10
227.238686482902
 20
-143.8756226759189
 30
0.0
  9
$EXTMIN
 10
-0.0000000000000568
 20
0.0
 30
0.0
  9
$EXTMAX
 10
48.68193300713414
 20
27.29626333709317
 30
0.0
  9
$LIMMIN
 10
0.0
 20
0.0
  9
$LIMMAX
 10
48.68193300713414
 20
27.29626333709317
  9
$ORTHOMODE
 70
     0
  9
$REGENMODE
 70
     1
  9
$FILLMODE
 70
     1
  9
$QTEXTMODE
 70
     0
  9
$MIRRTEXT
 70
     0
  9
$LTSCALE
 40
1.0
  9
$ATTMODE
 70
     1
  9
$TEXTSIZE
 40
0.375
  9
$TRACEWID
 40
0.01
  9
$TEXTSTYLE
  7
STANDARD
  9
$CLAYER
  8
0
  9
$CELTYPE
  6
BYLAYER
  9
$CECOLOR
 62
   256
  9
$CELTSCALE
 40
1.0
  9
$DISPSILH
 70
     0
  9
$DIMSCALE
 40
1.0
  9
$DIMASZ
 40
0.18
  9
$DIMEXO
 40
0.0625
  9
$DIMDLI
 40
0.38
  9
$DIMRND
 40
0.0
  9
$DIMDLE
 40
0.0
  9
$DIMEXE
 40
0.18
  9
$DIMTP
 40
0.0
  9
$DIMTM
 40
0.0
  9
$DIMTXT
 40
0.18
  9
$DIMCEN
 40
0.09
  9
$DIMTSZ
 40
0.0
  9
$DIMTOL
 70
     0
  9
$DIMLIM
 70
     0
  9
$DIMTIH
 70
     0
  9
$DIMTOH
 70
     0
  9
$DIMSE1
 70
     0
  9
$DIMSE2
 70
     0
  9
$DIMTAD
 70
     1
  9
$DIMZIN
 70
     0
  9
$DIMBLK
  1

  9
$DIMASO
 70
     1
  9
$DIMSHO
 70
     1
  9
$DIMPOST
  1

  9
$DIMAPOST
  1

  9
$DIMALT
 70
     0
  9
$DIMALTD
 70
     2
  9
$DIMALTF
 40
25.4
  9
$DIMLFAC
 40
1.0
  9
$DIMTOFL
 70
     0
  9
$DIMTVP
 40
0.0
  9
$DIMTIX
 70
     0
  9
$DIMSOXD
 70
     0
  9
$DIMSAH
 70
     0
  9
$DIMBLK1
  1

  9
$DIMBLK2
  1

  9
$DIMSTYLE
  2
Standard
  9
$DIMCLRD
 70
     0
  9
$DIMCLRE
 70
     0
  9
$DIMCLRT
 70
     0
  9
$DIMTFAC
 40
1.0
  9
$DIMGAP
 40
0.09
  9
$DIMJUST
 70
     0
  9
$DIMSD1
 70
     0
  9
$DIMSD2
 70
     0
  9
$DIMTOLJ
 70
     1
  9
$DIMTZIN
 70
     0
  9
$DIMALTZ
 70
     0
  9
$DIMALTTZ
 70
     0
  9
$DIMUPT
 70
     0
  9
$DIMDEC
 70
     4
  9
$DIMTDEC
 70
     4
  9
$DIMALTU
 70
     2
  9
$DIMALTTD
 70
     2
  9
$DIMTXSTY
  7
STANDARD
  9
$DIMAUNIT
 70
     0
  9
$DIMADEC
 70
     0
  9
$DIMALTRND
 40
0.0
  9
$DIMAZIN
 70
     0
  9
$DIMDSEP
 70
    46
  9
$DIMATFIT
 70
     3
  9
$DIMFRAC
 70
     2
  9
$DIMLDRBLK
  1

  9
$DIMLUNIT
 70
     4
  9
$DIMLWD
 70
    -2
  9
$DIMLWE
 70
    -2
  9
$DIMTMOVE
 70
     0
  9
$LUNITS
 70
     2
  9
$LUPREC
 70
     5
  9
$SKETCHINC
 40
0.1
  9
$FILLETRAD
 40
0.031
  9
$AUNITS
 70
     0
  9
$AUPREC
 70
     0
  9
$MENU
  1
ACAD
  9
$ELEVATION
 40
0.0
  9
$PELEVATION
 40
0.0
  9
$THICKNESS
 40
0.0
  9
$LIMCHECK
 70
     1
  9
$CHAMFERA
 40
0.0
  9
$CHAMFERB
 40
0.0
  9
$CHAMFERC
 40
0.0
  9
$CHAMFERD
 40
0.0
  9
$SKPOLY
 70
     0
  9
$TDCREATE
 40
2450361.590484606
  9
$TDUCREATE
 40
2450361.798817940
  9
$TDUPDATE
 40
2457809.469038159
  9
$TDUUPDATE
 40
2457809.677371493
  9
$TDINDWG
 40
1.4399902199
  9
$TDUSRTIMER
 40
1.4399902199
  9
$USRTIMER
 70
     1
  9
$ANGBASE
 50
0.0
  9
$ANGDIR
 70
     0
  9
$PDMODE
 70
     0
  9
$PDSIZE
 40
0.0
  9
$PLINEWID
 40
0.0
  9
$SPLFRAME
 70
     0
  9
$SPLINETYPE
 70
     6
  9
$SPLINESEGS
 70
     8
  9
$HANDSEED
  5
821
  9
$SURFTAB1
 70
     6
  9
$SURFTAB2
 70
     6
  9
$SURFTYPE
 70
     6
  9
$SURFU
 70
     6
  9
$SURFV
 70
     6
  9
$UCSBASE
  2

  9
$UCSNAME
  2

  9
$UCSORG
 10
-0.0000000000000568
 20
0.0000000000000284
 30
0.0
  9
$UCSXDIR
 10
1.0
 20
0.0
 30
0.0
  9
$UCSYDIR
 10
0.0
 20
1.0
 30
0.0
  9
$UCSORTHOREF
  2

  9
$UCSORTHOVIEW
 70
     0
  9
$UCSORGTOP
 10
0.0
 20
0.0
 30
0.0
  9
$UCSORGBOTTOM
 10
0.0
 20
0.0
 30
0.0
  9
$UCSORGLEFT
 10
0.0
 20
0.0
 30
0.0
  9
$UCSORGRIGHT
 10
0.0
 20
0.0
 30
0.0
  9
$UCSORGFRONT
 10
0.0
 20
0.0
 30
0.0
  9
$UCSORGBACK
 10
0.0
 20
0.0
 30
0.0
  9
$PUCSBASE
  2

  9
$PUCSNAME
  2

  9
$PUCSORG
 10
0.0
 20
0.0
 30
0.0
  9
$PUCSXDIR
 10
1.0
 20
0.0
 30
0.0
  9
$PUCSYDIR
 10
0.0
 20
1.0
 30
0.0
  9
$PUCSORTHOREF
  2

  9
$PUCSORTHOVIEW
 70
     0
  9
$PUCSORGTOP
 10
0.0
 20
0.0
 30
0.0
  9
$PUCSORGBOTTOM
 10
0.0
 20
0.0
 30
0.0
  9
$PUCSORGLEFT
 10
0.0
 20
0.0
 30
0.0
  9
$PUCSORGRIGHT
 10
0.0
 20
0.0
 30
0.0
  9
$PUCSORGFRONT
 10
0.0
 20
0.0
 30
0.0
  9
$PUCSORGBACK
 10
0.0
 20
0.0
 30
0.0
  9
$USERI1
 70
  2000
  9
$USERI2
 70
     0
  9
$USERI3
 70
     0
  9
$USERI4
 70
     0
  9
$USERI5
 70
     0
  9
$USERR1
 40
1.0
  9
$USERR2
 40
0.0
  9
$USERR3
 40
0.0
  9
$USERR4
 40
0.0
  9
$USERR5
 40
0.0
  9
$WORLDVIEW
 70
     1
  9
$SHADEDGE
 70
     3
  9
$SHADEDIF
 70
    70
  9
$TILEMODE
 70
     1
  9
$MAXACTVP
 70
    16
  9
$PINSBASE
 10
0.0
 20
0.0
 30
0.0
  9
$PLIMCHECK
 70
     0
  9
$PEXTMIN
 10
1.000000000000000E+20
 20
1.000000000000000E+20
 30
1.000000000000000E+20
  9
$PEXTMAX
 10
-1.000000000000000E+20
 20
-1.000000000000000E+20
 30
-1.000000000000000E+20
  9
$PLIMMIN
 10
0.0
 20
0.0
  9
$PLIMMAX
 10
12.0
 20
9.0
  9
$UNITMODE
 70
     0
  9
$VISRETAIN
 70
     0
  9
$PLINEGEN
 70
     0
  9
$PSLTSCALE
 70
     0
  9
$TREEDEPTH
 70
  3020
  9
$CMLSTYLE
  2
STANDARD
  9
$CMLJUST
 70
     0
  9
$CMLSCALE
 40
1.0
  9
$PROXYGRAPHICS
 70
     1
  9
$MEASUREMENT
 70
     0
  9
$CELWEIGHT
370
    -1
  9
$ENDCAPS
280
     0
  9
$JOINSTYLE
280
     0
  9
$LWDISPLAY
290
     0
  9
$INSUNITS
 70
     0
  9
$HYPERLINKBASE
  1

  9
$STYLESHEET
  1
hp5000n.ctb
  9
$XEDIT
290
     1
  9
$CEPSNTYPE
380
     0
  9
$PSTYLEMODE
290
     1
  9
$FINGERPRINTGUID
  2

  9
$VERSIONGUID
  2
{F030BE63-A774-44CD-B9E8-F6B717996981}
  9
$EXTNAMES
290
     1
  9
$PSVPSCALE
 40
0.0
  9
$OLESTARTUP
290
     0
  0
ENDSEC
  0
SECTION
  2
CLASSES
  0
CLASS
  1
ACDBDICTIONARYWDFLT
  2
AcDbDictionaryWithDefault
  3
ObjectDBX Classes
 90
        0
280
     0
281
     0
  0
CLASS
  1
DICTIONARYVAR
  2
AcDbDictionaryVar
  3
ObjectDBX Classes
 90
        0
280
     0
281
     0
  0
CLASS
  1
ACDBPLACEHOLDER
  2
AcDbPlaceHolder
  3
ObjectDBX Classes
 90
        0
280
     0
281
     0
  0
CLASS
  1
LAYOUT
  2
AcDbLayout
  3
ObjectDBX Classes
 90
        0
280
     0
281
     0
  0
CLASS
  1
TABLESTYLE
  2
AcDbTableStyle
  3
ObjectDBX Classes
 90
     4095
280
     0
281
     0
  0
CLASS
  1
SORTENTSTABLE
  2
AcDbSortentsTable
  3
ObjectDBX Classes
 90
        0
280
     0
281
     0
  0
CLASS
  1
MATERIAL
  2
AcDbMaterial
  3
ObjectDBX Classes
 90
     1153
280
     0
281
     0
  0
CLASS
  1
VISUALSTYLE
  2
AcDbVisualStyle
  3
ObjectDBX Classes
 90
     4095
280
     0
281
     0
  0
CLASS
  1
SCALE
  2
AcDbScale
  3
ObjectDBX Classes
 90
     1153
280
     0
281
     0
  0
CLASS
  1
MLEADERSTYLE
  2
AcDbMLeaderStyle
  3
ACDB_MLEADERSTYLE_CLASS
 90
     4095
280
     0
281
     0
  0
CLASS
  1
CELLSTYLEMAP
  2
AcDbCellStyleMap
  3
ObjectDBX Classes
 90
     1152
280
     0
281
     0
  0
CLASS
  1
EXACXREFPANELOBJECT
  2
ExAcXREFPanelObject
  3
EXAC_ESW
 90
     1025
280
     0
281
     0
  0
CLASS
  1
NPOCOLLECTION
  2
AcDbImpNonPersistentObjectsCollection
  3
ObjectDBX Classes
 90
     1153
280
     0
281
     0
  0
CLASS
  1
FIELD
  2
AcDbField
  3
ObjectDBX Classes
 90
    33920
280
     0
281
     0
  0
CLASS
  1
FIELDLIST
  2
AcDbFieldList
  3
ObjectDBX Classes
 90
     1152
280
     0
281
     0
  0
ENDSEC
  0
SECTION
  2
TABLES
  0
TABLE
  2
VPORT
  5
3C
102
{ACAD_XDICTIONARY
360
320
102
}
330
0
100
AcDbSymbolTable
 70
     1
  0
VPORT
  5
2AE
330
3C
100
AcDbSymbolTableRecord
100
AcDbViewportTableRecord
  2
*Active
 70
     0
 10
0.0
 20
0.0
 11
1.0
 21
1.0
 12
66.70068783414136
 22
19.24275765098202
 13
0.0
 23
0.0
 14
1.0
 24
1.0
 15
0.0
 25
0.0
 16
0.0
 26
0.0
 36
1.0
 17
0.0
 27
0.0
 37
0.0
 40
38.67503733780439
 41
3.716019417475727
 42
50.0
 43
0.0
 44
0.0
 50
0.0
 51
0.0
 71
     0
 72
  1000
 73
     1
 74
     0
 75
     0
 76
     0
 77
     0
 78
     0
281
     0
 65
     1
110
-0.0000000000000568
120
0.0000000000000284
130
0.0
111
1.0
121
0.0
131
0.0
112
0.0
122
1.0
132
0.0
 79
     0
146
0.0
1001
ACAD_NAV_VCDISPLAY
1070
     3
  0
ENDTAB
  0
TABLE
  2
LTYPE
  5
37
330
0
100
AcDbSymbolTable
 70
     3
  0
LTYPE
  5
38
330
37
100
AcDbSymbolTableRecord
100
AcDbLinetypeTableRecord
  2
BYBLOCK
 70
     0
  3

 72
    65
 73
     0
 40
0.0
  0
LTYPE
  5
39
330
37
100
AcDbSymbolTableRecord
100
AcDbLinetypeTableRecord
  2
BYLAYER
 70
     0
  3

 72
    65
 73
     0
 40
0.0
  0
LTYPE
  5
8
330
37
100
AcDbSymbolTableRecord
100
AcDbLinetypeTableRecord
  2
CONTINUOUS
 70
     0
  3
SOLID LINE
 72
    65
 73
     0
 40
0.0
  0
LTYPE
  5
768
330
37
100
AcDbSymbolTableRecord
100
AcDbLinetypeTableRecord
  2
DASHED
 70
     0
  3
Dashed __ __ __ __ __ __ __ __ __ __ __ __ __ _
 72
    65
 73
     2
 40
0.75
 49
0.5
 74
     0
 49
-0.25
 74
     0
  0
LTYPE
  5
769
330
37
100
AcDbSymbolTableRecord
100
AcDbLinetypeTableRecord
  2
DOT
 70
     0
  3
Dot . . . . . . . . . . . . . . . . . . . . . .
 72
    65
 73
     2
 40
0.25
 49
0.0
 74
     0
 49
-0.25
 74
     0
  0
ENDTAB
  0
TABLE
  2
LAYER
  5
14
102
{ACAD_XDICTIONARY
360
15
102
}
330
0
100
AcDbSymbolTable
 70
    10
  0
LAYER
  5
4
102
{ACAD_XDICTIONARY
360
307
102
}
330
14
100
AcDbSymbolTableRecord
100
AcDbLayerTableRecord
  2
0
 70
     0
 62
     7
  6
CONTINUOUS
370
    -3
390
5
  0
LAYER
  5
5A
330
14
100
AcDbSymbolTableRecord
100
AcDbLayerTableRecord
  2
Defpoints
 70
     0
 62
     7
  6
CONTINUOUS
290
     0
370
    -3
390
5
  0
LAYER
  5
49
102
{ACAD_XDICTIONARY
360
309
102
}
330
14
100
AcDbSymbolTableRecord
100
AcDbLayerTableRecord
  2
R-SWTS-DET1
 70
     0
 62
     1
  6
CONTINUOUS
370
    -3
390
5
  0
LAYER
  5
52
102
{ACAD_XDICTIONARY
360
30B
102
}
330
14
100
AcDbSymbolTableRecord
100
AcDbLayerTableRecord
  2
R-ANNO-DIMS
 70
     0
 62
     3
  6
CONTINUOUS
370
    -3
390
5
  0
LAYER
  5
4C
102
{ACAD_XDICTIONARY
360
30D
102
}
330
14
100
AcDbSymbolTableRecord
100
AcDbLayerTableRecord
  2
R-SWTS-DET2
 70
     0
 62
     4
  6
CONTINUOUS
370
    -3
390
5
  0
LAYER
  5
4E
102
{ACAD_XDICTIONARY
360
30F
102
}
330
14
100
AcDbSymbolTableRecord
100
AcDbLayerTableRecord
  2
R-SWTS-DET3
 70
     0
 62
     5
  6
CONTINUOUS
370
    -3
390
5
  0
LAYER
  5
6D
102
{ACAD_XDICTIONARY
360
311
102
}
330
14
100
AcDbSymbolTableRecord
100
AcDbLayerTableRecord
  2
PART_NUMBERS
 70
     0
 62
     6
  6
CONTINUOUS
370
    -3
390
5
  0
LAYER
  5
7A
102
{ACAD_XDICTIONARY
360
313
102
}
330
14
100
AcDbSymbolTableRecord
100
AcDbLayerTableRecord
  2
FORMAT
 70
     0
 62
     7
  6
CONTINUOUS
370
    -3
390
5
  0
LAYER
  5
3E4
102
{ACAD_XDICTIONARY
360
3E5
102
}
330
14
100
AcDbSymbolTableRecord
100
AcDbLayerTableRecord
  2
TEXT
 70
     0
 62
     3
  6
CONTINUOUS
370
    -3
390
5
  0
LAYER
  5
76A
330
14
100
AcDbSymbolTableRecord
100
AcDbLayerTableRecord
  2
Kawneer Logo-English
 70
     0
 62
     7
  6
CONTINUOUS
370
    -3
390
5
1001
AcAecLayerStandard
1000

1000

1001
AcCmTransparency
1071
        0
  0
ENDTAB
  0
TABLE
  2
STYLE
  5
34
330
0
100
AcDbSymbolTable
 70
     1
  0
STYLE
  5
35
330
34
100
AcDbSymbolTableRecord
100
AcDbTextStyleTableRecord
  2
STANDARD
 70
     0
 40
0.0
 41
1.0
 50
0.0
 71
     0
 42
0.375
  3
arial.ttf
  4

1001
ACAD
1000
Arial
1071
       34
  0
ENDTAB
  0
TABLE
  2
VIEW
  5
3A
330
0
100
AcDbSymbolTable
 70
     0
  0
ENDTAB
  0
TABLE
  2
UCS
  5
3B
330
0
100
AcDbSymbolTable
 70
     0
  0
ENDTAB
  0
TABLE
  2
APPID
  5
3E
330
0
100
AcDbSymbolTable
 70
    15
  0
APPID
  5
3F
330
3E
100
AcDbSymbolTableRecord
100
AcDbRegAppTableRecord
  2
ACAD
 70
     0
  0
APPID
  5
3E8
330
3E
100
AcDbSymbolTableRecord
100
AcDbRegAppTableRecord
  2
ACAD_NAV_VCDISPLAY
 70
     0
  0
APPID
  5
76B
330
3E
100
AcDbSymbolTableRecord
100
AcDbRegAppTableRecord
  2
ACAD_EXEMPT_FROM_CAD_STANDARDS
 70
     0
  0
APPID
  5
76C
330
3E
100
AcDbSymbolTableRecord
100
AcDbRegAppTableRecord
  2
GradientColor1ACI
 70
     0
  0
APPID
  5
76D
330
3E
100
AcDbSymbolTableRecord
100
AcDbRegAppTableRecord
  2
GradientColor2ACI
 70
     0
  0
APPID
  5
76E
330
3E
100
AcDbSymbolTableRecord
100
AcDbRegAppTableRecord
  2
ACAD_MLEADERVER
 70
     0
  0
APPID
  5
76F
330
3E
100
AcDbSymbolTableRecord
100
AcDbRegAppTableRecord
  2
ACAD_PSEXT
 70
     0
  0
APPID
  5
770
330
3E
100
AcDbSymbolTableRecord
100
AcDbRegAppTableRecord
  2
ACAD_DSTYLE_DIMJAG
 70
     0
  0
APPID
  5
771
330
3E
100
AcDbSymbolTableRecord
100
AcDbRegAppTableRecord
  2
ACAD_DSTYLE_DIMTALN
 70
     0
  0
APPID
  5
772
330
3E
100
AcDbSymbolTableRecord
100
AcDbRegAppTableRecord
  2
ACAD_DSTYLE_DIMBREAK
 70
     0
  0
APPID
  5
773
330
3E
100
AcDbSymbolTableRecord
100
AcDbRegAppTableRecord
  2
AcDbDynamicBlockGUID
 70
     0
  0
APPID
  5
774
330
3E
100
AcDbSymbolTableRecord
100
AcDbRegAppTableRecord
  2
ACAUTHENVIRON
 70
     0
  0
APPID
  5
775
330
3E
100
AcDbSymbolTableRecord
100
AcDbRegAppTableRecord
  2
AcDbDynamicBlockTrueName
 70
     0
  0
APPID
  5
776
330
3E
100
AcDbSymbolTableRecord
100
AcDbRegAppTableRecord
  2
AcAecLayerStandard
 70
     0
  0
APPID
  5
777
330
3E
100
AcDbSymbolTableRecord
100
AcDbRegAppTableRecord
  2
AcCmTransparency
 70
     0
  0
ENDTAB
  0
TABLE
  2
DIMSTYLE
  5
40
330
0
100
AcDbSymbolTable
 70
     2
100
AcDbDimStyleTable
 71
     2
340
41
340
42
  0
DIMSTYLE
105
41
102
{ACAD_REACTORS
330
F4
330
A6
330
98
330
5F
330
17E
330
131
330
152
330
102
330
83
102
}
330
40
100
AcDbSymbolTableRecord
100
AcDbDimStyleTableRecord
  2
Standard
 70
     0
 73
     0
 74
     0
 77
     1
276
     2
277
     4
340
35
  0
DIMSTYLE
105
42
102
{ACAD_REACTORS
330
BF
330
CD
330
B3
330
DB
330
171
330
13E
330
51
330
1A3
102
}
330
40
100
AcDbSymbolTableRecord
100
AcDbDimStyleTableRecord
  2
EXT_ON_OFF
 70
     0
 73
     0
 74
     0
 76
     1
 77
     1
276
     2
277
     4
340
35
  0
ENDTAB
  0
TABLE
  2
BLOCK_RECORD
  5
1
330
0
100
AcDbSymbolTable
 70
    18
  0
BLOCK_RECORD
  5
2
330
1
100
AcDbSymbolTableRecord
100
AcDbBlockTableRecord
  2
*MODEL_SPACE
340
A
  0
BLOCK_RECORD
  5
E
330
1
100
AcDbSymbolTableRecord
100
AcDbBlockTableRecord
  2
*PAPER_SPACE
340
11
  0
BLOCK_RECORD
  5
1BE
330
1
100
AcDbSymbolTableRecord
100
AcDbBlockTableRecord
  2
*D0
340
0
  0
BLOCK_RECORD
  5
1C9
330
1
100
AcDbSymbolTableRecord
100
AcDbBlockTableRecord
  2
*D1
340
0
  0
BLOCK_RECORD
  5
1D5
330
1
100
AcDbSymbolTableRecord
100
AcDbBlockTableRecord
  2
*D2
340
0
  0
BLOCK_RECORD
  5
1E0
330
1
100
AcDbSymbolTableRecord
100
AcDbBlockTableRecord
  2
*D3
340
0
  0
BLOCK_RECORD
  5
1EC
330
1
100
AcDbSymbolTableRecord
100
AcDbBlockTableRecord
  2
*D4
340
0
  0
BLOCK_RECORD
  5
1F7
330
1
100
AcDbSymbolTableRecord
100
AcDbBlockTableRecord
  2
*D5
340
0
  0
BLOCK_RECORD
  5
203
330
1
100
AcDbSymbolTableRecord
100
AcDbBlockTableRecord
  2
*D6
340
0
  0
BLOCK_RECORD
  5
20F
330
1
100
AcDbSymbolTableRecord
100
AcDbBlockTableRecord
  2
*D7
340
0
  0
BLOCK_RECORD
  5
21B
330
1
100
AcDbSymbolTableRecord
100
AcDbBlockTableRecord
  2
*D8
340
0
  0
BLOCK_RECORD
  5
226
330
1
100
AcDbSymbolTableRecord
100
AcDbBlockTableRecord
  2
*D9
340
0
  0
BLOCK_RECORD
  5
231
330
1
100
AcDbSymbolTableRecord
100
AcDbBlockTableRecord
  2
*D10
340
0
  0
BLOCK_RECORD
  5
23C
330
1
100
AcDbSymbolTableRecord
100
AcDbBlockTableRecord
  2
*D11
340
0
  0
BLOCK_RECORD
  5
247
330
1
100
AcDbSymbolTableRecord
100
AcDbBlockTableRecord
  2
*D12
340
0
  0
BLOCK_RECORD
  5
253
330
1
100
AcDbSymbolTableRecord
100
AcDbBlockTableRecord
  2
*D13
340
0
  0
BLOCK_RECORD
  5
25F
330
1
100
AcDbSymbolTableRecord
100
AcDbBlockTableRecord
  2
*D14
340
0
  0
BLOCK_RECORD
  5
26C
330
1
100
AcDbSymbolTableRecord
100
AcDbBlockTableRecord
  2
*D15
340
0
  0
BLOCK_RECORD
  5
278
330
1
100
AcDbSymbolTableRecord
100
AcDbBlockTableRecord
  2
*D16
340
0
  0
BLOCK_RECORD
  5
778
102
{ACAD_XDICTIONARY
360
782
102
}
330
1
100
AcDbSymbolTableRecord
100
AcDbBlockTableRecord
  2
Kawneer Logo English
340
0
102
{BLKREFS
331
786
102
}
1001
ACAD
1000
DesignCenter Data
1002
{
1070
     1
1070
     1
1002
}
  0
ENDTAB
  0
ENDSEC
  0
SECTION
  2
BLOCKS
  0
BLOCK
  5
3
330
2
100
AcDbEntity
  8
0
100
AcDbBlockBegin
  2
*MODEL_SPACE
 70
     0
 10
0.0
 20
0.0
 30
0.0
  3
*MODEL_SPACE
  1

  0
ENDBLK
  5
9
330
2
100
AcDbEntity
  8
0
100
AcDbBlockEnd
  0
BLOCK
  5
F
330
E
100
AcDbEntity
 67
     1
  8
0
100
AcDbBlockBegin
  2
*PAPER_SPACE
 70
     0
 10
0.0
 20
0.0
 30
0.0
  3
*PAPER_SPACE
  1

  0
ENDBLK
  5
10
330
E
100
AcDbEntity
 67
     1
  8
0
100
AcDbBlockEnd
  0
BLOCK
  5
1C7
330
1BE
100
AcDbEntity
  8
0
100
AcDbBlockBegin
  2
*D0
 70
     1
 10
0.0
 20
0.0
 30
0.0
  3
*D0
  1

  0
LINE
  5
1BF
330
1BE
100
AcDbEntity
  8
R-ANNO-DIMS
 62
     0
370
    -2
100
AcDbLine
 10
40.07557956848233
 20
14.79781303609661
 30
0.0
 11
40.07557956848233
 21
12.17031303609617
 31
0.0
  0
LINE
  5
1C0
330
1BE
100
AcDbEntity
  8
R-ANNO-DIMS
 62
     0
370
    -2
100
AcDbLine
 10
40.25557956848234
 20
12.35031303609616
 30
0.0
 11
41.89558739096947
 21
12.35031303609616
 31
0.0
  0
SOLID
  5
1C1
330
1BE
100
AcDbEntity
  8
R-ANNO-DIMS
 62
     0
100
AcDbTrace
 10
40.25557956848234
 20
12.38031303609617
 30
0.0
 11
40.25557956848234
 21
12.32031303609617
 31
0.0
 12
40.07557956848233
 22
12.35031303609616
 32
0.0
 13
40.07557956848233
 23
12.35031303609616
 33
0.0
  0
SOLID
  5
1C2
330
1BE
100
AcDbEntity
  8
R-ANNO-DIMS
 62
     0
100
AcDbTrace
 10
41.89558739096947
 20
12.38031303609617
 30
0.0
 11
41.89558739096947
 21
12.32031303609617
 31
0.0
 12
42.07558739096947
 22
12.35031303609616
 32
0.0
 13
42.07558739096947
 23
12.35031303609616
 33
0.0
  0
MTEXT
  5
1C3
330
1BE
100
AcDbEntity
  8
R-ANNO-DIMS
 62
     0
100
AcDbMText
 10
41.07558347972591
 20
12.53031303609617
 30
0.0
 40
0.18
 41
0.0
 71
     5
 72
     1
  1
\A1;D.L.O.
 73
     1
 44
1.0
1001
ACAD
1000
MTEXTBEGIN
1070
    73
1070
     1
1070
    44
1040
1.0
1070
    74
1070
     0
1000
MTEXTEND
  0
POINT
  5
1C4
330
1BE
100
AcDbEntity
  8
Defpoints
 62
     0
100
AcDbPoint
 10
40.07557956848233
 20
14.86031303609661
 30
0.0
  0
POINT
  5
1C5
330
1BE
100
AcDbEntity
  8
Defpoints
 62
     0
100
AcDbPoint
 10
42.07558739096947
 20
13.84531303609603
 30
0.0
  0
POINT
  5
1C6
330
1BE
100
AcDbEntity
  8
Defpoints
 62
     0
100
AcDbPoint
 10
42.07558739096947
 20
12.35031303609616
 30
0.0
  0
ENDBLK
  5
1C8
330
1BE
100
AcDbEntity
  8
0
100
AcDbBlockEnd
  0
BLOCK
  5
1D3
330
1C9
100
AcDbEntity
  8
0
100
AcDbBlockBegin
  2
*D1
 70
     1
 10
0.0
 20
0.0
 30
0.0
  3
*D1
  1

  0
LINE
  5
1CA
330
1C9
100
AcDbEntity
  8
R-ANNO-DIMS
 62
     0
370
    -2
100
AcDbLine
 10
33.70107956848352
 20
18.4223130360956
 30
0.0
 11
32.07357956848308
 21
18.4223130360956
 31
0.0
  0
LINE
  5
1CB
330
1C9
100
AcDbEntity
  8
R-ANNO-DIMS
 62
     0
370
    -2
100
AcDbLine
 10
34.70107956848352
 20
20.17231303609543
 30
0.0
 11
32.07357956848308
 21
20.17231303609543
 31
0.0
  0
LINE
  5
1CC
330
1C9
100
AcDbEntity
  8
R-ANNO-DIMS
 62
     0
370
    -2
100
AcDbLine
 10
32.25357956848308
 20
18.6023130360956
 30
0.0
 11
32.25357956848308
 21
19.99231303609543
 31
0.0
  0
SOLID
  5
1CD
330
1C9
100
AcDbEntity
  8
R-ANNO-DIMS
 62
     0
100
AcDbTrace
 10
32.22357956848308
 20
18.6023130360956
 30
0.0
 11
32.28357956848308
 21
18.6023130360956
 31
0.0
 12
32.25357956848308
 22
18.4223130360956
 32
0.0
 13
32.25357956848308
 23
18.4223130360956
 33
0.0
  0
SOLID
  5
1CE
330
1C9
100
AcDbEntity
  8
R-ANNO-DIMS
 62
     0
100
AcDbTrace
 10
32.22357956848308
 20
19.99231303609543
 30
0.0
 11
32.28357956848308
 21
19.99231303609543
 31
0.0
 12
32.25357956848308
 22
20.17231303609543
 32
0.0
 13
32.25357956848308
 23
20.17231303609543
 33
0.0
  0
MTEXT
  5
1CF
330
1C9
100
AcDbEntity
  8
R-ANNO-DIMS
 62
     0
100
AcDbMText
 10
32.07357956848307
 20
19.29731303609552
 30
0.0
 40
0.18
 41
0.0
 71
     5
 72
     1
  1
\A1;1 3/4"
 11
0.0000000000000001
 21
1.0
 31
0.0
 73
     1
 44
1.0
1001
ACAD
1000
MTEXTBEGIN
1070
    73
1070
     1
1070
    44
1040
1.0
1070
    74
1070
     0
1000
MTEXTEND
  0
POINT
  5
1D0
330
1C9
100
AcDbEntity
  8
Defpoints
 62
     0
100
AcDbPoint
 10
33.76357956848352
 20
18.4223130360956
 30
0.0
  0
POINT
  5
1D1
330
1C9
100
AcDbEntity
  8
Defpoints
 62
     0
100
AcDbPoint
 10
34.76357956848352
 20
20.17231303609543
 30
0.0
  0
POINT
  5
1D2
330
1C9
100
AcDbEntity
  8
Defpoints
 62
     0
100
AcDbPoint
 10
32.25357956848308
 20
20.17231303609543
 30
0.0
  0
ENDBLK
  5
1D4
330
1C9
100
AcDbEntity
  8
0
100
AcDbBlockEnd
  0
BLOCK
  5
1DE
330
1D5
100
AcDbEntity
  8
0
100
AcDbBlockBegin
  2
*D2
 70
     1
 10
0.0
 20
0.0
 30
0.0
  3
*D2
  1

  0
LINE
  5
1D6
330
1D5
100
AcDbEntity
  8
R-ANNO-DIMS
 62
     0
370
    -2
100
AcDbLine
 10
34.70107956848352
 20
20.17231303609543
 30
0.0
 11
32.07357956848319
 21
20.17231303609543
 31
0.0
  0
LINE
  5
1D7
330
1D5
100
AcDbEntity
  8
R-ANNO-DIMS
 62
     0
370
    -2
100
AcDbLine
 10
32.25357956848319
 20
20.35231303609543
 30
0.0
 11
32.25357956848319
 21
21.83607476982611
 31
0.0
  0
SOLID
  5
1D8
330
1D5
100
AcDbEntity
  8
R-ANNO-DIMS
 62
     0
100
AcDbTrace
 10
32.22357956848319
 20
20.35231303609543
 30
0.0
 11
32.28357956848319
 21
20.35231303609543
 31
0.0
 12
32.25357956848319
 22
20.17231303609543
 32
0.0
 13
32.25357956848319
 23
20.17231303609543
 33
0.0
  0
SOLID
  5
1D9
330
1D5
100
AcDbEntity
  8
R-ANNO-DIMS
 62
     0
100
AcDbTrace
 10
32.22357956848319
 20
21.83607476982611
 30
0.0
 11
32.28357956848319
 21
21.83607476982611
 31
0.0
 12
32.25357956848319
 22
22.0160747698261
 32
0.0
 13
32.25357956848319
 23
22.0160747698261
 33
0.0
  0
MTEXT
  5
1DA
330
1D5
100
AcDbEntity
  8
R-ANNO-DIMS
 62
     0
100
AcDbMText
 10
32.07357956848318
 20
21.09419390296077
 30
0.0
 40
0.18
 41
0.0
 71
     5
 72
     1
  1
\A1;D.L.O.
 11
0.0000000000000001
 21
1.0
 31
0.0
 73
     1
 44
1.0
1001
ACAD
1000
MTEXTBEGIN
1070
    73
1070
     1
1070
    44
1040
1.0
1070
    74
1070
     0
1000
MTEXTEND
  0
POINT
  5
1DB
330
1D5
100
AcDbEntity
  8
Defpoints
 62
     0
100
AcDbPoint
 10
34.76357956848352
 20
20.17231303609543
 30
0.0
  0
POINT
  5
1DC
330
1D5
100
AcDbEntity
  8
Defpoints
 62
     0
100
AcDbPoint
 10
33.74857956848302
 20
22.0160747698261
 30
0.0
  0
POINT
  5
1DD
330
1D5
100
AcDbEntity
  8
Defpoints
 62
     0
100
AcDbPoint
 10
32.25357956848319
 20
22.0160747698261
 30
0.0
  0
ENDBLK
  5
1DF
330
1D5
100
AcDbEntity
  8
0
100
AcDbBlockEnd
  0
BLOCK
  5
1EA
330
1E0
100
AcDbEntity
  8
0
100
AcDbBlockBegin
  2
*D3
 70
     1
 10
0.0
 20
0.0
 30
0.0
  3
*D3
  1

  0
LINE
  5
1E1
330
1E0
100
AcDbEntity
  8
R-ANNO-DIMS
 62
     0
370
    -2
100
AcDbLine
 10
33.7485795684828
 20
13.78281303609603
 30
0.0
 11
33.7485795684828
 21
12.17031303609617
 31
0.0
  0
LINE
  5
1E2
330
1E0
100
AcDbEntity
  8
R-ANNO-DIMS
 62
     0
370
    -2
100
AcDbLine
 10
38.32557956848251
 20
13.79781303609661
 30
0.0
 11
38.32557956848251
 21
12.17031303609617
 31
0.0
  0
LINE
  5
1E3
330
1E0
100
AcDbEntity
  8
R-ANNO-DIMS
 62
     0
370
    -2
100
AcDbLine
 10
33.9285795684828
 20
12.35031303609616
 30
0.0
 11
38.14557956848251
 21
12.35031303609616
 31
0.0
  0
SOLID
  5
1E4
330
1E0
100
AcDbEntity
  8
R-ANNO-DIMS
 62
     0
100
AcDbTrace
 10
33.9285795684828
 20
12.38031303609617
 30
0.0
 11
33.9285795684828
 21
12.32031303609617
 31
0.0
 12
33.7485795684828
 22
12.35031303609616
 32
0.0
 13
33.7485795684828
 23
12.35031303609616
 33
0.0
  0
SOLID
  5
1E5
330
1E0
100
AcDbEntity
  8
R-ANNO-DIMS
 62
     0
100
AcDbTrace
 10
38.14557956848251
 20
12.38031303609617
 30
0.0
 11
38.14557956848251
 21
12.32031303609617
 31
0.0
 12
38.32557956848251
 22
12.35031303609616
 32
0.0
 13
38.32557956848251
 23
12.35031303609616
 33
0.0
  0
MTEXT
  5
1E6
330
1E0
100
AcDbEntity
  8
R-ANNO-DIMS
 62
     0
100
AcDbMText
 10
36.03707956848265
 20
12.53031303609617
 30
0.0
 40
0.18
 41
0.0
 71
     5
 72
     1
  1
\A1;4 9/16" (REF.)
 73
     1
 44
1.0
1001
ACAD
1000
MTEXTBEGIN
1070
    73
1070
     1
1070
    44
1040
1.0
1070
    74
1070
     0
1000
MTEXTEND
  0
POINT
  5
1E7
330
1E0
100
AcDbEntity
  8
Defpoints
 62
     0
100
AcDbPoint
 10
33.7485795684828
 20
13.84531303609603
 30
0.0
  0
POINT
  5
1E8
330
1E0
100
AcDbEntity
  8
Defpoints
 62
     0
100
AcDbPoint
 10
38.32557956848251
 20
13.86031303609661
 30
0.0
  0
POINT
  5
1E9
330
1E0
100
AcDbEntity
  8
Defpoints
 62
     0
100
AcDbPoint
 10
38.32557956848251
 20
12.35031303609616
 30
0.0
  0
ENDBLK
  5
1EB
330
1E0
100
AcDbEntity
  8
0
100
AcDbBlockEnd
  0
BLOCK
  5
1F5
330
1EC
100
AcDbEntity
  8
0
100
AcDbBlockBegin
  2
*D4
 70
     1
 10
0.0
 20
0.0
 30
0.0
  3
*D4
  1

  0
LINE
  5
1ED
330
1EC
100
AcDbEntity
  8
R-ANNO-DIMS
 62
     0
370
    -2
100
AcDbLine
 10
33.6860795684828
 20
13.84531303609591
 30
0.0
 11
31.32357956848319
 21
13.84531303609591
 31
0.0
  0
LINE
  5
1EE
330
1EC
100
AcDbEntity
  8
R-ANNO-DIMS
 62
     0
370
    -2
100
AcDbLine
 10
31.50357956848319
 20
14.02531303609591
 30
0.0
 11
31.50357956848319
 21
21.83607476982611
 31
0.0
  0
SOLID
  5
1EF
330
1EC
100
AcDbEntity
  8
R-ANNO-DIMS
 62
     0
100
AcDbTrace
 10
31.47357956848319
 20
14.02531303609591
 30
0.0
 11
31.53357956848319
 21
14.02531303609591
 31
0.0
 12
31.50357956848319
 22
13.84531303609591
 32
0.0
 13
31.50357956848319
 23
13.84531303609591
 33
0.0
  0
SOLID
  5
1F0
330
1EC
100
AcDbEntity
  8
R-ANNO-DIMS
 62
     0
100
AcDbTrace
 10
31.47357956848319
 20
21.83607476982611
 30
0.0
 11
31.53357956848319
 21
21.83607476982611
 31
0.0
 12
31.50357956848319
 22
22.0160747698261
 32
0.0
 13
31.50357956848319
 23
22.0160747698261
 33
0.0
  0
MTEXT
  5
1F1
330
1EC
100
AcDbEntity
  8
R-ANNO-DIMS
 62
     0
100
AcDbMText
 10
31.32357956848319
 20
17.93069390296101
 30
0.0
 40
0.18
 41
0.0
 71
     5
 72
     1
  1
\A1;F.W.
 11
0.0000000000000001
 21
1.0
 31
0.0
 73
     1
 44
1.0
1001
ACAD
1000
MTEXTBEGIN
1070
    73
1070
     1
1070
    44
1040
1.0
1070
    74
1070
     0
1000
MTEXTEND
  0
POINT
  5
1F2
330
1EC
100
AcDbEntity
  8
Defpoints
 62
     0
100
AcDbPoint
 10
33.7485795684828
 20
13.84531303609591
 30
0.0
  0
POINT
  5
1F3
330
1EC
100
AcDbEntity
  8
Defpoints
 62
     0
100
AcDbPoint
 10
33.74857956848302
 20
22.0160747698261
 30
0.0
  0
POINT
  5
1F4
330
1EC
100
AcDbEntity
  8
Defpoints
 62
     0
100
AcDbPoint
 10
31.50357956848319
 20
22.0160747698261
 30
0.0
  0
ENDBLK
  5
1F6
330
1EC
100
AcDbEntity
  8
0
100
AcDbBlockEnd
  0
BLOCK
  5
201
330
1F7
100
AcDbEntity
  8
0
100
AcDbBlockBegin
  2
*D5
 70
     1
 10
0.0
 20
0.0
 30
0.0
  3
*D5
  1

  0
LINE
  5
1F8
330
1F7
100
AcDbEntity
  8
R-ANNO-DIMS
 62
     0
370
    -2
100
AcDbLine
 10
33.6860795684828
 20
13.84531303609603
 30
0.0
 11
32.07357956848301
 21
13.84531303609603
 31
0.0
  0
LINE
  5
1F9
330
1F7
100
AcDbEntity
  8
R-ANNO-DIMS
 62
     0
370
    -2
100
AcDbLine
 10
33.70107956848352
 20
18.4223130360956
 30
0.0
 11
32.07357956848302
 21
18.4223130360956
 31
0.0
  0
LINE
  5
1FA
330
1F7
100
AcDbEntity
  8
R-ANNO-DIMS
 62
     0
370
    -2
100
AcDbLine
 10
32.25357956848301
 20
14.02531303609603
 30
0.0
 11
32.25357956848302
 21
18.2423130360956
 31
0.0
  0
SOLID
  5
1FB
330
1F7
100
AcDbEntity
  8
R-ANNO-DIMS
 62
     0
100
AcDbTrace
 10
32.22357956848301
 20
14.02531303609603
 30
0.0
 11
32.28357956848301
 21
14.02531303609603
 31
0.0
 12
32.25357956848301
 22
13.84531303609603
 32
0.0
 13
32.25357956848301
 23
13.84531303609603
 33
0.0
  0
SOLID
  5
1FC
330
1F7
100
AcDbEntity
  8
R-ANNO-DIMS
 62
     0
100
AcDbTrace
 10
32.22357956848302
 20
18.2423130360956
 30
0.0
 11
32.28357956848302
 21
18.2423130360956
 31
0.0
 12
32.25357956848302
 22
18.4223130360956
 32
0.0
 13
32.25357956848302
 23
18.4223130360956
 33
0.0
  0
MTEXT
  5
1FD
330
1F7
100
AcDbEntity
  8
R-ANNO-DIMS
 62
     0
100
AcDbMText
 10
32.07357956848301
 20
16.13381303609582
 30
0.0
 40
0.18
 41
0.0
 71
     5
 72
     1
  1
\A1;4 9/16" (REF.)
 11
0.0000000000000001
 21
1.0
 31
0.0
 73
     1
 44
1.0
1001
ACAD
1000
MTEXTBEGIN
1070
    73
1070
     1
1070
    44
1040
1.0
1070
    74
1070
     0
1000
MTEXTEND
  0
POINT
  5
1FE
330
1F7
100
AcDbEntity
  8
Defpoints
 62
     0
100
AcDbPoint
 10
33.7485795684828
 20
13.84531303609603
 30
0.0
  0
POINT
  5
1FF
330
1F7
100
AcDbEntity
  8
Defpoints
 62
     0
100
AcDbPoint
 10
33.76357956848352
 20
18.4223130360956
 30
0.0
  0
POINT
  5
200
330
1F7
100
AcDbEntity
  8
Defpoints
 62
     0
100
AcDbPoint
 10
32.25357956848302
 20
18.4223130360956
 30
0.0
  0
ENDBLK
  5
202
330
1F7
100
AcDbEntity
  8
0
100
AcDbBlockEnd
  0
BLOCK
  5
20D
330
203
100
AcDbEntity
  8
0
100
AcDbBlockBegin
  2
*D6
 70
     1
 10
0.0
 20
0.0
 30
0.0
  3
*D6
  1

  0
LINE
  5
204
330
203
100
AcDbEntity
  8
R-ANNO-DIMS
 62
     0
370
    -2
100
AcDbLine
 10
10.77138181392837
 20
22.6578208585819
 30
0.0
 11
10.77138181392837
 21
23.54032085858281
 31
0.0
  0
LINE
  5
205
330
203
100
AcDbEntity
  8
R-ANNO-DIMS
 62
     0
370
    -2
100
AcDbLine
 10
11.64638181392831
 20
22.6578208585819
 30
0.0
 11
11.64638181392831
 21
23.54032085858281
 31
0.0
  0
LINE
  5
206
330
203
100
AcDbEntity
  8
R-ANNO-DIMS
 62
     0
370
    -2
100
AcDbLine
 10
10.95138181392837
 20
23.36032085858281
 30
0.0
 11
11.46638181392831
 21
23.36032085858281
 31
0.0
  0
SOLID
  5
207
330
203
100
AcDbEntity
  8
R-ANNO-DIMS
 62
     0
100
AcDbTrace
 10
10.95138181392837
 20
23.39032085858281
 30
0.0
 11
10.95138181392837
 21
23.33032085858281
 31
0.0
 12
10.77138181392837
 22
23.36032085858281
 32
0.0
 13
10.77138181392837
 23
23.36032085858281
 33
0.0
  0
SOLID
  5
208
330
203
100
AcDbEntity
  8
R-ANNO-DIMS
 62
     0
100
AcDbTrace
 10
11.46638181392831
 20
23.39032085858281
 30
0.0
 11
11.46638181392831
 21
23.33032085858281
 31
0.0
 12
11.64638181392831
 22
23.36032085858281
 32
0.0
 13
11.64638181392831
 23
23.36032085858281
 33
0.0
  0
MTEXT
  5
209
330
203
100
AcDbEntity
  8
R-ANNO-DIMS
 62
     0
100
AcDbMText
 10
11.20888181392834
 20
23.54032085858281
 30
0.0
 40
0.18
 41
0.0
 71
     5
 72
     1
  1
\A1;7/8"
 73
     1
 44
1.0
1001
ACAD
1000
MTEXTBEGIN
1070
    73
1070
     1
1070
    44
1040
1.0
1070
    74
1070
     0
1000
MTEXTEND
  0
POINT
  5
20A
330
203
100
AcDbEntity
  8
Defpoints
 62
     0
100
AcDbPoint
 10
10.77138181392837
 20
22.5953208585819
 30
0.0
  0
POINT
  5
20B
330
203
100
AcDbEntity
  8
Defpoints
 62
     0
100
AcDbPoint
 10
11.64638181392831
 20
22.5953208585819
 30
0.0
  0
POINT
  5
20C
330
203
100
AcDbEntity
  8
Defpoints
 62
     0
100
AcDbPoint
 10
11.64638181392831
 20
23.36032085858281
 30
0.0
  0
ENDBLK
  5
20E
330
203
100
AcDbEntity
  8
0
100
AcDbBlockEnd
  0
BLOCK
  5
219
330
20F
100
AcDbEntity
  8
0
100
AcDbBlockBegin
  2
*D7
 70
     1
 10
0.0
 20
0.0
 30
0.0
  3
*D7
  1

  0
LINE
  5
210
330
20F
100
AcDbEntity
  8
R-ANNO-DIMS
 62
     0
370
    -2
100
AcDbLine
 10
7.833881813928115
 20
22.61032085858282
 30
0.0
 11
5.966389636415451
 21
22.61032085858282
 31
0.0
  0
LINE
  5
211
330
20F
100
AcDbEntity
  8
R-ANNO-DIMS
 62
     0
370
    -2
100
AcDbLine
 10
7.833866168953846
 20
17.5953208585831
 30
0.0
 11
5.966389636415449
 21
17.5953208585831
 31
0.0
  0
LINE
  5
212
330
20F
100
AcDbEntity
  8
R-ANNO-DIMS
 62
     0
370
    -2
100
AcDbLine
 10
6.146389636415451
 20
22.43032085858283
 30
0.0
 11
6.146389636415449
 21
17.77532085858311
 31
0.0
  0
SOLID
  5
213
330
20F
100
AcDbEntity
  8
R-ANNO-DIMS
 62
     0
100
AcDbTrace
 10
6.11638963641545
 20
22.43032085858283
 30
0.0
 11
6.176389636415451
 21
22.43032085858283
 31
0.0
 12
6.146389636415451
 22
22.61032085858282
 32
0.0
 13
6.146389636415451
 23
22.61032085858282
 33
0.0
  0
SOLID
  5
214
330
20F
100
AcDbEntity
  8
R-ANNO-DIMS
 62
     0
100
AcDbTrace
 10
6.116389636415449
 20
17.77532085858311
 30
0.0
 11
6.176389636415449
 21
17.77532085858311
 31
0.0
 12
6.146389636415449
 22
17.5953208585831
 32
0.0
 13
6.146389636415449
 23
17.5953208585831
 33
0.0
  0
MTEXT
  5
215
330
20F
100
AcDbEntity
  8
R-ANNO-DIMS
 62
     0
100
AcDbMText
 10
5.966389636415446
 20
20.10282085858297
 30
0.0
 40
0.18
 41
0.0
 71
     5
 72
     1
  1
\A1;5"
 11
0.0000000000000001
 21
1.0
 31
0.0
 73
     1
 44
1.0
1001
ACAD
1000
MTEXTBEGIN
1070
    73
1070
     1
1070
    44
1040
1.0
1070
    74
1070
     0
1000
MTEXTEND
  0
POINT
  5
216
330
20F
100
AcDbEntity
  8
Defpoints
 62
     0
100
AcDbPoint
 10
7.896381813928115
 20
22.61032085858282
 30
0.0
  0
POINT
  5
217
330
20F
100
AcDbEntity
  8
Defpoints
 62
     0
100
AcDbPoint
 10
7.896366168953846
 20
17.5953208585831
 30
0.0
  0
POINT
  5
218
330
20F
100
AcDbEntity
  8
Defpoints
 62
     0
100
AcDbPoint
 10
6.146389636415449
 20
17.5953208585831
 30
0.0
  0
ENDBLK
  5
21A
330
20F
100
AcDbEntity
  8
0
100
AcDbBlockEnd
  0
BLOCK
  5
224
330
21B
100
AcDbEntity
  8
0
100
AcDbBlockBegin
  2
*D8
 70
     1
 10
0.0
 20
0.0
 30
0.0
  3
*D8
  1

  0
LINE
  5
21C
330
21B
100
AcDbEntity
  8
R-ANNO-DIMS
 62
     0
370
    -2
100
AcDbLine
 10
16.66138181392773
 20
13.78281303609603
 30
0.0
 11
16.66138181392773
 21
11.91532868107064
 31
0.0
  0
LINE
  5
21D
330
21B
100
AcDbEntity
  8
R-ANNO-DIMS
 62
     0
370
    -2
100
AcDbLine
 10
16.48138181392773
 20
12.09532868107064
 30
0.0
 11
11.82638181392837
 21
12.09532868107064
 31
0.0
  0
SOLID
  5
21E
330
21B
100
AcDbEntity
  8
R-ANNO-DIMS
 62
     0
100
AcDbTrace
 10
16.48138181392773
 20
12.12532868107064
 30
0.0
 11
16.48138181392773
 21
12.06532868107064
 31
0.0
 12
16.66138181392773
 22
12.09532868107064
 32
0.0
 13
16.66138181392773
 23
12.09532868107064
 33
0.0
  0
SOLID
  5
21F
330
21B
100
AcDbEntity
  8
R-ANNO-DIMS
 62
     0
100
AcDbTrace
 10
11.82638181392837
 20
12.12532868107064
 30
0.0
 11
11.82638181392837
 21
12.06532868107064
 31
0.0
 12
11.64638181392837
 22
12.09532868107064
 32
0.0
 13
11.64638181392837
 23
12.09532868107064
 33
0.0
  0
MTEXT
  5
220
330
21B
100
AcDbEntity
  8
R-ANNO-DIMS
 62
     0
100
AcDbMText
 10
14.15388181392805
 20
12.27532868107064
 30
0.0
 40
0.18
 41
0.0
 71
     5
 72
     1
  1
\A1;5"
 73
     1
 44
1.0
1001
ACAD
1000
MTEXTBEGIN
1070
    73
1070
     1
1070
    44
1040
1.0
1070
    74
1070
     0
1000
MTEXTEND
  0
POINT
  5
221
330
21B
100
AcDbEntity
  8
Defpoints
 62
     0
100
AcDbPoint
 10
16.66138181392773
 20
13.84531303609603
 30
0.0
  0
POINT
  5
222
330
21B
100
AcDbEntity
  8
Defpoints
 62
     0
100
AcDbPoint
 10
11.64638181392837
 20
13.8453286810703
 30
0.0
  0
POINT
  5
223
330
21B
100
AcDbEntity
  8
Defpoints
 62
     0
100
AcDbPoint
 10
11.64638181392837
 20
12.09532868107064
 30
0.0
  0
ENDBLK
  5
225
330
21B
100
AcDbEntity
  8
0
100
AcDbBlockEnd
  0
BLOCK
  5
22F
330
226
100
AcDbEntity
  8
0
100
AcDbBlockBegin
  2
*D9
 70
     1
 10
0.0
 20
0.0
 30
0.0
  3
*D9
  1

  0
LINE
  5
227
330
226
100
AcDbEntity
  8
R-ANNO-DIMS
 62
     0
370
    -2
100
AcDbLine
 10
12.58388181392837
 20
15.84532085858322
 30
0.0
 11
5.96638963641545
 21
15.84532085858322
 31
0.0
  0
LINE
  5
228
330
226
100
AcDbEntity
  8
R-ANNO-DIMS
 62
     0
370
    -2
100
AcDbLine
 10
6.14638963641545
 20
15.66532085858322
 30
0.0
 11
6.14638963641545
 21
14.02532868107067
 31
0.0
  0
SOLID
  5
229
330
226
100
AcDbEntity
  8
R-ANNO-DIMS
 62
     0
100
AcDbTrace
 10
6.116389636415449
 20
15.66532085858322
 30
0.0
 11
6.17638963641545
 21
15.66532085858322
 31
0.0
 12
6.14638963641545
 22
15.84532085858322
 32
0.0
 13
6.14638963641545
 23
15.84532085858322
 33
0.0
  0
SOLID
  5
22A
330
226
100
AcDbEntity
  8
R-ANNO-DIMS
 62
     0
100
AcDbTrace
 10
6.116389636415449
 20
14.02532868107067
 30
0.0
 11
6.17638963641545
 21
14.02532868107067
 31
0.0
 12
6.146389636415449
 22
13.84532868107067
 32
0.0
 13
6.146389636415449
 23
13.84532868107067
 33
0.0
  0
MTEXT
  5
22B
330
226
100
AcDbEntity
  8
R-ANNO-DIMS
 62
     0
100
AcDbMText
 10
5.966389636415447
 20
14.84532476982695
 30
0.0
 40
0.18
 41
0.0
 71
     5
 72
     1
  1
\A1;D.L.O.
 11
0.0000000000000001
 21
1.0
 31
0.0
 73
     1
 44
1.0
1001
ACAD
1000
MTEXTBEGIN
1070
    73
1070
     1
1070
    44
1040
1.0
1070
    74
1070
     0
1000
MTEXTEND
  0
POINT
  5
22C
330
226
100
AcDbEntity
  8
Defpoints
 62
     0
100
AcDbPoint
 10
12.64638181392837
 20
15.84532085858322
 30
0.0
  0
POINT
  5
22D
330
226
100
AcDbEntity
  8
Defpoints
 62
     0
100
AcDbPoint
 10
11.64638181392763
 20
13.84532868107067
 30
0.0
  0
POINT
  5
22E
330
226
100
AcDbEntity
  8
Defpoints
 62
     0
100
AcDbPoint
 10
6.146389636415449
 20
13.84532868107067
 30
0.0
  0
ENDBLK
  5
230
330
226
100
AcDbEntity
  8
0
100
AcDbBlockEnd
  0
BLOCK
  5
23A
330
231
100
AcDbEntity
  8
0
100
AcDbBlockBegin
  2
*D10
 70
     1
 10
0.0
 20
0.0
 30
0.0
  3
*D10
  1

  0
LINE
  5
232
330
231
100
AcDbEntity
  8
R-ANNO-DIMS
 62
     0
370
    -2
100
AcDbLine
 10
7.833881813928115
 20
22.61032085858282
 30
0.0
 11
5.216389636415451
 21
22.61032085858282
 31
0.0
  0
LINE
  5
233
330
231
100
AcDbEntity
  8
R-ANNO-DIMS
 62
     0
370
    -2
100
AcDbLine
 10
5.396389636415451
 20
22.43032085858283
 30
0.0
 11
5.39638963641545
 21
14.02532868107067
 31
0.0
  0
SOLID
  5
234
330
231
100
AcDbEntity
  8
R-ANNO-DIMS
 62
     0
100
AcDbTrace
 10
5.366389636415451
 20
22.43032085858283
 30
0.0
 11
5.426389636415452
 21
22.43032085858283
 31
0.0
 12
5.396389636415451
 22
22.61032085858282
 32
0.0
 13
5.396389636415451
 23
22.61032085858282
 33
0.0
  0
SOLID
  5
235
330
231
100
AcDbEntity
  8
R-ANNO-DIMS
 62
     0
100
AcDbTrace
 10
5.366389636415449
 20
14.02532868107067
 30
0.0
 11
5.42638963641545
 21
14.02532868107067
 31
0.0
 12
5.396389636415449
 22
13.84532868107067
 32
0.0
 13
5.396389636415449
 23
13.84532868107067
 33
0.0
  0
MTEXT
  5
236
330
231
100
AcDbEntity
  8
R-ANNO-DIMS
 62
     0
100
AcDbMText
 10
5.216389636415447
 20
18.22782476982674
 30
0.0
 40
0.18
 41
0.0
 71
     5
 72
     1
  1
\A1;F.W.
 11
0.0000000000000001
 21
1.0
 31
0.0
 73
     1
 44
1.0
1001
ACAD
1000
MTEXTBEGIN
1070
    73
1070
     1
1070
    44
1040
1.0
1070
    74
1070
     0
1000
MTEXTEND
  0
POINT
  5
237
330
231
100
AcDbEntity
  8
Defpoints
 62
     0
100
AcDbPoint
 10
7.896381813928115
 20
22.61032085858282
 30
0.0
  0
POINT
  5
238
330
231
100
AcDbEntity
  8
Defpoints
 62
     0
100
AcDbPoint
 10
11.64638181392763
 20
13.84532868107067
 30
0.0
  0
POINT
  5
239
330
231
100
AcDbEntity
  8
Defpoints
 62
     0
100
AcDbPoint
 10
5.396389636415449
 20
13.84532868107067
 30
0.0
  0
ENDBLK
  5
23B
330
231
100
AcDbEntity
  8
0
100
AcDbBlockEnd
  0
BLOCK
  5
245
330
23C
100
AcDbEntity
  8
0
100
AcDbBlockBegin
  2
*D11
 70
     1
 10
0.0
 20
0.0
 30
0.0
  3
*D11
  1

  0
LINE
  5
23D
330
23C
100
AcDbEntity
  8
R-ANNO-DIMS
 62
     0
370
    -2
100
AcDbLine
 10
9.896381813928371
 20
18.5328208585831
 30
0.0
 11
9.896381813928371
 21
11.9153286810703
 31
0.0
  0
LINE
  5
23E
330
23C
100
AcDbEntity
  8
R-ANNO-DIMS
 62
     0
370
    -2
100
AcDbLine
 10
9.716381813928371
 20
12.0953286810703
 30
0.0
 11
8.076366168954187
 21
12.0953286810703
 31
0.0
  0
SOLID
  5
23F
330
23C
100
AcDbEntity
  8
R-ANNO-DIMS
 62
     0
100
AcDbTrace
 10
9.716381813928371
 20
12.1253286810703
 30
0.0
 11
9.716381813928371
 21
12.0653286810703
 31
0.0
 12
9.896381813928371
 22
12.0953286810703
 32
0.0
 13
9.896381813928371
 23
12.0953286810703
 33
0.0
  0
SOLID
  5
240
330
23C
100
AcDbEntity
  8
R-ANNO-DIMS
 62
     0
100
AcDbTrace
 10
8.076366168954187
 20
12.1253286810703
 30
0.0
 11
8.076366168954187
 21
12.0653286810703
 31
0.0
 12
7.896366168954187
 22
12.0953286810703
 32
0.0
 13
7.896366168954187
 23
12.0953286810703
 33
0.0
  0
MTEXT
  5
241
330
23C
100
AcDbEntity
  8
R-ANNO-DIMS
 62
     0
100
AcDbMText
 10
8.896373991441279
 20
12.2753286810703
 30
0.0
 40
0.18
 41
0.0
 71
     5
 72
     1
  1
\A1;D.L.O.
 73
     1
 44
1.0
1001
ACAD
1000
MTEXTBEGIN
1070
    73
1070
     1
1070
    44
1040
1.0
1070
    74
1070
     0
1000
MTEXTEND
  0
POINT
  5
242
330
23C
100
AcDbEntity
  8
Defpoints
 62
     0
100
AcDbPoint
 10
9.896381813928371
 20
18.59532085858311
 30
0.0
  0
POINT
  5
243
330
23C
100
AcDbEntity
  8
Defpoints
 62
     0
100
AcDbPoint
 10
7.896366168954187
 20
17.59532085858231
 30
0.0
  0
POINT
  5
244
330
23C
100
AcDbEntity
  8
Defpoints
 62
     0
100
AcDbPoint
 10
7.896366168954187
 20
12.0953286810703
 30
0.0
  0
ENDBLK
  5
246
330
23C
100
AcDbEntity
  8
0
100
AcDbBlockEnd
  0
BLOCK
  5
251
330
247
100
AcDbEntity
  8
0
100
AcDbBlockBegin
  2
*D12
 70
     1
 10
0.0
 20
0.0
 30
0.0
  3
*D12
  1

  0
LINE
  5
248
330
247
100
AcDbEntity
  8
R-ANNO-DIMS
 62
     0
370
    -2
100
AcDbLine
 10
12.58388181392837
 20
15.84532085858322
 30
0.0
 11
5.966389636415449
 21
15.84532085858322
 31
0.0
  0
LINE
  5
249
330
247
100
AcDbEntity
  8
R-ANNO-DIMS
 62
     0
370
    -2
100
AcDbLine
 10
7.833866168953846
 20
17.5953208585831
 30
0.0
 11
5.966389636415449
 21
17.5953208585831
 31
0.0
  0
LINE
  5
24A
330
247
100
AcDbEntity
  8
R-ANNO-DIMS
 62
     0
370
    -2
100
AcDbLine
 10
6.146389636415449
 20
16.02532085858322
 30
0.0
 11
6.146389636415449
 21
17.41532085858311
 31
0.0
  0
SOLID
  5
24B
330
247
100
AcDbEntity
  8
R-ANNO-DIMS
 62
     0
100
AcDbTrace
 10
6.116389636415449
 20
16.02532085858322
 30
0.0
 11
6.176389636415449
 21
16.02532085858322
 31
0.0
 12
6.146389636415449
 22
15.84532085858322
 32
0.0
 13
6.146389636415449
 23
15.84532085858322
 33
0.0
  0
SOLID
  5
24C
330
247
100
AcDbEntity
  8
R-ANNO-DIMS
 62
     0
100
AcDbTrace
 10
6.116389636415449
 20
17.41532085858311
 30
0.0
 11
6.176389636415449
 21
17.41532085858311
 31
0.0
 12
6.146389636415449
 22
17.5953208585831
 32
0.0
 13
6.146389636415449
 23
17.5953208585831
 33
0.0
  0
MTEXT
  5
24D
330
247
100
AcDbEntity
  8
R-ANNO-DIMS
 62
     0
100
AcDbMText
 10
5.966389636415446
 20
16.72032085858316
 30
0.0
 40
0.18
 41
0.0
 71
     5
 72
     1
  1
\A1;1 3/4"
 11
0.0000000000000001
 21
1.0
 31
0.0
 73
     1
 44
1.0
1001
ACAD
1000
MTEXTBEGIN
1070
    73
1070
     1
1070
    44
1040
1.0
1070
    74
1070
     0
1000
MTEXTEND
  0
POINT
  5
24E
330
247
100
AcDbEntity
  8
Defpoints
 62
     0
100
AcDbPoint
 10
12.64638181392837
 20
15.84532085858322
 30
0.0
  0
POINT
  5
24F
330
247
100
AcDbEntity
  8
Defpoints
 62
     0
100
AcDbPoint
 10
7.896366168953846
 20
17.5953208585831
 30
0.0
  0
POINT
  5
250
330
247
100
AcDbEntity
  8
Defpoints
 62
     0
100
AcDbPoint
 10
6.146389636415449
 20
17.5953208585831
 30
0.0
  0
ENDBLK
  5
252
330
247
100
AcDbEntity
  8
0
100
AcDbBlockEnd
  0
BLOCK
  5
25D
330
253
100
AcDbEntity
  8
0
100
AcDbBlockBegin
  2
*D13
 70
     1
 10
0.0
 20
0.0
 30
0.0
  3
*D13
  1

  0
LINE
  5
254
330
253
100
AcDbEntity
  8
R-ANNO-DIMS
 62
     0
370
    -2
100
AcDbLine
 10
9.896381813928371
 20
18.5328208585831
 30
0.0
 11
9.896381813928371
 21
11.91532868107064
 31
0.0
  0
LINE
  5
255
330
253
100
AcDbEntity
  8
R-ANNO-DIMS
 62
     0
370
    -2
100
AcDbLine
 10
11.64638181392837
 20
13.7828286810703
 30
0.0
 11
11.64638181392837
 21
11.91532868107064
 31
0.0
  0
LINE
  5
256
330
253
100
AcDbEntity
  8
R-ANNO-DIMS
 62
     0
370
    -2
100
AcDbLine
 10
10.07638181392837
 20
12.09532868107064
 30
0.0
 11
11.46638181392837
 21
12.09532868107064
 31
0.0
  0
SOLID
  5
257
330
253
100
AcDbEntity
  8
R-ANNO-DIMS
 62
     0
100
AcDbTrace
 10
10.07638181392837
 20
12.12532868107064
 30
0.0
 11
10.07638181392837
 21
12.06532868107064
 31
0.0
 12
9.896381813928371
 22
12.09532868107064
 32
0.0
 13
9.896381813928371
 23
12.09532868107064
 33
0.0
  0
SOLID
  5
258
330
253
100
AcDbEntity
  8
R-ANNO-DIMS
 62
     0
100
AcDbTrace
 10
11.46638181392837
 20
12.12532868107064
 30
0.0
 11
11.46638181392837
 21
12.06532868107064
 31
0.0
 12
11.64638181392837
 22
12.09532868107064
 32
0.0
 13
11.64638181392837
 23
12.09532868107064
 33
0.0
  0
MTEXT
  5
259
330
253
100
AcDbEntity
  8
R-ANNO-DIMS
 62
     0
100
AcDbMText
 10
10.77138181392837
 20
12.27532868107064
 30
0.0
 40
0.18
 41
0.0
 71
     5
 72
     1
  1
\A1;1 3/4"
 73
     1
 44
1.0
1001
ACAD
1000
MTEXTBEGIN
1070
    73
1070
     1
1070
    44
1040
1.0
1070
    74
1070
     0
1000
MTEXTEND
  0
POINT
  5
25A
330
253
100
AcDbEntity
  8
Defpoints
 62
     0
100
AcDbPoint
 10
9.896381813928371
 20
18.59532085858311
 30
0.0
  0
POINT
  5
25B
330
253
100
AcDbEntity
  8
Defpoints
 62
     0
100
AcDbPoint
 10
11.64638181392837
 20
13.8453286810703
 30
0.0
  0
POINT
  5
25C
330
253
100
AcDbEntity
  8
Defpoints
 62
     0
100
AcDbPoint
 10
11.64638181392837
 20
12.09532868107064
 30
0.0
  0
ENDBLK
  5
25E
330
253
100
AcDbEntity
  8
0
100
AcDbBlockEnd
  0
BLOCK
  5
26A
330
25F
100
AcDbEntity
  8
0
100
AcDbBlockBegin
  2
*D14
 70
     1
 10
0.0
 20
0.0
 30
0.0
  3
*D14
  1

  0
LINE
  5
260
330
25F
100
AcDbEntity
  8
R-ANNO-DIMS
 62
     0
370
    -2
100
AcDbLine
 10
16.70888181392712
 20
16.72032085858328
 30
0.0
 11
17.59138181392776
 21
16.72032085858328
 31
0.0
  0
LINE
  5
261
330
25F
100
AcDbEntity
  8
R-ANNO-DIMS
 62
     0
370
    -2
100
AcDbLine
 10
16.70888181392712
 20
17.59532085858322
 30
0.0
 11
17.59138181392776
 21
17.59532085858322
 31
0.0
  0
LINE
  5
262
330
25F
100
AcDbEntity
  8
R-ANNO-DIMS
 62
     0
370
    -2
100
AcDbLine
 10
17.41138181392776
 20
16.90032085858328
 30
0.0
 11
17.41138181392776
 21
17.41532085858322
 31
0.0
  0
LINE
  5
263
330
25F
100
AcDbEntity
  8
R-ANNO-DIMS
 62
     0
370
    -2
100
AcDbLine
 10
17.41138181392776
 20
17.59532085858322
 30
0.0
 11
17.41138181392776
 21
18.55532085858325
 31
0.0
  0
SOLID
  5
264
330
25F
100
AcDbEntity
  8
R-ANNO-DIMS
 62
     0
100
AcDbTrace
 10
17.38138181392776
 20
16.90032085858328
 30
0.0
 11
17.44138181392776
 21
16.90032085858328
 31
0.0
 12
17.41138181392776
 22
16.72032085858328
 32
0.0
 13
17.41138181392776
 23
16.72032085858328
 33
0.0
  0
SOLID
  5
265
330
25F
100
AcDbEntity
  8
R-ANNO-DIMS
 62
     0
100
AcDbTrace
 10
17.38138181392776
 20
17.41532085858322
 30
0.0
 11
17.44138181392776
 21
17.41532085858322
 31
0.0
 12
17.41138181392776
 22
17.59532085858322
 32
0.0
 13
17.41138181392776
 23
17.59532085858322
 33
0.0
  0
MTEXT
  5
266
330
25F
100
AcDbEntity
  8
R-ANNO-DIMS
 62
     0
100
AcDbMText
 10
17.23138181392776
 20
18.16532085858326
 30
0.0
 40
0.18
 41
0.0
 71
     5
 72
     1
  1
\A1;7/8"
 11
0.0000000000000001
 21
1.0
 31
0.0
 73
     1
 44
1.0
1001
ACAD
1000
MTEXTBEGIN
1070
    73
1070
     1
1070
    44
1040
1.0
1070
    74
1070
     0
1000
MTEXTEND
  0
POINT
  5
267
330
25F
100
AcDbEntity
  8
Defpoints
 62
     0
100
AcDbPoint
 10
16.64638181392712
 20
16.72032085858328
 30
0.0
  0
POINT
  5
268
330
25F
100
AcDbEntity
  8
Defpoints
 62
     0
100
AcDbPoint
 10
16.64638181392712
 20
17.59532085858322
 30
0.0
  0
POINT
  5
269
330
25F
100
AcDbEntity
  8
Defpoints
 62
     0
100
AcDbPoint
 10
17.41138181392776
 20
17.59532085858322
 30
0.0
  0
ENDBLK
  5
26B
330
25F
100
AcDbEntity
  8
0
100
AcDbBlockEnd
  0
BLOCK
  5
276
330
26C
100
AcDbEntity
  8
0
100
AcDbBlockBegin
  2
*D15
 70
     1
 10
0.0
 20
0.0
 30
0.0
  3
*D15
  1

  0
LINE
  5
26D
330
26C
100
AcDbEntity
  8
R-ANNO-DIMS
 62
     0
370
    -2
100
AcDbLine
 10
38.32557956848251
 20
13.79781303609661
 30
0.0
 11
38.32557956848251
 21
12.17031303609617
 31
0.0
  0
LINE
  5
26E
330
26C
100
AcDbEntity
  8
R-ANNO-DIMS
 62
     0
370
    -2
100
AcDbLine
 10
40.07557956848233
 20
14.79781303609661
 30
0.0
 11
40.07557956848233
 21
12.17031303609617
 31
0.0
  0
LINE
  5
26F
330
26C
100
AcDbEntity
  8
R-ANNO-DIMS
 62
     0
370
    -2
100
AcDbLine
 10
38.50557956848251
 20
12.35031303609616
 30
0.0
 11
39.89557956848234
 21
12.35031303609616
 31
0.0
  0
SOLID
  5
270
330
26C
100
AcDbEntity
  8
R-ANNO-DIMS
 62
     0
100
AcDbTrace
 10
38.50557956848251
 20
12.38031303609617
 30
0.0
 11
38.50557956848251
 21
12.32031303609617
 31
0.0
 12
38.32557956848251
 22
12.35031303609616
 32
0.0
 13
38.32557956848251
 23
12.35031303609616
 33
0.0
  0
SOLID
  5
271
330
26C
100
AcDbEntity
  8
R-ANNO-DIMS
 62
     0
100
AcDbTrace
 10
39.89557956848234
 20
12.38031303609617
 30
0.0
 11
39.89557956848234
 21
12.32031303609617
 31
0.0
 12
40.07557956848233
 22
12.35031303609616
 32
0.0
 13
40.07557956848233
 23
12.35031303609616
 33
0.0
  0
MTEXT
  5
272
330
26C
100
AcDbEntity
  8
R-ANNO-DIMS
 62
     0
100
AcDbMText
 10
39.20057956848243
 20
12.53031303609617
 30
0.0
 40
0.18
 41
0.0
 71
     5
 72
     1
  1
\A1;1 3/4"
 73
     1
 44
1.0
1001
ACAD
1000
MTEXTBEGIN
1070
    73
1070
     1
1070
    44
1040
1.0
1070
    74
1070
     0
1000
MTEXTEND
  0
POINT
  5
273
330
26C
100
AcDbEntity
  8
Defpoints
 62
     0
100
AcDbPoint
 10
38.32557956848251
 20
13.86031303609661
 30
0.0
  0
POINT
  5
274
330
26C
100
AcDbEntity
  8
Defpoints
 62
     0
100
AcDbPoint
 10
40.07557956848233
 20
14.86031303609661
 30
0.0
  0
POINT
  5
275
330
26C
100
AcDbEntity
  8
Defpoints
 62
     0
100
AcDbPoint
 10
40.07557956848233
 20
12.35031303609616
 30
0.0
  0
ENDBLK
  5
277
330
26C
100
AcDbEntity
  8
0
100
AcDbBlockEnd
  0
BLOCK
  5
281
330
278
100
AcDbEntity
  8
0
100
AcDbBlockBegin
  2
*D16
 70
     1
 10
0.0
 20
0.0
 30
0.0
  3
*D16
  1

  0
LINE
  5
279
330
278
100
AcDbEntity
  8
R-ANNO-DIMS
 62
     0
370
    -2
100
AcDbLine
 10
33.74857956848269
 20
13.78281303609603
 30
0.0
 11
33.74857956848269
 21
11.42031303609614
 31
0.0
  0
LINE
  5
27A
330
278
100
AcDbEntity
  8
R-ANNO-DIMS
 62
     0
370
    -2
100
AcDbLine
 10
33.92857956848268
 20
11.60031303609614
 30
0.0
 11
41.89558739096947
 21
11.60031303609614
 31
0.0
  0
SOLID
  5
27B
330
278
100
AcDbEntity
  8
R-ANNO-DIMS
 62
     0
100
AcDbTrace
 10
33.92857956848268
 20
11.63031303609614
 30
0.0
 11
33.92857956848268
 21
11.57031303609614
 31
0.0
 12
33.74857956848269
 22
11.60031303609614
 32
0.0
 13
33.74857956848269
 23
11.60031303609614
 33
0.0
  0
SOLID
  5
27C
330
278
100
AcDbEntity
  8
R-ANNO-DIMS
 62
     0
100
AcDbTrace
 10
41.89558739096947
 20
11.63031303609614
 30
0.0
 11
41.89558739096947
 21
11.57031303609614
 31
0.0
 12
42.07558739096947
 22
11.60031303609614
 32
0.0
 13
42.07558739096947
 23
11.60031303609614
 33
0.0
  0
MTEXT
  5
27D
330
278
100
AcDbEntity
  8
R-ANNO-DIMS
 62
     0
100
AcDbMText
 10
37.91208347972608
 20
11.78031303609614
 30
0.0
 40
0.18
 41
0.0
 71
     5
 72
     1
  1
\A1;F.W.
 73
     1
 44
1.0
1001
ACAD
1000
MTEXTBEGIN
1070
    73
1070
     1
1070
    44
1040
1.0
1070
    74
1070
     0
1000
MTEXTEND
  0
POINT
  5
27E
330
278
100
AcDbEntity
  8
Defpoints
 62
     0
100
AcDbPoint
 10
33.74857956848269
 20
13.84531303609603
 30
0.0
  0
POINT
  5
27F
330
278
100
AcDbEntity
  8
Defpoints
 62
     0
100
AcDbPoint
 10
42.07558739096947
 20
13.84531303609603
 30
0.0
  0
POINT
  5
280
330
278
100
AcDbEntity
  8
Defpoints
 62
     0
100
AcDbPoint
 10
42.07558739096947
 20
11.60031303609614
 30
0.0
  0
ENDBLK
  5
282
330
278
100
AcDbEntity
  8
0
100
AcDbBlockEnd
  0
BLOCK
  5
784
330
778
100
AcDbEntity
  8
0
100
AcDbBlockBegin
  2
Kawneer Logo English
 70
     0
 10
0.0
 20
0.0
 30
0.0
  3
Kawneer Logo English
  1

  0
MTEXT
  5
779
102
{ACAD_XDICTIONARY
360
7E1
102
}
330
778
100
AcDbEntity
  8
Kawneer Logo-English
100
AcDbMText
 10
1.510096758583198
 20
0.0372523876656778
 30
0.0
 40
0.036
 41
0.6125900866323382
 71
     3
 72
     5
  1
{\fArial TUR|b0|i0|c0|p34;\T1.05;AN ARCONIC COMPANY}
 73
     1
 44
1.0
1001
ACAD
1000
ACAD_MTEXT_COLUMN_INFO_BEGIN
1070
    75
1070
     2
1070
    79
1070
     0
1070
    76
1070
     1
1070
    78
1070
     0
1070
    48
1040
0.6125900866323382
1070
    49
1040
1.0
1070
    50
1070
     1
1040
0.0
1000
ACAD_MTEXT_COLUMN_INFO_END
1000
MTEXTBEGIN
1070
    73
1070
     1
1070
    44
1040
1.0
1070
    74
1070
     0
1000
MTEXTEND
  0
HATCH
  5
77A
330
778
100
AcDbEntity
  8
Kawneer Logo-English
100
AcDbHatch
 10
0.0
 20
0.0
 30
0.0
210
0.0
220
0.0
230
1.0
  2
SOLID
 70
     1
 71
     0
 91
        1
 92
        1
 93
       81
 72
     1
 10
0.2706169776412204
 20
0.0336337282279411
 11
0.2687512969786691
 21
0.0350329887248546
 72
     1
 10
0.2687512969786696
 20
0.0350329887248547
 11
0.2633408230572721
 21
0.039137486182467
 72
     1
 10
0.2633408230572729
 20
0.0391374861824669
 11
0.2550385441089194
 21
0.0453875164020133
 72
     1
 10
0.2550385441089191
 20
0.0453875164020132
 11
0.2442175962661241
 21
0.053596511317238
 72
     1
 10
0.2442175962661235
 20
0.0535965113172379
 11
0.2314376837276472
 21
0.0632980507625037
 72
     1
 10
0.2314376837276479
 20
0.0632980507625037
 11
0.2172585106922595
 21
0.0741189986052996
 72
     1
 10
0.2172585106922598
 20
0.0741189986052996
 11
0.2019599292593419
 21
0.0856862187131167
 72
     1
 10
0.201959929259341
 20
0.0856862187131167
 11
0.1862882116939105
 21
0.0976265749534437
 72
     1
 10
0.1862882116939102
 20
0.0976265749534437
 11
0.1706164941284813
 21
0.1095669311937706
 72
     1
 10
0.1706164941284811
 20
0.1095669311937709
 11
0.1553179126955632
 21
0.1211341513015875
 72
     1
 10
0.1553179126955642
 20
0.1211341513015876
 11
0.1411387396601757
 21
0.131955099144384
 72
     1
 10
0.1411387396601755
 20
0.1319550991443839
 11
0.1284521111548274
 21
0.141749922622777
 72
     1
 10
0.1284521111548278
 20
0.1417499226227768
 11
0.117631163312031
 21
0.1499589175380016
 72
     1
 10
0.1176311633120304
 20
0.1499589175380017
 11
0.1094221683968068
 21
0.1563022317906752
 72
     1
 10
0.1094221683968062
 20
0.1563022317906754
 11
0.1041049785085351
 21
0.1604067292482882
 72
     1
 10
0.1041049785085351
 20
0.1604067292482878
 11
0.1023325818791119
 21
0.1618992737783286
 72
     1
 10
0.1023325818791116
 20
0.1618992737783289
 11
0.1043848306079176
 21
0.1636716704077524
 72
     1
 10
0.1043848306079194
 20
0.1636716704077524
 11
0.1100751566286996
 21
0.1683358720641301
 72
     1
 10
0.1100751566286986
 20
0.1683358720641301
 11
0.1189371397758159
 21
0.1757053106812067
 72
     1
 10
0.1189371397758161
 20
0.1757053106812067
 11
0.1304110758505067
 21
0.1851269980270901
 72
     1
 10
0.1304110758505059
 20
0.1851269980270902
 11
0.1439372606540007
 21
0.1963210820023967
 72
     1
 10
0.1439372606540017
 20
0.1963210820023967
 11
0.1589559899875385
 21
0.2087278584083611
 72
     1
 10
0.1589559899875379
 20
0.2087278584083611
 11
0.1750941277186041
 21
0.2220674751456017
 72
     1
 10
0.1750941277186047
 20
0.2220674751456017
 11
0.19169868561531
 21
0.2358735120484796
 72
     1
 10
0.1916986856153105
 20
0.2358735120484796
 11
0.208303243512014
 21
0.2495862649182301
 72
     1
 10
0.2083032435120131
 20
0.2495862649182304
 11
0.2244413812430811
 21
0.2628325976223432
 72
     1
 10
0.2244413812430812
 20
0.2628325976223429
 11
0.239460110576618
 21
0.2753326580614352
 72
     1
 10
0.2394601105766174
 20
0.2753326580614351
 11
0.2529862953801122
 21
0.2864334580036143
 72
     1
 10
0.2529862953801132
 20
0.2864334580036143
 11
0.2643669474216756
 21
0.2958551453494973
 72
     1
 10
0.2643669474216757
 20
0.2958551453494973
 11
0.2731356465356649
 21
0.3031312999334466
 72
     1
 10
0.273135646535664
 20
0.3031312999334466
 11
0.2788259725564443
 21
0.3077955015898243
 72
     1
 10
0.278825972556445
 20
0.3077955015898246
 11
0.2807849372521245
 21
0.3094746141861208
 72
     1
 10
0.2807849372521249
 20
0.3094746141861205
 11
0.2798520969208501
 21
0.3094746141861205
 72
     1
 10
0.2798520969208496
 20
0.3094746141861205
 11
0.2769602918938953
 21
0.3095678982192478
 72
     1
 10
0.2769602918938943
 20
0.3095678982192481
 11
0.2724826583037715
 21
0.3095678982192481
 72
     1
 10
0.2724826583037729
 20
0.3095678982192481
 11
0.2666057642167363
 21
0.3095678982192481
 72
     1
 10
0.266605764216735
 20
0.3095678982192481
 11
0.2597027457652953
 21
0.3095678982192481
 72
     1
 10
0.2597027457652956
 20
0.3095678982192481
 11
0.2519601710157094
 21
0.3095678982192481
 72
     1
 10
0.2519601710157104
 20
0.3095678982192481
 11
0.2437511761004851
 21
0.3095678982192481
 72
     1
 10
0.243751176100484
 20
0.3095678982192481
 11
0.2351690450527495
 21
0.3095678982192481
 72
     1
 10
0.2351690450527495
 20
0.3095678982192481
 11
0.2266801980381413
 21
0.3095678982192481
 72
     1
 10
0.2266801980381423
 20
0.3095678982192481
 11
0.2183779190897905
 21
0.3094746141861208
 72
     1
 10
0.2183779190897899
 20
0.3094746141861205
 11
0.2106353443402037
 21
0.3094746141861205
 72
     1
 10
0.2106353443402029
 20
0.3094746141861205
 11
0.2037323258887632
 21
0.3094746141861205
 72
     1
 10
0.203732325888764
 20
0.3094746141861205
 11
0.1978554318017273
 21
0.3094746141861205
 72
     1
 10
0.1978554318017278
 20
0.3094746141861205
 11
0.1932845141784786
 21
0.3094746141861205
 72
     1
 10
0.1932845141784787
 20
0.3094746141861205
 11
0.1903927091515244
 21
0.3094746141861205
 72
     1
 10
0.1903927091515234
 20
0.3094746141861205
 11
0.1893665847871204
 21
0.3094746141861205
 72
     1
 10
0.1893665847871206
 20
0.3094746141861205
 11
0.1879673242902067
 21
0.3077955015898243
 72
     1
 10
0.1879673242902076
 20
0.3077955015898246
 11
0.1841426789319786
 21
0.3030380159003196
 72
     1
 10
0.1841426789319787
 20
0.3030380159003192
 11
0.1780792167786874
 21
0.29576186131637
 72
     1
 10
0.1780792167786873
 20
0.29576186131637
 11
0.170243357995973
 21
0.2862468899373593
 72
     1
 10
0.170243357995973
 20
0.2862468899373593
 11
0.1610082387163447
 21
0.2750528059620528
 72
     1
 10
0.1610082387163438
 20
0.2750528059620528
 11
0.1507469950723126
 21
0.2624594614898328
 72
     1
 10
0.1507469950723133
 20
0.2624594614898328
 11
0.1396461951301336
 21
0.2491198447525922
 72
     1
 10
0.1396461951301333
 20
0.2491198447525922
 11
0.1282655430885727
 21
0.2352205238165866
 72
     1
 10
0.1282655430885726
 20
0.2352205238165868
 11
0.1168848910470102
 21
0.2214144869137089
 72
     1
 10
0.1168848910470102
 20
0.2214144869137087
 11
0.1058773751379587
 21
0.2079815861433408
 72
     1
 10
0.105877375137958
 20
0.2079815861433408
 11
0.0955228474608004
 21
0.1954815257042486
 72
     1
 10
0.0955228474608019
 20
0.1954815257042488
 11
0.0862877281811736
 21
0.1842874417289424
 72
     1
 10
0.0862877281811727
 20
0.1842874417289424
 11
0.0784518693984583
 21
0.1747724703499316
 72
     1
 10
0.0784518693984584
 20
0.1747724703499314
 11
0.0723884072451672
 21
0.1674963157659821
 72
     1
 10
0.0723884072451671
 20
0.1674963157659822
 11
0.0685637618869363
 21
0.1627388300764767
 72
     1
 10
0.0685637618869364
 20
0.1627388300764767
 11
0.0671645013900242
 21
0.1611530015133082
 72
     1
 10
0.0671645013900251
 20
0.1611530015133082
 11
0.0680040576881734
 21
0.1596604569832674
 72
     1
 10
0.0680040576881726
 20
0.1596604569832674
 11
0.0704294425494878
 21
0.1556492435587824
 72
     1
 10
0.0704294425494871
 20
0.1556492435587824
 11
0.0742540879077179
 21
0.1493059293061089
 72
     1
 10
0.0742540879077192
 20
0.1493059293061089
 11
0.0791048576303511
 21
0.1411902184240116
 72
     1
 10
0.0791048576303508
 20
0.1411902184240116
 11
0.0848884676842594
 21
0.1314886789787458
 72
     1
 10
0.0848884676842596
 20
0.1314886789787459
 11
0.0913250659700619
 21
0.1207610151690772
 72
     1
 10
0.0913250659700613
 20
0.1207610151690775
 11
0.0982280844214992
 21
0.1091937950612604
 72
     1
 10
0.0982280844214985
 20
0.1091937950612603
 11
0.1053176709391927
 21
0.0973467228540611
 72
     1
 10
0.105317670939193
 20
0.0973467228540612
 11
0.1124072574568872
 21
0.0854996506468619
 72
     1
 10
0.1124072574568871
 20
0.0854996506468617
 11
0.1193102759083267
 21
0.0739324305390446
 72
     1
 10
0.1193102759083278
 20
0.0739324305390448
 11
0.1257468741941283
 21
0.0632047667293762
 72
     1
 10
0.1257468741941277
 20
0.063204766729376
 11
0.1315304842480362
 21
0.0535032272841102
 72
     1
 10
0.1315304842480365
 20
0.0535032272841104
 11
0.1363812539706702
 21
0.0453875164020132
 72
     1
 10
0.1363812539706699
 20
0.0453875164020132
 11
0.1402058993288989
 21
0.0391374861824667
 72
     1
 10
0.1402058993288988
 20
0.0391374861824669
 11
0.1426312841902157
 21
0.0350329887248546
 72
     1
 10
0.1426312841902164
 20
0.0350329887248547
 11
0.1434708404883648
 21
0.0336337282279412
 72
     1
 10
0.143470840488364
 20
0.0336337282279411
 11
0.2706169776412211
 21
0.0336337282279411
 97
        0
 75
     0
 76
     1
 98
        1
 10
-0.3743130907707726
 20
-0.2500502867693841
1001
ACAD
1010
0.0
1020
0.0
1030
0.0
  0
HATCH
  5
77B
330
778
100
AcDbEntity
  8
Kawneer Logo-English
100
AcDbHatch
 10
0.0
 20
0.0
 30
0.0
210
0.0
220
0.0
230
1.0
  2
SOLID
 70
     1
 71
     0
 91
        1
 92
        1
 93
       18
 72
     1
 10
0.0001865656044393
 20
0.2563959993365415
 11
-0.0000000024618153
 21
0.113671428651383
 72
     1
 10
-0.0000000024618159
 20
0.1136714286513832
 11
0.0012126899688416
 21
0.1152572572145516
 72
     1
 10
0.0012126899688421
 20
0.1152572572145516
 11
0.0045709151614355
 21
0.1197348908046738
 72
     1
 10
0.004570915161435
 20
0.119734890804674
 11
0.0098881050497044
 21
0.1268244773223682
 72
     1
 10
0.0098881050497044
 20
0.1268244773223682
 11
0.0166978394680158
 21
0.1359663125688683
 72
     1
 10
0.016697839468016
 20
0.1359663125688683
 11
0.0248135503501131
 21
0.1467872604116651
 72
     1
 10
0.024813550350113
 20
0.1467872604116652
 11
0.0338621015634867
 21
0.1588209006851195
 72
     1
 10
0.0338621015634872
 20
0.1588209006851194
 11
0.0434703569756247
 21
0.1716940972567221
 72
     1
 10
0.0434703569756247
 20
0.1716940972567224
 11
0.0534517485202732
 21
0.1850337139939626
 72
     1
 10
0.0534517485202724
 20
0.1850337139939624
 11
0.0634331400649208
 21
0.1983733307312025
 72
     1
 10
0.0634331400649222
 20
0.1983733307312024
 11
0.0730413954770597
 21
0.2112465273028051
 72
     1
 10
0.0730413954770595
 20
0.2112465273028053
 11
0.0820899466904331
 21
0.2233734516093873
 72
     1
 10
0.0820899466904321
 20
0.2233734516093873
 11
0.0902056575725293
 21
0.2341943994521837
 72
     1
 10
0.0902056575725308
 20
0.2341943994521837
 11
0.0970153919908422
 21
0.2433362346986839
 72
     1
 10
0.0970153919908405
 20
0.2433362346986839
 11
0.1022392978459834
 21
0.2503325371832507
 72
     1
 10
0.1022392978459843
 20
0.2503325371832508
 11
0.1056908070717041
 21
0.2549034548065008
 72
     1
 10
0.1056908070717046
 20
0.254903454806501
 11
0.1069034995023621
 21
0.2564892833696694
 72
     1
 10
0.1069034995023625
 20
0.2564892833696695
 11
0.0001865656044399
 21
0.2563959993365418
 97
        0
 75
     0
 76
     1
 98
        1
 10
-0.3743130907707726
 20
-0.2500502867693841
1001
ACAD
1010
0.0
1020
0.0
1030
0.0
  0
HATCH
  5
77C
330
778
100
AcDbEntity
  8
Kawneer Logo-English
100
AcDbHatch
 10
0.0
 20
0.0
 30
0.0
210
0.0
220
0.0
230
1.0
  2
SOLID
 70
     1
 71
     0
 91
        2
 92
       16
 93
       76
 72
     1
 10
1.358402087941634
 20
0.1650709309046659
 11
1.358402087941634
 21
0.16796273593162
 72
     1
 10
1.358402087941634
 20
0.1679627359316202
 11
1.358402087941634
 21
0.1729067896873803
 72
     1
 10
1.358402087941634
 20
0.1729067896873803
 11
1.358402087941634
 21
0.1791568199069267
 72
     1
 10
1.358402087941634
 20
0.1791568199069267
 11
1.358402087941634
 21
0.1861531223914932
 72
     1
 10
1.358402087941634
 20
0.186153122391493
 11
1.358402087941634
 21
0.1931494248760595
 72
     1
 10
1.358402087941634
 20
0.1931494248760596
 11
1.358402087941634
 21
0.1994927391287338
 72
     1
 10
1.358402087941634
 20
0.1994927391287336
 11
1.358402087941634
 21
0.2044367928844937
 72
     1
 10
1.358402087941634
 20
0.2044367928844937
 11
1.358402087941634
 21
0.2072353138783208
 72
     1
 10
1.358402087941634
 20
0.2072353138783208
 11
1.359894632471676
 21
0.2072353138783208
 72
     1
 10
1.359894632471676
 20
0.2072353138783208
 11
1.362693153465502
 21
0.2072353138783208
 72
     1
 10
1.362693153465502
 20
0.2072353138783208
 11
1.366424514790605
 21
0.2072353138783208
 72
     1
 10
1.366424514790606
 20
0.2072353138783208
 11
1.371088716446983
 21
0.2072353138783208
 72
     1
 10
1.371088716446982
 20
0.2072353138783208
 11
1.376405906335254
 21
0.2072353138783208
 72
     1
 10
1.376405906335254
 20
0.2072353138783208
 11
1.382282800422289
 21
0.2072353138783208
 72
     1
 10
1.38228280042229
 20
0.2072353138783208
 11
1.388346262575581
 21
0.2072353138783208
 72
     1
 10
1.388346262575579
 20
0.2072353138783208
 11
1.394596292795125
 21
0.2072353138783208
 72
     1
 10
1.394596292795125
 20
0.2072353138783208
 11
1.400753038981545
 21
0.2072353138783208
 72
     1
 10
1.400753038981546
 20
0.2072353138783208
 11
1.406723217101709
 21
0.2072353138783208
 72
     1
 10
1.406723217101708
 20
0.2072353138783208
 11
1.412320259089362
 21
0.2072353138783208
 72
     1
 10
1.412320259089362
 20
0.2072353138783208
 11
1.417264312845122
 21
0.2072353138783208
 72
     1
 10
1.417264312845123
 20
0.2072353138783208
 11
1.421368810302735
 21
0.2072353138783208
 72
     1
 10
1.421368810302734
 20
0.2072353138783208
 11
1.424540467429071
 21
0.2072353138783208
 72
     1
 10
1.424540467429072
 20
0.2072353138783208
 11
1.426592716157878
 21
0.2072353138783208
 72
     1
 10
1.426592716157878
 20
0.2072353138783208
 11
1.427338988422898
 21
0.2072353138783208
 72
     1
 10
1.427338988422898
 20
0.2072353138783208
 11
1.430977065714873
 21
0.207142029845193
 72
     1
 10
1.430977065714872
 20
0.207142029845193
 11
1.434335290907465
 21
0.2068621777458102
 72
     1
 10
1.434335290907465
 20
0.2068621777458102
 11
1.435921119470633
 21
0.2066756096795552
 72
     1
 10
1.435921119470633
 20
0.206675609679555
 11
1.437413664000673
 21
0.2063957575801723
 72
     1
 10
1.437413664000674
 20
0.2063957575801723
 11
1.438906208530714
 21
0.2061159054807895
 72
     1
 10
1.438906208530714
 20
0.2061159054807898
 11
1.440398753060756
 21
0.2056494853151523
 72
     1
 10
1.440398753060756
 20
0.2056494853151521
 11
1.441704729524542
 21
0.2050897811163865
 72
     1
 10
1.441704729524542
 20
0.2050897811163866
 11
1.443010705988328
 21
0.204530076917621
 72
     1
 10
1.443010705988329
 20
0.204530076917621
 11
1.444223398418986
 21
0.2036905206194736
 72
     1
 10
1.444223398418985
 20
0.2036905206194736
 11
1.445436090849643
 21
0.2028509643213252
 72
     1
 10
1.445436090849643
 20
0.2028509643213252
 11
1.446555499247174
 21
0.2018248399569224
 72
     1
 10
1.446555499247173
 20
0.2018248399569223
 11
1.447581623611576
 21
0.2007054315593917
 72
     1
 10
1.447581623611578
 20
0.2007054315593915
 11
1.448607747975981
 21
0.1993061710624781
 72
     1
 10
1.448607747975981
 20
0.1993061710624781
 11
1.449540588307258
 21
0.1978136265324374
 72
     1
 10
1.449540588307256
 20
0.1978136265324373
 11
1.450380144605403
 21
0.1961345139361415
 72
     1
 10
1.450380144605404
 20
0.1961345139361415
 11
1.451126416870426
 21
0.1944554013398453
 72
     1
 10
1.451126416870426
 20
0.1944554013398454
 11
1.451592837036063
 21
0.1929628568098046
 72
     1
 10
1.451592837036062
 20
0.1929628568098046
 11
1.451965973168573
 21
0.1913770282466361
 72
     1
 10
1.451965973168574
 20
0.1913770282466361
 11
1.452245825267955
 21
0.1899777677497231
 72
     1
 10
1.452245825267954
 20
0.1899777677497231
 11
1.452432393334211
 21
0.188671791285937
 72
     1
 10
1.452432393334211
 20
0.1886717912859369
 11
1.452432393334211
 21
0.1874590988552789
 72
     1
 10
1.452432393334211
 20
0.1874590988552789
 11
1.452525677367338
 21
0.1863396904577482
 72
     1
 10
1.452525677367337
 20
0.1863396904577481
 11
1.452432393334211
 21
0.1844740097951972
 72
     1
 10
1.452432393334211
 20
0.1844740097951974
 11
1.452245825267955
 21
0.1827948971989012
 72
     1
 10
1.452245825267954
 20
0.1827948971989009
 11
1.451872689135445
 21
0.1810225005694773
 72
     1
 10
1.451872689135446
 20
0.1810225005694774
 11
1.451406268969809
 21
0.1794366720063093
 72
     1
 10
1.451406268969809
 20
0.1794366720063094
 11
1.450846564771043
 21
0.1779441274762682
 72
     1
 10
1.450846564771041
 20
0.1779441274762681
 11
1.450100292506021
 21
0.1764515829462274
 72
     1
 10
1.450100292506023
 20
0.1764515829462275
 11
1.449260736207875
 21
0.1750523224493141
 72
     1
 10
1.449260736207873
 20
0.1750523224493139
 11
1.448327895876597
 21
0.1737463459855283
 72
     1
 10
1.448327895876596
 20
0.1737463459855281
 11
1.44702191941281
 21
0.1723470854886151
 72
     1
 10
1.447021919412811
 20
0.1723470854886151
 11
1.445715942949025
 21
0.1711343930579568
 72
     1
 10
1.445715942949026
 20
0.1711343930579568
 11
1.444316682452114
 21
0.1700149846604262
 72
     1
 10
1.444316682452114
 20
0.1700149846604259
 11
1.442824137922072
 21
0.168988860296023
 72
     1
 10
1.442824137922072
 20
0.168988860296023
 11
1.441238309358904
 21
0.1682425880310024
 72
     1
 10
1.441238309358902
 20
0.1682425880310024
 11
1.439559196762608
 21
0.1674963157659821
 72
     1
 10
1.439559196762608
 20
0.1674963157659822
 11
1.437880084166311
 21
0.1669366115672166
 72
     1
 10
1.437880084166311
 20
0.1669366115672167
 11
1.436107687536888
 21
0.1664701914015788
 72
     1
 10
1.436107687536888
 20
0.1664701914015789
 11
1.434242006874337
 21
0.166003771235941
 72
     1
 10
1.434242006874337
 20
0.1660037712359412
 11
1.432376326211786
 21
0.1657239191365588
 72
     1
 10
1.432376326211785
 20
0.1657239191365585
 11
1.430417361516107
 21
0.1655373510703035
 72
     1
 10
1.430417361516108
 20
0.1655373510703037
 11
1.428458396820429
 21
0.1653507830040482
 72
     1
 10
1.428458396820428
 20
0.1653507830040482
 11
1.424353899362817
 21
0.1651642149377932
 72
     1
 10
1.424353899362817
 20
0.1651642149377932
 11
1.420156117872077
 21
0.1650709309046658
 72
     1
 10
1.420156117872076
 20
0.1650709309046659
 11
1.41773073301076
 21
0.1650709309046659
 72
     1
 10
1.417730733010761
 20
0.1650709309046659
 11
1.411107566658704
 21
0.1650709309046659
 72
     1
 10
1.411107566658702
 20
0.1650709309046659
 11
1.401779163345947
 21
0.1650709309046659
 72
     1
 10
1.401779163345949
 20
0.1650709309046659
 11
1.390958215503152
 21
0.1650709309046659
 72
     1
 10
1.390958215503152
 20
0.1650709309046659
 11
1.379950699594101
 21
0.1650709309046659
 72
     1
 10
1.379950699594099
 20
0.1650709309046659
 11
1.369969308049451
 21
0.1650709309046659
 72
     1
 10
1.369969308049451
 20
0.1650709309046659
 11
1.362320017332992
 21
0.1650709309046659
 72
     1
 10
1.362320017332992
 20
0.1650709309046659
 11
1.358402087941635
 21
0.1650709309046659
 97
        0
 92
        1
 93
      107
 72
     1
 10
1.443756978253348
 20
0.1485596570410883
 11
1.446928635379685
 21
0.1492126452729816
 72
     1
 10
1.446928635379685
 20
0.1492126452729817
 11
1.449540588307256
 21
0.1498656335048746
 72
     1
 10
1.449540588307256
 20
0.1498656335048745
 11
1.451872689135445
 21
0.1506119057698948
 72
     1
 10
1.451872689135446
 20
0.1506119057698946
 11
1.45401822189738
 21
0.1514514620680426
 72
     1
 10
1.45401822189738
 20
0.1514514620680425
 11
1.455883902559929
 21
0.1521977343330632
 72
     1
 10
1.455883902559929
 20
0.1521977343330631
 11
1.457563015156225
 21
0.1530372906312111
 72
     1
 10
1.457563015156225
 20
0.1530372906312111
 11
1.459148843719394
 21
0.1539701309624869
 72
     1
 10
1.459148843719394
 20
0.1539701309624866
 11
1.460641388249434
 21
0.1549029712937624
 72
     1
 10
1.460641388249434
 20
0.1549029712937622
 11
1.462133932779476
 21
0.155835811625038
 72
     1
 10
1.462133932779476
 20
0.155835811625038
 11
1.463439909243262
 21
0.1568619359894408
 72
     1
 10
1.463439909243262
 20
0.1568619359894408
 11
1.464745885707048
 21
0.1579813443869714
 72
     1
 10
1.464745885707047
 20
0.1579813443869716
 11
1.465865294104579
 21
0.1591007527845022
 72
     1
 10
1.465865294104579
 20
0.1591007527845025
 11
1.466984702502109
 21
0.1602201611820331
 72
     1
 10
1.466984702502108
 20
0.1602201611820328
 11
1.468010826866511
 21
0.1613395695795634
 72
     1
 10
1.468010826866511
 20
0.1613395695795637
 11
1.468943667197788
 21
0.1625522620102216
 72
     1
 10
1.468943667197788
 20
0.1625522620102216
 11
1.469876507529063
 21
0.1636716704077522
 72
     1
 10
1.469876507529063
 20
0.1636716704077524
 11
1.470622779794084
 21
0.1648843628384107
 72
     1
 10
1.470622779794084
 20
0.1648843628384107
 11
1.471462336092232
 21
0.1661903393021964
 72
     1
 10
1.471462336092232
 20
0.1661903393021967
 11
1.472115324324125
 21
0.1674030317328546
 72
     1
 10
1.472115324324124
 20
0.1674030317328546
 11
1.472768312556016
 21
0.1686157241635125
 72
     1
 10
1.472768312556017
 20
0.1686157241635125
 11
1.473328016754783
 21
0.1699217006272986
 72
     1
 10
1.473328016754782
 20
0.1699217006272989
 11
1.47379443692042
 21
0.1711343930579568
 72
     1
 10
1.47379443692042
 20
0.1711343930579568
 11
1.474260857086057
 21
0.1724403695217425
 72
     1
 10
1.474260857086058
 20
0.1724403695217424
 11
1.474727277251697
 21
0.1736530619524008
 72
     1
 10
1.474727277251697
 20
0.173653061952401
 11
1.475380265483589
 21
0.1760784468137175
 72
     1
 10
1.475380265483588
 20
0.1760784468137173
 11
1.475846685649225
 21
0.1785038316750338
 72
     1
 10
1.475846685649226
 20
0.1785038316750335
 11
1.476219821781737
 21
0.1808359325032223
 72
     1
 10
1.476219821781738
 20
0.1808359325032223
 11
1.47649967388112
 21
0.1830747492982838
 72
     1
 10
1.47649967388112
 20
0.1830747492982838
 11
1.476592957914248
 21
0.1851269980270901
 72
     1
 10
1.476592957914248
 20
0.1851269980270902
 11
1.476686241947374
 21
0.1870859627227688
 72
     1
 10
1.476686241947375
 20
0.1870859627227687
 11
1.476592957914249
 21
0.1888583593521923
 72
     1
 10
1.476592957914248
 20
0.1888583593521922
 11
1.476499673881119
 21
0.1906307559816158
 72
     1
 10
1.47649967388112
 20
0.1906307559816159
 11
1.476406389847991
 21
0.1924031526110394
 72
     1
 10
1.476406389847991
 20
0.1924031526110394
 11
1.476126537748608
 21
0.1940822652073352
 72
     1
 10
1.476126537748608
 20
0.1940822652073352
 11
1.475846685649226
 21
0.195761377803631
 72
     1
 10
1.475846685649226
 20
0.1957613778036309
 11
1.475566833549843
 21
0.1974404903999272
 72
     1
 10
1.475566833549843
 20
0.1974404903999272
 11
1.475100413384206
 21
0.1990263189630953
 72
     1
 10
1.475100413384205
 20
0.1990263189630952
 11
1.474633993218568
 21
0.2006121475262637
 72
     1
 10
1.474633993218568
 20
0.2006121475262639
 11
1.47416757305293
 21
0.2021046920563051
 72
     1
 10
1.474167573052932
 20
0.2021046920563049
 11
1.473514584821038
 21
0.2035972365863457
 72
     1
 10
1.473514584821037
 20
0.2035972365863459
 11
1.472954880622271
 21
0.2050897811163867
 72
     1
 10
1.472954880622272
 20
0.2050897811163866
 11
1.472208608357252
 21
0.2064890416133
 72
     1
 10
1.472208608357252
 20
0.2064890416133001
 11
1.471462336092232
 21
0.2078883021102135
 72
     1
 10
1.471462336092232
 20
0.2078883021102136
 11
1.470622779794083
 21
0.2091942785739993
 72
     1
 10
1.470622779794084
 20
0.2091942785739991
 11
1.469783223495935
 21
0.2105002550377848
 72
     1
 10
1.469783223495934
 20
0.2105002550377851
 11
1.468850383164659
 21
0.2118062315015707
 72
     1
 10
1.468850383164661
 20
0.2118062315015709
 11
1.467917542833386
 21
0.2130189239322288
 72
     1
 10
1.467917542833385
 20
0.2130189239322289
 11
1.466891418468982
 21
0.2141383323297595
 72
     1
 10
1.466891418468982
 20
0.2141383323297595
 11
1.465772010071451
 21
0.2153510247604178
 72
     1
 10
1.46577201007145
 20
0.215351024760418
 11
1.464652601673919
 21
0.2163771491248209
 72
     1
 10
1.46465260167392
 20
0.2163771491248209
 11
1.463533193276389
 21
0.2174032734892238
 72
     1
 10
1.463533193276389
 20
0.2174032734892238
 11
1.462227216812603
 21
0.2184293978536266
 72
     1
 10
1.462227216812602
 20
0.2184293978536266
 11
1.461014524381945
 21
0.2193622381849024
 72
     1
 10
1.461014524381946
 20
0.2193622381849023
 11
1.459615263885032
 21
0.2202950785161781
 72
     1
 10
1.459615263885031
 20
0.2202950785161782
 11
1.458309287421245
 21
0.2211346348143262
 72
     1
 10
1.458309287421246
 20
0.221134634814326
 11
1.456816742891206
 21
0.221974191112474
 72
     1
 10
1.456816742891206
 20
0.2219741911124738
 11
1.455417482394292
 21
0.2227204633774945
 72
     1
 10
1.455417482394291
 20
0.2227204633774944
 11
1.453831653831122
 21
0.2233734516093874
 72
     1
 10
1.453831653831123
 20
0.2233734516093873
 11
1.452339109301082
 21
0.2240264398412803
 72
     1
 10
1.452339109301082
 20
0.2240264398412803
 11
1.450659996704785
 21
0.2245861440400459
 72
     1
 10
1.450659996704787
 20
0.2245861440400457
 11
1.44907416814162
 21
0.2251458482388108
 72
     1
 10
1.449074168141619
 20
0.2251458482388109
 11
1.447301771512194
 21
0.2256122684044489
 72
     1
 10
1.447301771512194
 20
0.2256122684044488
 11
1.445249522783388
 21
0.2261719726032139
 72
     1
 10
1.445249522783388
 20
0.226171972603214
 11
1.44329055808771
 21
0.2265451087357246
 72
     1
 10
1.443290558087712
 20
0.2265451087357244
 11
1.441145025325778
 21
0.2269182448682345
 72
     1
 10
1.441145025325776
 20
0.2269182448682345
 11
1.438906208530714
 21
0.2271980969676173
 72
     1
 10
1.438906208530714
 20
0.2271980969676173
 11
1.436387539636271
 21
0.2273846650338724
 72
     1
 10
1.436387539636271
 20
0.2273846650338724
 11
1.433495734609316
 21
0.2275712331001274
 72
     1
 10
1.433495734609317
 20
0.2275712331001274
 11
1.430044225383597
 21
0.2276645171332552
 72
     1
 10
1.430044225383597
 20
0.2276645171332549
 11
1.42612629599224
 21
0.2277578011663822
 72
     1
 10
1.42612629599224
 20
0.2277578011663825
 11
1.426033011959112
 21
0.2277578011663825
 72
     1
 10
1.426033011959111
 20
0.2277578011663825
 11
1.33489451159349
 21
0.2277578011663825
 72
     1
 10
1.334894511593491
 20
0.2277578011663825
 11
1.334894511593491
 21
0.0926825211976832
 72
     1
 10
1.334894511593491
 20
0.0926825211976832
 11
1.358588656007891
 21
0.0926825211976832
 72
     1
 10
1.358588656007891
 20
0.0926825211976832
 11
1.358588656007891
 21
0.0947347699264896
 72
     1
 10
1.358588656007891
 20
0.0947347699264896
 11
1.358588656007891
 21
0.1001452438478876
 72
     1
 10
1.358588656007891
 20
0.1001452438478875
 11
1.358588656007891
 21
0.1079811026306024
 72
     1
 10
1.358588656007891
 20
0.1079811026306024
 11
1.358588656007891
 21
0.1170296538439752
 72
     1
 10
1.358588656007891
 20
0.1170296538439753
 11
1.358588656007891
 21
0.1262647731236032
 72
     1
 10
1.358588656007891
 20
0.1262647731236031
 11
1.358588656007891
 21
0.1347536201382103
 72
     1
 10
1.358588656007891
 20
0.1347536201382104
 11
1.358588656007891
 21
0.1412835024571394
 72
     1
 10
1.358588656007891
 20
0.1412835024571393
 11
1.358588656007891
 21
0.1448282957159864
 72
     1
 10
1.358588656007891
 20
0.1448282957159865
 11
1.362320017332992
 21
0.1448282957159865
 72
     1
 10
1.362320017332992
 20
0.1448282957159865
 11
1.369409603850688
 21
0.1448282957159865
 72
     1
 10
1.369409603850688
 20
0.1448282957159865
 11
1.378738007163443
 21
0.1448282957159865
 72
     1
 10
1.378738007163443
 20
0.1448282957159865
 11
1.388999250807475
 21
0.1448282957159865
 72
     1
 10
1.388999250807473
 20
0.1448282957159865
 11
1.399260494451505
 21
0.1448282957159865
 72
     1
 10
1.399260494451506
 20
0.1448282957159865
 11
1.408215761631749
 21
0.1448282957159865
 72
     1
 10
1.408215761631748
 20
0.1448282957159865
 11
1.414745643950677
 21
0.1448282957159865
 72
     1
 10
1.414745643950678
 20
0.1448282957159865
 11
1.41773073301076
 21
0.1448282957159865
 72
     1
 10
1.417730733010761
 20
0.1448282957159865
 11
1.420062833838949
 21
0.1420297747221594
 72
     1
 10
1.420062833838949
 20
0.1420297747221597
 11
1.425193455660966
 21
0.1359663125688683
 72
     1
 10
1.425193455660965
 20
0.1359663125688683
 11
1.432283042178659
 21
0.1275707495873888
 72
     1
 10
1.432283042178659
 20
0.1275707495873886
 11
1.440305469027628
 21
0.1180557782083779
 72
     1
 10
1.440305469027629
 20
0.1180557782083781
 11
1.448234611843471
 21
0.1087273748956225
 72
     1
 10
1.448234611843471
 20
0.1087273748956225
 11
1.455044346261782
 21
0.1006116640135252
 72
     1
 10
1.455044346261782
 20
0.1006116640135252
 11
1.459895115984414
 21
0.0948280539596167
 72
     1
 10
1.459895115984414
 20
0.0948280539596169
 11
1.461760796646965
 21
0.0926825211976832
 72
     1
 10
1.461760796646967
 20
0.0926825211976832
 11
1.49254452757906
 21
0.0926825211976832
 72
     1
 10
1.492544527579059
 20
0.0926825211976832
 11
1.490678846916508
 21
0.0948280539596169
 72
     1
 10
1.490678846916508
 20
0.0948280539596169
 11
1.48564150912762
 21
0.100518379980398
 72
     1
 10
1.48564150912762
 20
0.1005183799803981
 11
1.478458638576797
 21
0.1088206589287502
 72
     1
 10
1.478458638576798
 20
0.1088206589287502
 11
1.470063075595318
 21
0.1183356303077609
 72
     1
 10
1.470063075595317
 20
0.118335630307761
 11
1.461480944547582
 21
0.1282237378192818
 72
     1
 10
1.461480944547582
 20
0.1282237378192818
 11
1.453551801731739
 21
0.1372722890326546
 72
     1
 10
1.45355180173174
 20
0.1372722890326546
 11
1.447395055545323
 21
0.1444551595834761
 72
     1
 10
1.447395055545323
 20
0.1444551595834759
 11
1.443756978253349
 21
0.1485596570410882
 97
        0
 75
     0
 76
     1
 98
        1
 10
-0.3743130907707726
 20
-0.2500502867693841
1001
ACAD
1010
0.0
1020
0.0
1030
0.0
  0
HATCH
  5
77D
330
778
100
AcDbEntity
  8
Kawneer Logo-English
100
AcDbHatch
 10
0.0
 20
0.0
 30
0.0
210
0.0
220
0.0
230
1.0
  2
SOLID
 70
     1
 71
     0
 91
        1
 92
        1
 93
       87
 72
     1
 10
1.205602841678699
 20
0.1525708704655737
 11
1.207468522341251
 21
0.1525708704655737
 72
     1
 10
1.207468522341252
 20
0.1525708704655737
 11
1.211199883666355
 21
0.1525708704655737
 72
     1
 10
1.211199883666355
 20
0.1525708704655737
 11
1.216517073554626
 21
0.1525708704655737
 72
     1
 10
1.216517073554626
 20
0.1525708704655737
 11
1.223046955873555
 21
0.1525708704655737
 72
     1
 10
1.223046955873553
 20
0.1525708704655737
 11
1.230602962556885
 21
0.1525708704655737
 72
     1
 10
1.230602962556885
 20
0.1525708704655737
 11
1.238998525538365
 21
0.1525708704655737
 72
     1
 10
1.238998525538365
 20
0.1525708704655737
 11
1.247767224652354
 21
0.1525708704655737
 72
     1
 10
1.247767224652355
 20
0.1525708704655737
 11
1.256815775865728
 21
0.1525708704655737
 72
     1
 10
1.256815775865729
 20
0.1525708704655737
 11
1.265771043045974
 21
0.1525708704655737
 72
     1
 10
1.265771043045973
 20
0.1525708704655737
 11
1.274446458126836
 21
0.1525708704655737
 72
     1
 10
1.274446458126837
 20
0.1525708704655737
 11
1.282562169008935
 21
0.1525708704655737
 72
     1
 10
1.282562169008935
 20
0.1525708704655737
 11
1.289745039559756
 21
0.1525708704655737
 72
     1
 10
1.289745039559755
 20
0.1525708704655737
 11
1.295808501713046
 21
0.1525708704655737
 72
     1
 10
1.295808501713046
 20
0.1525708704655737
 11
1.300472703369423
 21
0.1525708704655737
 72
     1
 10
1.300472703369423
 20
0.1525708704655737
 11
1.303457792429505
 21
0.1525708704655737
 72
     1
 10
1.303457792429505
 20
0.1525708704655737
 11
1.304483916793908
 21
0.1525708704655737
 72
     1
 10
1.304483916793908
 20
0.1525708704655737
 11
1.304483916793908
 21
0.1730000737205081
 72
     1
 10
1.304483916793908
 20
0.1730000737205078
 11
1.303457792429505
 21
0.1730000737205078
 72
     1
 10
1.303457792429505
 20
0.1730000737205078
 11
1.300472703369423
 21
0.1730000737205078
 72
     1
 10
1.300472703369423
 20
0.1730000737205078
 11
1.295808501713045
 21
0.1730000737205078
 72
     1
 10
1.295808501713046
 20
0.1730000737205078
 11
1.289745039559754
 21
0.1730000737205078
 72
     1
 10
1.289745039559755
 20
0.1730000737205078
 11
1.282562169008934
 21
0.1730000737205078
 72
     1
 10
1.282562169008935
 20
0.1730000737205078
 11
1.274446458126837
 21
0.1730000737205078
 72
     1
 10
1.274446458126837
 20
0.1730000737205078
 11
1.265771043045975
 21
0.1730000737205078
 72
     1
 10
1.265771043045973
 20
0.1730000737205078
 11
1.256815775865728
 21
0.1730000737205078
 72
     1
 10
1.256815775865729
 20
0.1730000737205078
 11
1.247767224652355
 21
0.1730000737205078
 72
     1
 10
1.247767224652355
 20
0.1730000737205078
 11
1.238998525538365
 21
0.1730000737205078
 72
     1
 10
1.238998525538365
 20
0.1730000737205078
 11
1.230602962556885
 21
0.1730000737205078
 72
     1
 10
1.230602962556885
 20
0.1730000737205078
 11
1.223046955873553
 21
0.1730000737205078
 72
     1
 10
1.223046955873553
 20
0.1730000737205078
 11
1.216517073554625
 21
0.1730000737205078
 72
     1
 10
1.216517073554626
 20
0.1730000737205078
 11
1.211199883666355
 21
0.1730000737205078
 72
     1
 10
1.211199883666355
 20
0.1730000737205078
 11
1.207468522341252
 21
0.1730000737205078
 72
     1
 10
1.207468522341252
 20
0.1730000737205078
 11
1.205602841678701
 21
0.1730000737205078
 72
     1
 10
1.205602841678699
 20
0.1730000737205078
 11
1.205602841678699
 21
0.1754254585818243
 72
     1
 10
1.205602841678699
 20
0.1754254585818245
 11
1.205602841678699
 21
0.1794366720063095
 72
     1
 10
1.205602841678699
 20
0.1794366720063094
 11
1.205602841678699
 21
0.1843807257620694
 72
     1
 10
1.205602841678699
 20
0.1843807257620694
 11
1.205602841678699
 21
0.1898844837165951
 72
     1
 10
1.205602841678699
 20
0.1898844837165951
 11
1.205602841678699
 21
0.1952949576379935
 72
     1
 10
1.205602841678699
 20
0.1952949576379937
 11
1.205602841678699
 21
0.2003322954268815
 72
     1
 10
1.205602841678699
 20
0.2003322954268814
 11
1.205602841678699
 21
0.2042502248182386
 72
     1
 10
1.205602841678699
 20
0.2042502248182386
 11
1.205602841678699
 21
0.206675609679555
 72
     1
 10
1.205602841678699
 20
0.206675609679555
 11
1.207468522341251
 21
0.206675609679555
 72
     1
 10
1.207468522341252
 20
0.206675609679555
 11
1.211293167699483
 21
0.206675609679555
 72
     1
 10
1.211293167699483
 20
0.206675609679555
 11
1.21670364162088
 21
0.206675609679555
 72
     1
 10
1.216703641620879
 20
0.206675609679555
 11
1.223420092006063
 21
0.206675609679555
 72
     1
 10
1.223420092006064
 20
0.206675609679555
 11
1.231255950788778
 21
0.206675609679555
 72
     1
 10
1.231255950788778
 20
0.206675609679555
 11
1.239744797803386
 21
0.206675609679555
 72
     1
 10
1.239744797803385
 20
0.206675609679555
 11
1.248886633049885
 21
0.206675609679555
 72
     1
 10
1.248886633049885
 20
0.206675609679555
 11
1.258121752329513
 21
0.206675609679555
 72
     1
 10
1.258121752329514
 20
0.206675609679555
 11
1.267356871609143
 21
0.206675609679555
 72
     1
 10
1.267356871609142
 20
0.206675609679555
 11
1.276218854756259
 21
0.206675609679555
 72
     1
 10
1.276218854756259
 20
0.206675609679555
 11
1.284521133704611
 21
0.206675609679555
 72
     1
 10
1.284521133704611
 20
0.206675609679555
 11
1.291890572321688
 21
0.206675609679555
 72
     1
 10
1.291890572321688
 20
0.206675609679555
 11
1.298140602541234
 21
0.206675609679555
 72
     1
 10
1.298140602541234
 20
0.206675609679555
 11
1.30289808823074
 21
0.206675609679555
 72
     1
 10
1.30289808823074
 20
0.206675609679555
 11
1.305976461323949
 21
0.206675609679555
 72
     1
 10
1.305976461323949
 20
0.206675609679555
 11
1.30709586972148
 21
0.206675609679555
 72
     1
 10
1.307095869721479
 20
0.206675609679555
 11
1.307095869721479
 21
0.2277578011663822
 72
     1
 10
1.307095869721479
 20
0.2277578011663825
 11
1.304577200827036
 21
0.2277578011663825
 72
     1
 10
1.304577200827037
 20
0.2277578011663825
 11
1.182188549363684
 21
0.2277578011663825
 72
     1
 10
1.182188549363684
 20
0.2277578011663825
 11
1.182188549363684
 21
0.0926825211976832
 72
     1
 10
1.182188549363684
 20
0.0926825211976832
 11
1.311853355410986
 21
0.0926825211976832
 72
     1
 10
1.311853355410985
 20
0.0926825211976832
 11
1.311853355410985
 21
0.113671428651383
 72
     1
 10
1.311853355410985
 20
0.1136714286513832
 11
1.310733947013454
 21
0.1136714286513832
 72
     1
 10
1.310733947013455
 20
0.1136714286513832
 11
1.307469005853991
 21
0.1136714286513832
 72
     1
 10
1.307469005853991
 20
0.1136714286513832
 11
1.302431668065102
 21
0.1136714286513832
 72
     1
 10
1.302431668065103
 20
0.1136714286513832
 11
1.295901785746174
 21
0.1136714286513832
 72
     1
 10
1.295901785746174
 20
0.1136714286513832
 11
1.288159210996586
 21
0.1136714286513832
 72
     1
 10
1.288159210996587
 20
0.1136714286513832
 11
1.279483795915724
 21
0.1136714286513832
 72
     1
 10
1.279483795915723
 20
0.1136714286513832
 11
1.270155392602968
 21
0.1136714286513832
 72
     1
 10
1.270155392602969
 20
0.1136714286513832
 11
1.260547137190832
 21
0.1136714286513832
 72
     1
 10
1.260547137190831
 20
0.1136714286513832
 11
1.250752313712437
 21
0.1136714286513832
 72
     1
 10
1.250752313712437
 20
0.1136714286513832
 11
1.241330626366554
 21
0.1136714286513832
 72
     1
 10
1.241330626366555
 20
0.1136714286513832
 11
1.23237535918631
 21
0.1136714286513832
 72
     1
 10
1.232375359186308
 20
0.1136714286513832
 11
1.224166364271082
 21
0.1136714286513832
 72
     1
 10
1.224166364271083
 20
0.1136714286513832
 11
1.217170061786517
 21
0.1136714286513832
 72
     1
 10
1.217170061786517
 20
0.1136714286513832
 11
1.211479735765737
 21
0.1136714286513832
 72
     1
 10
1.211479735765737
 20
0.1136714286513832
 11
1.20756180637438
 21
0.1136714286513832
 72
     1
 10
1.207561806374379
 20
0.1136714286513832
 11
1.2056028416787
 21
0.1136714286513832
 72
     1
 10
1.205602841678699
 20
0.1136714286513832
 11
1.205602841678699
 21
0.1163766656120825
 72
     1
 10
1.205602841678699
 20
0.1163766656120823
 11
1.205602841678699
 21
0.1209475832353323
 72
     1
 10
1.205602841678699
 20
0.1209475832353325
 11
1.205602841678699
 21
0.1267311932892411
 72
     1
 10
1.205602841678699
 20
0.1267311932892408
 11
1.205602841678699
 21
0.1330745075419143
 72
     1
 10
1.205602841678699
 20
0.1330745075419144
 11
1.205602841678699
 21
0.1395111058277156
 72
     1
 10
1.205602841678699
 20
0.1395111058277158
 11
1.205602841678699
 21
0.1452947158816239
 72
     1
 10
1.205602841678699
 20
0.145294715881624
 11
1.205602841678699
 21
0.1498656335048746
 72
     1
 10
1.205602841678699
 20
0.1498656335048745
 11
1.205602841678699
 21
0.1525708704655738
 97
        0
 75
     0
 76
     1
 98
        1
 10
-0.3743130907707726
 20
-0.2500502867693841
1001
ACAD
1010
0.0
1020
0.0
1030
0.0
  0
HATCH
  5
77E
330
778
100
AcDbEntity
  8
Kawneer Logo-English
100
AcDbHatch
 10
0.0
 20
0.0
 30
0.0
210
0.0
220
0.0
230
1.0
  2
SOLID
 70
     1
 71
     0
 91
        1
 92
        1
 93
       87
 72
     1
 10
1.049352086190046
 20
0.1525708704655737
 11
1.051217766852597
 21
0.1525708704655737
 72
     1
 10
1.051217766852596
 20
0.1525708704655737
 11
1.054949128177699
 21
0.1525708704655737
 72
     1
 10
1.0549491281777
 20
0.1525708704655737
 11
1.060173034032843
 21
0.1525708704655737
 72
     1
 10
1.060173034032843
 20
0.1525708704655737
 11
1.0667962003849
 21
0.1525708704655737
 72
     1
 10
1.0667962003849
 20
0.1525708704655737
 11
1.074352207068231
 21
0.1525708704655737
 72
     1
 10
1.074352207068232
 20
0.1525708704655737
 11
1.082747770049711
 21
0.1525708704655737
 72
     1
 10
1.082747770049711
 20
0.1525708704655737
 11
1.0915164691637
 21
0.1525708704655737
 72
     1
 10
1.091516469163701
 20
0.1525708704655737
 11
1.100565020377075
 21
0.1525708704655737
 72
     1
 10
1.100565020377073
 20
0.1525708704655737
 11
1.109520287557319
 21
0.1525708704655737
 72
     1
 10
1.10952028755732
 20
0.1525708704655737
 11
1.118195702638183
 21
0.1525708704655737
 72
     1
 10
1.118195702638182
 20
0.1525708704655737
 11
1.126218129487151
 21
0.1525708704655737
 72
     1
 10
1.126218129487152
 20
0.1525708704655737
 11
1.133401000037974
 21
0.1525708704655737
 72
     1
 10
1.133401000037974
 20
0.1525708704655737
 11
1.139557746224391
 21
0.1525708704655737
 72
     1
 10
1.139557746224392
 20
0.1525708704655737
 11
1.14422194788077
 21
0.1525708704655737
 72
     1
 10
1.144221947880769
 20
0.1525708704655737
 11
1.147207036940851
 21
0.1525708704655737
 72
     1
 10
1.147207036940852
 20
0.1525708704655737
 11
1.148233161305255
 21
0.1525708704655737
 72
     1
 10
1.148233161305255
 20
0.1525708704655737
 11
1.148233161305255
 21
0.1730000737205081
 72
     1
 10
1.148233161305255
 20
0.1730000737205078
 11
1.147207036940852
 21
0.1730000737205078
 72
     1
 10
1.147207036940852
 20
0.1730000737205078
 11
1.14422194788077
 21
0.1730000737205078
 72
     1
 10
1.144221947880769
 20
0.1730000737205078
 11
1.139557746224391
 21
0.1730000737205078
 72
     1
 10
1.139557746224392
 20
0.1730000737205078
 11
1.133494284071101
 21
0.1730000737205078
 72
     1
 10
1.133494284071101
 20
0.1730000737205078
 11
1.126218129487152
 21
0.1730000737205078
 72
     1
 10
1.126218129487152
 20
0.1730000737205078
 11
1.118195702638183
 21
0.1730000737205078
 72
     1
 10
1.118195702638182
 20
0.1730000737205078
 11
1.10952028755732
 21
0.1730000737205078
 72
     1
 10
1.10952028755732
 20
0.1730000737205078
 11
1.100565020377074
 21
0.1730000737205078
 72
     1
 10
1.100565020377073
 20
0.1730000737205078
 11
1.0915164691637
 21
0.1730000737205078
 72
     1
 10
1.091516469163701
 20
0.1730000737205078
 11
1.082747770049712
 21
0.1730000737205078
 72
     1
 10
1.082747770049711
 20
0.1730000737205078
 11
1.074352207068231
 21
0.1730000737205078
 72
     1
 10
1.074352207068232
 20
0.1730000737205078
 11
1.0667962003849
 21
0.1730000737205078
 72
     1
 10
1.0667962003849
 20
0.1730000737205078
 11
1.060173034032843
 21
0.1730000737205078
 72
     1
 10
1.060173034032843
 20
0.1730000737205078
 11
1.054949128177701
 21
0.1730000737205078
 72
     1
 10
1.0549491281777
 20
0.1730000737205078
 11
1.051217766852597
 21
0.1730000737205078
 72
     1
 10
1.051217766852596
 20
0.1730000737205078
 11
1.049352086190045
 21
0.1730000737205078
 72
     1
 10
1.049352086190046
 20
0.1730000737205078
 11
1.049352086190046
 21
0.1754254585818243
 72
     1
 10
1.049352086190046
 20
0.1754254585818245
 11
1.049352086190046
 21
0.1794366720063095
 72
     1
 10
1.049352086190046
 20
0.1794366720063094
 11
1.049352086190046
 21
0.1843807257620694
 72
     1
 10
1.049352086190046
 20
0.1843807257620694
 11
1.049352086190046
 21
0.1898844837165951
 72
     1
 10
1.049352086190046
 20
0.1898844837165951
 11
1.049352086190046
 21
0.1952949576379935
 72
     1
 10
1.049352086190046
 20
0.1952949576379937
 11
1.049352086190046
 21
0.2003322954268815
 72
     1
 10
1.049352086190046
 20
0.2003322954268814
 11
1.049352086190046
 21
0.2042502248182386
 72
     1
 10
1.049352086190046
 20
0.2042502248182386
 11
1.049352086190046
 21
0.206675609679555
 72
     1
 10
1.049352086190046
 20
0.206675609679555
 11
1.051217766852597
 21
0.206675609679555
 72
     1
 10
1.051217766852596
 20
0.206675609679555
 11
1.055042412210825
 21
0.206675609679555
 72
     1
 10
1.055042412210827
 20
0.206675609679555
 11
1.060452886132226
 21
0.206675609679555
 72
     1
 10
1.060452886132225
 20
0.206675609679555
 11
1.067169336517409
 21
0.206675609679555
 72
     1
 10
1.06716933651741
 20
0.206675609679555
 11
1.075005195300124
 21
0.206675609679555
 72
     1
 10
1.075005195300123
 20
0.206675609679555
 11
1.083494042314731
 21
0.206675609679555
 72
     1
 10
1.083494042314732
 20
0.206675609679555
 11
1.092542593528105
 21
0.206675609679555
 72
     1
 10
1.092542593528106
 20
0.206675609679555
 11
1.10187099684086
 21
0.206675609679555
 72
     1
 10
1.101870996840861
 20
0.206675609679555
 11
1.111106116120489
 21
0.206675609679555
 72
     1
 10
1.111106116120488
 20
0.206675609679555
 11
1.119968099267605
 21
0.206675609679555
 72
     1
 10
1.119968099267605
 20
0.206675609679555
 11
1.128270378215957
 21
0.206675609679555
 72
     1
 10
1.128270378215957
 20
0.206675609679555
 11
1.135639816833034
 21
0.206675609679555
 72
     1
 10
1.135639816833034
 20
0.206675609679555
 11
1.14188984705258
 21
0.206675609679555
 72
     1
 10
1.141889847052581
 20
0.206675609679555
 11
1.146647332742086
 21
0.206675609679555
 72
     1
 10
1.146647332742086
 20
0.206675609679555
 11
1.149725705835295
 21
0.206675609679555
 72
     1
 10
1.149725705835296
 20
0.206675609679555
 11
1.150845114232827
 21
0.206675609679555
 72
     1
 10
1.150845114232826
 20
0.206675609679555
 11
1.150845114232826
 21
0.2277578011663822
 72
     1
 10
1.150845114232826
 20
0.2277578011663825
 11
1.148326445338383
 21
0.2277578011663825
 72
     1
 10
1.148326445338383
 20
0.2277578011663825
 11
1.025937793875031
 21
0.2277578011663825
 72
     1
 10
1.025937793875032
 20
0.2277578011663825
 11
1.025937793875032
 21
0.0926825211976832
 72
     1
 10
1.025937793875032
 20
0.0926825211976832
 11
1.155602599922332
 21
0.0926825211976832
 72
     1
 10
1.155602599922332
 20
0.0926825211976832
 11
1.155602599922332
 21
0.113671428651383
 72
     1
 10
1.155602599922332
 20
0.1136714286513832
 11
1.154483191524801
 21
0.1136714286513832
 72
     1
 10
1.154483191524799
 20
0.1136714286513832
 11
1.151218250365336
 21
0.1136714286513832
 72
     1
 10
1.151218250365338
 20
0.1136714286513832
 11
1.146180912576449
 21
0.1136714286513832
 72
     1
 10
1.146180912576449
 20
0.1136714286513832
 11
1.13965103025752
 21
0.1136714286513832
 72
     1
 10
1.13965103025752
 20
0.1136714286513832
 11
1.131908455507932
 21
0.1136714286513832
 72
     1
 10
1.131908455507931
 20
0.1136714286513832
 11
1.12323304042707
 21
0.1136714286513832
 72
     1
 10
1.123233040427071
 20
0.1136714286513832
 11
1.113904637114314
 21
0.1136714286513832
 72
     1
 10
1.113904637114314
 20
0.1136714286513832
 11
1.104296381702177
 21
0.1136714286513832
 72
     1
 10
1.104296381702177
 20
0.1136714286513832
 11
1.094501558223783
 21
0.1136714286513832
 72
     1
 10
1.094501558223784
 20
0.1136714286513832
 11
1.085079870877901
 21
0.1136714286513832
 72
     1
 10
1.085079870877899
 20
0.1136714286513832
 11
1.076124603697654
 21
0.1136714286513832
 72
     1
 10
1.076124603697655
 20
0.1136714286513832
 11
1.067915608782429
 21
0.1136714286513832
 72
     1
 10
1.067915608782429
 20
0.1136714286513832
 11
1.060919306297863
 21
0.1136714286513832
 72
     1
 10
1.060919306297863
 20
0.1136714286513832
 11
1.055228980277083
 21
0.1136714286513832
 72
     1
 10
1.055228980277082
 20
0.1136714286513832
 11
1.051311050885725
 21
0.1136714286513832
 72
     1
 10
1.051311050885726
 20
0.1136714286513832
 11
1.049352086190046
 21
0.1136714286513832
 72
     1
 10
1.049352086190046
 20
0.1136714286513832
 11
1.049352086190046
 21
0.1163766656120825
 72
     1
 10
1.049352086190046
 20
0.1163766656120823
 11
1.049352086190046
 21
0.1209475832353323
 72
     1
 10
1.049352086190046
 20
0.1209475832353325
 11
1.049352086190046
 21
0.1267311932892411
 72
     1
 10
1.049352086190046
 20
0.1267311932892408
 11
1.049352086190046
 21
0.1330745075419143
 72
     1
 10
1.049352086190046
 20
0.1330745075419144
 11
1.049352086190046
 21
0.1395111058277156
 72
     1
 10
1.049352086190046
 20
0.1395111058277158
 11
1.049352086190046
 21
0.1452947158816239
 72
     1
 10
1.049352086190046
 20
0.145294715881624
 11
1.049352086190046
 21
0.1498656335048746
 72
     1
 10
1.049352086190046
 20
0.1498656335048745
 11
1.049352086190046
 21
0.1525708704655738
 97
        0
 75
     0
 76
     1
 98
        1
 10
-0.3743130907707726
 20
-0.2500502867693841
1001
ACAD
1010
0.0
1020
0.0
1030
0.0
  0
HATCH
  5
77F
330
778
100
AcDbEntity
  8
Kawneer Logo-English
100
AcDbHatch
 10
0.0
 20
0.0
 30
0.0
210
0.0
220
0.0
230
1.0
  2
SOLID
 70
     1
 71
     0
 91
        1
 92
        1
 93
       42
 72
     1
 10
0.9725793269260698
 20
0.2277578011663825
 11
0.9725793269260698
 21
0.1354998924032311
 72
     1
 10
0.9725793269260698
 20
0.1354998924032311
 11
0.9729524630585808
 21
0.1264513411898582
 72
     1
 10
0.9729524630585796
 20
0.1264513411898583
 11
0.9729524630585796
 21
0.1255185008585825
 72
     1
 10
0.9729524630585796
 20
0.1255185008585824
 11
0.9731390311248343
 21
0.1238393882622866
 72
     1
 10
0.9731390311248349
 20
0.1238393882622866
 11
0.9717397706279211
 21
0.1254252168254551
 72
     1
 10
0.97173977062792
 20
0.1254252168254551
 11
0.9710867823960281
 21
0.1262647731236031
 72
     1
 10
0.9710867823960294
 20
0.1262647731236031
 11
0.9641837639445897
 21
0.1339140638400625
 72
     1
 10
0.9641837639445899
 20
0.1339140638400624
 11
0.8755639324734129
 21
0.2277578011663823
 72
     1
 10
0.8755639324734115
 20
0.2277578011663825
 11
0.8529891964565429
 21
0.2277578011663825
 72
     1
 10
0.8529891964565434
 20
0.2277578011663825
 11
0.8529891964565434
 21
0.0926825211976832
 72
     1
 10
0.8529891964565434
 20
0.0926825211976832
 11
0.8756572165065401
 21
0.0926825211976832
 72
     1
 10
0.875657216506541
 20
0.0926825211976832
 11
0.875657216506541
 21
0.1927762887435495
 72
     1
 10
0.875657216506541
 20
0.1927762887435495
 11
0.875657216506541
 21
0.1931494248760597
 72
     1
 10
0.875657216506541
 20
0.1931494248760596
 11
0.8755639324734129
 21
0.193988981174208
 72
     1
 10
0.8755639324734115
 20
0.1939889811742079
 11
0.8754706484402849
 21
0.1952949576379935
 72
     1
 10
0.8754706484402859
 20
0.1952949576379937
 11
0.8753773644071577
 21
0.1967875021680344
 72
     1
 10
0.875377364407158
 20
0.1967875021680343
 11
0.8755639324734126
 21
0.1965076500686515
 72
     1
 10
0.8755639324734115
 20
0.1965076500686517
 11
0.8756572165065396
 21
0.1963210820023967
 72
     1
 10
0.875657216506541
 20
0.1963210820023967
 11
0.8764967728046894
 21
0.1954815257042487
 72
     1
 10
0.8764967728046887
 20
0.1954815257042488
 11
0.8781758854009835
 21
0.1936158450416976
 72
     1
 10
0.8781758854009842
 20
0.1936158450416973
 11
0.8797617139641527
 21
0.1917501643791464
 72
     1
 10
0.879761713964152
 20
0.1917501643791466
 11
0.8805079862291723
 21
0.1909106080809982
 72
     1
 10
0.8805079862291727
 20
0.190910608080998
 11
0.8816273946267036
 21
0.1897911996834678
 72
     1
 10
0.8816273946267028
 20
0.1897911996834681
 11
0.884519199653657
 21
0.1867128265902584
 72
     1
 10
0.8845191996536581
 20
0.1867128265902582
 11
0.8891834013100353
 21
0.1818620568676254
 72
     1
 10
0.889183401310035
 20
0.1818620568676252
 11
0.8951535794301982
 21
0.1756120266480794
 72
     1
 10
0.8951535794301985
 20
0.1756120266480794
 11
0.9021498819147662
 21
0.1681493039978751
 72
     1
 10
0.9021498819147669
 20
0.1681493039978752
 11
0.9099857406974814
 21
0.1598470250495227
 72
     1
 10
0.9099857406974813
 20
0.1598470250495225
 11
0.9183813036789613
 21
0.1509850419024051
 72
     1
 10
0.9183813036789612
 20
0.1509850419024052
 11
0.9271500027929521
 21
0.1418432066559046
 72
     1
 10
0.9271500027929509
 20
0.1418432066559046
 11
0.9358254178738118
 21
0.1326080873762767
 72
     1
 10
0.9358254178738132
 20
0.1326080873762767
 11
0.9442209808552931
 21
0.1237461042291589
 72
     1
 10
0.9442209808552931
 20
0.1237461042291589
 11
0.9520568396380092
 21
0.1154438252808068
 72
     1
 10
0.9520568396380092
 20
0.1154438252808068
 11
0.9590531421225751
 21
0.1079811026306025
 72
     1
 10
0.959053142122574
 20
0.1079811026306024
 11
0.9650233202427372
 21
0.101731072411056
 72
     1
 10
0.9650233202427376
 20
0.101731072411056
 11
0.9695942378659868
 21
0.0968803026884232
 72
     1
 10
0.9695942378659871
 20
0.096880302688423
 11
0.9725793269260696
 21
0.0938019295952138
 72
     1
 10
0.9725793269260698
 20
0.093801929595214
 11
0.9736054512904727
 21
0.0926825211976834
 72
     1
 10
0.9736054512904726
 20
0.0926825211976832
 11
0.9952473469760661
 21
0.0926825211976832
 72
     1
 10
0.9952473469760651
 20
0.0926825211976832
 11
0.9952473469760651
 21
0.2277578011663825
 72
     1
 10
0.9952473469760651
 20
0.2277578011663825
 11
0.9927286780816201
 21
0.2277578011663825
 72
     1
 10
0.9927286780816203
 20
0.2277578011663825
 11
0.9725793269260686
 21
0.2277578011663825
 97
        0
 75
     0
 76
     1
 98
        1
 10
-0.3743130907707726
 20
-0.2500502867693841
1001
ACAD
1010
0.0
1020
0.0
1030
0.0
  0
HATCH
  5
780
330
778
100
AcDbEntity
  8
Kawneer Logo-English
100
AcDbHatch
 10
0.0
 20
0.0
 30
0.0
210
0.0
220
0.0
230
1.0
  2
SOLID
 70
     1
 71
     0
 91
        2
 92
       16
 93
       32
 72
     1
 10
0.5269615006757409
 20
0.144641727649731
 11
0.5290137494045469
 21
0.148652941074216
 72
     1
 10
0.5290137494045464
 20
0.1486529410742159
 11
0.5322786905640116
 21
0.1551828233931449
 72
     1
 10
0.532278690564012
 20
0.1551828233931452
 11
0.5364764720547521
 21
0.1633918183083696
 72
     1
 10
0.5364764720547526
 20
0.1633918183083696
 11
0.5409541056448736
 21
0.1722538014554874
 72
     1
 10
0.5409541056448726
 20
0.1722538014554873
 11
0.545338455201869
 21
0.1808359325032223
 72
     1
 10
0.5453384552018701
 20
0.1808359325032223
 11
0.5490698165269726
 21
0.1882053711202994
 72
     1
 10
0.549069816526973
 20
0.1882053711202996
 11
0.5515884854214162
 21
0.1932427089091875
 72
     1
 10
0.5515884854214148
 20
0.1932427089091872
 11
0.5526146097858177
 21
0.1952016736048658
 72
     1
 10
0.5526146097858194
 20
0.1952016736048658
 11
0.552801177852074
 21
0.195761377803631
 72
     1
 10
0.5528011778520723
 20
0.1957613778036309
 11
0.5533608820508379
 21
0.1970673542674166
 72
     1
 10
0.5533608820508378
 20
0.1970673542674169
 11
0.5542004383489863
 21
0.1990263189630955
 72
     1
 10
0.5542004383489872
 20
0.1990263189630952
 11
0.5550399946471356
 21
0.2012651357581567
 72
     1
 10
0.5550399946471352
 20
0.2012651357581567
 11
0.5555064148127727
 21
0.2001457273606265
 72
     1
 10
0.5555064148127729
 20
0.2001457273606264
 11
0.5560661190115385
 21
0.198933034929968
 72
     1
 10
0.5560661190115379
 20
0.198933034929968
 11
0.5567191072434298
 21
0.197533774433055
 72
     1
 10
0.5567191072434304
 20
0.197533774433055
 11
0.5574653795084506
 21
0.1959479458698865
 72
     1
 10
0.557465379508451
 20
0.1959479458698865
 11
0.5583049358065995
 21
0.1942688332735902
 72
     1
 10
0.5583049358065986
 20
0.1942688332735903
 11
0.5606370366347874
 21
0.1896046316172126
 72
     1
 10
0.5606370366347871
 20
0.1896046316172126
 11
0.5639952618273804
 21
0.1828881812320289
 72
     1
 10
0.5639952618273814
 20
0.1828881812320287
 11
0.5680064752518651
 21
0.1748657543830587
 72
     1
 10
0.5680064752518637
 20
0.1748657543830589
 11
0.57239082480886
 21
0.1661903393021966
 72
     1
 10
0.5723908248088612
 20
0.1661903393021967
 11
0.5765886062996012
 21
0.1577947763207168
 72
     1
 10
0.5765886062996
 20
0.1577947763207165
 11
0.5803199676247008
 21
0.1503320536705122
 72
     1
 10
0.5803199676247015
 20
0.1503320536705122
 11
0.5831184886185295
 21
0.144641727649731
 72
     1
 10
0.5831184886185295
 20
0.144641727649731
 11
0.5791072751940441
 21
0.144641727649731
 72
     1
 10
0.5791072751940436
 20
0.144641727649731
 11
0.5724841088419869
 21
0.144641727649731
 72
     1
 10
0.5724841088419872
 20
0.144641727649731
 11
0.5641818298936356
 21
0.144641727649731
 72
     1
 10
0.5641818298936352
 20
0.144641727649731
 11
0.5550399946471351
 21
0.144641727649731
 72
     1
 10
0.5550399946471352
 20
0.144641727649731
 11
0.5458981594006351
 21
0.144641727649731
 72
     1
 10
0.5458981594006352
 20
0.144641727649731
 11
0.5375958804522815
 21
0.144641727649731
 72
     1
 10
0.5375958804522814
 20
0.144641727649731
 11
0.5310659981333528
 21
0.144641727649731
 72
     1
 10
0.5310659981333524
 20
0.144641727649731
 11
0.5269615006757405
 21
0.144641727649731
 97
        0
 92
        1
 93
      141
 72
     1
 10
0.5656743744236757
 20
0.2277578011663825
 11
0.544405614870593
 21
0.2277578011663825
 72
     1
 10
0.544405614870593
 20
0.2277578011663825
 11
0.4748157261574382
 21
0.0934287934627039
 72
     1
 10
0.4748157261574378
 20
0.0934287934627039
 11
0.4729500454948865
 21
0.0955743262246376
 72
     1
 10
0.4729500454948874
 20
0.0955743262246376
 11
0.4699649564348049
 21
0.0991191194834847
 72
     1
 10
0.4699649564348043
 20
0.0991191194834847
 11
0.4661403110765752
 21
0.1036900371067346
 72
     1
 10
0.4661403110765754
 20
0.1036900371067347
 11
0.4615693934533244
 21
0.1091005110281331
 72
     1
 10
0.461569393453325
 20
0.109100511028133
 11
0.456345487598182
 21
0.1152572572145517
 72
     1
 10
0.4563454875981812
 20
0.1152572572145516
 11
0.4506551615774008
 21
0.1219737075997353
 72
     1
 10
0.4506551615774015
 20
0.1219737075997354
 11
0.4447782674903648
 21
0.1290632941174296
 72
     1
 10
0.4447782674903636
 20
0.1290632941174296
 11
0.4387148053370722
 21
0.1362461646682511
 72
     1
 10
0.4387148053370727
 20
0.1362461646682512
 11
0.4326513431837832
 21
0.1433357511859454
 72
     1
 10
0.4326513431837844
 20
0.1433357511859453
 11
0.4268677331298759
 21
0.1502387696373844
 72
     1
 10
0.4268677331298756
 20
0.1502387696373844
 11
0.4214572592084763
 21
0.1566753679231857
 72
     1
 10
0.4214572592084754
 20
0.1566753679231858
 11
0.4165132054527153
 21
0.1625522620102216
 72
     1
 10
0.4165132054527163
 20
0.1625522620102216
 11
0.4123154239619763
 21
0.1674963157659821
 72
     1
 10
0.4123154239619753
 20
0.1674963157659822
 11
0.4088639147362555
 21
0.1715075291904667
 72
     1
 10
0.4088639147362568
 20
0.1715075291904669
 11
0.4065318139080681
 21
0.1743993342174211
 72
     1
 10
0.4065318139080665
 20
0.1743993342174211
 11
0.405319121477409
 21
0.1757985947143345
 72
     1
 10
0.4053191214774104
 20
0.1757985947143345
 11
0.4067183819743243
 21
0.1769180031118651
 72
     1
 10
0.4067183819743235
 20
0.1769180031118651
 11
0.4094236189350213
 21
0.1788769678075437
 72
     1
 10
0.4094236189350218
 20
0.1788769678075437
 11
0.4132482642932526
 21
0.1816754888013702
 72
     1
 10
0.4132482642932525
 20
0.1816754888013703
 11
0.4179124659496298
 21
0.1852202820602174
 72
     1
 10
0.417912465949629
 20
0.1852202820602174
 11
0.4232296558379
 21
0.189138211451575
 72
     1
 10
0.4232296558379001
 20
0.1891382114515751
 11
0.4291065499249351
 21
0.1935225610085696
 72
     1
 10
0.4291065499249367
 20
0.1935225610085698
 11
0.4352632961113562
 21
0.1981867626649482
 72
     1
 10
0.4352632961113554
 20
0.1981867626649479
 11
0.4416066103640296
 21
0.2028509643213252
 72
     1
 10
0.4416066103640293
 20
0.2028509643213252
 11
0.4479499246167016
 21
0.2076084500108307
 72
     1
 10
0.4479499246167018
 20
0.2076084500108307
 11
0.4540133867699932
 21
0.2120860836009535
 72
     1
 10
0.4540133867699927
 20
0.2120860836009535
 11
0.4596104287576467
 21
0.2162838650916932
 72
     1
 10
0.4596104287576468
 20
0.216283865091693
 11
0.4646477665465351
 21
0.2200152264167952
 72
     1
 10
0.464647766546535
 20
0.2200152264167951
 11
0.4689388320704013
 21
0.223186883543132
 72
     1
 10
0.4689388320704016
 20
0.2231868835431323
 11
0.4721104891967386
 21
0.2256122684044488
 72
     1
 10
0.4721104891967376
 20
0.2256122684044488
 11
0.4742560219586717
 21
0.2271980969676172
 72
     1
 10
0.4742560219586727
 20
0.2271980969676173
 11
0.475002294223693
 21
0.2277578011663825
 72
     1
 10
0.4750022942236929
 20
0.2277578011663825
 11
0.4674462875403612
 21
0.2277578011663825
 72
     1
 10
0.4674462875403611
 20
0.2277578011663825
 11
0.4395543616352215
 21
0.2277578011663825
 72
     1
 10
0.439554361635222
 20
0.2277578011663825
 11
0.4386215213039473
 21
0.2270115289013622
 72
     1
 10
0.4386215213039466
 20
0.2270115289013622
 11
0.4359162843432469
 21
0.2250525642056836
 72
     1
 10
0.4359162843432465
 20
0.2250525642056836
 11
0.4318117868856346
 21
0.2220674751456017
 72
     1
 10
0.4318117868856351
 20
0.2220674751456017
 11
0.4264013129642376
 21
0.2180562617211167
 72
     1
 10
0.4264013129642379
 20
0.2180562617211168
 11
0.4200579987115638
 21
0.2132987760316117
 72
     1
 10
0.4200579987115641
 20
0.2132987760316114
 11
0.4128751281607416
 21
0.2079815861433408
 72
     1
 10
0.4128751281607408
 20
0.2079815861433408
 11
0.4051325534111546
 21
0.20229126012256
 72
     1
 10
0.4051325534111552
 20
0.20229126012256
 11
0.397016842529058
 21
0.1963210820023964
 72
     1
 10
0.3970168425290583
 20
0.1963210820023967
 11
0.3889011316469611
 21
0.1903509038822331
 72
     1
 10
0.3889011316469611
 20
0.190350903882233
 11
0.3808787047979902
 21
0.1844740097951972
 72
     1
 10
0.3808787047979898
 20
0.1844740097951974
 11
0.3733226981146581
 21
0.1787836837744166
 72
     1
 10
0.373322698114658
 20
0.1787836837744166
 11
0.3663263956300919
 21
0.173653061952401
 72
     1
 10
0.3663263956300931
 20
0.173653061952401
 11
0.3601696494436735
 21
0.169082144329151
 72
     1
 10
0.3601696494436726
 20
0.1690821443291508
 11
0.3550390276216579
 21
0.1653507830040483
 72
     1
 10
0.3550390276216584
 20
0.1653507830040482
 11
0.3513076662965558
 21
0.1625522620102218
 72
     1
 10
0.3513076662965551
 20
0.1625522620102216
 11
0.3490688495014928
 21
0.1609664334470531
 72
     1
 10
0.3490688495014926
 20
0.1609664334470531
 11
0.3490688495014926
 21
0.1631119662089868
 72
     1
 10
0.3490688495014926
 20
0.1631119662089868
 11
0.3490688495014926
 21
0.1662836233353237
 72
     1
 10
0.3490688495014926
 20
0.1662836233353238
 11
0.3490688495014926
 21
0.1702948367598088
 72
     1
 10
0.3490688495014926
 20
0.1702948367598088
 11
0.3490688495014926
 21
0.1749590384161865
 72
     1
 10
0.3490688495014926
 20
0.1749590384161865
 11
0.3490688495014926
 21
0.1801829442713294
 72
     1
 10
0.3490688495014926
 20
0.1801829442713296
 11
0.3490688495014926
 21
0.185779986258983
 72
     1
 10
0.3490688495014926
 20
0.1857799862589829
 11
0.3490688495014926
 21
0.1916568803460187
 72
     1
 10
0.3490688495014926
 20
0.1916568803460186
 11
0.3490688495014926
 21
0.1975337744330549
 72
     1
 10
0.3490688495014926
 20
0.197533774433055
 11
0.3490688495014926
 21
0.2033173844869632
 72
     1
 10
0.3490688495014926
 20
0.2033173844869631
 11
0.3490688495014926
 21
0.2088211424414888
 72
     1
 10
0.3490688495014926
 20
0.2088211424414888
 11
0.3490688495014926
 21
0.2139517642635044
 72
     1
 10
0.3490688495014926
 20
0.2139517642635044
 11
0.3490688495014926
 21
0.2185226818867544
 72
     1
 10
0.3490688495014926
 20
0.2185226818867545
 11
0.3490688495014926
 21
0.2222540432118567
 72
     1
 10
0.3490688495014926
 20
0.2222540432118567
 11
0.3490688495014926
 21
0.2252391322719387
 72
     1
 10
0.3490688495014926
 20
0.2252391322719387
 11
0.3490688495014926
 21
0.2271048129344895
 72
     1
 10
0.3490688495014926
 20
0.2271048129344895
 11
0.3490688495014926
 21
0.2277578011663825
 72
     1
 10
0.3490688495014926
 20
0.2277578011663825
 11
0.3258411252527322
 21
0.2277578011663825
 72
     1
 10
0.3258411252527336
 20
0.2277578011663825
 11
0.3258411252527336
 21
0.0926825211976832
 72
     1
 10
0.3258411252527336
 20
0.0926825211976832
 11
0.3486957133689848
 21
0.0926825211976832
 72
     1
 10
0.3486957133689845
 20
0.0926825211976832
 11
0.3486957133689845
 21
0.0943616337939795
 72
     1
 10
0.3486957133689845
 20
0.0943616337939795
 11
0.3486957133689845
 21
0.0988392673841017
 72
     1
 10
0.3486957133689845
 20
0.0988392673841017
 11
0.3486957133689845
 21
0.1051825816367752
 72
     1
 10
0.3486957133689845
 20
0.1051825816367753
 11
0.3486957133689845
 21
0.1125520202538523
 72
     1
 10
0.3486957133689845
 20
0.1125520202538524
 11
0.3486957133689845
 21
0.1200147429040567
 72
     1
 10
0.3486957133689845
 20
0.1200147429040567
 11
0.3486957133689845
 21
0.1267311932892408
 72
     1
 10
0.3486957133689845
 20
0.1267311932892408
 11
0.3486957133689845
 21
0.1317685310781287
 72
     1
 10
0.3486957133689845
 20
0.1317685310781289
 11
0.3486957133689845
 21
0.1342871999725727
 72
     1
 10
0.3486957133689845
 20
0.1342871999725725
 11
0.3507479620977905
 21
0.1356864604694859
 72
     1
 10
0.35074796209779
 20
0.1356864604694859
 11
0.3548524595554018
 21
0.1387648335626952
 72
     1
 10
0.3548524595554015
 20
0.1387648335626952
 11
0.3605427855761835
 21
0.1428693310203079
 72
     1
 10
0.3605427855761842
 20
0.1428693310203079
 11
0.3668860998288565
 21
0.1476268167098129
 72
     1
 10
0.3668860998288568
 20
0.1476268167098129
 11
0.373322698114659
 21
0.1522910183661906
 72
     1
 10
0.373322698114658
 20
0.1522910183661908
 11
0.3791995922016947
 21
0.1565820838900582
 72
     1
 10
0.3791995922016946
 20
0.1565820838900582
 11
0.3836772257918156
 21
0.1599403090826502
 72
     1
 10
0.3836772257918159
 20
0.1599403090826503
 11
0.386195894686261
 21
0.1618059897452011
 72
     1
 10
0.3861958946862609
 20
0.1618059897452011
 11
0.3873153030837921
 21
0.1604067292482882
 72
     1
 10
0.3873153030837915
 20
0.1604067292482878
 11
0.3894608358457238
 21
0.1577947763207163
 72
     1
 10
0.3894608358457248
 20
0.1577947763207165
 11
0.3925392089389353
 21
0.1541566990287417
 72
     1
 10
0.3925392089389348
 20
0.1541566990287417
 11
0.396457138330292
 21
0.149492497372364
 72
     1
 10
0.3964571383302933
 20
0.149492497372364
 11
0.4009347719204161
 21
0.1442685915172211
 72
     1
 10
0.4009347719204146
 20
0.1442685915172209
 11
0.4057855416430466
 21
0.138391697430185
 72
     1
 10
0.4057855416430463
 20
0.1383916974301853
 11
0.4109161634650628
 21
0.1322349512437666
 72
     1
 10
0.410916163465064
 20
0.1322349512437666
 11
0.4162333533533335
 21
0.1259849210242201
 72
     1
 10
0.4162333533533334
 20
0.1259849210242201
 11
0.4215505432416044
 21
0.1196416067715466
 72
     1
 10
0.4215505432416045
 20
0.1196416067715466
 11
0.4265878810304927
 21
0.113671428651383
 72
     1
 10
0.4265878810304931
 20
0.1136714286513832
 11
0.4312520826868704
 21
0.1079811026306024
 72
     1
 10
0.4312520826868696
 20
0.1079811026306024
 11
0.4355431482107378
 21
0.1029437648417141
 72
     1
 10
0.435543148210738
 20
0.1029437648417139
 11
0.4390879414695842
 21
0.0987459833509739
 72
     1
 10
0.4390879414695843
 20
0.0987459833509741
 11
0.4417931784302841
 21
0.0954810421915098
 72
     1
 10
0.4417931784302845
 20
0.0954810421915096
 11
0.4435655750597076
 21
0.0934287934627037
 72
     1
 10
0.4435655750597074
 20
0.0934287934627039
 11
0.4442185632915993
 21
0.0926825211976832
 72
     1
 10
0.4442185632915985
 20
0.0926825211976832
 11
0.4743493059918004
 21
0.0926825211976832
 72
     1
 10
0.4743493059918001
 20
0.0926825211976832
 11
0.4753754303562029
 21
0.0926825211976832
 72
     1
 10
0.4753754303562033
 20
0.0926825211976832
 11
0.5008419714000258
 21
0.0926825211976832
 72
     1
 10
0.5008419714000265
 20
0.0926825211976832
 11
0.5014949596319184
 21
0.0939884976614689
 72
     1
 10
0.501494959631919
 20
0.0939884976614688
 11
0.5031740722282155
 21
0.0973467228540609
 72
     1
 10
0.503174072228215
 20
0.0973467228540612
 11
0.5055061730564038
 21
0.1021042085435666
 72
     1
 10
0.505506173056403
 20
0.1021042085435665
 11
0.5083046940502291
 21
0.1077012505312196
 72
     1
 10
0.5083046940502292
 20
0.1077012505312194
 11
0.5111032150440553
 21
0.1134848605851279
 72
     1
 10
0.5111032150440549
 20
0.1134848605851281
 11
0.5137151679716264
 21
0.1186154824071433
 72
     1
 10
0.5137151679716277
 20
0.1186154824071433
 11
0.5156741326673071
 21
0.1226266958316283
 72
     1
 10
0.5156741326673076
 20
0.122626695831628
 11
0.5167002570317104
 21
0.1247722285935621
 72
     1
 10
0.5167002570317103
 20
0.1247722285935622
 11
0.5180062334954961
 21
0.1247722285935622
 72
     1
 10
0.5180062334954961
 20
0.1247722285935622
 11
0.5207114704561957
 21
0.1247722285935622
 72
     1
 10
0.5207114704561944
 20
0.1247722285935622
 11
0.5246293998475517
 21
0.1247722285935622
 72
     1
 10
0.5246293998475525
 20
0.1247722285935622
 11
0.5295734536033125
 21
0.1247722285935622
 72
     1
 10
0.5295734536033115
 20
0.1247722285935622
 11
0.5352637796240919
 21
0.1247722285935622
 72
     1
 10
0.5352637796240929
 20
0.1247722285935622
 11
0.5415138098436386
 21
0.1247722285935622
 72
     1
 10
0.5415138098436394
 20
0.1247722285935622
 11
0.5482302602288245
 21
0.1247722285935622
 72
     1
 10
0.5482302602288236
 20
0.1247722285935622
 11
0.5551332786802616
 21
0.1247722285935622
 72
     1
 10
0.5551332786802608
 20
0.1247722285935622
 11
0.5620362971317004
 21
0.1247722285935622
 72
     1
 10
0.5620362971317015
 20
0.1247722285935622
 11
0.5687527475168847
 21
0.1247722285935622
 72
     1
 10
0.5687527475168839
 20
0.1247722285935622
 11
0.5750027777364317
 21
0.1247722285935622
 72
     1
 10
0.5750027777364322
 20
0.1247722285935622
 11
0.5806931037572126
 21
0.1247722285935622
 72
     1
 10
0.5806931037572119
 20
0.1247722285935622
 11
0.585637157512972
 21
0.1247722285935622
 72
     1
 10
0.5856371575129727
 20
0.1247722285935622
 11
0.5895550869043299
 21
0.1247722285935622
 72
     1
 10
0.5895550869043289
 20
0.1247722285935622
 11
0.5922603238650286
 21
0.1247722285935622
 72
     1
 10
0.5922603238650291
 20
0.1247722285935622
 11
0.5935663003288148
 21
0.1247722285935622
 72
     1
 10
0.5935663003288148
 20
0.1247722285935622
 11
0.5945924246932176
 21
0.1226266958316281
 72
     1
 10
0.5945924246932175
 20
0.122626695831628
 11
0.5965513893888953
 21
0.1186154824071431
 72
     1
 10
0.5965513893888957
 20
0.1186154824071433
 11
0.5991633423164672
 21
0.1134848605851281
 72
     1
 10
0.5991633423164667
 20
0.1134848605851281
 11
0.6019618633102946
 21
0.1077012505312196
 72
     1
 10
0.6019618633102959
 20
0.1077012505312194
 11
0.604760384304122
 21
0.1021042085435664
 72
     1
 10
0.6047603843041221
 20
0.1021042085435665
 11
0.6070924851323109
 21
0.0973467228540611
 72
     1
 10
0.6070924851323101
 20
0.0973467228540612
 11
0.6087715977286067
 21
0.0939884976614691
 72
     1
 10
0.6087715977286062
 20
0.0939884976614688
 11
0.609424585960498
 21
0.0926825211976832
 72
     1
 10
0.6094245859604986
 20
0.0926825211976832
 11
0.6363836715343633
 21
0.0926825211976832
 72
     1
 10
0.6363836715343641
 20
0.0926825211976832
 11
0.5671669189537184
 21
0.2277578011663825
 72
     1
 10
0.5671669189537179
 20
0.2277578011663825
 11
0.5656743744236758
 21
0.2277578011663825
 97
        0
 75
     0
 76
     1
 98
        1
 10
-0.3743130907707726
 20
-0.2500502867693841
1001
ACAD
1010
0.0
1020
0.0
1030
0.0
  0
HATCH
  5
781
330
778
100
AcDbEntity
  8
Kawneer Logo-English
100
AcDbHatch
 10
0.0
 20
0.0
 30
0.0
210
0.0
220
0.0
230
1.0
  2
SOLID
 70
     1
 71
     0
 91
        1
 92
        1
 93
       69
 72
     1
 10
0.8092389849197205
 20
0.2277578011663825
 11
0.778921674153266
 21
0.1309289747799811
 72
     1
 10
0.778921674153267
 20
0.1309289747799809
 11
0.7781754018882468
 21
0.1287834420180468
 72
     1
 10
0.7781754018882468
 20
0.1287834420180467
 11
0.7776156976894812
 21
0.1270110453886236
 72
     1
 10
0.7776156976894813
 20
0.1270110453886237
 11
0.7771492775238438
 21
0.1253319327923275
 72
     1
 10
0.7771492775238436
 20
0.1253319327923274
 11
0.7766828573582045
 21
0.1238393882622867
 72
     1
 10
0.7766828573582046
 20
0.1238393882622866
 11
0.7764030052588217
 21
0.1248655126266895
 72
     1
 10
0.776403005258822
 20
0.1248655126266896
 11
0.7761231531594392
 21
0.1259849210242202
 72
     1
 10
0.7761231531594391
 20
0.1259849210242201
 11
0.7759365850931844
 21
0.1268244773223681
 72
     1
 10
0.7759365850931843
 20
0.1268244773223682
 11
0.7758433010600562
 21
0.1271976134548783
 72
     1
 10
0.7758433010600552
 20
0.1271976134548783
 11
0.7755634489606744
 21
0.1280371697530267
 72
     1
 10
0.775563448960674
 20
0.1280371697530267
 11
0.7750970287950349
 21
0.1291565781505569
 72
     1
 10
0.7750970287950363
 20
0.1291565781505568
 11
0.773977620397507
 21
0.1323282352768938
 72
     1
 10
0.7739776203975062
 20
0.1323282352768939
 11
0.7721119397349549
 21
0.1372722890326544
 72
     1
 10
0.7721119397349554
 20
0.1372722890326546
 11
0.7697798389067666
 21
0.1436156032853281
 72
     1
 10
0.769779838906767
 20
0.1436156032853281
 11
0.7670746019460673
 21
0.1511716099686602
 72
     1
 10
0.7670746019460668
 20
0.15117160996866
 11
0.7639962288528581
 21
0.1595671729501399
 72
     1
 10
0.7639962288528582
 20
0.15956717295014
 11
0.7606380036602665
 21
0.1686157241635125
 72
     1
 10
0.7606380036602652
 20
0.1686157241635125
 11
0.7572797784676718
 21
0.1778508434431408
 72
     1
 10
0.7572797784676726
 20
0.1778508434431408
 11
0.753921553275081
 21
0.187179246755896
 72
     1
 10
0.7539215532750814
 20
0.1871792467558961
 11
0.7505633280824898
 21
0.1962277979692689
 72
     1
 10
0.7505633280824902
 20
0.1962277979692689
 11
0.7474849549892814
 21
0.2046233609507488
 72
     1
 10
0.7474849549892797
 20
0.2046233609507488
 11
0.74477971802858
 21
0.2121793676340809
 72
     1
 10
0.7447797180285814
 20
0.2121793676340809
 11
0.7424476172003926
 21
0.2185226818867544
 72
     1
 10
0.7424476172003929
 20
0.2185226818867545
 11
0.7405819365378416
 21
0.2234667356425151
 72
     1
 10
0.7405819365378408
 20
0.2234667356425151
 11
0.7394625281403098
 21
0.2266383927688516
 72
     1
 10
0.7394625281403103
 20
0.2266383927688516
 11
0.7390893920078009
 21
0.2277578011663822
 72
     1
 10
0.7390893920078004
 20
0.2277578011663825
 11
0.7191266089185034
 21
0.2277578011663825
 72
     1
 10
0.7191266089185029
 20
0.2277578011663825
 11
0.6843316645619254
 21
0.1336342117406798
 72
     1
 10
0.6843316645619267
 20
0.1336342117406795
 11
0.6832122561643957
 21
0.130649122680598
 72
     1
 10
0.6832122561643961
 20
0.1306491226805981
 11
0.6823726998662476
 21
0.1282237378192816
 72
     1
 10
0.6823726998662468
 20
0.1282237378192818
 11
0.6817197116343549
 21
0.1260782050573481
 72
     1
 10
0.6817197116343552
 20
0.1260782050573481
 11
0.6811600074355896
 21
0.1241192403616695
 72
     1
 10
0.6811600074355884
 20
0.1241192403616695
 11
0.6808801553362055
 21
0.1250520806929446
 72
     1
 10
0.6808801553362059
 20
0.1250520806929445
 11
0.6805070192036949
 21
0.1261714890904751
 72
     1
 10
0.680507019203696
 20
0.1261714890904752
 11
0.6802271671043131
 21
0.1272908974880058
 72
     1
 10
0.680227167104313
 20
0.1272908974880061
 11
0.6798540309718037
 21
0.1286901579849195
 72
     1
 10
0.6798540309718031
 20
0.1286901579849194
 11
0.6794808948392922
 21
0.12980956638245
 72
     1
 10
0.6794808948392932
 20
0.1298095663824503
 11
0.6784547704748904
 21
0.1328879394756595
 72
     1
 10
0.67845477047489
 20
0.1328879394756595
 11
0.6769622259448497
 21
0.1378319932314196
 72
     1
 10
0.6769622259448496
 20
0.1378319932314196
 11
0.6750032612491701
 21
0.1441753074840938
 72
     1
 10
0.6750032612491697
 20
0.1441753074840937
 11
0.6725778763878547
 21
0.1516380301342981
 72
     1
 10
0.6725778763878556
 20
0.1516380301342981
 11
0.6699659234602841
 21
0.160033593115778
 72
     1
 10
0.6699659234602829
 20
0.160033593115778
 11
0.6671674024664549
 21
0.168988860296023
 72
     1
 10
0.6671674024664554
 20
0.168988860296023
 11
0.6642755974395012
 21
0.1782239795756509
 72
     1
 10
0.6642755974395019
 20
0.178223979575651
 11
0.6613837924125477
 21
0.1874590988552789
 72
     1
 10
0.6613837924125466
 20
0.1874590988552789
 11
0.6585852714187205
 21
0.1964143660355239
 72
     1
 10
0.6585852714187204
 20
0.1964143660355237
 11
0.6559733184911489
 21
0.2047166449838762
 72
     1
 10
0.6559733184911494
 20
0.2047166449838765
 11
0.6536412176629606
 21
0.2122726516672082
 72
     1
 10
0.6536412176629614
 20
0.2122726516672082
 11
0.6515889689341538
 21
0.2186159659198823
 72
     1
 10
0.6515889689341537
 20
0.2186159659198821
 11
0.6500964244041133
 21
0.2234667356425149
 72
     1
 10
0.6500964244041132
 20
0.2234667356425151
 11
0.6490703000397104
 21
0.2266383927688516
 72
     1
 10
0.6490703000397105
 20
0.2266383927688516
 11
0.6487904479403276
 21
0.2277578011663822
 72
     1
 10
0.648790447940328
 20
0.2277578011663825
 11
0.6237903270621445
 21
0.2277578011663825
 72
     1
 10
0.6237903270621437
 20
0.2277578011663825
 11
0.6676338226320932
 21
0.0926825211976832
 72
     1
 10
0.6676338226320926
 20
0.0926825211976832
 11
0.6922608073777669
 21
0.0926825211976832
 72
     1
 10
0.6922608073777666
 20
0.0926825211976832
 11
0.726029627369941
 21
0.1855001341596003
 72
     1
 10
0.7260296273699423
 20
0.1855001341596003
 11
0.7269624677012189
 21
0.1882986551534267
 72
     1
 10
0.7269624677012177
 20
0.1882986551534266
 11
0.7278020239993661
 21
0.1906307559816158
 72
     1
 10
0.727802023999367
 20
0.1906307559816159
 11
0.7284550122312589
 21
0.1927762887435496
 72
     1
 10
0.7284550122312581
 20
0.1927762887435495
 11
0.7290147164300237
 21
0.1947352534392281
 72
     1
 10
0.7290147164300232
 20
0.1947352534392282
 11
0.7298542727281716
 21
0.192216584544784
 72
     1
 10
0.729854272728173
 20
0.1922165845447839
 11
0.7306938290263214
 21
0.1894180635509575
 72
     1
 10
0.7306938290263206
 20
0.1894180635509575
 11
0.7318132374238499
 21
0.1863396904577483
 72
     1
 10
0.7318132374238511
 20
0.1863396904577481
 11
0.7331192138876387
 21
0.1827016131657736
 72
     1
 10
0.7331192138876382
 20
0.1827016131657737
 11
0.7654887733828987
 21
0.0926825211976834
 72
     1
 10
0.7654887733828986
 20
0.0926825211976832
 11
0.7895560539298075
 21
0.0926825211976832
 72
     1
 10
0.7895560539298075
 20
0.0926825211976832
 11
0.8341458217647785
 21
0.2277578011663825
 72
     1
 10
0.8341458217647783
 20
0.2277578011663825
 11
0.830601028505932
 21
0.2277578011663825
 72
     1
 10
0.8306010285059324
 20
0.2277578011663825
 11
0.8092389849197216
 21
0.2277578011663825
 97
        0
 75
     0
 76
     1
 98
        1
 10
-0.3743130907707726
 20
-0.2500502867693841
1001
ACAD
1010
0.0
1020
0.0
1030
0.0
  0
ENDBLK
  5
785
330
778
100
AcDbEntity
  8
0
100
AcDbBlockEnd
  0
ENDSEC
  0
SECTION
  2
ENTITIES
  0
LINE
  5
48
330
2
100
AcDbEntity
  8
R-SWTS-DET1
100
AcDbLine
 10
42.07558739096947
 20
17.98531303609624
 30
0.0
 11
39.21620456848234
 21
17.98531303609624
 31
0.0
  0
LINE
  5
4A
330
2
100
AcDbEntity
  8
R-SWTS-DET1
100
AcDbLine
 10
42.07557174599521
 20
16.24031303609626
 30
0.0
 11
39.85133262727686
 21
16.24031303609626
 31
0.0
  0
LWPOLYLINE
  5
4B
330
2
100
AcDbEntity
  8
R-SWTS-DET2
100
AcDbPolyline
 90
        8
 70
     1
 43
0.0
 10
40.01057956848228
 20
14.99031303609612
 10
40.07557956848233
 20
14.99031303609612
 10
40.07557956848233
 20
14.92531303609613
 10
40.09920545646525
 20
14.92531303609613
 10
40.1755795684823
 20
15.11531303609612
 10
39.91557956848232
 20
15.11531303609612
 10
39.91557956848232
 20
14.92531303609613
 10
40.01057956848228
 20
14.92531303609613
  0
LWPOLYLINE
  5
4D
330
2
100
AcDbEntity
  8
R-SWTS-DET3
100
AcDbPolyline
 90
        4
 70
     0
 43
0.0
 10
42.07558739096947
 20
15.86531303609627
 10
39.5130795684824
 20
15.86531303609627
 10
39.5130795684824
 20
16.11531303609627
 10
42.07558739096947
 20
16.11531303609627
  0
LWPOLYLINE
  5
4F
330
2
100
AcDbEntity
  8
R-SWTS-DET3
100
AcDbPolyline
 90
        4
 70
     0
 43
0.0
 10
42.07558739096947
 20
15.11531303609627
 10
39.5130795684824
 20
15.11531303609627
 10
39.5130795684824
 20
15.36531303609627
 10
42.07558739096947
 20
15.36531303609627
  0
LWPOLYLINE
  5
50
330
2
100
AcDbEntity
  8
R-SWTS-DET2
100
AcDbPolyline
 90
       10
 70
     0
 43
0.0
 10
39.87679923033267
 20
16.24031303609626
 42
0.6522884812892542
 10
39.86204514698091
 20
16.20681055393748
 42
0.2083092445416351
 10
40.06705885095914
 20
16.11552280050961
 42
0.9518102130205555
 10
40.06935652773307
 20
16.15540793664326
 42
-0.0657822641916236
 10
40.00799430488228
 20
16.17031303609621
 10
40.09597915920136
 20
16.17031303609627
 10
40.21570230795748
 20
16.11704034178902
 42
0.9572917422547984
 10
40.23352538265834
 20
16.15280755815655
 10
40.07557956848228
 20
16.24031303609629
 10
40.04057956848237
 20
16.24031303609629
  0
DIMENSION
  5
51
330
2
100
AcDbEntity
  8
R-ANNO-DIMS
100
AcDbDimension
  2
*D16
 10
42.07558739096947
 20
11.60031303609614
 30
0.0
 11
37.91208347972608
 21
11.78031303609614
 31
0.0
 70
    32
  1
F.W.
 71
     5
 42
8.327007822486791
  3
EXT_ON_OFF
100
AcDbAlignedDimension
 13
33.74857956848269
 23
13.84531303609603
 33
0.0
 14
42.07558739096947
 24
13.84531303609603
 34
0.0
100
AcDbRotatedDimension
  0
DIMENSION
  5
5F
330
2
100
AcDbEntity
  8
R-ANNO-DIMS
100
AcDbDimension
  2
*D15
 10
40.07557956848233
 20
12.35031303609616
 30
0.0
 11
39.20057956848243
 21
12.53031303609617
 31
0.0
 70
    32
 71
     5
 42
1.749999999999829
  3
Standard
100
AcDbAlignedDimension
 13
38.32557956848251
 23
13.86031303609661
 33
0.0
 14
40.07557956848233
 24
14.86031303609661
 34
0.0
100
AcDbRotatedDimension
  0
LEADER
  5
6C
330
2
100
AcDbEntity
  8
PART_NUMBERS
100
AcDbLeader
  3
Standard
 76
     3
 10
38.2458345246593
 20
19.29731303609543
 30
0.0
 10
41.77857956848368
 20
20.40085006288391
 30
0.0
 10
42.02857956848368
 20
20.40085006288391
 30
0.0
  0
LEADER
  5
6E
330
2
100
AcDbEntity
  8
PART_NUMBERS
100
AcDbLeader
  3
Standard
 76
     3
 10
37.87857956848308
 20
19.7348130360954
 30
0.0
 10
41.77857956848368
 20
21.61285006288391
 30
0.0
 10
42.02857956848368
 20
21.61285006288391
 30
0.0
  0
LEADER
  5
6F
330
2
100
AcDbEntity
  8
PART_NUMBERS
100
AcDbLeader
  3
Standard
 76
     3
 10
36.45725598470199
 20
19.4000765307485
 30
0.0
 10
41.77857956848368
 20
22.82485006288391
 30
0.0
 10
42.02857956848368
 20
22.82485006288391
 30
0.0
  0
LEADER
  5
70
330
2
100
AcDbEntity
  8
PART_NUMBERS
100
AcDbLeader
  3
Standard
 76
     3
 10
36.0948268295133
 20
20.26031085327451
 30
0.0
 10
41.77857956848368
 20
24.0368500628839
 30
0.0
 10
42.02857956848368
 20
24.0368500628839
 30
0.0
  0
LEADER
  5
71
330
2
100
AcDbEntity
  8
PART_NUMBERS
100
AcDbLeader
  3
Standard
 76
     3
 10
34.92357956848304
 20
20.01231303609535
 30
0.0
 10
41.77857956848368
 20
25.65285006288391
 30
0.0
 10
42.02857956848368
 20
25.65285006288391
 30
0.0
  0
TEXT
  5
72
330
2
100
AcDbEntity
  8
0
100
AcDbText
 10
35.07106199268649
 20
9.537685137051118
 30
0.0
 40
0.375
  1
90° OUTSIDE CORNER
 72
     4
 11
37.91208347972605
 21
9.725313036096139
 31
0.0
100
AcDbText
  0
LWPOLYLINE
  5
73
330
2
100
AcDbEntity
  8
R-SWTS-DET1
100
AcDbPolyline
 90
       41
 70
     1
 43
0.0
 10
39.23911607323726
 20
17.74431303609629
 42
0.4400105308918457
 10
39.26900191418003
 20
17.77692770837871
 10
39.25888790474431
 20
17.89253136521901
 42
-0.4466574342041955
 10
39.28944029972973
 20
17.92513863168247
 10
39.85913452337667
 20
17.91247777328613
 42
-0.4077202623982005
 10
40.01557956848233
 20
17.75251727098728
 10
40.01557956848239
 20
16.94831303609564
 42
-0.4142135623731211
 10
40.0055795684824
 20
16.93831303609565
 10
39.1355795684824
 20
16.93831303609565
 42
0.3736297736983284
 10
39.10587527362884
 20
16.91251480563227
 10
39.06698947105912
 20
16.95140060820196
 42
1.000000000000055
 10
39.03516966590576
 20
16.91958080304857
 10
39.13350850067053
 20
16.82124196828377
 42
0.6681786379193539
 10
39.15057956848239
 20
16.82831303609563
 10
39.15057956848239
 20
16.89331303609563
 10
40.0055795684824
 20
16.89331303609563
 42
-0.4142135623730431
 10
40.01557956848239
 20
16.88331303609564
 10
40.01557956848245
 20
16.45531303609627
 10
39.83457956848241
 20
16.45531303609624
 42
0.414213562373069
 10
39.80457956848238
 20
16.42531303609624
 10
39.80457956848238
 20
16.34031303609623
 10
39.53857956848236
 20
16.34031303609623
 42
1.0
 10
39.53857956848236
 20
16.29031303609625
 10
39.80457956848238
 20
16.29031303609625
 10
39.80457956848238
 20
16.24031303609624
 10
39.91557956848237
 20
16.24031303609626
 10
39.91557956848237
 20
16.29031303609625
 10
39.8545795684824
 20
16.29031303609625
 10
39.8545795684824
 20
16.40531303609626
 10
40.0005795684824
 20
16.40531303609626
 10
40.0005795684824
 20
16.24031303609626
 10
40.04057956848237
 20
16.24031303609626
 10
40.0755795684824
 20
16.26052029551789
 10
40.07557956848233
 20
17.98531303609624
 10
39.2005795684824
 20
17.98531303609624
 10
39.21728990321589
 20
17.79431303609627
 10
39.12865330955964
 20
17.79431303609627
 10
39.12097564002733
 20
17.8019907056279
 42
0.9999999999999872
 10
39.08562030096971
 20
17.76663536656684
 10
39.09915583487816
 20
17.75309983265967
 42
0.1989123673670628
 10
39.12036903831273
 20
17.74431303609629
  0
LINE
  5
74
330
2
100
AcDbEntity
  8
R-SWTS-DET1
100
AcDbLine
 10
34.76357956848284
 20
14.86031303609602
 30
0.0
 11
42.07558739096947
 21
14.86031303609602
 31
0.0
  0
LINE
  5
75
330
2
100
AcDbEntity
  8
R-SWTS-DET1
100
AcDbLine
 10
34.82857956848278
 20
14.92531303609601
 30
0.0
 11
42.07558739096947
 21
14.92531303609601
 31
0.0
  0
LWPOLYLINE
  5
76
330
2
100
AcDbEntity
  8
R-SWTS-DET1
100
AcDbPolyline
 90
       49
 70
     0
 43
0.0
 10
38.73346414116407
 20
15.39031303609599
 42
-0.2679491924311523
 10
38.69882312501267
 20
15.410313036096
 10
38.65378980401556
 20
15.48831303609657
 10
38.55564025825334
 20
15.48831303609657
 42
0.5773502691895308
 10
38.54698000421547
 20
15.47331303609658
 10
38.57757956848252
 20
15.42031303609659
 10
38.57757956848252
 20
15.40031303609658
 42
-0.4142135623718464
 10
38.56757956848253
 20
15.39031303609656
 10
38.42115691875176
 20
15.39031303609656
 42
-0.4142135623717424
 10
38.41115691875183
 20
15.40031303609658
 10
38.41115691875183
 20
15.42031303609659
 10
38.44456950179489
 20
15.47818532753928
 42
0.3954233646214654
 10
38.43990178714984
 20
15.49816463937125
 10
38.34219979925524
 20
15.5633237654479
 42
0.6600047310092911
 10
38.32680327745066
 20
15.55326774244992
 10
38.34427623902428
 20
15.45417365314239
 10
38.32643142282524
 20
15.38757589243587
 42
0.0655434628152334
 10
38.32557956848251
 20
15.38110541630831
 10
38.32557956848251
 20
13.86031303609661
 10
39.20057956848234
 20
13.86031303609661
 10
39.20057956848234
 20
14.86031303609661
 10
40.07557956848233
 20
14.86031303609661
 10
40.07557956848233
 20
14.92531303609661
 10
40.05557956848235
 20
14.97531303609659
 10
40.02557956848233
 20
14.97531303609659
 10
40.02557956848233
 20
14.92531303609661
 10
39.07557956848234
 20
14.92531303609661
 10
39.07557956848234
 20
15.30031303609661
 10
39.20057956848234
 20
15.30031303609661
 10
39.20057956848234
 20
15.38110541630831
 42
0.0655434628152602
 10
39.19972771413956
 20
15.38757589243587
 10
39.18188289794051
 20
15.45417365314239
 10
39.19935585951419
 20
15.55326774244992
 42
0.6600047310092907
 10
39.18395933770955
 20
15.5633237654479
 10
39.08625734981502
 20
15.49816463937125
 42
0.3954233646214653
 10
39.08158963516996
 20
15.47818532753928
 10
39.11500221821302
 20
15.42031303609659
 10
39.11500221821302
 20
15.40031303609658
 42
-0.4142135623717424
 10
39.10500221821303
 20
15.39031303609656
 10
38.95857956848232
 20
15.39031303609656
 42
-0.4142135623718464
 10
38.94857956848233
 20
15.40031303609658
 10
38.94857956848233
 20
15.42031303609659
 10
38.97917913274938
 20
15.47331303609658
 42
0.5773502691895307
 10
38.97051887871152
 20
15.48831303609657
 10
38.87236933294929
 20
15.48831303609657
 10
38.82733601195218
 20
15.410313036096
 42
-0.2679491924311522
 10
38.79269499580079
 20
15.39031303609599
 10
38.73346414116407
 20
15.39031303609599
 10
38.79269499580079
 20
15.39031303609599
  0
LINE
  5
77
330
2
100
AcDbEntity
  8
R-SWTS-DET1
100
AcDbLine
 10
33.7485795684828
 20
13.84531303609603
 30
0.0
 11
42.07558739096947
 21
13.84531303609603
 31
0.0
  0
LINE
  5
78
330
2
100
AcDbEntity
  8
R-SWTS-DET1
100
AcDbLine
 10
42.07557174599521
 20
18.875313036096
 30
0.0
 11
38.77857956848294
 21
18.875313036096
 31
0.0
  0
LINE
  5
79
330
2
100
AcDbEntity
  8
FORMAT
100
AcDbLine
 10
-0.0000000000000568
 20
0.0000000000000284
 30
0.0
 11
48.68193300713414
 21
0.0000000000000284
 31
0.0
  0
MTEXT
  5
7B
330
2
100
AcDbEntity
  8
0
 62
     2
100
AcDbMText
 10
29.99999999999995
 20
7.000000000000028
 30
0.0
 40
0.5
 41
20.0
 71
     2
 72
     5
  1
5525 THERMAL WINDOWS \PCORNER DETAILS\P5" DEEP (1" INFILL)\P\P{\H0.75x;DETAIL SCALE: 1" = 1"}
 73
     1
 44
1.0
1001
ACAD
1000
MTEXTBEGIN
1070
    73
1070
     1
1070
    44
1040
1.0
1070
    74
1070
     0
1000
MTEXTEND
  0
LINE
  5
7C
330
2
100
AcDbEntity
  8
FORMAT
100
AcDbLine
 10
-0.0000000000000568
 20
27.29626333709317
 30
0.0
 11
0.0
 21
0.0
 31
0.0
  0
LEADER
  5
7E
330
2
100
AcDbEntity
  8
PART_NUMBERS
100
AcDbLeader
  3
Standard
 76
     3
 10
13.98262907495814
 20
15.76634795149513
 30
0.0
 10
18.59888181392875
 20
15.94739337396279
 30
0.0
 10
18.84888181392875
 20
15.94739337396279
 30
0.0
  0
LEADER
  5
7F
330
2
100
AcDbEntity
  8
PART_NUMBERS
100
AcDbLeader
  3
Standard
 76
     3
 10
15.77138181392797
 20
16.28282085858311
 30
0.0
 10
18.59888181392875
 20
17.15939337396278
 30
0.0
 10
18.84888181392875
 20
17.15939337396278
 30
0.0
  0
LEADER
  5
80
330
2
100
AcDbEntity
  8
PART_NUMBERS
100
AcDbLeader
  3
Standard
 76
     3
 10
14.34005823014684
 20
16.61755736393004
 30
0.0
 10
18.59888181392875
 20
18.3703933739628
 30
0.0
 10
18.84888181392875
 20
18.3703933739628
 30
0.0
  0
LEADER
  5
81
330
2
100
AcDbEntity
  8
PART_NUMBERS
100
AcDbLeader
  3
Standard
 76
     3
 10
15.96272238310229
 20
17.59532085858322
 30
0.0
 10
18.59888181392875
 20
19.5823933739628
 30
0.0
 10
18.84888181392875
 20
19.5823933739628
 30
0.0
  0
LEADER
  5
82
330
2
100
AcDbEntity
  8
PART_NUMBERS
100
AcDbLeader
  3
Standard
 76
     3
 10
12.80638181392786
 20
16.30532085858326
 30
0.0
 10
18.59888181392875
 20
21.19939337396281
 30
0.0
 10
18.84888181392875
 20
21.19939337396281
 30
0.0
  0
DIMENSION
  5
83
330
2
100
AcDbEntity
  8
R-ANNO-DIMS
100
AcDbDimension
  2
*D14
 10
17.41138181392776
 20
17.59532085858322
 30
0.0
 11
17.41138181392776
 21
18.16532085858326
 31
0.0
 70
   160
 71
     5
 42
0.8749999999999431
  3
Standard
100
AcDbAlignedDimension
 13
16.64638181392712
 23
16.72032085858328
 33
0.0
 14
16.64638181392712
 24
17.59532085858322
 34
0.0
 50
90.0
100
AcDbRotatedDimension
  0
LWPOLYLINE
  5
91
330
2
100
AcDbEntity
  8
0
100
AcDbPolyline
 90
       14
 70
     0
 43
0.0
 10
13.25938181392831
 20
16.94172129431629
 10
13.26641513492501
 20
16.93766060454547
 42
0.131652497587334
 10
13.27141513492501
 20
16.93632085858328
 10
13.31707171235945
 20
16.93632085858328
 42
-0.3152987888789939
 10
13.39130742940153
 20
16.88434044990609
 10
13.40708858800377
 20
16.84098207299368
 42
0.3152987888790213
 10
13.44373660021443
 20
16.81532085858336
 10
13.85402702764145
 20
16.81532085858342
 42
0.3152987888789464
 10
13.89067503985211
 20
16.84098207299368
 10
13.90645619845429
 20
16.88434044990609
 42
-0.3152987888789767
 10
13.98069191549638
 20
16.93632085858334
 10
14.02634849293088
 20
16.93632085858334
 42
0.131652497587334
 10
14.03134849293087
 20
16.93766060454553
 10
14.03838181392774
 20
16.94172129431635
  0
LWPOLYLINE
  5
92
330
2
100
AcDbEntity
  8
R-SWTS-DET1
100
AcDbPolyline
 90
       40
 70
     1
 43
0.0
 10
16.46648985275266
 20
16.78532085858327
 42
-0.6224337464226136
 10
16.45064365765438
 20
16.81752323953563
 42
0.3267061393957527
 10
16.45495313028465
 20
16.99222710858325
 42
0.2457530127345989
 10
16.43852457402005
 20
17.00082085858324
 10
16.39876529808015
 20
17.00082085858324
 42
0.6882472016115989
 10
16.38542172988565
 20
16.96592289939954
 42
-0.5741920180569365
 10
16.35838181392716
 20
16.83393581273506
 10
16.35838181392711
 20
16.81032085858325
 42
-0.9999999999999998
 10
16.3083818139271
 20
16.81032085858325
 10
16.3083818139271
 20
16.83393581273455
 42
-0.5741920180578775
 10
16.2813418979685
 20
16.96592289939954
 42
0.6882472016118378
 10
16.267998329774
 20
17.00082085858324
 10
16.22823905383399
 20
17.00082085858324
 42
0.2457530127346519
 10
16.21181049756939
 20
16.99222710858331
 42
0.3267061393958188
 10
16.2161199701996
 20
16.81752323953563
 42
-0.6224337464226563
 10
16.20027377510132
 20
16.78532085858327
 10
15.71538181392714
 20
16.78532085858327
 10
15.71538181392714
 20
16.86924474013753
 10
15.61230569548138
 20
16.97232085858329
 10
14.55942705304778
 20
16.97232085858329
 42
-0.4874613951104793
 10
14.54001690553343
 20
16.99714228715473
 42
0.2158505435375484
 10
14.51795313028464
 20
17.11722710858348
 42
0.245753012734614
 10
14.50152457402009
 20
17.12582085858346
 10
14.46176529808025
 20
17.12582085858346
 42
0.688247201612326
 10
14.44842172988575
 20
17.09092289939977
 42
-2.615339366131379
 10
14.34434189796849
 20
17.09092289939983
 42
0.6882472016117943
 10
14.33099832977404
 20
17.12582085858346
 10
14.29123905383397
 20
17.12582085858352
 42
0.245753012734651
 10
14.27481049756937
 20
17.11722710858353
 42
0.1528965617342725
 10
14.24838181392704
 20
17.03282085858356
 10
14.24838181392732
 20
16.97232085858323
 10
14.21138181392712
 20
16.97232085858317
 10
14.21138181392712
 20
17.36532085858314
 10
14.5293818139271
 20
17.3653208585832
 10
14.5293818139271
 20
17.34332085858321
 10
15.61230569548138
 20
17.34332085858321
 10
15.71538181392714
 20
17.44639697702897
 10
15.71538181392714
 20
17.53032085858317
 10
16.58138181392712
 20
17.53032085858322
 10
16.58138181392712
 20
16.78532085858327
  0
LWPOLYLINE
  5
93
330
2
100
AcDbEntity
  8
R-SWTS-DET1
100
AcDbPolyline
 90
       80
 70
     1
 43
0.0
 10
14.0233818139277
 20
17.3652601688124
 42
-0.577350269189719
 10
14.03838181392774
 20
17.3739204228502
 10
14.09138181392768
 20
17.34332085858321
 10
14.11138181392772
 20
17.34332085858321
 42
0.4142135623719505
 10
14.12138181392771
 20
17.35332085858314
 10
14.12138181392771
 20
17.49974350831391
 42
0.4142135623719504
 10
14.11138181392772
 20
17.5097435083139
 10
14.09138181392768
 20
17.5097435083139
 10
14.03350952248502
 20
17.47633092527084
 42
-0.3954233646215202
 10
14.01353021065307
 20
17.48099863991584
 10
13.94837108457642
 20
17.57870062781043
 42
-0.660004731008912
 10
13.95842710757438
 20
17.59409714961501
 10
14.05752119688191
 20
17.57662418804139
 10
14.12411895758845
 20
17.59446900424044
 42
-0.0655434628152548
 10
14.13058943371601
 20
17.59532085858322
 10
14.24538181392711
 20
17.59532085858322
 42
-0.4142135623731211
 10
14.28538181392713
 20
17.5553208585832
 10
14.28538181392713
 20
17.54532085858321
 10
14.21138181392712
 20
17.54532085858321
 10
14.21138181392712
 20
17.4303208585832
 10
14.5293818139271
 20
17.4303208585832
 10
14.5293818139271
 20
17.54532085858321
 10
14.47338181392712
 20
17.54532085858321
 10
14.47338181392712
 20
17.55532085858326
 42
-0.4142135623731471
 10
14.51338181392714
 20
17.59532085858322
 10
14.63387190157362
 20
17.59532085858322
 10
14.66204225835861
 20
17.56174873468004
 42
-0.6370702608080748
 10
14.65438181392739
 20
17.54532085858321
 10
14.5943818139271
 20
17.54532085858321
 10
14.5943818139271
 20
17.40832085858321
 10
15.58538181392714
 20
17.40832085858321
 10
15.65038181392714
 20
17.47332085858321
 10
15.65038181392714
 20
17.54532085858321
 10
15.59038181392714
 20
17.54532085858321
 42
-0.6370702608073499
 10
15.58272136949597
 20
17.56174873468004
 10
15.61089172628095
 20
17.59532085858322
 10
16.64638181392712
 20
17.59532085858322
 10
16.64638181392712
 20
16.72032085858328
 10
15.61089172628095
 20
16.72032085858328
 10
15.58272136949597
 20
16.7538929824864
 42
-0.6370702608073499
 10
15.59038181392714
 20
16.77032085858329
 10
15.65038181392714
 20
16.77032085858329
 10
15.65038181392714
 20
16.84232085858329
 10
15.58538181392714
 20
16.90732085858329
 10
14.5943818139271
 20
16.90732085858323
 10
14.5943818139271
 20
16.77032085858329
 10
14.65438181392744
 20
16.77032085858329
 42
-0.6370702608080748
 10
14.66204225835861
 20
16.7538929824864
 10
14.63387190157362
 20
16.72032085858328
 10
14.51338181392714
 20
16.72032085858322
 42
-0.4142135623731471
 10
14.47338181392712
 20
16.76032085858324
 10
14.47338181392712
 20
16.77032085858329
 10
14.5293818139271
 20
16.77032085858329
 10
14.5293818139271
 20
16.8853208585833
 10
14.21138181392712
 20
16.8853208585833
 10
14.21138181392712
 20
16.77032085858329
 10
14.28538181392713
 20
16.77032085858329
 10
14.28538181392713
 20
16.76032085858335
 42
-0.4142135623730951
 10
14.24538181392711
 20
16.72032085858333
 10
14.13058943371601
 20
16.72032085858333
 42
-0.0655434628152297
 10
14.12411895758845
 20
16.72117271292612
 10
14.05752119688191
 20
16.73901752912516
 10
13.95842710757438
 20
16.72154456755154
 42
-0.660004731008912
 10
13.94837108457642
 20
16.73694108935612
 10
14.01353021065307
 20
16.83464307725066
 42
-0.3954233646215201
 10
14.03350952248502
 20
16.83931079189571
 10
14.09138181392768
 20
16.80589820885265
 10
14.11138181392772
 20
16.80589820885265
 42
0.4142135623718464
 10
14.12138181392777
 20
16.81589820885264
 10
14.12138181392777
 20
16.96232085858341
 42
0.4142135623719504
 10
14.11138181392772
 20
16.97232085858334
 10
14.09138181392768
 20
16.97232085858334
 10
14.03838181392774
 20
16.94172129431635
 42
-0.5773502691897191
 10
14.0233818139277
 20
16.95038154835416
 10
14.0233818139277
 20
17.04853109411638
 10
14.1013818139283
 20
17.09356441511355
 42
0.267949192431199
 10
14.12138181392828
 20
17.12820543126489
 10
14.12138181392828
 20
17.18743628590167
 42
0.2679491924311136
 10
14.1013818139283
 20
17.22207730205301
 10
14.0233818139277
 20
17.26711062305017
  0
LWPOLYLINE
  5
94
330
2
100
AcDbEntity
  8
R-SWTS-DET1
100
AcDbPolyline
 90
       24
 70
     1
 43
0.0
 10
12.20127377510283
 20
16.78532085858322
 42
0.6224337464226137
 10
12.21711997020111
 20
16.81752323953557
 42
-0.3267061393957527
 10
12.21281049757084
 20
16.99222710858319
 42
-0.2457530127345987
 10
12.22923905383538
 20
17.00082085858318
 10
12.26899832977534
 20
17.00082085858318
 42
-0.6882472016115991
 10
12.28234189796984
 20
16.96592289939949
 42
0.5741920180569363
 10
12.30938181392827
 20
16.83393581273501
 10
12.30938181392838
 20
16.81032085858319
 42
0.9999999999999998
 10
12.35938181392839
 20
16.81032085858319
 10
12.35938181392839
 20
16.83393581273449
 42
0.5741920180578775
 10
12.38642172988693
 20
16.96592289939949
 42
-0.6882472016118376
 10
12.39976529808143
 20
17.00082085858318
 10
12.43952457402144
 20
17.00082085858318
 42
-0.2457530127346519
 10
12.4559531302861
 20
16.99222710858325
 42
-0.3267061393958186
 10
12.45164365765583
 20
16.81752323953557
 42
0.6224337464226562
 10
12.46748985275411
 20
16.78532085858322
 10
12.64638181392831
 20
16.78532085858322
 10
12.64638181392831
 20
16.91032085858322
 10
13.08638181392831
 20
16.91032085858322
 10
13.08638181392831
 20
17.40532085858311
 10
12.64638181392831
 20
17.40532085858317
 10
12.64638181392831
 20
17.53032085858311
 10
11.71138181392831
 20
17.53032085858317
 10
11.71138181392831
 20
16.78532085858322
  0
LINE
  5
95
330
2
100
AcDbEntity
  8
R-SWTS-DET1
100
AcDbLine
 10
12.64638181392774
 20
13.8453286810703
 30
0.0
 11
12.6463818139278
 21
18.59532085858254
 31
0.0
  0
LINE
  5
96
330
2
100
AcDbEntity
  8
R-SWTS-DET1
100
AcDbLine
 10
11.6313818139277
 20
13.8453286810703
 30
0.0
 11
11.6313818139277
 21
17.58032085858255
 31
0.0
  0
LWPOLYLINE
  5
97
330
2
100
AcDbEntity
  8
R-SWTS-DET1
100
AcDbPolyline
 90
       58
 70
     0
 43
0.0
 10
13.17638181392772
 20
17.12820543126483
 10
13.17638181392772
 20
17.18743628590161
 10
13.17638181392772
 20
17.12820543126483
 42
0.2679491924311523
 10
13.1963818139277
 20
17.09356441511349
 10
13.2743818139283
 20
17.04853109411633
 10
13.2743818139283
 20
16.9503815483541
 42
-0.5773502691895308
 10
13.25938181392831
 20
16.94172129431629
 10
13.20638181392832
 20
16.97232085858329
 10
13.18638181392828
 20
16.97232085858329
 42
0.4142135623718464
 10
13.17638181392829
 20
16.96232085858335
 10
13.17638181392829
 20
16.81589820885259
 42
0.4142135623717424
 10
13.18638181392828
 20
16.80589820885259
 10
13.20638181392832
 20
16.80589820885259
 10
13.26425410537098
 20
16.83931079189565
 42
-0.3954233646214654
 10
13.28423341720298
 20
16.8346430772506
 10
13.34939254327963
 20
16.73694108935606
 42
-0.6600047310092911
 10
13.33933652028162
 20
16.72154456755149
 10
13.24024243097409
 20
16.73901752912511
 10
13.17364467026761
 20
16.72117271292606
 42
-0.0655434628152334
 10
13.16717419414004
 20
16.72032085858328
 10
13.08638181392837
 20
16.72032085858328
 10
13.08638181392831
 20
16.84532085858322
 10
12.71138181392831
 20
16.84532085858322
 10
12.71138181392831
 20
15.89532085858323
 10
12.76138181392832
 20
15.89532085858323
 10
12.76138181392832
 20
15.86532085858326
 10
12.71138181392831
 20
15.84532085858322
 10
12.64638181392837
 20
15.84532085858322
 10
12.64638181392831
 20
16.72032085858322
 10
11.64638181392831
 20
16.72032085858322
 10
11.64638181392831
 20
17.59532085858316
 10
12.64638181392831
 20
17.59532085858316
 10
12.64638181392831
 20
18.47032085858316
 10
12.71138181392831
 20
18.47032085858316
 10
12.76138181392832
 20
18.45032085858312
 10
12.76138181392832
 20
18.42032085858315
 10
12.71138181392831
 20
18.42032085858315
 10
12.71138181392831
 20
17.47032085858316
 10
13.08638181392831
 20
17.47032085858316
 10
13.08638181392831
 20
17.59532085858316
 10
13.16717419414004
 20
17.59532085858316
 42
-0.0655434628152602
 10
13.17364467026761
 20
17.59446900424038
 10
13.24024243097409
 20
17.57662418804133
 10
13.33933652028162
 20
17.59409714961495
 42
-0.6600047310092907
 10
13.34939254327963
 20
17.57870062781037
 10
13.28423341720298
 20
17.48099863991578
 42
-0.3954233646214653
 10
13.26425410537098
 20
17.47633092527079
 10
13.20638181392832
 20
17.50974350831384
 10
13.18638181392828
 20
17.50974350831384
 42
0.4142135623717424
 10
13.17638181392829
 20
17.49974350831385
 10
13.17638181392829
 20
17.35332085858309
 42
0.4142135623718464
 10
13.18638181392828
 20
17.34332085858315
 10
13.20638181392832
 20
17.34332085858315
 10
13.25938181392831
 20
17.37392042285015
 42
-0.5773502691895307
 10
13.2743818139283
 20
17.36526016881234
 10
13.2743818139283
 20
17.26711062305011
 10
13.1963818139277
 20
17.22207730205295
 42
0.2679491924311522
 10
13.17638181392772
 20
17.18743628590161
  0
DIMENSION
  5
98
330
2
100
AcDbEntity
  8
R-ANNO-DIMS
100
AcDbDimension
  2
*D13
 10
11.64638181392837
 20
12.09532868107064
 30
0.0
 11
10.77138181392837
 21
12.27532868107064
 31
0.0
 70
    32
 71
     5
 42
1.75
  3
Standard
100
AcDbAlignedDimension
 13
9.896381813928371
 23
18.59532085858311
 33
0.0
 14
11.64638181392837
 24
13.8453286810703
 34
0.0
 50
0.0000000000065138
100
AcDbRotatedDimension
  0
TEXT
  5
A5
330
2
100
AcDbEntity
  8
R-ANNO-DIMS
100
AcDbText
 10
6.630239906837203
 20
16.20625196363091
 30
0.0
 40
0.25
  1
(REF.)
 50
90.0
 72
     1
 11
6.630239906837203
 21
16.72032085858316
 31
0.0
100
AcDbText
  0
DIMENSION
  5
A6
330
2
100
AcDbEntity
  8
R-ANNO-DIMS
100
AcDbDimension
  2
*D12
 10
6.146389636415449
 20
17.5953208585831
 30
0.0
 11
5.966389636415446
 21
16.72032085858316
 31
0.0
 70
    32
 71
     5
 42
1.749999999999882
  3
Standard
100
AcDbAlignedDimension
 13
12.64638181392837
 23
15.84532085858322
 33
0.0
 14
7.896366168953846
 24
17.5953208585831
 34
0.0
 50
90.0
100
AcDbRotatedDimension
  0
DIMENSION
  5
B3
330
2
100
AcDbEntity
  8
R-ANNO-DIMS
100
AcDbDimension
  2
*D11
 10
7.896366168954187
 20
12.0953286810703
 30
0.0
 11
8.896373991441279
 21
12.2753286810703
 31
0.0
 70
    32
  1
D.L.O.
 71
     5
 42
2.000015644974183
  3
EXT_ON_OFF
100
AcDbAlignedDimension
 13
9.896381813928371
 23
18.59532085858311
 33
0.0
 14
7.896366168954187
 24
17.59532085858231
 34
0.0
 50
0.0000000000065138
100
AcDbRotatedDimension
  0
DIMENSION
  5
BF
330
2
100
AcDbEntity
  8
R-ANNO-DIMS
100
AcDbDimension
  2
*D10
 10
5.396389636415449
 20
13.84532868107067
 30
0.0
 11
5.216389636415447
 21
18.22782476982674
 31
0.0
 70
    32
  1
F.W.
 71
     5
 42
8.764992177512153
  3
EXT_ON_OFF
100
AcDbAlignedDimension
 13
7.896381813928115
 23
22.61032085858282
 33
0.0
 14
11.64638181392763
 24
13.84532868107067
 34
0.0
 50
90.0
100
AcDbRotatedDimension
  0
LWPOLYLINE
  5
CB
330
2
100
AcDbEntity
  8
R-SWTS-DET1
100
AcDbPolyline
 90
        2
 70
     0
 43
0.0
 10
16.66138181392779
 20
22.61032085858257
 10
16.66138181392773
 20
13.84531303609603
  0
LINE
  5
CC
330
2
100
AcDbEntity
  8
R-SWTS-DET1
100
AcDbLine
 10
12.71138181392774
 20
13.8453286810703
 30
0.0
 11
12.71138181392774
 21
18.66032085858248
 31
0.0
  0
DIMENSION
  5
CD
330
2
100
AcDbEntity
  8
R-ANNO-DIMS
100
AcDbDimension
  2
*D9
 10
6.146389636415449
 20
13.84532868107067
 30
0.0
 11
5.966389636415447
 21
14.84532476982695
 31
0.0
 70
    32
  1
D.L.O.
 71
     5
 42
1.999992177512554
  3
EXT_ON_OFF
100
AcDbAlignedDimension
 13
12.64638181392837
 23
15.84532085858322
 33
0.0
 14
11.64638181392763
 24
13.84532868107067
 34
0.0
 50
90.0
100
AcDbRotatedDimension
  0
TEXT
  5
D9
330
2
100
AcDbEntity
  8
0
100
AcDbText
 10
9.728822831822938
 20
9.282700782025278
 30
0.0
 40
0.375
  1
90° INSIDE CORNER
 72
     4
 11
12.27887399144094
 21
9.470328681070299
 31
0.0
100
AcDbText
  0
LWPOLYLINE
  5
DA
330
2
100
AcDbEntity
  8
R-SWTS-DET3
100
AcDbPolyline
 90
        4
 70
     1
 43
0.0
 10
13.15138181392802
 20
16.40782085858322
 10
13.15138181392797
 20
16.15782085858322
 10
13.65138181392797
 20
16.15782085858316
 10
13.65138181392802
 20
16.40782085858316
  0
DIMENSION
  5
DB
330
2
100
AcDbEntity
  8
R-ANNO-DIMS
100
AcDbDimension
  2
*D8
 10
11.64638181392837
 20
12.09532868107064
 30
0.0
 11
14.15388181392805
 21
12.27532868107064
 31
0.0
 70
    32
 71
     5
 42
5.014999999999361
  3
EXT_ON_OFF
100
AcDbAlignedDimension
 13
16.66138181392773
 23
13.84531303609603
 33
0.0
 14
11.64638181392837
 24
13.8453286810703
 34
0.0
 50
0.0000000000065138
100
AcDbRotatedDimension
  0
LWPOLYLINE
  5
E7
330
2
100
AcDbEntity
  8
R-SWTS-DET1
100
AcDbPolyline
 90
        6
 70
     0
 43
0.0
 10
11.39638181392769
 20
13.8453286810703
 10
14.04703768819058
 20
13.84532868107035
 10
14.10010626992709
 20
14.05754387405252
 10
14.20765735792827
 20
13.63312913306234
 10
14.26072593966478
 20
13.84534432604457
 10
16.91138181392767
 20
13.84534432604457
  0
LWPOLYLINE
  5
E8
330
2
100
AcDbEntity
  8
R-SWTS-DET3
100
AcDbPolyline
 90
        4
 70
     0
 43
0.0
 10
12.90138181392797
 20
13.8453286810703
 10
12.90138181392802
 20
16.40782085858322
 10
13.15138181392802
 20
16.40782085858322
 10
13.15138181392797
 20
13.8453286810703
  0
TEXT
  5
E9
330
2
100
AcDbEntity
  8
R-ANNO-DIMS
100
AcDbText
 10
10.25731291897612
 20
12.7346670112704
 30
0.0
 40
0.25
  1
(REF.)
 72
     1
 11
10.77138181392837
 21
12.7346670112704
 31
0.0
100
AcDbText
  0
LWPOLYLINE
  5
EA
330
2
100
AcDbEntity
  8
R-SWTS-DET2
100
AcDbPolyline
 90
        8
 70
     1
 43
0.0
 10
12.77638181392785
 20
15.91032085858327
 10
12.77638181392785
 20
15.84532085858322
 10
12.71138181392786
 20
15.84532085858322
 10
12.71138181392786
 20
15.8216949706003
 10
12.90138181392785
 20
15.74532085858325
 10
12.90138181392785
 20
16.00532085858325
 10
12.71138181392786
 20
16.00532085858325
 10
12.71138181392786
 20
15.91032085858327
  0
LWPOLYLINE
  5
EB
330
2
100
AcDbEntity
  8
R-SWTS-DET2
100
AcDbPolyline
 90
        4
 70
     1
 43
0.0
 10
12.90138181392785
 20
16.00532085858325
 10
12.90138181392785
 20
16.30532085858326
 10
12.71138181392786
 20
16.30532085858326
 10
12.71138181392786
 20
16.00532085858325
  0
LINE
  5
EC
330
2
100
AcDbEntity
  8
R-SWTS-DET1
100
AcDbLine
 10
14.02638181392797
 20
13.84532868107024
 30
0.0
 11
14.02638181392797
 21
16.06946779978867
 31
0.0
  0
LWPOLYLINE
  5
ED
330
2
100
AcDbEntity
  8
R-SWTS-DET3
100
AcDbPolyline
 90
        4
 70
     0
 43
0.0
 10
13.65138181392797
 20
13.84532868107024
 10
13.65138181392802
 20
16.40782085858316
 10
13.90138181392802
 20
16.40782085858316
 10
13.90138181392797
 20
13.84532868107024
  0
LINE
  5
EE
330
2
100
AcDbEntity
  8
R-SWTS-DET1
100
AcDbLine
 10
15.77138181392797
 20
13.84531303609603
 30
0.0
 11
15.77138181392797
 21
16.70459585858319
 31
0.0
  0
LWPOLYLINE
  5
EF
330
2
100
AcDbEntity
  8
0
100
AcDbPolyline
 90
        6
 70
     0
 43
0.0
 10
14.0268125945463
 20
16.84132085858337
 10
13.9833818139279
 20
16.84132085858337
 10
13.94516493932997
 20
16.73632085858341
 10
13.35259868852586
 20
16.73632085858335
 10
13.31438181392792
 20
16.84132085858331
 10
13.27175410537103
 20
16.8413204108389
  0
LWPOLYLINE
  5
F0
330
2
100
AcDbEntity
  8
R-SWTS-DET2
100
AcDbPolyline
 90
       10
 70
     0
 43
0.0
 10
14.02638181392797
 20
16.04410119673278
 42
0.6522884812892542
 10
13.99287933176919
 20
16.05885528008454
 42
0.2083092445416351
 10
13.90159157834131
 20
15.8538415761063
 42
0.9518102130205555
 10
13.94147671447496
 20
15.85154389933237
 42
-0.0657822641916236
 10
13.95638181392792
 20
15.91290612218316
 10
13.95638181392797
 20
15.82492126786408
 10
13.90310911962075
 20
15.70519811910796
 42
0.9572917422547984
 10
13.93887633598825
 20
15.6873750444071
 10
14.02638181392802
 20
15.84532085858316
 10
14.02638181392802
 20
15.88032085858307
  0
LWPOLYLINE
  5
F1
330
2
100
AcDbEntity
  8
R-SWTS-DET1
100
AcDbPolyline
 90
       41
 70
     1
 43
0.0
 10
15.53038181392804
 20
16.6817843538283
 42
0.4400105308918457
 10
15.56299648621046
 20
16.65189851288554
 10
15.67860014305074
 20
16.66201252232119
 42
-0.4466574342041955
 10
15.7112074095142
 20
16.63146012733577
 10
15.69854655111783
 20
16.06176590368884
 42
-0.4077202623982005
 10
15.53858604881901
 20
15.90532085858316
 10
14.73438181392737
 20
15.90532085858311
 42
-0.4142135623731211
 10
14.72438181392738
 20
15.91532085858316
 10
14.72438181392738
 20
16.7853208585831
 42
0.3736297736983284
 10
14.69858358346397
 20
16.81502515343666
 10
14.73746938603369
 20
16.85391095600639
 42
1.000000000000055
 10
14.70564958088033
 20
16.8857307611598
 10
14.6073107461155
 20
16.78739192639497
 42
0.6681786379193539
 10
14.61438181392736
 20
16.77032085858312
 10
14.67938181392736
 20
16.77032085858312
 10
14.67938181392736
 20
15.9153208585831
 42
-0.4142135623730431
 10
14.66938181392737
 20
15.90532085858311
 10
14.241381813928
 20
15.90532085858311
 10
14.24138181392794
 20
16.08632085858315
 42
0.414213562373069
 10
14.21138181392797
 20
16.11632085858312
 10
14.12638181392793
 20
16.11632085858312
 10
14.12638181392793
 20
16.38232085858314
 42
1.0
 10
14.07638181392798
 20
16.38232085858314
 10
14.07638181392798
 20
16.11632085858312
 10
14.02638181392797
 20
16.11632085858312
 10
14.02638181392797
 20
16.00532085858313
 10
14.07638181392798
 20
16.00532085858313
 10
14.07638181392798
 20
16.06632085858317
 10
14.19138181392799
 20
16.06632085858317
 10
14.19138181392799
 20
15.92032085858315
 10
14.02638181392797
 20
15.92032085858315
 10
14.02638181392797
 20
15.88032085858313
 10
14.04658907334959
 20
15.84532085858316
 10
15.77138181392797
 20
15.84532085858316
 10
15.77138181392797
 20
16.72032085858311
 10
15.580381813928
 20
16.70361052384967
 10
15.580381813928
 20
16.79224711750586
 10
15.58805948345963
 20
16.79992478703823
 42
0.9999999999999872
 10
15.55270414439855
 20
16.83528012609585
 10
15.5391686104914
 20
16.82174459218734
 42
0.1989123673670628
 10
15.53038181392804
 20
16.80053138875277
  0
LWPOLYLINE
  5
F2
330
2
100
AcDbEntity
  8
R-SWTS-DET2
100
AcDbPolyline
 90
       15
 70
     0
 43
0.0
 10
14.12858943371532
 20
16.72032085858316
 42
0.1618049181719085
 10
13.90138181392802
 20
16.34532085858316
 10
13.90138181392797
 20
16.24552909223828
 42
0.1301798726914469
 10
13.94078787847843
 20
16.06520242533034
 42
0.515286427206624
 10
13.95690356599772
 20
16.06284674845594
 42
0.1070648706106476
 10
14.04003250632985
 20
16.1981234930798
 10
14.07468735621626
 20
16.29681169011709
 42
1.0
 10
14.0180762716397
 20
16.31669095325904
 10
13.98342142175329
 20
16.21800275622175
 42
-0.0252322931696623
 10
13.97139607300647
 20
16.18859390964562
 42
-0.2600651486929923
 10
14.11868419204649
 20
16.5842152511818
 42
-0.1853390449315368
 10
14.15002775915439
 20
16.60158927413457
 10
14.53008870113928
 20
16.63352545372552
 42
0.3738846794848146
 10
14.57313004609125
 20
16.68303885716258
 10
14.57313004609125
 20
16.72032085858316
  0
LINE
  5
F3
330
2
100
AcDbEntity
  8
R-SWTS-DET1
100
AcDbLine
 10
14.02638181392797
 20
16.06946779978867
 30
0.0
 11
15.77138181392803
 21
16.70459585858319
 31
0.0
  0
DIMENSION
  5
F4
330
2
100
AcDbEntity
  8
R-ANNO-DIMS
100
AcDbDimension
  2
*D7
 10
6.146389636415449
 20
17.5953208585831
 30
0.0
 11
5.966389636415446
 21
20.10282085858297
 31
0.0
 70
    32
 71
     5
 42
5.014999999999716
  3
Standard
100
AcDbAlignedDimension
 13
7.896381813928115
 23
22.61032085858282
 33
0.0
 14
7.896366168953846
 24
17.5953208585831
 34
0.0
 50
90.0
100
AcDbRotatedDimension
  0
LWPOLYLINE
  5
101
330
2
100
AcDbEntity
  8
R-SWTS-DET1
100
AcDbPolyline
 90
        6
 70
     0
 43
0.0
 10
7.896389636415449
 20
17.34532085858248
 10
7.896389636415449
 20
19.99597673284538
 10
7.684174443433278
 20
20.04904531458187
 10
8.108589184423465
 20
20.15659640258305
 10
7.896373991441237
 20
20.20966498431954
 10
7.896373991441237
 20
22.86032085858249
  0
DIMENSION
  5
102
330
2
100
AcDbEntity
  8
R-ANNO-DIMS
100
AcDbDimension
  2
*D6
 10
11.64638181392831
 20
23.36032085858281
 30
0.0
 11
11.20888181392834
 21
23.54032085858281
 31
0.0
 70
    32
 71
     5
 42
0.8749999999999431
  3
Standard
100
AcDbAlignedDimension
 13
10.77138181392837
 23
22.5953208585819
 33
0.0
 14
11.64638181392831
 24
22.5953208585819
 34
0.0
100
AcDbRotatedDimension
  0
LWPOLYLINE
  5
10F
330
2
100
AcDbEntity
  8
R-SWTS-DET1
100
AcDbPolyline
 90
        2
 70
     0
 43
0.0
 10
16.66138181392773
 20
22.61032085858251
 10
7.896373991441237
 20
22.61032085858251
  0
LINE
  5
110
330
2
100
AcDbEntity
  8
R-SWTS-DET1
100
AcDbLine
 10
11.63138181392776
 20
17.58032085858249
 30
0.0
 11
16.66138181392773
 21
22.6103208585825
 31
0.0
  0
LWPOLYLINE
  5
111
330
2
100
AcDbEntity
  8
R-SWTS-DET1
100
AcDbPolyline
 90
       16
 70
     1
 43
0.0
 10
15.7713818139278
 20
21.53332085858298
 42
0.414213562373102
 10
15.58438181392779
 20
21.72032085858298
 10
11.83338181392832
 20
21.72032085858285
 42
0.4142135623730844
 10
11.64638181392831
 20
21.53332085858284
 10
11.64638181392831
 20
20.34532085858284
 10
11.77138181392831
 20
20.34532085858284
 10
11.77138181392831
 20
21.53332085858284
 42
-0.4142135623730844
 10
11.83338181392832
 20
21.59532085858285
 10
15.58438181392779
 20
21.59532085858298
 42
-0.414213562373102
 10
15.6463818139278
 20
21.53332085858298
 10
15.64638181392786
 20
17.78232085858315
 42
-0.4142135623730992
 10
15.58438181392785
 20
17.72032085858313
 10
14.39638181392786
 20
17.72032085858313
 10
14.39638181392786
 20
17.59532085858313
 10
15.58438181392785
 20
17.59532085858313
 42
0.4142135623730992
 10
15.77138181392786
 20
17.78232085858315
  0
LWPOLYLINE
  5
112
330
2
100
AcDbEntity
  8
R-SWTS-DET3
100
AcDbPolyline
 90
       34
 70
     0
 43
0.0
 10
11.56885866710314
 20
19.03532085858316
 42
1.41439345033104
 10
12.01237193920849
 20
18.92656131419491
 10
11.77257918864808
 20
21.32908040297107
 42
-1.104777448047736
 10
12.25455943920849
 20
21.32908040297107
 10
12.01476668864802
 20
18.92656131419491
 42
1.104777448047734
 10
12.49674693920843
 20
18.92656131419491
 10
12.25695418864802
 20
21.32908040297107
 42
-1.104252613424892
 10
12.7389570775536
 20
21.32930831029593
 10
12.49588881908392
 20
18.87044434419548
 42
1.118340733378025
 10
13.048520361388
 20
18.87767310887895
 10
12.74201219836232
 20
21.32301234657001
 42
-1.101918687653998
 10
13.2239287050852
 20
21.33640950552928
 10
12.98289742277109
 20
17.85423221163665
 42
1.071611297117596
 10
13.46611620508514
 20
17.85423221163665
 10
13.22508492277103
 20
21.33640950552928
 42
-1.071611297117594
 10
13.70830370508508
 20
21.33640950552928
 10
13.46727242277097
 20
17.85423221163665
 42
1.071611297117596
 10
13.95049120508508
 20
17.85423221163665
 10
13.70945992277097
 20
21.33640950552928
 42
-1.071611297117594
 10
14.19267870508503
 20
21.33640950552928
 10
13.95164742277092
 20
17.85423221163665
 42
1.071611297117596
 10
14.43486620508503
 20
17.85423221163665
 10
14.19383492277091
 20
21.33640950552928
 42
-1.072989865608211
 10
14.67701001393669
 20
21.33578983715495
 10
14.43606611391919
 20
17.97985188001104
 42
1.074370332454144
 10
14.91919751393664
 20
17.97985188001104
 10
14.67825361391914
 20
21.33578983715495
 42
-1.074370332454144
 10
15.16138501393664
 20
21.33578983715495
 10
14.92044111391908
 20
17.97985188001104
 42
1.074370332454144
 10
15.40357251393658
 20
17.97985188001104
 10
15.16262861391908
 20
21.33578983715495
 42
-1.074370332454144
 10
15.64576001393652
 20
21.33578983715495
 10
15.40481611391902
 20
17.97985188001104
 42
0.3852831776257781
 10
15.60506240507681
 20
17.72387162291895
  0
LWPOLYLINE
  5
113
330
2
100
AcDbEntity
  8
0
100
AcDbPolyline
 90
        6
 70
     0
 43
0.0
 10
10.89238181392841
 20
19.97575163920103
 10
10.89238181392841
 20
19.93232085858268
 10
10.78738181392845
 20
19.89410398398475
 10
10.78738181392839
 20
19.30153773318064
 10
10.89238181392841
 20
19.26332085858267
 10
10.892381366184
 20
19.22069315002577
  0
LWPOLYLINE
  5
114
330
2
100
AcDbEntity
  8
0
100
AcDbPolyline
 90
       14
 70
     0
 43
0.0
 10
10.99278224966139
 20
19.20832085858306
 10
10.98872155989056
 20
19.21535417957975
 42
-0.131652497587334
 10
10.98738181392838
 20
19.22035417957974
 10
10.98738181392838
 20
19.26601075701423
 42
0.3152987888789939
 10
10.93540140525113
 20
19.34024647405631
 10
10.89204302833872
 20
19.35602763265854
 42
-0.3152987888790213
 10
10.8663818139284
 20
19.39267564486918
 10
10.86638181392845
 20
19.8029660722962
 42
-0.3152987888789464
 10
10.89204302833877
 20
19.83961408450685
 10
10.93540140525113
 20
19.85539524310904
 42
0.3152987888789767
 10
10.98738181392838
 20
19.92963096015113
 10
10.98738181392838
 20
19.97528753758564
 42
-0.131652497587334
 10
10.98872155989056
 20
19.98028753758564
 10
10.99278224966139
 20
19.98732085858249
  0
LWPOLYLINE
  5
115
330
2
100
AcDbEntity
  8
0
100
AcDbPolyline
 90
       14
 70
     0
 43
0.0
 10
11.42498137819524
 20
19.20832085858306
 10
11.42904206796606
 20
19.21535417957975
 42
0.131652497587334
 10
11.43038181392825
 20
19.22035417957974
 10
11.43038181392825
 20
19.26601075701423
 42
-0.3152987888789939
 10
11.4823622226055
 20
19.34024647405631
 10
11.52572059951791
 20
19.35602763265854
 42
0.3152987888790213
 10
11.55138181392823
 20
19.39267564486918
 10
11.55138181392817
 20
19.8029660722962
 42
0.3152987888789464
 10
11.52572059951791
 20
19.83961408450685
 10
11.4823622226055
 20
19.85539524310904
 42
-0.3152987888789767
 10
11.43038181392825
 20
19.92963096015113
 10
11.43038181392825
 20
19.97528753758564
 42
0.131652497587334
 10
11.42904206796606
 20
19.98028753758564
 10
11.42498137819524
 20
19.98732085858249
  0
LWPOLYLINE
  5
116
330
2
100
AcDbEntity
  8
0
100
AcDbPolyline
 90
        6
 70
     0
 43
0.0
 10
11.52538181392822
 20
19.97575163920103
 10
11.52538181392822
 20
19.93232085858268
 10
11.63038181392818
 20
19.89410398398475
 10
11.63038181392824
 20
19.30153773318064
 10
11.52538181392822
 20
19.26332085858267
 10
11.52538226167263
 20
19.22069315002577
  0
LWPOLYLINE
  5
117
330
2
100
AcDbEntity
  8
R-SWTS-DET2
100
AcDbPolyline
 90
       10
 70
     0
 43
0.0
 10
10.09516215207799
 20
19.97532085858276
 42
-0.6522884812892542
 10
10.10991623542975
 20
19.94181837642398
 42
-0.2083092445416351
 10
9.904902531451512
 20
19.8505306229961
 42
-0.9518102130205555
 10
9.902604854677576
 20
19.89041575912975
 42
0.0657822641916236
 10
9.963967077528366
 20
19.90532085858271
 10
9.875982223209291
 20
19.90532085858277
 10
9.756259074453168
 20
19.85204816427551
 42
-0.9572917422547984
 10
9.738435999752312
 20
19.88781538064305
 10
9.896381813928371
 20
19.97532085858279
 10
9.931381813928283
 20
19.97532085858279
  0
LWPOLYLINE
  5
118
330
2
100
AcDbEntity
  8
R-SWTS-DET2
100
AcDbPolyline
 90
       15
 70
     0
 43
0.0
 10
10.77138181392837
 20
20.07752847837009
 42
-0.1618049181719085
 10
10.39638181392837
 20
19.85032085858276
 10
10.29659004758349
 20
19.85032085858276
 42
-0.1301798726914469
 10
10.11626338067554
 20
19.88972692313319
 42
-0.515286427206624
 10
10.11390770380114
 20
19.90584261065248
 42
-0.1070648706106476
 10
10.24918444842501
 20
19.98897155098464
 10
10.3478726454623
 20
20.02362640087101
 42
-1.0
 10
10.36775190860425
 20
19.96701531629445
 10
10.26906371156695
 20
19.93236046640808
 42
0.0252322931696623
 10
10.23965486499082
 20
19.92033511766124
 42
0.2600651486929923
 10
10.63527620652701
 20
20.06762323670122
 42
0.1853390449315368
 10
10.65265022947977
 20
20.09896680380916
 10
10.68458640907073
 20
20.47902774579403
 42
-0.3738846794848146
 10
10.73409981250779
 20
20.52206909074602
 10
10.77138181392837
 20
20.52206909074602
  0
LWPOLYLINE
  5
119
330
2
100
AcDbEntity
  8
R-SWTS-DET1
100
AcDbPolyline
 90
       80
 70
     1
 43
0.0
 10
11.00144250369919
 20
19.97232085858248
 42
-0.577350269189719
 10
10.99278224966139
 20
19.98732085858249
 10
11.02338181392838
 20
20.04032085858246
 10
11.02338181392838
 20
20.0603208585825
 42
0.4142135623719505
 10
11.01338181392844
 20
20.0703208585825
 10
10.86695916419768
 20
20.0703208585825
 42
0.4142135623719504
 10
10.85695916419769
 20
20.0603208585825
 10
10.85695916419769
 20
20.04032085858246
 10
10.89037174724075
 20
19.9824485671398
 42
-0.3954233646215202
 10
10.88570403259575
 20
19.96246925530782
 10
10.78800204470116
 20
19.89731012923117
 42
-0.660004731008912
 10
10.77260552289658
 20
19.90736615222916
 10
10.7900784844702
 20
20.00646024153668
 10
10.77223366827115
 20
20.07305800224323
 42
-0.0655434628152548
 10
10.77138181392837
 20
20.07952847837079
 10
10.77138181392837
 20
20.19432085858189
 42
-0.4142135623731211
 10
10.81138181392839
 20
20.2343208585819
 10
10.82138181392838
 20
20.2343208585819
 10
10.82138181392838
 20
20.16032085858189
 10
10.93638181392839
 20
20.16032085858189
 10
10.93638181392839
 20
20.47832085858188
 10
10.82138181392838
 20
20.47832085858188
 10
10.82138181392838
 20
20.4223208585819
 10
10.81138181392833
 20
20.4223208585819
 42
-0.4142135623731471
 10
10.77138181392837
 20
20.46232085858189
 10
10.77138181392837
 20
20.58281094622841
 10
10.80495393783155
 20
20.61098130301338
 42
-0.6370702608080748
 10
10.82138181392838
 20
20.60332085858218
 10
10.82138181392838
 20
20.54332085858188
 10
10.95838181392838
 20
20.54332085858188
 10
10.95838181392838
 20
21.53432085858191
 10
10.89338181392838
 20
21.59932085858191
 10
10.82138181392838
 20
21.59932085858191
 10
10.82138181392838
 20
21.53932085858192
 42
-0.6370702608073499
 10
10.80495393783155
 20
21.53166041415072
 10
10.77138181392837
 20
21.55983077093569
 10
10.77138181392837
 20
22.5953208585819
 10
11.64638181392831
 20
22.5953208585819
 10
11.64638181392831
 20
21.55983077093569
 10
11.61280969002518
 20
21.53166041415072
 42
-0.6370702608073499
 10
11.5963818139283
 20
21.53932085858192
 10
11.5963818139283
 20
21.59932085858191
 10
11.5243818139283
 20
21.59932085858191
 10
11.4593818139283
 20
21.53432085858191
 10
11.45938181392836
 20
20.54332085858188
 10
11.5963818139283
 20
20.54332085858188
 10
11.5963818139283
 20
20.60332085858218
 42
-0.6370702608080748
 10
11.61280969002518
 20
20.61098130301338
 10
11.64638181392831
 20
20.58281094622841
 10
11.64638181392837
 20
20.46232085858189
 42
-0.4142135623731471
 10
11.60638181392835
 20
20.42232085858188
 10
11.5963818139283
 20
20.4223208585819
 10
11.5963818139283
 20
20.47832085858188
 10
11.48138181392829
 20
20.47832085858188
 10
11.48138181392829
 20
20.16032085858189
 10
11.5963818139283
 20
20.16032085858189
 10
11.5963818139283
 20
20.2343208585819
 10
11.60638181392823
 20
20.2343208585819
 42
-0.4142135623730951
 10
11.64638181392826
 20
20.19432085858189
 10
11.64638181392826
 20
20.07952847837078
 42
-0.0655434628152297
 10
11.64552995958547
 20
20.07305800224322
 10
11.62768514338643
 20
20.00646024153668
 10
11.64515810496004
 20
19.90736615222916
 42
-0.660004731008912
 10
11.62976158315547
 20
19.89731012923117
 10
11.53205959526093
 20
19.96246925530782
 42
-0.3954233646215201
 10
11.52739188061588
 20
19.9824485671398
 10
11.56080446365894
 20
20.04032085858246
 10
11.56080446365894
 20
20.0603208585825
 42
0.4142135623718464
 10
11.55080446365895
 20
20.0703208585825
 10
11.40438181392818
 20
20.0703208585825
 42
0.4142135623719504
 10
11.39438181392825
 20
20.0603208585825
 10
11.39438181392825
 20
20.04032085858246
 10
11.42498137819524
 20
19.98732085858249
 42
-0.5773502691897191
 10
11.41632112415743
 20
19.97232085858248
 10
11.31817157839521
 20
19.97232085858248
 10
11.27313825739804
 20
20.05032085858308
 42
0.267949192431199
 10
11.2384972412467
 20
20.07032085858307
 10
11.17926638660992
 20
20.07032085858307
 42
0.2679491924311136
 10
11.14462537045858
 20
20.05032085858307
 10
11.09959204946142
 20
19.97232085858248
  0
LINE
  5
11A
330
2
100
AcDbEntity
  8
R-SWTS-DET1
100
AcDbLine
 10
7.896389636415449
 20
18.66032085858251
 30
0.0
 11
12.71138181392769
 21
18.66032085858251
 31
0.0
  0
LINE
  5
11B
330
2
100
AcDbEntity
  8
R-SWTS-DET1
100
AcDbLine
 10
7.896389636415449
 20
18.59532085858251
 30
0.0
 11
12.64638181392769
 21
18.59532085858251
 31
0.0
  0
LINE
  5
11C
330
2
100
AcDbEntity
  8
R-SWTS-DET1
100
AcDbLine
 10
7.896389636415449
 20
17.58032085858249
 30
0.0
 11
11.6313818139277
 21
17.58032085858249
 31
0.0
  0
LWPOLYLINE
  5
11D
330
2
100
AcDbEntity
  8
R-SWTS-DET1
100
AcDbPolyline
 90
       58
 70
     0
 43
0.0
 10
11.2384972412467
 20
19.12532085858247
 10
11.17926638660992
 20
19.12532085858247
 10
11.2384972412467
 20
19.12532085858248
 42
0.2679491924311523
 10
11.27313825739804
 20
19.14532085858248
 10
11.31817157839521
 20
19.22332085858306
 10
11.41632112415743
 20
19.22332085858306
 42
-0.5773502691895308
 10
11.42498137819524
 20
19.20832085858306
 10
11.39438181392825
 20
19.15532085858308
 10
11.39438181392825
 20
19.13532085858306
 42
0.4142135623718464
 10
11.40438181392818
 20
19.12532085858305
 10
11.55080446365895
 20
19.12532085858304
 42
0.4142135623717424
 10
11.56080446365894
 20
19.13532085858306
 10
11.56080446365894
 20
19.15532085858308
 10
11.52739188061588
 20
19.21319315002576
 42
-0.3954233646214654
 10
11.53205959526093
 20
19.23317246185772
 10
11.62976158315547
 20
19.29833158793437
 42
-0.6600047310092911
 10
11.64515810496004
 20
19.2882755649364
 10
11.62768514338643
 20
19.18918147562887
 10
11.64552995958547
 20
19.12258371492234
 42
-0.0655434628152334
 10
11.64638181392826
 20
19.11611323879478
 10
11.64638181392826
 20
19.0353208585831
 10
11.52138181392831
 20
19.03532085858309
 10
11.52138181392831
 20
18.6603208585831
 10
12.4713818139283
 20
18.6603208585831
 10
12.4713818139283
 20
18.71032085858309
 10
12.50138181392827
 20
18.71032085858309
 10
12.52138181392831
 20
18.6603208585831
 10
12.52138181392831
 20
18.59532085858311
 10
11.64638181392831
 20
18.59532085858311
 10
11.64638181392831
 20
17.5953208585831
 10
10.77138181392837
 20
17.5953208585831
 10
10.77138181392837
 20
18.59532085858311
 10
9.896381813928371
 20
18.59532085858311
 10
9.896381813928371
 20
18.6603208585831
 10
9.91638181392841
 20
18.71032085858309
 10
9.946381813928383
 20
18.71032085858309
 10
9.946381813928383
 20
18.6603208585831
 10
10.89638181392837
 20
18.6603208585831
 10
10.89638181392837
 20
19.03532085858309
 10
10.77138181392837
 20
19.03532085858309
 10
10.77138181392837
 20
19.11611323879479
 42
-0.0655434628152602
 10
10.77223366827115
 20
19.12258371492235
 10
10.7900784844702
 20
19.18918147562887
 10
10.77260552289658
 20
19.2882755649364
 42
-0.6600047310092907
 10
10.78800204470116
 20
19.29833158793437
 10
10.88570403259575
 20
19.23317246185772
 42
-0.3954233646214653
 10
10.89037174724075
 20
19.21319315002576
 10
10.85695916419769
 20
19.15532085858308
 10
10.85695916419769
 20
19.13532085858306
 42
0.4142135623717424
 10
10.86695916419768
 20
19.12532085858304
 10
11.01338181392844
 20
19.12532085858305
 42
0.4142135623718464
 10
11.02338181392838
 20
19.13532085858306
 10
11.02338181392838
 20
19.15532085858308
 10
10.99278224966139
 20
19.20832085858306
 42
-0.5773502691895307
 10
11.00144250369919
 20
19.22332085858305
 10
11.09959204946142
 20
19.22332085858306
 10
11.14462537045858
 20
19.14532085858248
 42
0.2679491924311522
 10
11.17926638660992
 20
19.12532085858248
  0
LWPOLYLINE
  5
11E
330
2
100
AcDbEntity
  8
R-SWTS-DET2
100
AcDbPolyline
 90
        8
 70
     1
 43
0.0
 10
9.961381813928426
 20
18.72532085858265
 10
9.896381813928371
 20
18.72532085858265
 10
9.896381813928371
 20
18.66032085858265
 10
9.872755925945455
 20
18.66032085858265
 10
9.796381813928405
 20
18.85032085858265
 10
10.05638181392839
 20
18.85032085858265
 10
10.05638181392839
 20
18.66032085858265
 10
9.961381813928426
 20
18.66032085858265
  0
LWPOLYLINE
  5
11F
330
2
100
AcDbEntity
  8
R-SWTS-DET2
100
AcDbPolyline
 90
        4
 70
     1
 43
0.0
 10
10.05638181392839
 20
18.85032085858265
 10
10.35638181392841
 20
18.85032085858265
 10
10.35638181392841
 20
18.66032085858265
 10
10.05638181392839
 20
18.66032085858265
  0
LWPOLYLINE
  5
120
330
2
100
AcDbEntity
  8
R-SWTS-DET3
100
AcDbPolyline
 90
        4
 70
     1
 43
0.0
 10
10.45888181392837
 20
19.10032085858276
 10
10.20888181392837
 20
19.10032085858276
 10
10.20888181392837
 20
19.60032085858276
 10
10.45888181392837
 20
19.60032085858276
  0
LWPOLYLINE
  5
121
330
2
100
AcDbEntity
  8
R-SWTS-DET3
100
AcDbPolyline
 90
        4
 70
     0
 43
0.0
 10
7.896389636415449
 20
18.85032085858276
 10
10.45888181392837
 20
18.85032085858276
 10
10.45888181392837
 20
19.10032085858276
 10
7.896389636415449
 20
19.10032085858276
  0
LWPOLYLINE
  5
122
330
2
100
AcDbEntity
  8
R-SWTS-DET3
100
AcDbPolyline
 90
        4
 70
     0
 43
0.0
 10
7.896389636415449
 20
19.60032085858276
 10
10.45888181392837
 20
19.60032085858276
 10
10.45888181392837
 20
19.85032085858276
 10
7.896389636415449
 20
19.85032085858276
  0
LWPOLYLINE
  5
123
330
2
100
AcDbEntity
  8
R-SWTS-DET1
100
AcDbPolyline
 90
        6
 70
     1
 43
0.0
 10
12.52138181392831
 20
18.47032085858316
 10
11.64638181392831
 20
18.47032085858316
 10
11.64638181392831
 20
18.59532085858316
 10
12.64638181392831
 20
18.59532085858316
 10
12.64638181392831
 20
17.59532085858316
 10
12.52138181392831
 20
17.59532085858316
  0
LWPOLYLINE
  5
124
330
2
100
AcDbEntity
  8
R-SWTS-DET1
100
AcDbPolyline
 90
       24
 70
     1
 43
0.0
 10
11.58138181392831
 20
18.15021281975757
 42
0.6224337464226137
 10
11.54917943297596
 20
18.16605901485585
 42
-0.3267061393957527
 10
11.37447556392834
 20
18.16174954222558
 42
-0.2457530127345987
 10
11.36588181392835
 20
18.17817809849015
 10
11.36588181392835
 20
18.21793737443008
 42
-0.6882472016115991
 10
11.40077977311205
 20
18.23128094262458
 42
0.5741920180569363
 10
11.53276685977653
 20
18.25832085858306
 10
11.55638181392834
 20
18.25832085858312
 42
0.9999999999999998
 10
11.55638181392834
 20
18.30832085858313
 10
11.53276685977704
 20
18.30832085858313
 42
0.5741920180578775
 10
11.40077977311205
 20
18.33536077454169
 42
-0.6882472016118376
 10
11.36588181392835
 20
18.3487043427362
 10
11.36588181392835
 20
18.38846361867624
 42
-0.2457530127346519
 10
11.37447556392828
 20
18.40489217494084
 42
-0.3267061393958186
 10
11.54917943297596
 20
18.40058270231063
 42
0.6224337464226562
 10
11.58138181392831
 20
18.41642889740888
 10
11.58138181392831
 20
18.59532085858311
 10
11.45638181392832
 20
18.59532085858311
 10
11.45638181392832
 20
19.03532085858309
 10
10.96138181392842
 20
19.03532085858309
 10
10.96138181392837
 20
18.59532085858311
 10
10.83638181392842
 20
18.59532085858311
 10
10.83638181392837
 20
17.66032085858308
 10
11.58138181392831
 20
17.6603208585831
  0
LWPOLYLINE
  5
125
330
2
100
AcDbEntity
  8
R-SWTS-DET1
100
AcDbPolyline
 90
       41
 70
     1
 43
0.0
 10
10.73284530917351
 20
21.47932085858278
 42
-0.4400105308918457
 10
10.70295946823074
 20
21.5119355308652
 10
10.7130734776664
 20
21.62753918770551
 42
0.4466574342041955
 10
10.68252108268098
 20
21.66014645416898
 10
10.11282685903404
 20
21.64748559577262
 42
0.4077202623982005
 10
9.956381813928373
 20
21.48752509347379
 10
9.956381813928317
 20
20.68332085858214
 42
0.4142135623731211
 10
9.966381813928364
 20
20.67332085858215
 10
10.83638181392831
 20
20.67332085858213
 42
-0.3736297736983284
 10
10.86608610878187
 20
20.64752262811877
 10
10.90497191135159
 20
20.68640843068846
 42
-1.000000000000055
 10
10.93679171650501
 20
20.65458862553507
 10
10.83845288174018
 20
20.55624979077027
 42
-0.6681786379193539
 10
10.82138181392832
 20
20.56332085858213
 10
10.82138181392832
 20
20.62832085858213
 10
9.966381813928308
 20
20.62832085858213
 42
0.4142135623730431
 10
9.956381813928317
 20
20.61832085858212
 10
9.956381813928317
 20
20.19032085858277
 10
10.13738181392835
 20
20.19032085858274
 42
-0.414213562373069
 10
10.16738181392833
 20
20.16032085858274
 10
10.16738181392833
 20
20.07532085858273
 10
10.43338181392835
 20
20.07532085858273
 42
-1.0
 10
10.43338181392835
 20
20.02532085858273
 10
10.16738181392833
 20
20.02532085858275
 10
10.16738181392833
 20
19.97532085858273
 10
10.05638181392834
 20
19.97532085858276
 10
10.05638181392834
 20
20.02532085858275
 10
10.11738181392837
 20
20.02532085858275
 10
10.11738181392837
 20
20.14032085858274
 10
9.97138181392836
 20
20.14032085858275
 10
9.97138181392836
 20
19.97532085858276
 10
9.931381813928339
 20
19.97532085858276
 10
9.896381813928371
 20
19.99552811800439
 10
9.896381813928371
 20
21.72032085858275
 10
10.77138181392831
 20
21.72032085858273
 10
10.75467147919488
 20
21.52932085858278
 10
10.84330807285107
 20
21.52932085858278
 10
10.85098574238344
 20
21.53699852811438
 42
-0.9999999999999872
 10
10.88634108144106
 20
21.50164318905334
 10
10.87280554753255
 20
21.48810765514615
 42
-0.1989123673670628
 10
10.85159234409798
 20
21.47932085858278
  0
LINE
  5
126
330
2
100
AcDbEntity
  8
R-SWTS-DET1
100
AcDbLine
 10
10.12052875513387
 20
19.97532085858276
 30
0.0
 11
10.7556568139284
 21
21.72032085858277
 31
0.0
  0
LINE
  5
127
330
2
100
AcDbEntity
  8
R-SWTS-DET1
100
AcDbLine
 10
7.896373991441237
 20
21.72032085858275
 30
0.0
 11
10.7556568139284
 21
21.72032085858275
 31
0.0
  0
LINE
  5
128
330
2
100
AcDbEntity
  8
R-SWTS-DET1
100
AcDbLine
 10
7.896389636415449
 20
19.97532085858276
 30
0.0
 11
10.12052875513387
 21
19.97532085858276
 31
0.0
  0
LWPOLYLINE
  5
129
330
2
100
AcDbEntity
  8
R-SWTS-DET1
100
AcDbPolyline
 90
        2
 70
     0
 43
0.0
 10
11.17926638660992
 20
20.07032085858307
 10
11.2384972412467
 20
20.07032085858307
  0
LWPOLYLINE
  5
12A
330
2
100
AcDbEntity
  8
R-SWTS-DET1
100
AcDbPolyline
 90
       40
 70
     1
 43
0.0
 10
11.58138181392831
 20
22.41542889740741
 42
-0.6224337464226136
 10
11.54917943297596
 20
22.39958270230913
 42
0.3267061393957527
 10
11.37447556392834
 20
22.40389217493939
 42
0.2457530127345989
 10
11.36588181392835
 20
22.38746361867483
 10
11.36588181392835
 20
22.3477043427349
 42
0.6882472016115989
 10
11.40077977311205
 20
22.33436077454038
 42
-0.5741920180569365
 10
11.53276685977653
 20
22.30732085858194
 10
11.55638181392834
 20
22.30732085858185
 42
-0.9999999999999998
 10
11.55638181392834
 20
22.25732085858185
 10
11.53276685977704
 20
22.25732085858185
 42
-0.5741920180578775
 10
11.40077977311205
 20
22.23028094262328
 42
0.6882472016118378
 10
11.36588181392835
 20
22.21693737442878
 10
11.36588181392835
 20
22.17717809848875
 42
0.2457530127346519
 10
11.37447556392828
 20
22.16074954222412
 42
0.3267061393958188
 10
11.54917943297596
 20
22.16505901485437
 42
-0.6224337464226563
 10
11.58138181392831
 20
22.1492128197561
 10
11.58138181392831
 20
21.66432085858192
 10
11.49745793237406
 20
21.6643208585819
 10
11.3943818139283
 20
21.56124474013616
 10
11.3943818139283
 20
20.50836609770256
 42
-0.4874613951104793
 10
11.36956038535686
 20
20.48895595018817
 42
0.2158505435375484
 10
11.24947556392811
 20
20.46689217493939
 42
0.245753012734614
 10
11.24088181392812
 20
20.45046361867485
 10
11.24088181392812
 20
20.410704342735
 42
0.688247201612326
 10
11.27577977311182
 20
20.39736077454052
 42
-2.615339366131379
 10
11.27577977311176
 20
20.29328094262329
 42
0.6882472016117943
 10
11.24088181392812
 20
20.2799373744288
 10
11.24088181392807
 20
20.24017809848876
 42
0.245753012734651
 10
11.24947556392806
 20
20.22374954222413
 42
0.1528965617342725
 10
11.33388181392803
 20
20.19732085858178
 10
11.39438181392836
 20
20.19732085858209
 10
11.39438181392842
 20
20.16032085858187
 10
11.00138181392845
 20
20.16032085858187
 10
11.00138181392839
 20
20.47832085858188
 10
11.02338181392838
 20
20.47832085858188
 10
11.02338181392838
 20
21.56124474013616
 10
10.92030569548262
 20
21.6643208585819
 10
10.83638181392842
 20
21.66432085858192
 10
10.83638181392837
 20
22.5303208585819
 10
11.58138181392831
 20
22.53032085858189
  0
LWPOLYLINE
  5
12B
330
2
100
AcDbEntity
  8
0
100
AcDbPolyline
 90
        6
 70
     0
 43
0.0
 10
14.02681259454624
 20
17.47432085858318
 10
13.9833818139279
 20
17.47432085858318
 10
13.94516493932997
 20
17.57932085858314
 10
13.35259868852586
 20
17.5793208585832
 10
13.31438181392792
 20
17.47432085858313
 10
13.27175410537103
 20
17.47432130632754
  0
LWPOLYLINE
  5
12C
330
2
100
AcDbEntity
  8
0
100
AcDbPolyline
 90
       14
 70
     0
 43
0.0
 10
13.25938181392831
 20
17.37392042285015
 10
13.26641513492501
 20
17.37798111262097
 42
-0.131652497587334
 10
13.27141513492501
 20
17.37932085858316
 10
13.31707171235945
 20
17.37932085858316
 42
0.3152987888789939
 10
13.39130742940153
 20
17.43130126726046
 10
13.40708858800377
 20
17.47465964417287
 42
-0.3152987888790213
 10
13.44373660021443
 20
17.50032085858319
 10
13.85402702764145
 20
17.50032085858314
 42
-0.3152987888789464
 10
13.89067503985205
 20
17.47465964417282
 10
13.90645619845429
 20
17.43130126726046
 42
0.3152987888789767
 10
13.98069191549638
 20
17.37932085858321
 10
14.02634849293088
 20
17.37932085858321
 42
-0.131652497587334
 10
14.03134849293087
 20
17.37798111262103
 10
14.03838181392774
 20
17.3739204228502
  0
LWPOLYLINE
  5
12D
330
2
100
AcDbEntity
  8
R-SWTS-DET1
100
AcDbPolyline
 90
        2
 70
     0
 43
0.0
 10
14.12138181392828
 20
17.12820543126472
 10
14.12138181392828
 20
17.1874362859015
  0
LINE
  5
12E
330
2
100
AcDbEntity
  8
R-SWTS-DET1
100
AcDbLine
 10
39.85133262727686
 20
16.24031303609626
 30
0.0
 11
39.21620456848234
 21
17.98531303609627
 31
0.0
  0
LWPOLYLINE
  5
12F
330
2
100
AcDbEntity
  8
R-SWTS-DET3
100
AcDbPolyline
 90
       18
 70
     0
 43
0.0
 10
38.91387249472126
 20
16.75604815525329
 42
0.2660752536291018
 10
38.72980821948886
 20
16.84797806783308
 10
35.10735091747694
 20
16.64164800435904
 42
-1.05857941788574
 10
35.10735091747694
 20
17.05497806783299
 10
38.72980821948886
 20
16.848648004359
 42
1.05857941788574
 10
38.72980821948886
 20
17.26197806783295
 10
35.10735091747694
 20
17.05564800435891
 42
-1.05857941788574
 10
35.10735091747694
 20
17.46897806783286
 10
38.72980821948886
 20
17.26264800435885
 42
1.05857941788574
 10
38.72980821948886
 20
17.6759780678328
 10
35.10735091747694
 20
17.46964800435879
 42
-1.074843728022638
 10
35.11363355586173
 20
17.88252422284301
 10
37.95177494674937
 20
17.63404221923724
 42
1.091376229040531
 10
37.95177494674937
 20
18.08998878488995
 10
35.11056009513254
 20
17.88383036265088
 42
-1.074779569093745
 10
35.11040324408839
 20
18.29675612449853
 10
37.95177494674937
 20
18.09275617331312
 42
0.4097431155296217
 10
38.19937576297605
 20
18.29728758296832
  0
LWPOLYLINE
  5
130
330
2
100
AcDbEntity
  8
R-SWTS-DET1
100
AcDbPolyline
 90
       16
 70
     1
 43
0.0
 10
38.32557956848246
 20
15.61031303609661
 10
38.32557956848246
 20
15.04731303609662
 42
-0.4142135623730956
 10
38.13857956848244
 20
14.86031303609661
 10
34.95057956848348
 20
14.86031303609661
 42
-0.4142135623730951
 10
34.76357956848346
 20
15.04731303609662
 10
34.76357956848346
 20
18.23531303609556
 42
-0.4142135623730948
 10
34.95057956848348
 20
18.42231303609554
 10
35.51357956848347
 20
18.42231303609554
 10
35.51357956848347
 20
18.29731303609554
 10
34.95057956848348
 20
18.29731303609554
 42
0.4142135623730948
 10
34.88857956848347
 20
18.23531303609556
 10
34.88857956848347
 20
15.04731303609662
 42
0.4142135623730951
 10
34.95057956848348
 20
14.98531303609661
 10
38.13857956848244
 20
14.98531303609661
 42
0.4142135623730956
 10
38.20057956848245
 20
15.04731303609662
 10
38.20057956848245
 20
15.61031303609661
  0
DIMENSION
  5
131
330
2
100
AcDbEntity
  8
R-ANNO-DIMS
100
AcDbDimension
  2
*D5
 10
32.25357956848302
 20
18.4223130360956
 30
0.0
 11
32.07357956848301
 21
16.13381303609582
 31
0.0
 70
    32
  1
<> (REF.)
 71
     5
 42
4.576999999999571
  3
Standard
100
AcDbAlignedDimension
 13
33.7485795684828
 23
13.84531303609603
 33
0.0
 14
33.76357956848352
 24
18.4223130360956
 34
0.0
 50
89.99999999999674
100
AcDbRotatedDimension
  0
DIMENSION
  5
13E
330
2
100
AcDbEntity
  8
R-ANNO-DIMS
100
AcDbDimension
  2
*D4
 10
31.50357956848319
 20
22.0160747698261
 30
0.0
 11
31.32357956848319
 21
17.93069390296101
 31
0.0
 70
    32
  1
F.W.
 71
     5
 42
8.170761733730188
  3
EXT_ON_OFF
100
AcDbAlignedDimension
 13
33.7485795684828
 23
13.84531303609591
 33
0.0
 14
33.74857956848302
 24
22.0160747698261
 34
0.0
 50
89.99999999999674
100
AcDbRotatedDimension
  0
LINE
  5
14A
330
2
100
AcDbEntity
  8
R-SWTS-DET1
100
AcDbLine
 10
34.76357956848284
 20
14.86031303609602
 30
0.0
 11
34.76357956848295
 21
22.17232085858257
 31
0.0
  0
LINE
  5
14B
330
2
100
AcDbEntity
  8
R-SWTS-DET1
100
AcDbLine
 10
34.82857956848278
 20
14.92531303609601
 30
0.0
 11
34.82857956848295
 21
22.17232085858257
 31
0.0
  0
LINE
  5
14C
330
2
100
AcDbEntity
  8
R-SWTS-DET1
100
AcDbLine
 10
33.7485795684828
 20
13.84531303609603
 30
0.0
 11
33.74857956848297
 21
22.17232085858257
 31
0.0
  0
LINE
  5
14D
330
2
100
AcDbEntity
  8
R-SWTS-DET1
100
AcDbLine
 10
38.77857956848294
 20
18.87531303609606
 30
0.0
 11
33.7485795684828
 21
13.84531303609603
 31
0.0
  0
LWPOLYLINE
  5
14E
330
2
100
AcDbEntity
  8
R-SWTS-DET1
100
AcDbPolyline
 90
      100
 70
     1
 43
0.0
 10
39.01357956848239
 20
16.8083130360954
 10
39.15057956848233
 20
16.8083130360954
 10
39.15057956848233
 20
16.86831303609571
 42
-0.637070260807719
 10
39.16700744457921
 20
16.87597348052688
 10
39.20057956848234
 20
16.84780312374192
 10
39.2005795684824
 20
16.72731303609541
 42
-0.4142135623730951
 10
39.16057956848238
 20
16.68731303609539
 10
39.15057956848233
 20
16.68731303609539
 10
39.15057956848233
 20
16.7433130360954
 10
39.03557956848232
 20
16.74331303609537
 10
39.03557956848232
 20
16.42531303609539
 10
39.15057956848233
 20
16.42531303609539
 10
39.15057956848233
 20
16.4993130360954
 10
39.16057956848232
 20
16.4993130360954
 42
-0.4142135623731341
 10
39.20057956848234
 20
16.459313036096
 10
39.20057956848234
 20
16.34452065588431
 42
-0.065543462815247
 10
39.19972771413956
 20
16.33805017975675
 10
39.18188289794051
 20
16.2714524190502
 10
39.19935585951419
 20
16.17235832974268
 42
-0.660004731008912
 10
39.18395933770955
 20
16.16230230674469
 10
39.08625734981502
 20
16.22746143282134
 42
-0.3954233646215202
 10
39.08158963516996
 20
16.24744074465332
 10
39.11500221821302
 20
16.30531303609598
 10
39.11500221821302
 20
16.32531303609602
 42
0.4142135623719504
 10
39.10500221821303
 20
16.33531303609604
 10
38.95857956848232
 20
16.33531303609604
 42
0.4142135623719505
 10
38.94857956848233
 20
16.32531303609602
 10
38.94857956848233
 20
16.30531303609598
 10
38.97917913274938
 20
16.25231303609601
 42
-0.577350269189719
 10
38.97051887871152
 20
16.237313036096
 10
38.87236933294929
 20
16.237313036096
 10
38.82733601195218
 20
16.31531303609657
 42
0.2679491924311136
 10
38.79269499580079
 20
16.33531303609661
 10
38.73346414116407
 20
16.33531303609661
 42
0.267949192431199
 10
38.69882312501267
 20
16.3153130360966
 10
38.65378980401556
 20
16.237313036096
 10
38.55564025825334
 20
16.237313036096
 42
-0.5773502691897191
 10
38.54698000421547
 20
16.25231303609601
 10
38.57757956848252
 20
16.30531303609598
 10
38.57757956848252
 20
16.32531303609602
 42
0.4142135623719504
 10
38.56757956848253
 20
16.33531303609604
 10
38.42115691875176
 20
16.33531303609604
 42
0.4142135623718464
 10
38.41115691875183
 20
16.32531303609602
 10
38.41115691875183
 20
16.30531303609598
 10
38.44456950179483
 20
16.24744074465332
 42
-0.3954233646215201
 10
38.43990178714984
 20
16.22746143282134
 10
38.34219979925524
 20
16.16230230674469
 42
-0.660004731008912
 10
38.32680327745066
 20
16.17235832974268
 10
38.34427623902428
 20
16.2714524190502
 10
38.32643142282524
 20
16.33805017975672
 42
-0.0655434628151302
 10
38.32557956848251
 20
16.34452065588428
 10
38.32557956848246
 20
16.42531303609539
 10
38.94857956848245
 20
16.42531303609539
 10
38.94857956848239
 20
16.46231303609559
 10
38.88807956848211
 20
16.46231303609531
 42
-0.152896561734279
 10
38.80367331848209
 20
16.48874171973765
 42
-0.2457530127346359
 10
38.7950795684821
 20
16.50517027600227
 10
38.79507956848215
 20
16.54492955194232
 42
-0.6882472016119033
 10
38.82997752766585
 20
16.55827312013682
 42
2.615339366131384
 10
38.82997752766585
 20
16.66235295205402
 42
-0.6882472016121108
 10
38.79507956848215
 20
16.67569652024852
 10
38.79507956848215
 20
16.71545579618836
 42
-0.2457530127346696
 10
38.80367331848214
 20
16.73188435245291
 42
-0.2158505435375527
 10
38.92375813991089
 20
16.7539481277017
 42
0.4874613951104183
 10
38.94857956848239
 20
16.77335827521608
 10
38.94857956848233
 20
17.82623691764965
 10
39.05165568692808
 20
17.92931303609541
 10
39.13557956848234
 20
17.92931303609541
 10
39.13557956848234
 20
18.2793130360954
 10
38.39057956848245
 20
18.27931303609543
 10
38.39057956848245
 20
17.84431303609543
 10
38.3255795684824
 20
17.84431303609543
 10
38.3255795684824
 20
18.34431303609543
 10
39.13557956848234
 20
18.3443130360954
 10
39.13557956848234
 20
18.41420499726962
 42
0.6224337464225699
 10
39.10337718752998
 20
18.43005119236787
 42
-0.3267061393958168
 10
38.92867331848231
 20
18.42574171973766
 42
-0.2457530127346976
 10
38.92007956848238
 20
18.44217027600226
 10
38.92007956848238
 20
18.4819295519423
 42
-0.6882472016119579
 10
38.95497752766607
 20
18.4952731201368
 42
0.5741920180579092
 10
39.08696461433107
 20
18.52231303609537
 10
39.11057956848237
 20
18.52231303609537
 42
0.9999999999999998
 10
39.11057956848237
 20
18.57231303609538
 10
39.08696461433061
 20
18.57231303609544
 42
0.5741920180569432
 10
38.95497752766607
 20
18.59935295205392
 42
-0.6882472016115991
 10
38.92007956848238
 20
18.61269652024842
 10
38.92007956848238
 20
18.65245579618835
 42
-0.2457530127346128
 10
38.92867331848237
 20
18.66888435245292
 42
-0.3267061393957567
 10
39.10337718752998
 20
18.66457487982265
 42
0.6224337464228529
 10
39.13557956848234
 20
18.68042107492093
 10
39.13557956848234
 20
18.79531303609539
 10
38.76357956848233
 20
18.79531303609539
 10
38.76357956848233
 20
18.86031303609542
 10
39.20057956848234
 20
18.86031303609539
 10
39.20057956848234
 20
17.82482294844922
 10
39.16700744457921
 20
17.79665259166424
 42
-0.6370702608068985
 10
39.15057956848233
 20
17.80431303609541
 10
39.15057956848233
 20
17.86431303609541
 10
39.07857956848232
 20
17.86431303609541
 10
39.01357956848233
 20
17.79931303609541
  0
TEXT
  5
14F
330
2
100
AcDbEntity
  8
PART_NUMBERS
100
AcDbText
 10
18.91130737056852
 20
15.42743588033383
 30
0.0
 40
0.25
  1
INTERIOR GLAZING GASKET
100
AcDbText
  0
TEXT
  5
150
330
2
100
AcDbEntity
  8
PART_NUMBERS
100
AcDbText
 10
18.91130737056852
 20
16.63943588033382
 30
0.0
 40
0.25
  1
GLASS STOP
100
AcDbText
  0
TEXT
  5
151
330
2
100
AcDbEntity
  8
PART_NUMBERS
100
AcDbText
 10
18.91130737056852
 20
15.83219778509573
 30
0.0
 40
0.25
  1
027770
100
AcDbText
  0
DIMENSION
  5
152
330
2
100
AcDbEntity
  8
R-ANNO-DIMS
100
AcDbDimension
  2
*D3
 10
38.32557956848251
 20
12.35031303609616
 30
0.0
 11
36.03707956848265
 21
12.53031303609617
 31
0.0
 70
    32
  1
<> (REF.)
 71
     5
 42
4.576999999999713
  3
Standard
100
AcDbAlignedDimension
 13
33.7485795684828
 23
13.84531303609603
 33
0.0
 14
38.32557956848251
 24
13.86031303609661
 34
0.0
100
AcDbRotatedDimension
  0
LWPOLYLINE
  5
15F
330
2
100
AcDbEntity
  8
R-SWTS-DET3
100
AcDbPolyline
 90
       18
 70
     0
 43
0.0
 10
38.19663236159937
 20
15.02554440703275
 42
0.3783650497439763
 10
37.97875589287753
 20
15.19178157762664
 10
35.11040324408839
 20
14.98584449456655
 42
-1.07437033245415
 10
35.11040324408839
 20
15.39878157762658
 10
37.97875589287753
 20
15.19284449456648
 42
1.07437033245415
 10
37.97875589287753
 20
15.60578157762648
 10
35.11040324408839
 20
15.39984449456639
 42
-1.072569519951885
 10
35.10971217193412
 20
15.81283003181269
 10
38.12044696503182
 20
15.60679604038012
 42
1.07077193663248
 10
38.12044696503182
 20
16.01983003181269
 10
35.10971217193412
 20
15.81379604038
 42
-1.071180087698678
 10
35.10986920656649
 20
16.22681922545493
 10
38.09562250946255
 20
16.02021363055149
 42
1.077796747398392
 10
38.09303781918976
 20
16.4687909934583
 10
35.11224794457473
 20
16.22798522595303
 42
-1.071230731985936
 10
35.10735091747694
 20
16.64097806783312
 10
38.72980821948886
 20
16.43464800435913
 42
0.1570587716620999
 10
38.85262864775069
 20
16.46662158812674
 42
0.1570587716620999
  0
LWPOLYLINE
  5
160
330
2
100
AcDbEntity
  8
R-SWTS-DET2
100
AcDbPolyline
 90
        4
 70
     1
 43
0.0
 10
39.91557956848232
 20
15.11531303609612
 10
39.6155795684823
 20
15.11531303609612
 10
39.6155795684823
 20
14.92531303609613
 10
39.91557956848232
 20
14.92531303609613
  0
LWPOLYLINE
  5
161
330
2
100
AcDbEntity
  8
R-SWTS-DET3
100
AcDbPolyline
 90
        4
 70
     1
 43
0.0
 10
39.5130795684824
 20
15.36531303609627
 10
39.7630795684824
 20
15.36531303609627
 10
39.7630795684824
 20
15.86531303609627
 10
39.5130795684824
 20
15.86531303609627
  0
LWPOLYLINE
  5
162
330
2
100
AcDbEntity
  8
R-SWTS-DET2
100
AcDbPolyline
 90
       15
 70
     0
 43
0.0
 10
39.2005795684824
 20
16.34252065588359
 42
0.1618049181719085
 10
39.57557956848234
 20
16.11531303609627
 10
39.67537133482722
 20
16.11531303609627
 42
0.1301798726914469
 10
39.85569800173517
 20
16.1547191006467
 42
0.5152864272066271
 10
39.85805367860957
 20
16.17083478816599
 42
0.1070648706106477
 10
39.7227769339857
 20
16.25396372849815
 10
39.62408873694841
 20
16.28861857838453
 42
1.0
 10
39.60420947380652
 20
16.23200749380797
 10
39.70289767084381
 20
16.19735264392159
 42
-0.0252322931696623
 10
39.73230651741989
 20
16.18532729517474
 42
-0.2600651486929917
 10
39.3366851758837
 20
16.33261541421473
 42
-0.185339044931536
 10
39.31931115293094
 20
16.36395898132267
 10
39.28737497334004
 20
16.74401992330755
 42
0.3738846794848147
 10
39.23786156990292
 20
16.78706126825952
 10
39.2005795684824
 20
16.78706126825952
  0
LWPOLYLINE
  5
163
330
2
100
AcDbEntity
  8
0
100
AcDbPolyline
 90
        6
 70
     0
 43
0.0
 10
39.0795795684823
 20
16.24074381671457
 10
39.0795795684823
 20
16.1973130360962
 10
39.18457956848227
 20
16.15909616149827
 10
39.18457956848232
 20
15.56652991069416
 10
39.0795795684823
 20
15.52831303609619
 10
39.07958001622672
 20
15.4856853275393
  0
LWPOLYLINE
  5
164
330
2
100
AcDbEntity
  8
R-SWTS-DET1
100
AcDbPolyline
 90
        2
 70
     0
 43
0.0
 10
38.73346414116407
 20
16.33531303609661
 10
38.79269499580079
 20
16.33531303609661
  0
LWPOLYLINE
  5
165
330
2
100
AcDbEntity
  8
0
100
AcDbPolyline
 90
       14
 70
     0
 43
0.0
 10
38.54698000421547
 20
15.47331303609658
 10
38.54291931444464
 20
15.48034635709328
 42
-0.131652497587334
 10
38.54157956848252
 20
15.48534635709328
 10
38.54157956848252
 20
15.53100293452775
 42
0.3152987888789939
 10
38.48959915980521
 20
15.60523865156983
 10
38.4462407828928
 20
15.62101981017204
 42
-0.3152987888790213
 10
38.42057956848254
 20
15.6576678223827
 10
38.42057956848254
 20
16.06795824980972
 42
-0.3152987888789464
 10
38.44624078289286
 20
16.10460626202038
 10
38.48959915980521
 20
16.12038742062256
 42
0.3152987888789767
 10
38.54157956848252
 20
16.19462313766465
 10
38.54157956848252
 20
16.24027971509915
 42
-0.131652497587334
 10
38.54291931444464
 20
16.24527971509914
 10
38.54698000421547
 20
16.25231303609601
  0
LWPOLYLINE
  5
166
330
2
100
AcDbEntity
  8
0
100
AcDbPolyline
 90
        6
 70
     0
 43
0.0
 10
38.44657956848249
 20
16.24074381671457
 10
38.44657956848249
 20
16.1973130360962
 10
38.34157956848253
 20
16.15909616149827
 10
38.34157956848248
 20
15.56652991069416
 10
38.44657956848249
 20
15.52831303609619
 10
38.44657912073808
 20
15.4856853275393
  0
LWPOLYLINE
  5
167
330
2
100
AcDbEntity
  8
R-SWTS-DET1
100
AcDbPolyline
 90
       22
 70
     1
 43
0.0
 10
39.01057956848234
 20
14.86031303609661
 10
39.13557956848234
 20
14.86031303609661
 10
39.13557956848234
 20
14.68142107492238
 42
-0.6224337464226562
 10
39.10337718752998
 20
14.66557487982413
 42
0.3267061393958186
 10
38.92867331848231
 20
14.66988435245437
 42
0.2457530127346519
 10
38.92007956848238
 20
14.65345579618974
 10
38.92007956848238
 20
14.6136965202497
 42
0.6882472016118376
 10
38.95497752766607
 20
14.6003529520552
 42
-0.5741920180578775
 10
39.08696461433107
 20
14.57331303609666
 10
39.11057956848237
 20
14.57331303609666
 42
-0.9999999999999998
 10
39.11057956848237
 20
14.52331303609665
 10
39.08696461433061
 20
14.52331303609657
 42
-0.5741920180569363
 10
38.95497752766607
 20
14.49627312013811
 42
0.6882472016115991
 10
38.92007956848238
 20
14.48292955194361
 10
38.92007956848238
 20
14.44317027600365
 42
0.2457530127345987
 10
38.92867331848237
 20
14.42674171973911
 42
0.3267061393957527
 10
39.10337718752998
 20
14.43105119236938
 42
-0.6224337464226137
 10
39.13557956848234
 20
14.41520499727107
 10
39.13557956848234
 20
13.92531303609661
 10
38.3905795684824
 20
13.92531303609658
 10
38.39057956848245
 20
15.30031303609658
 10
39.01057956848234
 20
15.30031303609661
  0
LWPOLYLINE
  5
168
330
2
100
AcDbEntity
  8
0
100
AcDbPolyline
 90
       14
 70
     0
 43
0.0
 10
38.97917913274938
 20
15.47331303609658
 10
38.98323982252021
 20
15.48034635709328
 42
0.131652497587334
 10
38.98457956848233
 20
15.48534635709328
 10
38.98457956848233
 20
15.53100293452775
 42
-0.3152987888789939
 10
39.03655997715958
 20
15.60523865156983
 10
39.07991835407205
 20
15.62101981017204
 42
0.3152987888790213
 10
39.10557956848231
 20
15.6576678223827
 10
39.10557956848226
 20
16.06795824980972
 42
0.3152987888789464
 10
39.07991835407199
 20
16.10460626202038
 10
39.03655997715958
 20
16.12038742062256
 42
-0.3152987888789767
 10
38.98457956848233
 20
16.19462313766465
 10
38.98457956848233
 20
16.24027971509915
 42
0.131652497587334
 10
38.98323982252021
 20
16.24527971509914
 10
38.97917913274938
 20
16.25231303609601
  0
TEXT
  5
169
330
2
100
AcDbEntity
  8
PART_NUMBERS
100
AcDbText
 10
18.91130737056852
 20
17.85043588033383
 30
0.0
 40
0.25
  1
AIR SEAL GASKET
100
AcDbText
  0
TEXT
  5
16A
330
2
100
AcDbEntity
  8
PART_NUMBERS
100
AcDbText
 10
18.91130737056852
 20
19.06243588033382
 30
0.0
 40
0.25
  1
VERTICAL
100
AcDbText
  0
TEXT
  5
16B
330
2
100
AcDbEntity
  8
PART_NUMBERS
100
AcDbText
 10
18.91130737056852
 20
19.46719778509572
 30
0.0
 40
0.25
  1
823213
100
AcDbText
  0
TEXT
  5
16C
330
2
100
AcDbEntity
  8
PART_NUMBERS
100
AcDbText
 10
18.91130737056852
 20
17.04419778509572
 30
0.0
 40
0.25
  1
823040
100
AcDbText
  0
TEXT
  5
16D
330
2
100
AcDbEntity
  8
PART_NUMBERS
100
AcDbText
 10
18.91130737056852
 20
18.25519778509573
 30
0.0
 40
0.25
  1
027771
100
AcDbText
  0
TEXT
  5
16E
330
2
100
AcDbEntity
  8
PART_NUMBERS
100
AcDbText
 10
18.91130737056852
 20
20.67943588033381
 30
0.0
 40
0.25
  1
TREMCO VISIONstrip
100
AcDbText
  0
TEXT
  5
16F
330
2
100
AcDbEntity
  8
PART_NUMBERS
100
AcDbText
 10
18.91130737056852
 20
20.27443588033381
 30
0.0
 40
0.25
  1
EXTERIOR WEATHERING
100
AcDbText
  0
TEXT
  5
170
330
2
100
AcDbEntity
  8
PART_NUMBERS
100
AcDbText
 10
18.91130737056852
 20
21.08419778509572
 30
0.0
 40
0.25
  1
027590
100
AcDbText
  0
DIMENSION
  5
171
330
2
100
AcDbEntity
  8
R-ANNO-DIMS
100
AcDbDimension
  2
*D2
 10
32.25357956848319
 20
22.0160747698261
 30
0.0
 11
32.07357956848318
 21
21.09419390296077
 31
0.0
 70
    32
  1
D.L.O.
 71
     5
 42
1.843761733730673
  3
EXT_ON_OFF
100
AcDbAlignedDimension
 13
34.76357956848352
 23
20.17231303609543
 33
0.0
 14
33.74857956848302
 24
22.0160747698261
 34
0.0
 50
89.99999999999674
100
AcDbRotatedDimension
  0
LWPOLYLINE
  5
17D
330
2
100
AcDbEntity
  8
R-SWTS-DET1
100
AcDbPolyline
 90
        6
 70
     0
 43
0.0
 10
33.51357956848295
 20
22.17232085858257
 10
36.16423544274585
 20
22.17232085858257
 10
36.21730402448236
 20
22.38453605156474
 10
36.32485511248353
 20
21.96012131057455
 10
36.37792369421999
 20
22.17233650355684
 10
39.02857956848294
 20
22.17233650355684
  0
DIMENSION
  5
17E
330
2
100
AcDbEntity
  8
R-ANNO-DIMS
100
AcDbDimension
  2
*D1
 10
32.25357956848308
 20
20.17231303609543
 30
0.0
 11
32.07357956848307
 21
19.29731303609552
 31
0.0
 70
    32
 71
     5
 42
1.749999999999829
  3
Standard
100
AcDbAlignedDimension
 13
33.76357956848352
 23
18.4223130360956
 33
0.0
 14
34.76357956848352
 24
20.17231303609543
 34
0.0
 50
89.99999999999674
100
AcDbRotatedDimension
  0
LWPOLYLINE
  5
18B
330
2
100
AcDbEntity
  8
R-SWTS-DET1
100
AcDbPolyline
 90
       22
 70
     1
 43
0.0
 10
34.76357956848352
 20
19.10731303609543
 10
34.76357956848352
 20
19.23231303609543
 10
34.58468760730932
 20
19.23231303609543
 42
0.6224337464226562
 10
34.56884141221105
 20
19.20011065514308
 42
-0.3267061393958186
 10
34.57315088484126
 20
19.0254067860954
 42
-0.2457530127346519
 10
34.55672232857665
 20
19.01681303609547
 10
34.51696305263658
 20
19.01681303609547
 42
-0.6882472016118376
 10
34.50361948444214
 20
19.05171099527916
 42
0.5741920180578775
 10
34.47657956848355
 20
19.18369808194416
 10
34.47657956848355
 20
19.20731303609546
 42
0.9999999999999998
 10
34.42657956848353
 20
19.20731303609546
 10
34.42657956848348
 20
19.1836980819437
 42
0.5741920180569363
 10
34.39953965252499
 20
19.05171099527916
 42
-0.6882472016115991
 10
34.38619608433049
 20
19.01681303609547
 10
34.34643680839054
 20
19.01681303609547
 42
-0.2457530127345987
 10
34.33000825212599
 20
19.02540678609546
 42
-0.3267061393957527
 10
34.33431772475626
 20
19.20011065514308
 42
0.6224337464226137
 10
34.31847152965799
 20
19.23231303609543
 10
33.82857956848352
 20
19.23231303609543
 10
33.82857956848346
 20
18.48731303609548
 10
35.20357956848346
 20
18.48731303609554
 10
35.20357956848352
 20
19.10731303609543
  0
LWPOLYLINE
  5
18C
330
2
100
AcDbEntity
  8
R-SWTS-DET1
100
AcDbPolyline
 90
       49
 70
     0
 43
0.0
 10
35.29357956848293
 20
18.83019760877715
 42
0.2679491924311523
 10
35.31357956848291
 20
18.79555659262576
 10
35.39157956848345
 20
18.75052327162865
 10
35.39157956848345
 20
18.65237372586642
 42
-0.5773502691895308
 10
35.37657956848347
 20
18.64371347182856
 10
35.32357956848347
 20
18.67431303609561
 10
35.30357956848348
 20
18.67431303609561
 42
0.4142135623718464
 10
35.29357956848349
 20
18.66431303609562
 10
35.29357956848344
 20
18.51789038636485
 42
0.4142135623717424
 10
35.30357956848348
 20
18.50789038636492
 10
35.32357956848347
 20
18.50789038636492
 10
35.38145185992619
 20
18.54130296940798
 42
-0.3954233646214654
 10
35.40143117175813
 20
18.53663525476292
 10
35.46659029783479
 20
18.43893326686833
 42
-0.6600047310092911
 10
35.45653427483683
 20
18.42353674506376
 10
35.3574401855293
 20
18.44100970663737
 10
35.29084242482276
 20
18.42316489043833
 42
-0.0655434628152334
 10
35.2843719486952
 20
18.4223130360956
 10
33.76357956848352
 20
18.4223130360956
 10
33.76357956848352
 20
19.29731303609543
 10
34.76357956848352
 20
19.29731303609543
 10
34.76357956848352
 20
20.17231303609543
 10
34.82857956848352
 20
20.17231303609543
 10
34.87857956848353
 20
20.15231303609545
 10
34.87857956848353
 20
20.12231303609542
 10
34.82857956848352
 20
20.12231303609542
 10
34.82857956848352
 20
19.17231303609543
 10
35.20357956848352
 20
19.17231303609543
 10
35.20357956848352
 20
19.29731303609543
 10
35.28437194869525
 20
19.29731303609543
 42
-0.0655434628152602
 10
35.29084242482281
 20
19.29646118175265
 10
35.3574401855293
 20
19.2786163655536
 10
35.45653427483683
 20
19.29608932712728
 42
-0.6600047310092907
 10
35.46659029783479
 20
19.28069280532264
 10
35.40143117175813
 20
19.1829908174281
 42
-0.3954233646214653
 10
35.38145185992619
 20
19.17832310278305
 10
35.32357956848353
 20
19.21173568582611
 10
35.30357956848348
 20
19.21173568582611
 42
0.4142135623717424
 10
35.29357956848344
 20
19.20173568582612
 10
35.29357956848349
 20
19.05531303609541
 42
0.4142135623718464
 10
35.30357956848348
 20
19.04531303609542
 10
35.32357956848353
 20
19.04531303609542
 10
35.37657956848347
 20
19.07591260036247
 42
-0.5773502691895307
 10
35.39157956848351
 20
19.0672523463246
 10
35.39157956848351
 20
18.96910280056238
 10
35.31357956848291
 20
18.92406947956527
 42
0.2679491924311522
 10
35.29357956848293
 20
18.88942846341388
 10
35.29357956848293
 20
18.83019760877715
 10
35.29357956848287
 20
18.88942846341388
  0
LWPOLYLINE
  5
18D
330
2
100
AcDbEntity
  8
R-SWTS-DET2
100
AcDbPolyline
 90
        4
 70
     1
 43
0.0
 10
35.01857956848307
 20
20.01231303609541
 10
35.01857956848307
 20
19.71231303609539
 10
34.82857956848306
 20
19.71231303609539
 10
34.82857956848306
 20
20.01231303609541
  0
LWPOLYLINE
  5
18E
330
2
100
AcDbEntity
  8
R-SWTS-DET1
100
AcDbPolyline
 90
       41
 70
     1
 43
0.0
 10
37.6475795684832
 20
19.33584954085034
 42
-0.4400105308918457
 10
37.68019424076562
 20
19.36573538179311
 10
37.79579789760589
 20
19.3556213723574
 42
0.4466574342041955
 10
37.82840516406941
 20
19.38617376734282
 10
37.81574430567304
 20
19.95586799098976
 42
0.4077202623982005
 10
37.65578380337422
 20
20.11231303609543
 10
36.85157956848258
 20
20.11231303609549
 42
0.4142135623731211
 10
36.84157956848259
 20
20.1023130360955
 10
36.84157956848253
 20
19.23231303609549
 42
-0.3736297736983284
 10
36.81578133801918
 20
19.20260874124193
 10
36.85466714058885
 20
19.16372293867221
 42
-1.000000000000055
 10
36.82284733543549
 20
19.13190313351885
 10
36.72450850067065
 20
19.23024196828362
 42
-0.6681786379193539
 10
36.73157956848252
 20
19.24731303609547
 10
36.79657956848251
 20
19.24731303609547
 10
36.79657956848251
 20
20.1023130360955
 42
0.4142135623730431
 10
36.78657956848252
 20
20.11231303609549
 10
36.35857956848321
 20
20.11231303609554
 10
36.35857956848315
 20
19.9313130360955
 42
-0.414213562373069
 10
36.32857956848312
 20
19.90131303609547
 10
36.24357956848314
 20
19.90131303609547
 10
36.24357956848314
 20
19.63531303609545
 42
-1.0
 10
36.19357956848313
 20
19.63531303609545
 10
36.19357956848313
 20
19.90131303609547
 10
36.14357956848318
 20
19.90131303609547
 10
36.14357956848318
 20
20.01231303609547
 10
36.19357956848313
 20
20.01231303609547
 10
36.19357956848313
 20
19.95131303609548
 10
36.30857956848314
 20
19.95131303609548
 10
36.30857956848314
 20
20.0973130360955
 10
36.14357956848318
 20
20.0973130360955
 10
36.14357956848318
 20
20.13731303609546
 10
36.1637868279048
 20
20.17231303609549
 10
37.88857956848318
 20
20.17231303609543
 10
37.88857956848313
 20
19.29731303609549
 10
37.69757956848321
 20
19.31402337082898
 10
37.69757956848321
 20
19.22538677717273
 10
37.70525723801478
 20
19.21770910764042
 42
-0.9999999999999872
 10
37.66990189895376
 20
19.1823537685828
 10
37.65636636504655
 20
19.19588930249125
 42
-0.1989123673670628
 10
37.6475795684832
 20
19.21710250592582
  0
LWPOLYLINE
  5
18F
330
2
100
AcDbEntity
  8
R-SWTS-DET2
100
AcDbPolyline
 90
       15
 70
     0
 43
0.0
 10
36.24578718827047
 20
19.29731303609549
 42
-0.1618049181719085
 10
36.01857956848318
 20
19.67231303609543
 10
36.01857956848318
 20
19.77210480244031
 42
-0.1301798726914469
 10
36.05798563303364
 20
19.95243146934825
 42
-0.5152864272066271
 10
36.07410132055287
 20
19.95478714622265
 42
-0.1070648706106477
 10
36.15723026088506
 20
19.81951040159879
 10
36.19188511077141
 20
19.7208222045615
 42
-1.0
 10
36.13527402619485
 20
19.70094294141961
 10
36.1006191763085
 20
19.7996311384569
 42
0.0252322931696623
 10
36.08859382756163
 20
19.82903998503298
 42
0.2600651486929917
 10
36.23588194660164
 20
19.43341864349679
 42
0.185339044931536
 10
36.26722551370955
 20
19.41604462054403
 10
36.64728645569443
 20
19.38410844095313
 42
-0.3738846794848147
 10
36.6903278006464
 20
19.33459503751601
 10
36.6903278006464
 20
19.29731303609549
  0
LINE
  5
190
330
2
100
AcDbEntity
  8
R-SWTS-DET1
100
AcDbLine
 10
36.14357956848318
 20
19.94806609488995
 30
0.0
 11
37.88857956848318
 21
19.31293803609543
 31
0.0
  0
LWPOLYLINE
  5
191
330
2
100
AcDbEntity
  8
R-SWTS-DET3
100
AcDbPolyline
 90
        4
 70
     0
 43
0.0
 10
35.76857956848318
 20
22.17232085858257
 10
35.76857956848318
 20
19.60981303609549
 10
36.01857956848318
 20
19.60981303609549
 10
36.01857956848318
 20
22.17232085858257
  0
LWPOLYLINE
  5
192
330
2
100
AcDbEntity
  8
R-SWTS-DET3
100
AcDbPolyline
 90
        4
 70
     0
 43
0.0
 10
35.01857956848318
 20
22.17232085858257
 10
35.01857956848318
 20
19.60981303609549
 10
35.26857956848318
 20
19.60981303609549
 10
35.26857956848318
 20
22.17232085858257
  0
LINE
  5
193
330
2
100
AcDbEntity
  8
R-SWTS-DET1
100
AcDbLine
 10
37.88857956848318
 20
22.17232085858257
 30
0.0
 11
37.88857956848318
 21
19.31293803609543
 31
0.0
  0
LINE
  5
194
330
2
100
AcDbEntity
  8
R-SWTS-DET1
100
AcDbLine
 10
38.77857956848294
 20
22.1723052136083
 30
0.0
 11
38.77857956848294
 21
18.87531303609603
 31
0.0
  0
LWPOLYLINE
  5
195
330
2
100
AcDbEntity
  8
R-SWTS-DET3
100
AcDbPolyline
 90
        3
 70
     0
 43
0.0
 10
37.09553347546819
 20
19.04531303609542
 10
37.94550764380892
 20
18.92050903382383
 42
0.6338746214250328
 10
38.15278001994892
 20
19.2323130360954
  0
LWPOLYLINE
  5
196
330
2
100
AcDbEntity
  8
R-SWTS-DET1
100
AcDbPolyline
 90
      100
 70
     1
 43
0.0
 10
36.71157956848231
 20
19.11031303609547
 10
36.71157956848231
 20
19.24731303609542
 10
36.77157956848259
 20
19.24731303609542
 42
0.637070260807719
 10
36.77924001291376
 20
19.2637409121923
 10
36.75106965612883
 20
19.29731303609543
 10
36.63057956848229
 20
19.29731303609549
 42
0.4142135623730951
 10
36.59057956848233
 20
19.25731303609547
 10
36.59057956848233
 20
19.24731303609542
 10
36.64657956848231
 20
19.24731303609542
 10
36.64657956848231
 20
19.13231303609541
 10
36.32857956848227
 20
19.13231303609541
 10
36.32857956848233
 20
19.24731303609542
 10
36.40257956848234
 20
19.24731303609542
 10
36.40257956848234
 20
19.25731303609541
 42
0.4142135623731341
 10
36.36257956848289
 20
19.29731303609543
 10
36.24778718827122
 20
19.29731303609543
 42
0.065543462815247
 10
36.24131671214366
 20
19.29646118175265
 10
36.17471895143712
 20
19.2786163655536
 10
36.07562486212959
 20
19.29608932712728
 42
0.660004731008912
 10
36.06556883913157
 20
19.28069280532264
 10
36.13072796520822
 20
19.1829908174281
 42
0.3954233646215202
 10
36.15070727704023
 20
19.17832310278305
 10
36.20857956848289
 20
19.21173568582611
 10
36.22857956848293
 20
19.21173568582611
 42
-0.4142135623719504
 10
36.23857956848292
 20
19.20173568582612
 10
36.23857956848292
 20
19.05531303609541
 42
-0.4142135623719505
 10
36.22857956848293
 20
19.04531303609542
 10
36.20857956848289
 20
19.04531303609542
 10
36.15557956848289
 20
19.07591260036247
 42
0.577350269189719
 10
36.14057956848291
 20
19.0672523463246
 10
36.14057956848291
 20
18.96910280056238
 10
36.21857956848351
 20
18.92406947956527
 42
-0.2679491924311136
 10
36.23857956848349
 20
18.88942846341388
 10
36.23857956848349
 20
18.83019760877715
 42
-0.267949192431199
 10
36.21857956848351
 20
18.79555659262576
 10
36.14057956848291
 20
18.75052327162865
 10
36.14057956848291
 20
18.65237372586642
 42
0.5773502691897191
 10
36.15557956848289
 20
18.64371347182856
 10
36.20857956848289
 20
18.67431303609561
 10
36.22857956848293
 20
18.67431303609561
 42
-0.4142135623719504
 10
36.23857956848292
 20
18.66431303609562
 10
36.23857956848292
 20
18.51789038636485
 42
-0.4142135623718464
 10
36.22857956848293
 20
18.50789038636492
 10
36.20857956848289
 20
18.50789038636492
 10
36.15070727704023
 20
18.54130296940792
 42
0.3954233646215201
 10
36.13072796520822
 20
18.53663525476292
 10
36.06556883913157
 20
18.43893326686833
 42
0.660004731008912
 10
36.07562486212959
 20
18.42353674506376
 10
36.17471895143712
 20
18.44100970663737
 10
36.2413167121436
 20
18.42316489043833
 42
0.0655434628151302
 10
36.24778718827116
 20
18.4223130360956
 10
36.32857956848227
 20
18.42231303609554
 10
36.32857956848227
 20
19.04531303609553
 10
36.36557956848248
 20
19.04531303609548
 10
36.36557956848219
 20
18.9848130360952
 42
0.152896561734279
 10
36.39200825212453
 20
18.90040678609517
 42
0.2457530127346359
 10
36.40843680838918
 20
18.89181303609518
 10
36.4481960843292
 20
18.89181303609524
 42
0.6882472016119033
 10
36.4615396525237
 20
18.92671099527894
 42
-2.615339366131384
 10
36.5656194844409
 20
18.92671099527894
 42
0.6882472016121108
 10
36.5789630526354
 20
18.89181303609524
 10
36.61872232857525
 20
18.89181303609524
 42
0.2457530127346696
 10
36.63515088483979
 20
18.90040678609523
 42
0.2158505435375527
 10
36.65721466008859
 20
19.02049160752398
 42
-0.4874613951104183
 10
36.67662480760299
 20
19.04531303609548
 10
37.72950345003659
 20
19.04531303609542
 10
37.83257956848235
 20
19.14838915454118
 10
37.83257956848235
 20
19.23231303609543
 10
38.18257956848231
 20
19.23231303609543
 10
38.18257956848231
 20
18.48731303609554
 10
37.74757956848231
 20
18.48731303609554
 10
37.74757956848231
 20
18.42231303609549
 10
38.24757956848231
 20
18.42231303609549
 10
38.24757956848231
 20
19.23231303609543
 10
38.31747152965653
 20
19.23231303609543
 42
-0.6224337464225699
 10
38.33331772475481
 20
19.20011065514308
 42
0.3267061393958168
 10
38.32900825212454
 20
19.0254067860954
 42
0.2457530127346976
 10
38.34543680838919
 20
19.01681303609547
 10
38.38519608432921
 20
19.01681303609547
 42
0.6882472016119579
 10
38.39853965252371
 20
19.05171099527916
 42
-0.5741920180579092
 10
38.42557956848225
 20
19.18369808194416
 10
38.42557956848225
 20
19.20731303609546
 42
-0.9999999999999998
 10
38.47557956848226
 20
19.20731303609546
 10
38.47557956848238
 20
19.1836980819437
 42
-0.5741920180569432
 10
38.5026194844408
 20
19.05171099527916
 42
0.6882472016115991
 10
38.5159630526353
 20
19.01681303609547
 10
38.55572232857526
 20
19.01681303609547
 42
0.2457530127346128
 10
38.5721508848398
 20
19.02540678609546
 42
0.3267061393957567
 10
38.56784141220953
 20
19.20011065514308
 42
-0.6224337464228529
 10
38.58368760730781
 20
19.23231303609543
 10
38.69857956848233
 20
19.23231303609543
 10
38.69857956848233
 20
18.86031303609542
 10
38.76357956848233
 20
18.86031303609542
 10
38.76357956848233
 20
19.29731303609543
 10
37.72808948083611
 20
19.29731303609543
 10
37.69991912405112
 20
19.2637409121923
 42
0.6370702608068985
 10
37.70757956848235
 20
19.24731303609542
 10
37.76757956848235
 20
19.24731303609542
 10
37.76757956848235
 20
19.17531303609542
 10
37.70257956848229
 20
19.11031303609542
  0
LWPOLYLINE
  5
197
330
2
100
AcDbEntity
  8
R-SWTS-DET3
100
AcDbPolyline
 90
        7
 70
     0
 43
0.0
 10
37.5755795684824
 20
18.41284223419919
 10
36.64935790915405
 20
18.19797732926307
 42
-1.212197343596071
 10
36.63051219931981
 20
18.71139107973206
 10
37.94371130417232
 20
18.50678085346922
 42
1.162702492827366
 10
37.94550764380892
 20
18.91611703836687
 10
36.56565149315566
 20
18.7135090338239
 42
-0.6565179945522553
 10
36.36557956848242
 20
19.03641892079233
 42
-0.6565179945522553
  0
LWPOLYLINE
  5
198
330
2
100
AcDbEntity
  8
R-SWTS-DET3
100
AcDbPolyline
 90
        4
 70
     1
 43
0.0
 10
35.26857956848318
 20
19.60981303609549
 10
35.26857956848318
 20
19.85981303609549
 10
35.76857956848318
 20
19.85981303609549
 10
35.76857956848318
 20
19.60981303609549
  0
LWPOLYLINE
  5
199
330
2
100
AcDbEntity
  8
0
100
AcDbPolyline
 90
        6
 70
     0
 43
0.0
 10
36.14401034910145
 20
19.17631303609539
 10
36.10057956848311
 20
19.17631303609539
 10
36.06236269388518
 20
19.28131303609535
 10
35.46979644308107
 20
19.28131303609541
 10
35.43157956848308
 20
19.17631303609539
 10
35.38895185992618
 20
19.1763134838398
  0
LWPOLYLINE
  5
19A
330
2
100
AcDbEntity
  8
0
100
AcDbPolyline
 90
       14
 70
     0
 43
0.0
 10
35.37657956848347
 20
19.07591260036247
 10
35.38361288948016
 20
19.07997329013329
 42
-0.131652497587334
 10
35.38861288948016
 20
19.08131303609542
 10
35.43426946691466
 20
19.08131303609542
 42
0.3152987888789939
 10
35.50850518395674
 20
19.13329344477267
 10
35.52428634255898
 20
19.17665182168514
 42
-0.3152987888790213
 10
35.56093435476959
 20
19.2023130360954
 10
35.9712247821966
 20
19.20231303609535
 42
-0.3152987888789464
 10
36.00787279440726
 20
19.17665182168508
 10
36.02365395300945
 20
19.13329344477267
 42
0.3152987888789767
 10
36.09788967005153
 20
19.08131303609542
 10
36.14354624748609
 20
19.08131303609542
 42
-0.131652497587334
 10
36.14854624748608
 20
19.07997329013329
 10
36.15557956848289
 20
19.07591260036247
  0
LWPOLYLINE
  5
19B
330
2
100
AcDbEntity
  8
R-SWTS-DET1
100
AcDbPolyline
 90
        2
 70
     0
 43
0.0
 10
36.23857956848349
 20
18.83019760877715
 10
36.23857956848349
 20
18.88942846341388
  0
LWPOLYLINE
  5
19C
330
2
100
AcDbEntity
  8
0
100
AcDbPolyline
 90
        6
 70
     0
 43
0.0
 10
36.14401034910145
 20
18.54331303609558
 10
36.10057956848311
 20
18.54331303609558
 10
36.06236269388518
 20
18.43831303609562
 10
35.46979644308107
 20
18.43831303609556
 10
35.43157956848308
 20
18.54331303609558
 10
35.38895185992618
 20
18.54331258835117
  0
LWPOLYLINE
  5
19D
330
2
100
AcDbEntity
  8
0
100
AcDbPolyline
 90
       14
 70
     0
 43
0.0
 10
35.37657956848347
 20
18.64371347182856
 10
35.38361288948016
 20
18.63965278205774
 42
0.131652497587334
 10
35.38861288948016
 20
18.63831303609561
 10
35.43426946691466
 20
18.63831303609561
 42
-0.3152987888789939
 10
35.50850518395674
 20
18.5863326274183
 10
35.52428634255893
 20
18.54297425050589
 42
0.3152987888790213
 10
35.56093435476959
 20
18.51731303609563
 10
35.9712247821966
 20
18.51731303609563
 42
0.3152987888789464
 10
36.00787279440726
 20
18.54297425050595
 10
36.02365395300945
 20
18.5863326274183
 42
-0.3152987888789767
 10
36.09788967005153
 20
18.63831303609561
 10
36.14354624748609
 20
18.63831303609561
 42
0.131652497587334
 10
36.14854624748608
 20
18.63965278205774
 10
36.15557956848289
 20
18.64371347182856
  0
LWPOLYLINE
  5
19E
330
2
100
AcDbEntity
  8
R-SWTS-DET1
100
AcDbPolyline
 90
        6
 70
     1
 43
0.0
 10
38.2005795684824
 20
18.29731303609549
 10
37.5755795684824
 20
18.29731303609549
 10
37.5755795684824
 20
18.42231303609549
 10
38.3255795684824
 20
18.42231303609549
 10
38.3255795684824
 20
17.67231303609549
 10
38.2005795684824
 20
17.67231303609549
  0
LWPOLYLINE
  5
19F
330
2
100
AcDbEntity
  8
R-SWTS-DET2
100
AcDbPolyline
 90
        8
 70
     1
 43
0.0
 10
34.89357956848306
 20
20.10731303609538
 10
34.89357956848306
 20
20.17231303609543
 10
34.82857956848306
 20
20.17231303609543
 10
34.82857956848306
 20
20.19593892407835
 10
35.01857956848307
 20
20.2723130360954
 10
35.01857956848307
 20
20.01231303609541
 10
34.82857956848306
 20
20.01231303609541
 10
34.82857956848306
 20
20.10731303609538
  0
LWPOLYLINE
  5
1A0
330
2
100
AcDbEntity
  8
R-SWTS-DET2
100
AcDbPolyline
 90
       10
 70
     0
 43
0.0
 10
36.14357956848318
 20
19.97353269794576
 42
-0.6522884812892542
 10
36.1100770863244
 20
19.95877861459399
 42
-0.2083092445416351
 10
36.01878933289652
 20
20.16379231857223
 42
-0.9518102130205555
 10
36.05867446903017
 20
20.16608999534617
 42
0.0657822641916236
 10
36.07357956848313
 20
20.10472777249538
 10
36.07357956848318
 20
20.19271262681446
 10
36.0203068741759
 20
20.31243577557058
 42
-0.9572917422547984
 10
36.05607409054346
 20
20.33025885027143
 10
36.14357956848318
 20
20.17231303609538
 10
36.14357956848318
 20
20.13731303609546
  0
LINE
  5
1A1
330
2
100
AcDbEntity
  8
R-SWTS-DET1
100
AcDbLine
 10
36.14357956848318
 20
22.1723052136083
 30
0.0
 11
36.14357956848318
 21
19.94806609488995
 31
0.0
  0
LWPOLYLINE
  5
1A2
330
2
100
AcDbEntity
  8
R-SWTS-DET1
100
AcDbPolyline
 90
        6
 70
     0
 43
0.0
 10
42.07558739096947
 20
13.61031303609602
 10
42.07558739096947
 20
16.26096891035891
 10
41.8633721979873
 20
16.31403749209542
 10
42.28778693897749
 20
16.42158858009659
 10
42.07557174599521
 20
16.47465716183308
 10
42.07557174599521
 20
19.12531303609602
  0
DIMENSION
  5
1A3
330
2
100
AcDbEntity
  8
R-ANNO-DIMS
100
AcDbDimension
  2
*D0
 10
42.07558739096947
 20
12.35031303609616
 30
0.0
 11
41.07558347972591
 21
12.53031303609617
 31
0.0
 70
    32
  1
D.L.O.
 71
     5
 42
2.000007822487134
  3
EXT_ON_OFF
100
AcDbAlignedDimension
 13
40.07557956848233
 23
14.86031303609661
 33
0.0
 14
42.07558739096947
 24
13.84531303609603
 34
0.0
100
AcDbRotatedDimension
  0
TEXT
  5
1AF
330
2
100
AcDbEntity
  8
PART_NUMBERS
100
AcDbText
 10
42.09100512512344
 20
22.70965447401683
 30
0.0
 40
0.25
  1
027771
100
AcDbText
  0
TEXT
  5
1B0
330
2
100
AcDbEntity
  8
PART_NUMBERS
100
AcDbText
 10
42.09100512512344
 20
22.30489256925492
 30
0.0
 40
0.25
  1
AIR SEAL GASKET
100
AcDbText
  0
TEXT
  5
1B1
330
2
100
AcDbEntity
  8
PART_NUMBERS
100
AcDbText
 10
42.09100512512344
 20
19.88089256925492
 30
0.0
 40
0.25
  1
VERTICAL
100
AcDbText
  0
TEXT
  5
1B2
330
2
100
AcDbEntity
  8
PART_NUMBERS
100
AcDbText
 10
42.09100512512344
 20
21.49765447401683
 30
0.0
 40
0.25
  1
823040
100
AcDbText
  0
TEXT
  5
1B3
330
2
100
AcDbEntity
  8
PART_NUMBERS
100
AcDbText
 10
42.09100512512344
 20
20.28565447401684
 30
0.0
 40
0.25
  1
823211
100
AcDbText
  0
TEXT
  5
1B4
330
2
100
AcDbEntity
  8
PART_NUMBERS
100
AcDbText
 10
42.09100512512344
 20
21.09289256925493
 30
0.0
 40
0.25
  1
GLASS STOP
100
AcDbText
  0
TEXT
  5
1B5
330
2
100
AcDbEntity
  8
PART_NUMBERS
100
AcDbText
 10
42.09100512512344
 20
23.51689256925494
 30
0.0
 40
0.25
  1
INTERIOR GLAZING GASKET
100
AcDbText
  0
TEXT
  5
1B6
330
2
100
AcDbEntity
  8
PART_NUMBERS
100
AcDbText
 10
42.09100512512344
 20
25.13289256925492
 30
0.0
 40
0.25
  1
TREMCO VISIONstrip
100
AcDbText
  0
TEXT
  5
1B7
330
2
100
AcDbEntity
  8
PART_NUMBERS
100
AcDbText
 10
42.09100512512344
 20
24.72889256925493
 30
0.0
 40
0.25
  1
EXTERIOR WEATHERING
100
AcDbText
  0
TEXT
  5
1B8
330
2
100
AcDbEntity
  8
PART_NUMBERS
100
AcDbText
 10
42.09100512512344
 20
23.92165447401684
 30
0.0
 40
0.25
  1
027770
100
AcDbText
  0
TEXT
  5
1B9
330
2
100
AcDbEntity
  8
PART_NUMBERS
100
AcDbText
 10
42.09100512512344
 20
25.53765447401683
 30
0.0
 40
0.25
  1
027590
100
AcDbText
  0
MTEXT
  5
3F6
102
{ACAD_XDICTIONARY
360
3F7
102
}
330
2
100
AcDbEntity
  8
TEXT
100
AcDbMText
 10
1.000000084398437
 20
2.000000000000028
 30
0.0
 40
0.375
 41
15.4571868900598
 71
     1
 72
     5
  1
ENGINEERING CHANGE:  97910-095 (MARCH 2017)\PFILE NAME:  KCDE021 SHEET 05 OF 05.DWG
 73
     1
 44
1.0
1001
ACAD
1000
ACAD_MTEXT_COLUMN_INFO_BEGIN
1070
    75
1070
     2
1070
    79
1070
     0
1070
    76
1070
     1
1070
    78
1070
     0
1070
    48
1040
15.4571868900598
1070
    49
1040
1.25
1070
    50
1070
     1
1040
0.0
1000
ACAD_MTEXT_COLUMN_INFO_END
1000
MTEXTBEGIN
1070
    73
1070
     1
1070
    44
1040
1.0
1070
    74
1070
     0
1000
MTEXTEND
  0
INSERT
  5
786
330
2
100
AcDbEntity
  8
0
100
AcDbBlockReference
  2
Kawneer Logo English
 10
0.9999999999999431
 20
2.500000000000028
 30
0.0
 41
5.337
 42
5.337
 43
5.337
  0
ENDSEC
  0
SECTION
  2
OBJECTS
  0
DICTIONARY
  5
7
330
0
100
AcDbDictionary
281
     1
  3
ACAD_CIP_PREVIOUS_PRODUCT_INFO
350
3D2
  3
ACAD_COLOR
350
286
  3
ACAD_FIELDLIST
350
3F4
  3
ACAD_GROUP
350
44
  3
ACAD_LAYOUT
350
B
  3
ACAD_MATERIAL
350
285
  3
ACAD_MLEADERSTYLE
350
2FD
  3
ACAD_MLINESTYLE
350
45
  3
ACAD_PLOTSETTINGS
350
46
  3
ACAD_PLOTSTYLENAME
350
6
  3
ACAD_SCALELIST
350
2DB
  3
ACAD_TABLESTYLE
350
287
  3
ACAD_VISUALSTYLE
350
2CA
  3
ACDB_RECOMPOSE_DATA
350
7E3
  3
AcDbVariableDictionary
350
2AF
  3
DWGPROPS
350
7E4
  0
DICTIONARY
  5
320
330
3C
100
AcDbDictionary
280
     1
281
     1
  0
DICTIONARY
  5
15
330
14
100
AcDbDictionary
280
     1
281
     1
  3
ACAD_LAYERFILTERS
360
16
  3
ACAD_LAYERSTATES
360
2A5
  0
DICTIONARY
  5
307
330
4
100
AcDbDictionary
280
     1
281
     1
  3
ADSK_XREC_LAYER_RECONCILED
360
308
  0
DICTIONARY
  5
309
330
49
100
AcDbDictionary
280
     1
281
     1
  3
ADSK_XREC_LAYER_RECONCILED
360
30A
  0
DICTIONARY
  5
30B
330
52
100
AcDbDictionary
280
     1
281
     1
  3
ADSK_XREC_LAYER_RECONCILED
360
30C
  0
DICTIONARY
  5
30D
330
4C
100
AcDbDictionary
280
     1
281
     1
  3
ADSK_XREC_LAYER_RECONCILED
360
30E
  0
DICTIONARY
  5
30F
330
4E
100
AcDbDictionary
280
     1
281
     1
  3
ADSK_XREC_LAYER_RECONCILED
360
310
  0
DICTIONARY
  5
311
330
6D
100
AcDbDictionary
280
     1
281
     1
  3
ADSK_XREC_LAYER_RECONCILED
360
312
  0
DICTIONARY
  5
313
330
7A
100
AcDbDictionary
280
     1
281
     1
  3
ADSK_XREC_LAYER_RECONCILED
360
314
  0
DICTIONARY
  5
3E5
330
3E4
100
AcDbDictionary
280
     1
281
     1
  0
DICTIONARY
  5
782
330
778
100
AcDbDictionary
280
     1
281
     1
  3
ACAD_SORTENTS
360
783
  0
DICTIONARY
  5
7E1
330
779
100
AcDbDictionary
280
     1
281
     1
  3
ACAD_MTEXT_2008_RT
360
7E2
  0
DICTIONARY
  5
3F7
330
3F6
100
AcDbDictionary
280
     1
281
     1
  0
XRECORD
  5
3D2
102
{ACAD_REACTORS
330
7
102
}
330
7
100
AcDbXrecord
280
     1
300
ACD
300
2012
300
85730ACD_2012_0F
  0
DICTIONARY
  5
286
102
{ACAD_REACTORS
330
7
102
}
330
7
100
AcDbDictionary
281
     1
  0
FIELDLIST
  5
3F4
102
{ACAD_REACTORS
330
7
102
}
330
7
100
AcDbIdSet
 90
        0
100
AcDbFieldList
  0
DICTIONARY
  5
44
102
{ACAD_REACTORS
330
7
102
}
330
7
100
AcDbDictionary
281
     1
  0
DICTIONARY
  5
B
102
{ACAD_REACTORS
330
7
102
}
330
7
100
AcDbDictionary
281
     1
  3
Layout1
350
11
  3
Model
350
A
  0
DICTIONARY
  5
285
102
{ACAD_REACTORS
330
7
102
}
330
7
100
AcDbDictionary
281
     1
  3
ByBlock
350
2BA
  3
ByLayer
350
2B2
  3
Global
350
2C2
  0
DICTIONARY
  5
2FD
102
{ACAD_REACTORS
330
7
102
}
330
7
100
AcDbDictionary
281
     1
  3
Standard
350
2FE
  0
DICTIONARY
  5
45
102
{ACAD_REACTORS
330
7
102
}
330
7
100
AcDbDictionary
281
     1
  3
STANDARD
350
47
  0
DICTIONARY
  5
46
102
{ACAD_REACTORS
330
7
102
}
330
7
100
AcDbDictionary
281
     1
  0
ACDBDICTIONARYWDFLT
  5
6
102
{ACAD_REACTORS
330
7
102
}
330
7
100
AcDbDictionary
281
     1
  3
Normal
350
5
100
AcDbDictionaryWithDefault
340
5
  0
DICTIONARY
  5
2DB
102
{ACAD_REACTORS
330
7
102
}
330
7
100
AcDbDictionary
281
     1
  3
A0
350
2DC
  3
A1
350
758
  3
A2
350
759
  3
A3
350
75A
  3
A4
350
75B
  3
A5
350
75C
  3
A6
350
75D
  3
A7
350
75E
  3
A8
350
75F
  3
A9
350
760
  3
B0
350
761
  3
B1
350
762
  3
B2
350
763
  3
B3
350
764
  3
B4
350
765
  3
B5
350
766
  3
B6
350
767
  0
DICTIONARY
  5
287
102
{ACAD_REACTORS
330
7
102
}
330
7
100
AcDbDictionary
281
     1
  3
Standard
350
288
  0
DICTIONARY
  5
2CA
102
{ACAD_REACTORS
330
7
102
}
330
7
100
AcDbDictionary
281
     1
  3
2dWireframe
350
2D0
  3
3D Hidden
350
2D2
  3
3dWireframe
350
2D1
  3
Basic
350
2CF
  3
Brighten
350
2D6
  3
ColorChange
350
2DA
  3
Conceptual
350
2D3
  3
Dim
350
2D5
  3
EdgeColorOff
350
3CF
  3
Facepattern
350
2D9
  3
Flat
350
2CB
  3
FlatWithEdges
350
2CC
  3
Gouraud
350
2CD
  3
GouraudWithEdges
350
2CE
  3
Hidden
350
3C7
  3
JitterOff
350
3CD
  3
Linepattern
350
2D8
  3
OverhangOff
350
3CE
  3
Realistic
350
2D4
  3
Shaded
350
3CC
  3
Shaded with edges
350
3CB
  3
Shades of Gray
350
3C8
  3
Sketchy
350
3C9
  3
Thicken
350
2D7
  3
Wireframe
350
3C6
  3
X-Ray
350
3CA
  0
XRECORD
  5
7E3
102
{ACAD_REACTORS
330
7
102
}
330
7
100
AcDbXrecord
280
     1
 90
        1
330
288
330
3F6
330
779
  0
DICTIONARY
  5
2AF
102
{ACAD_REACTORS
330
7
102
}
330
7
100
AcDbDictionary
281
     1
  3
CANNOSCALE
350
330
  3
CMLEADERSTYLE
350
32F
  3
CTABLESTYLE
350
2B0
  3
DIMASSOC
350
333
  3
INDEXCTL
350
332
  3
LAYEREVAL
350
7D3
  3
LAYERNOTIFY
350
7D4
  3
LIGHTINGUNITS
350
7D2
  3
MSLTSCALE
350
7D1
  3
SORTENTS
350
331
  3
XCLIPFRAME
350
7DF
  0
XRECORD
  5
7E4
102
{ACAD_REACTORS
330
7
102
}
330
7
100
AcDbXrecord
280
     1
  1
DWGPROPS COOKIE
  2

  3

  4

  6

  7

  8
quadiss
  9

300
=
301
=
302
=
303
=
304
=
305
=
306
=
307
=
308
=
309
=
 40
1.439990219907407
 41
2450361.590484606
 42
2457809.469038159
  1

 90
        0
  0
DICTIONARY
  5
16
102
{ACAD_REACTORS
330
15
102
}
330
15
100
AcDbDictionary
280
     1
281
     1
  0
DICTIONARY
  5
2A5
102
{ACAD_REACTORS
330
15
102
}
330
15
100
AcDbDictionary
281
     1
  0
XRECORD
  5
308
102
{ACAD_REACTORS
330
307
102
}
330
307
100
AcDbXrecord
280
     1
290
     1
  0
XRECORD
  5
30A
102
{ACAD_REACTORS
330
309
102
}
330
309
100
AcDbXrecord
280
     1
290
     1
  0
XRECORD
  5
30C
102
{ACAD_REACTORS
330
30B
102
}
330
30B
100
AcDbXrecord
280
     1
290
     1
  0
XRECORD
  5
30E
102
{ACAD_REACTORS
330
30D
102
}
330
30D
100
AcDbXrecord
280
     1
290
     1
  0
XRECORD
  5
310
102
{ACAD_REACTORS
330
30F
102
}
330
30F
100
AcDbXrecord
280
     1
290
     1
  0
XRECORD
  5
312
102
{ACAD_REACTORS
330
311
102
}
330
311
100
AcDbXrecord
280
     1
290
     1
  0
XRECORD
  5
314
102
{ACAD_REACTORS
330
313
102
}
330
313
100
AcDbXrecord
280
     1
290
     1
  0
SORTENTSTABLE
  5
783
102
{ACAD_REACTORS
330
782
102
}
330
782
100
AcDbSortentsTable
330
778
  0
XRECORD
  5
7E2
102
{ACAD_REACTORS
330
7E1
102
}
330
7E1
100
AcDbXrecord
280
     1
 40
102645.0
  1
\pxqr;{\fArial TUR|b0|i0|c0|p34;\T1.05;AN ARCONIC COMPANY}
  0
LAYOUT
  5
11
102
{ACAD_XDICTIONARY
360
7E7
102
}
102
{ACAD_REACTORS
330
B
102
}
330
B
100
AcDbPlotSettings
  1

  2
\\KWRKCI-HUB03\KCI_MKT_HP9000_PCL6
  4

  6

 40
0.0
 41
0.0
 42
0.0
 43
0.0
 44
0.0
 45
0.0
 46
0.0
 47
0.0
 48
0.0
 49
0.0
140
0.0
141
0.0
142
1.0
143
1.0
 70
   688
 72
     0
 73
     0
 74
     5
  7
monochrome.ctb
 75
    16
147
1.0
148
0.0
149
0.0
100
AcDbLayout
  1
Layout1
 70
     0
 71
     1
 10
0.0
 20
0.0
 11
12.0
 21
9.0
 12
0.0
 22
0.0
 32
0.0
 14
1.000000000000000E+20
 24
1.000000000000000E+20
 34
1.000000000000000E+20
 15
-1.000000000000000E+20
 25
-1.000000000000000E+20
 35
-1.000000000000000E+20
146
0.0
 13
0.0
 23
0.0
 33
0.0
 16
1.0
 26
0.0
 36
0.0
 17
0.0
 27
1.0
 37
0.0
 76
     0
330
E
  0
LAYOUT
  5
A
102
{ACAD_XDICTIONARY
360
7E5
102
}
102
{ACAD_REACTORS
330
B
102
}
330
B
100
AcDbPlotSettings
  1

  2
Estimating 11x17.pc3
  4
ANSI_B_(11.00_x_17.00_Inches)
  6

 40
5.027082920074462
 41
5.027082920074462
 42
9.26043701171875
 43
5.027069091796875
 44
279.3999938964844
 45
431.7999877929687
 46
14.224
 47
0.0
 48
204.6336936376816
 49
-59.55384410362842
140
253.9031532114155
141
-35.27678145324433
142
1.0
143
2.932464572235338
 70
 11956
 72
     0
 73
     1
 74
     1
  7
hp5000n.ctb
 75
     0
147
0.341010087374296
148
0.2138625807467179
149
0.1440893983997057
100
AcDbLayout
  1
Model
 70
     1
 71
     0
 10
0.0
 20
0.0
 11
12.0
 21
9.0
 12
0.0
 22
0.0
 32
0.0
 14
0.0
 24
0.0
 34
0.0
 15
0.0
 25
0.0
 35
0.0
146
0.0
 13
0.0
 23
0.0
 33
0.0
 16
1.0
 26
0.0
 36
0.0
 17
0.0
 27
1.0
 37
0.0
 76
     0
330
2
331
2AE
  0
MATERIAL
  5
2BA
102
{ACAD_XDICTIONARY
360
2BB
102
}
102
{ACAD_REACTORS
330
285
102
}
330
285
100
AcDbMaterial
  1
ByBlock
 72
     0
 43
0.0208333333333333
 43
0.0
 43
0.0
 43
0.0
 43
0.0
 43
0.0208333333333333
 43
0.0
 43
0.0
 43
0.0
 43
0.0
 43
1.0
 43
0.0
 43
0.0
 43
0.0
 43
0.0
 43
1.0
 77
     0
 47
0.0208333333333333
 47
0.0
 47
0.0
 47
0.0
 47
0.0
 47
0.0208333333333333
 47
0.0
 47
0.0
 47
0.0
 47
0.0
 47
1.0
 47
0.0
 47
0.0
 47
0.0
 47
0.0
 47
1.0
171
     0
 49
0.0208333333333333
 49
0.0
 49
0.0
 49
0.0
 49
0.0
 49
0.0208333333333333
 49
0.0
 49
0.0
 49
0.0
 49
0.0
 49
1.0
 49
0.0
 49
0.0
 49
0.0
 49
0.0
 49
1.0
175
     0
142
0.0208333333333333
142
0.0
142
0.0
142
0.0
142
0.0
142
0.0208333333333333
142
0.0
142
0.0
142
0.0
142
0.0
142
1.0
142
0.0
142
0.0
142
0.0
142
0.0
142
1.0
179
     0
144
0.0208333333333333
144
0.0
144
0.0
144
0.0
144
0.0
144
0.0208333333333333
144
0.0
144
0.0
144
0.0
144
0.0
144
1.0
144
0.0
144
0.0
144
0.0
144
0.0
144
1.0
147
0.0208333333333333
147
0.0
147
0.0
147
0.0
147
0.0
147
0.0208333333333333
147
0.0
147
0.0
147
0.0
147
0.0
147
1.0
147
0.0
147
0.0
147
0.0
147
0.0
147
1.0
  0
MATERIAL
  5
2B2
102
{ACAD_XDICTIONARY
360
2B3
102
}
102
{ACAD_REACTORS
330
285
102
}
330
285
100
AcDbMaterial
  1
ByLayer
 72
     0
 43
0.0208333333333333
 43
0.0
 43
0.0
 43
0.0
 43
0.0
 43
0.0208333333333333
 43
0.0
 43
0.0
 43
0.0
 43
0.0
 43
1.0
 43
0.0
 43
0.0
 43
0.0
 43
0.0
 43
1.0
 77
     0
 47
0.0208333333333333
 47
0.0
 47
0.0
 47
0.0
 47
0.0
 47
0.0208333333333333
 47
0.0
 47
0.0
 47
0.0
 47
0.0
 47
1.0
 47
0.0
 47
0.0
 47
0.0
 47
0.0
 47
1.0
171
     0
 49
0.0208333333333333
 49
0.0
 49
0.0
 49
0.0
 49
0.0
 49
0.0208333333333333
 49
0.0
 49
0.0
 49
0.0
 49
0.0
 49
1.0
 49
0.0
 49
0.0
 49
0.0
 49
0.0
 49
1.0
175
     0
142
0.0208333333333333
142
0.0
142
0.0
142
0.0
142
0.0
142
0.0208333333333333
142
0.0
142
0.0
142
0.0
142
0.0
142
1.0
142
0.0
142
0.0
142
0.0
142
0.0
142
1.0
179
     0
144
0.0208333333333333
144
0.0
144
0.0
144
0.0
144
0.0
144
0.0208333333333333
144
0.0
144
0.0
144
0.0
144
0.0
144
1.0
144
0.0
144
0.0
144
0.0
144
0.0
144
1.0
147
0.0208333333333333
147
0.0
147
0.0
147
0.0
147
0.0
147
0.0208333333333333
147
0.0
147
0.0
147
0.0
147
0.0
147
1.0
147
0.0
147
0.0
147
0.0
147
0.0
147
1.0
  0
MATERIAL
  5
2C2
102
{ACAD_XDICTIONARY
360
2C3
102
}
102
{ACAD_REACTORS
330
285
102
}
330
285
100
AcDbMaterial
  1
Global
 72
     0
 43
0.0208333333333333
 43
0.0
 43
0.0
 43
0.0
 43
0.0
 43
0.0208333333333333
 43
0.0
 43
0.0
 43
0.0
 43
0.0
 43
1.0
 43
0.0
 43
0.0
 43
0.0
 43
0.0
 43
1.0
 77
     0
 47
0.0208333333333333
 47
0.0
 47
0.0
 47
0.0
 47
0.0
 47
0.0208333333333333
 47
0.0
 47
0.0
 47
0.0
 47
0.0
 47
1.0
 47
0.0
 47
0.0
 47
0.0
 47
0.0
 47
1.0
171
     0
 49
0.0208333333333333
 49
0.0
 49
0.0
 49
0.0
 49
0.0
 49
0.0208333333333333
 49
0.0
 49
0.0
 49
0.0
 49
0.0
 49
1.0
 49
0.0
 49
0.0
 49
0.0
 49
0.0
 49
1.0
175
     0
142
0.0208333333333333
142
0.0
142
0.0
142
0.0
142
0.0
142
0.0208333333333333
142
0.0
142
0.0
142
0.0
142
0.0
142
1.0
142
0.0
142
0.0
142
0.0
142
0.0
142
1.0
179
     0
144
0.0208333333333333
144
0.0
144
0.0
144
0.0
144
0.0
144
0.0208333333333333
144
0.0
144
0.0
144
0.0
144
0.0
144
1.0
144
0.0
144
0.0
144
0.0
144
0.0
144
1.0
147
0.0208333333333333
147
0.0
147
0.0
147
0.0
147
0.0
147
0.0208333333333333
147
0.0
147
0.0
147
0.0
147
0.0
147
1.0
147
0.0
147
0.0
147
0.0
147
0.0
147
1.0
  0
MLEADERSTYLE
  5
2FE
102
{ACAD_REACTORS
330
2FD
102
}
330
2FD
100
AcDbMLeaderStyle
170
     2
171
     1
172
     0
 90
        2
 40
0.0
 41
0.0
173
     1
 91
-1056964608
340
38
 92
       -2
290
     1
 42
0.09
291
     1
 43
0.36
  3
Standard
 44
0.18
300

342
35
174
     1
178
     6
175
     1
176
     0
 93
-1056964608
 45
0.18
292
     0
297
     0
 46
0.18
 94
-1056964608
 47
1.0
 49
1.0
140
1.0
293
     1
141
0.0
294
     1
177
     0
142
1.0
295
     0
296
     0
143
0.125
1001
ACAD_MLEADERVER
1070
     2
  0
MLINESTYLE
  5
47
102
{ACAD_REACTORS
330
45
102
}
330
45
100
AcDbMlineStyle
  2
STANDARD
 70
     0
  3

 62
     0
 51
90.0
 52
90.0
 71
     2
 49
0.5
 62
   256
  6
BYLAYER
 49
-0.5
 62
   256
  6
BYLAYER
  0
ACDBPLACEHOLDER
  5
5
102
{ACAD_REACTORS
330
6
102
}
330
6
  0
SCALE
  5
2DC
102
{ACAD_REACTORS
330
2DB
102
}
330
2DB
100
AcDbScale
 70
     0
300
1:1
140
1.0
141
1.0
290
     1
  0
SCALE
  5
758
102
{ACAD_REACTORS
330
2DB
102
}
330
2DB
100
AcDbScale
 70
     0
300
1/128" = 1'-0"
140
0.0078125
141
12.0
290
     0
  0
SCALE
  5
759
102
{ACAD_REACTORS
330
2DB
102
}
330
2DB
100
AcDbScale
 70
     0
300
1/64" = 1'-0"
140
0.015625
141
12.0
290
     0
  0
SCALE
  5
75A
102
{ACAD_REACTORS
330
2DB
102
}
330
2DB
100
AcDbScale
 70
     0
300
1/32" = 1'-0"
140
0.03125
141
12.0
290
     0
  0
SCALE
  5
75B
102
{ACAD_REACTORS
330
2DB
102
}
330
2DB
100
AcDbScale
 70
     0
300
1/16" = 1'-0"
140
0.0625
141
12.0
290
     0
  0
SCALE
  5
75C
102
{ACAD_REACTORS
330
2DB
102
}
330
2DB
100
AcDbScale
 70
     0
300
3/32" = 1'-0"
140
0.09375
141
12.0
290
     0
  0
SCALE
  5
75D
102
{ACAD_REACTORS
330
2DB
102
}
330
2DB
100
AcDbScale
 70
     0
300
1/8" = 1'-0"
140
0.125
141
12.0
290
     0
  0
SCALE
  5
75E
102
{ACAD_REACTORS
330
2DB
102
}
330
2DB
100
AcDbScale
 70
     0
300
3/16" = 1'-0"
140
0.1875
141
12.0
290
     0
  0
SCALE
  5
75F
102
{ACAD_REACTORS
330
2DB
102
}
330
2DB
100
AcDbScale
 70
     0
300
1/4" = 1'-0"
140
0.25
141
12.0
290
     0
  0
SCALE
  5
760
102
{ACAD_REACTORS
330
2DB
102
}
330
2DB
100
AcDbScale
 70
     0
300
3/8" = 1'-0"
140
0.375
141
12.0
290
     0
  0
SCALE
  5
761
102
{ACAD_REACTORS
330
2DB
102
}
330
2DB
100
AcDbScale
 70
     0
300
1/2" = 1'-0"
140
0.5
141
12.0
290
     0
  0
SCALE
  5
762
102
{ACAD_REACTORS
330
2DB
102
}
330
2DB
100
AcDbScale
 70
     0
300
3/4" = 1'-0"
140
0.75
141
12.0
290
     0
  0
SCALE
  5
763
102
{ACAD_REACTORS
330
2DB
102
}
330
2DB
100
AcDbScale
 70
     0
300
1" = 1'-0"
140
1.0
141
12.0
290
     0
  0
SCALE
  5
764
102
{ACAD_REACTORS
330
2DB
102
}
330
2DB
100
AcDbScale
 70
     0
300
1-1/2" = 1'-0"
140
1.5
141
12.0
290
     0
  0
SCALE
  5
765
102
{ACAD_REACTORS
330
2DB
102
}
330
2DB
100
AcDbScale
 70
     0
300
3" = 1'-0"
140
3.0
141
12.0
290
     0
  0
SCALE
  5
766
102
{ACAD_REACTORS
330
2DB
102
}
330
2DB
100
AcDbScale
 70
     0
300
6" = 1'-0"
140
6.0
141
12.0
290
     0
  0
SCALE
  5
767
102
{ACAD_REACTORS
330
2DB
102
}
330
2DB
100
AcDbScale
 70
     0
300
1'-0" = 1'-0"
140
12.0
141
12.0
290
     0
  0
TABLESTYLE
  5
288
102
{ACAD_XDICTIONARY
360
317
102
}
102
{ACAD_REACTORS
330
287
102
}
330
287
100
AcDbTableStyle
  3
Standard
 70
     0
 71
     0
 40
0.06
 41
0.06
280
     0
281
     0
  7
STANDARD
140
0.18
170
     2
 62
     0
 63
     7
283
     0
274
    -2
284
     1
 64
     0
275
    -2
285
     1
 65
     0
276
    -2
286
     1
 66
     0
277
    -2
287
     1
 67
     0
278
    -2
288
     1
 68
     0
279
    -2
289
     1
 69
     0
  7
STANDARD
140
0.25
170
     5
 62
     0
 63
     7
283
     0
274
    -2
284
     1
 64
     0
275
    -2
285
     1
 65
     0
276
    -2
286
     1
 66
     0
277
    -2
287
     1
 67
     0
278
    -2
288
     1
 68
     0
279
    -2
289
     1
 69
     0
  7
STANDARD
140
0.18
170
     5
 62
     0
 63
     7
283
     0
274
    -2
284
     1
 64
     0
275
    -2
285
     1
 65
     0
276
    -2
286
     1
 66
     0
277
    -2
287
     1
 67
     0
278
    -2
288
     1
 68
     0
279
    -2
289
     1
 69
     0
  0
VISUALSTYLE
  5
2D0
102
{ACAD_XDICTIONARY
360
7F7
102
}
102
{ACAD_REACTORS
330
2CA
102
}
330
2CA
100
AcDbVisualStyle
  2
2dWireframe
 70
     4
 71
     0
 72
     2
 73
     0
 90
        0
 40
-0.6
 41
-30.0
 62
     5
 63
     7
 74
     1
 91
        4
 64
     7
 65
   257
 75
     1
175
     1
 42
1.0
 92
        0
 66
   257
 43
1.0
 76
     1
 77
     6
 78
     2
 67
     7
 79
     5
170
     0
171
     0
290
     0
174
     0
 93
        1
 44
0.0
173
     0
291
     0
 45
0.0
1001
ACAD
1000
AcDbSavedByObjectVersion
1070
     0
  0
VISUALSTYLE
  5
2D2
102
{ACAD_XDICTIONARY
360
7FB
102
}
102
{ACAD_REACTORS
330
2CA
102
}
330
2CA
100
AcDbVisualStyle
  2
3D Hidden
 70
     6
 71
     1
 72
     2
 73
     2
 90
        0
 40
-0.6
 41
-30.0
 62
     5
 63
     7
 74
     2
 91
        2
 64
     7
 65
   257
 75
     2
175
     1
 42
40.0
 92
        0
 66
   257
 43
1.0
 76
     1
 77
     6
 78
     2
 67
     7
 79
     3
170
     0
171
     0
290
     0
174
     0
 93
        1
 44
0.0
173
     0
291
     0
 45
0.0
1001
ACAD
1000
AcDbSavedByObjectVersion
1070
     0
  0
VISUALSTYLE
  5
2D1
102
{ACAD_XDICTIONARY
360
7F9
102
}
102
{ACAD_REACTORS
330
2CA
102
}
330
2CA
100
AcDbVisualStyle
  2
3dWireframe
 70
     5
 71
     0
 72
     2
 73
     0
 90
        0
 40
-0.6
 41
-30.0
 62
     5
 63
     7
 74
     1
 91
        4
 64
     7
 65
   257
 75
     1
175
     1
 42
1.0
 92
        0
 66
   257
 43
1.0
 76
     1
 77
     6
 78
     2
 67
     7
 79
     5
170
     0
171
     0
290
     0
174
     0
 93
        1
 44
0.0
173
     0
291
     0
 45
0.0
1001
ACAD
1000
AcDbSavedByObjectVersion
1070
     0
  0
VISUALSTYLE
  5
2CF
102
{ACAD_XDICTIONARY
360
7F5
102
}
102
{ACAD_REACTORS
330
2CA
102
}
330
2CA
100
AcDbVisualStyle
  2
Basic
 70
     7
 71
     1
 72
     0
 73
     1
 90
        0
 40
-0.6
 41
-30.0
 62
     5
 63
     7
 74
     0
 91
        4
 64
     7
 65
   257
 75
     1
175
     1
 42
1.0
 92
        8
 66
     7
 43
1.0
 76
     1
 77
     6
 78
     2
 67
     7
 79
     5
170
     0
171
     0
290
     0
174
     0
 93
        1
 44
0.0
173
     0
291
     1
 45
0.0
1001
ACAD
1000
AcDbSavedByObjectVersion
1070
     0
  0
VISUALSTYLE
  5
2D6
102
{ACAD_XDICTIONARY
360
803
102
}
102
{ACAD_REACTORS
330
2CA
102
}
330
2CA
100
AcDbVisualStyle
  2
Brighten
 70
    12
 71
     2
 72
     2
 73
     0
 90
        0
 40
-0.6
 41
-30.0
 62
     5
 63
     7
 74
     1
 91
        4
 64
     7
 65
   257
 75
     1
175
     1
 42
1.0
 92
        8
 66
     7
 43
1.0
 76
     1
 77
     6
 78
     2
 67
     7
 79
     5
170
     0
171
     0
290
     0
174
     0
 93
        1
 44
50.0
173
     0
291
     1
 45
0.0
1001
ACAD
1000
AcDbSavedByObjectVersion
1070
     0
  0
VISUALSTYLE
  5
2DA
102
{ACAD_XDICTIONARY
360
80B
102
}
102
{ACAD_REACTORS
330
2CA
102
}
330
2CA
100
AcDbVisualStyle
  2
ColorChange
 70
    16
 71
     2
 72
     2
 73
     3
 90
        0
 40
-0.6
 41
-30.0
 62
     5
 63
     8
 74
     1
 91
        4
 64
     7
 65
   257
 75
     1
175
     1
 42
1.0
 92
        8
 66
     8
 43
1.0
 76
     1
 77
     6
 78
     2
 67
     7
 79
     5
170
     0
171
     0
290
     0
174
     0
 93
        1
 44
0.0
173
     0
291
     1
 45
0.0
1001
ACAD
1000
AcDbSavedByObjectVersion
1070
     0
  0
VISUALSTYLE
  5
2D3
102
{ACAD_XDICTIONARY
360
7FD
102
}
102
{ACAD_REACTORS
330
2CA
102
}
330
2CA
100
AcDbVisualStyle
  2
Conceptual
 70
     9
 71
     3
 72
     2
 73
     0
 90
        0
 40
-0.6
 41
-30.0
 62
     5
 63
     7
 74
     2
 91
        2
 64
     7
 65
   257
 75
     1
175
     1
 42
40.0
 92
        8
 66
     7
 43
1.0
 76
     1
 77
     6
 78
     2
 67
     7
 79
     3
170
     0
171
     0
290
     0
174
     0
 93
        1
 44
0.0
173
     0
291
     0
 45
0.0
1001
ACAD
1000
AcDbSavedByObjectVersion
1070
     0
  0
VISUALSTYLE
  5
2D5
102
{ACAD_XDICTIONARY
360
801
102
}
102
{ACAD_REACTORS
330
2CA
102
}
330
2CA
100
AcDbVisualStyle
  2
Dim
 70
    11
 71
     2
 72
     2
 73
     0
 90
        0
 40
-0.6
 41
-30.0
 62
     5
 63
     7
 74
     1
 91
        4
 64
     7
 65
   257
 75
     1
175
     1
 42
1.0
 92
        8
 66
     7
 43
1.0
 76
     1
 77
     6
 78
     2
 67
     7
 79
     5
170
     0
171
     0
290
     0
174
     0
 93
        1
 44
-50.0
173
     0
291
     1
 45
0.0
1001
ACAD
1000
AcDbSavedByObjectVersion
1070
     0
  0
VISUALSTYLE
  5
3CF
102
{ACAD_XDICTIONARY
360
81F
102
}
102
{ACAD_REACTORS
330
2CA
102
}
330
2CA
100
AcDbVisualStyle
  2
EdgeColorOff
 70
    22
 71
     2
 72
     2
 73
     0
 90
        0
 40
-0.6
 41
-30.0
 62
     5
 63
     7
 74
     1
 91
        4
 64
     7
 65
   257
 75
     1
175
     1
 42
1.0
 92
        8
 66
     7
 43
1.0
 76
     1
 77
     6
 78
     2
 67
     7
 79
     5
170
     0
171
     0
290
     0
174
     0
 93
        1
 44
0.0
173
     0
291
     1
 45
0.0
1001
ACAD
1000
AcDbSavedByObjectVersion
1070
     0
  0
VISUALSTYLE
  5
2D9
102
{ACAD_XDICTIONARY
360
809
102
}
102
{ACAD_REACTORS
330
2CA
102
}
330
2CA
100
AcDbVisualStyle
  2
Facepattern
 70
    15
 71
     2
 72
     2
 73
     0
 90
        0
 40
-0.6
 41
-30.0
 62
     5
 63
     7
 74
     1
 91
        4
 64
     7
 65
   257
 75
     1
175
     1
 42
1.0
 92
        8
 66
     7
 43
1.0
 76
     1
 77
     6
 78
     2
 67
     7
 79
     5
170
     0
171
     0
290
     0
174
     0
 93
        1
 44
0.0
173
     0
291
     1
 45
0.0
1001
ACAD
1000
AcDbSavedByObjectVersion
1070
     0
  0
VISUALSTYLE
  5
2CB
102
{ACAD_XDICTIONARY
360
7ED
102
}
102
{ACAD_REACTORS
330
2CA
102
}
330
2CA
100
AcDbVisualStyle
  2
Flat
 70
     0
 71
     2
 72
     1
 73
     1
 90
        2
 40
-0.6
 41
30.0
 62
     5
 63
     7
 74
     0
 91
        4
 64
     7
 65
   257
 75
     1
175
     1
 42
1.0
 92
        8
 66
     7
 43
1.0
 76
     1
 77
     6
 78
     2
 67
     7
 79
     5
170
     0
171
     0
290
     0
174
     0
 93
       13
 44
0.0
173
     0
291
     1
 45
0.0
1001
ACAD
1000
AcDbSavedByObjectVersion
1070
     0
  0
VISUALSTYLE
  5
2CC
102
{ACAD_XDICTIONARY
360
7EF
102
}
102
{ACAD_REACTORS
330
2CA
102
}
330
2CA
100
AcDbVisualStyle
  2
FlatWithEdges
 70
     1
 71
     2
 72
     1
 73
     1
 90
        2
 40
-0.6
 41
30.0
 62
     5
 63
     7
 74
     1
 91
        4
 64
     7
 65
   257
 75
     1
175
     1
 42
1.0
 92
        0
 66
   257
 43
1.0
 76
     1
 77
     6
 78
     2
 67
     7
 79
     5
170
     0
171
     0
290
     0
174
     0
 93
       13
 44
0.0
173
     0
291
     1
 45
0.0
1001
ACAD
1000
AcDbSavedByObjectVersion
1070
     0
  0
VISUALSTYLE
  5
2CD
102
{ACAD_XDICTIONARY
360
7F1
102
}
102
{ACAD_REACTORS
330
2CA
102
}
330
2CA
100
AcDbVisualStyle
  2
Gouraud
 70
     2
 71
     2
 72
     2
 73
     1
 90
        2
 40
-0.6
 41
30.0
 62
     5
 63
     7
 74
     0
 91
        4
 64
     7
 65
   257
 75
     1
175
     1
 42
1.0
 92
        0
 66
     7
 43
1.0
 76
     1
 77
     6
 78
     2
 67
     7
 79
     5
170
     0
171
     0
290
     0
174
     0
 93
       13
 44
0.0
173
     0
291
     1
 45
0.0
1001
ACAD
1000
AcDbSavedByObjectVersion
1070
     0
  0
VISUALSTYLE
  5
2CE
102
{ACAD_XDICTIONARY
360
7F3
102
}
102
{ACAD_REACTORS
330
2CA
102
}
330
2CA
100
AcDbVisualStyle
  2
GouraudWithEdges
 70
     3
 71
     2
 72
     2
 73
     1
 90
        2
 40
-0.6
 41
30.0
 62
     5
 63
     7
 74
     1
 91
        4
 64
     7
 65
   257
 75
     1
175
     1
 42
1.0
 92
        0
 66
   257
 43
1.0
 76
     1
 77
     6
 78
     2
 67
     7
 79
     5
170
     0
171
     0
290
     0
174
     0
 93
       13
 44
0.0
173
     0
291
     1
 45
0.0
1001
ACAD
1000
AcDbSavedByObjectVersion
1070
     0
  0
VISUALSTYLE
  5
3C7
102
{ACAD_XDICTIONARY
360
80F
102
}
102
{ACAD_REACTORS
330
2CA
102
}
330
2CA
100
AcDbVisualStyle
  2
Hidden
 70
     6
 71
     1
 72
     2
 73
     2
 90
        0
 40
-0.6
 41
-30.0
 62
     5
 63
     7
 74
     2
 91
        2
 64
     7
 65
   257
 75
     2
175
     1
 42
40.0
 92
        0
 66
   257
 43
1.0
 76
     1
 77
     6
 78
     2
 67
     7
 79
     3
170
     0
171
     0
290
     0
174
     0
 93
        1
 44
0.0
173
     0
291
     0
 45
0.0
1001
ACAD
1000
AcDbSavedByObjectVersion
1070
     0
  0
VISUALSTYLE
  5
3CD
102
{ACAD_XDICTIONARY
360
81B
102
}
102
{ACAD_REACTORS
330
2CA
102
}
330
2CA
100
AcDbVisualStyle
  2
JitterOff
 70
    20
 71
     2
 72
     2
 73
     0
 90
        0
 40
-0.6
 41
-30.0
 62
     5
 63
     7
 74
     1
 91
        4
 64
     7
 65
   257
 75
     1
175
     1
 42
1.0
 92
       10
 66
     7
 43
1.0
 76
     1
 77
     6
 78
     2
 67
     7
 79
     5
170
     0
171
     0
290
     0
174
     0
 93
        1
 44
0.0
173
     0
291
     1
 45
0.0
1001
ACAD
1000
AcDbSavedByObjectVersion
1070
     0
  0
VISUALSTYLE
  5
2D8
102
{ACAD_XDICTIONARY
360
807
102
}
102
{ACAD_REACTORS
330
2CA
102
}
330
2CA
100
AcDbVisualStyle
  2
Linepattern
 70
    14
 71
     2
 72
     2
 73
     0
 90
        0
 40
-0.6
 41
-30.0
 62
     5
 63
     7
 74
     1
 91
        4
 64
     7
 65
   257
 75
     7
175
     7
 42
1.0
 92
        8
 66
     7
 43
1.0
 76
     1
 77
     6
 78
     2
 67
     7
 79
     5
170
     0
171
     0
290
     0
174
     0
 93
        1
 44
0.0
173
     0
291
     1
 45
0.0
1001
ACAD
1000
AcDbSavedByObjectVersion
1070
     0
  0
VISUALSTYLE
  5
3CE
102
{ACAD_XDICTIONARY
360
81D
102
}
102
{ACAD_REACTORS
330
2CA
102
}
330
2CA
100
AcDbVisualStyle
  2
OverhangOff
 70
    21
 71
     2
 72
     2
 73
     0
 90
        0
 40
-0.6
 41
-30.0
 62
     5
 63
     7
 74
     1
 91
        4
 64
     7
 65
   257
 75
     1
175
     1
 42
1.0
 92
        9
 66
     7
 43
1.0
 76
     1
 77
     6
 78
     2
 67
     7
 79
     5
170
     0
171
     0
290
     0
174
     0
 93
        1
 44
0.0
173
     0
291
     1
 45
0.0
1001
ACAD
1000
AcDbSavedByObjectVersion
1070
     0
  0
VISUALSTYLE
  5
2D4
102
{ACAD_XDICTIONARY
360
7FF
102
}
102
{ACAD_REACTORS
330
2CA
102
}
330
2CA
100
AcDbVisualStyle
  2
Realistic
 70
     8
 71
     2
 72
     2
 73
     0
 90
        0
 40
-0.6
 41
-30.0
 62
     5
 63
     7
 74
     1
 91
        0
 64
     7
 65
   257
 75
     1
175
     1
 42
1.0
 92
        8
 66
     8
 43
1.0
 76
     1
 77
     6
 78
     2
 67
     7
 79
     5
170
     0
171
     0
290
     0
174
     0
 93
       13
 44
0.0
173
     0
291
     0
 45
0.0
1001
ACAD
1000
AcDbSavedByObjectVersion
1070
     0
  0
VISUALSTYLE
  5
3CC
102
{ACAD_XDICTIONARY
360
819
102
}
102
{ACAD_REACTORS
330
2CA
102
}
330
2CA
100
AcDbVisualStyle
  2
Shaded
 70
    27
 71
     2
 72
     2
 73
     1
 90
        2
 40
-0.6
 41
30.0
 62
     5
 63
     7
 74
     0
 91
        4
 64
     7
 65
   257
 75
     1
175
     1
 42
1.0
 92
        8
 66
   257
 43
1.0
 76
     1
 77
     6
 78
     2
 67
     8
 79
     3
170
     0
171
     0
290
     0
174
     0
 93
        5
 44
0.0
173
     0
291
     0
 45
0.0
1001
ACAD
1000
AcDbSavedByObjectVersion
1070
     0
  0
VISUALSTYLE
  5
3CB
102
{ACAD_XDICTIONARY
360
817
102
}
102
{ACAD_REACTORS
330
2CA
102
}
330
2CA
100
AcDbVisualStyle
  2
Shaded with edges
 70
    26
 71
     2
 72
     2
 73
     1
 90
        2
 40
-0.6
 41
30.0
 62
     5
 63
     7
 74
     1
 91
       10
 64
     7
 65
   257
 75
     2
175
     1
 42
1.0
 92
        8
 66
   257
 43
1.0
 76
     1
 77
     6
 78
     2
 67
     7
 79
     3
170
     0
171
     0
290
     0
174
     0
 93
        5
 44
0.0
173
     0
291
     0
 45
0.0
1001
ACAD
1000
AcDbSavedByObjectVersion
1070
     0
  0
VISUALSTYLE
  5
3C8
102
{ACAD_XDICTIONARY
360
811
102
}
102
{ACAD_REACTORS
330
2CA
102
}
330
2CA
100
AcDbVisualStyle
  2
Shades of Gray
 70
    23
 71
     2
 72
     2
 73
     3
 90
        0
 40
-0.6
 41
-30.0
 62
     5
 63
     7
 74
     2
 91
        2
 64
     7
 65
     7
 75
     1
175
     1
 42
40.0
 92
        8
 66
     7
 43
1.0
 76
     1
 77
     6
 78
     2
 67
     7
 79
     3
170
     0
171
     0
290
     0
174
     0
 93
        1
 44
0.0
173
     0
291
     0
 45
0.0
1001
ACAD
1000
AcDbSavedByObjectVersion
1070
     0
  0
VISUALSTYLE
  5
3C9
102
{ACAD_XDICTIONARY
360
813
102
}
102
{ACAD_REACTORS
330
2CA
102
}
330
2CA
100
AcDbVisualStyle
  2
Sketchy
 70
    24
 71
     1
 72
     2
 73
     2
 90
        0
 40
-0.6
 41
-30.0
 62
     5
 63
     7
 74
     2
 91
        2
 64
     7
 65
     7
 75
     1
175
     1
 42
40.0
 92
       11
 66
     7
 43
1.0
 76
     1
 77
     6
 78
     2
 67
     7
 79
     6
170
     0
171
     0
290
     0
174
     0
 93
        1
 44
0.0
173
     0
291
     0
 45
0.0
1001
ACAD
1000
AcDbSavedByObjectVersion
1070
     0
  0
VISUALSTYLE
  5
2D7
102
{ACAD_XDICTIONARY
360
805
102
}
102
{ACAD_REACTORS
330
2CA
102
}
330
2CA
100
AcDbVisualStyle
  2
Thicken
 70
    13
 71
     2
 72
     2
 73
     0
 90
        0
 40
-0.6
 41
-30.0
 62
     5
 63
     7
 74
     1
 91
        4
 64
     7
 65
   257
 75
     1
175
     1
 42
1.0
 92
       12
 66
     7
 43
1.0
 76
     1
 77
     6
 78
     2
 67
     7
 79
     5
170
     0
171
     0
290
     0
174
     0
 93
        1
 44
0.0
173
     0
291
     1
 45
0.0
1001
ACAD
1000
AcDbSavedByObjectVersion
1070
     0
  0
VISUALSTYLE
  5
3C6
102
{ACAD_XDICTIONARY
360
80D
102
}
102
{ACAD_REACTORS
330
2CA
102
}
330
2CA
100
AcDbVisualStyle
  2
Wireframe
 70
     5
 71
     0
 72
     2
 73
     0
 90
        0
 40
-0.6
 41
-30.0
 62
     5
 63
     7
 74
     1
 91
        4
 64
     7
 65
   257
 75
     1
175
     1
 42
1.0
 92
        0
 66
   257
 43
1.0
 76
     1
 77
     6
 78
     2
 67
     7
 79
     3
170
     0
171
     0
290
     0
174
     0
 93
        1
 44
0.0
173
     0
291
     0
 45
0.0
1001
ACAD
1000
AcDbSavedByObjectVersion
1070
     0
  0
VISUALSTYLE
  5
3CA
102
{ACAD_XDICTIONARY
360
815
102
}
102
{ACAD_REACTORS
330
2CA
102
}
330
2CA
100
AcDbVisualStyle
  2
X-Ray
 70
    25
 71
     2
 72
     2
 73
     1
 90
        1
 40
0.5
 41
-30.0
 62
     5
 63
     7
 74
     1
 91
        0
 64
     7
 65
   257
 75
     1
175
     1
 42
1.0
 92
        8
 66
     7
 43
1.0
 76
     1
 77
     6
 78
     2
 67
     7
 79
     3
170
     0
171
     0
290
     0
174
     0
 93
       13
 44
0.0
173
     0
291
     0
 45
0.0
1001
ACAD
1000
AcDbSavedByObjectVersion
1070
     0
  0
DICTIONARYVAR
  5
330
102
{ACAD_REACTORS
330
2AF
102
}
330
2AF
100
DictionaryVariables
280
     0
  1
1:1
  0
DICTIONARYVAR
  5
32F
102
{ACAD_REACTORS
330
2AF
102
}
330
2AF
100
DictionaryVariables
280
     0
  1
STANDARD
  0
DICTIONARYVAR
  5
2B0
102
{ACAD_REACTORS
330
2AF
102
}
330
2AF
100
DictionaryVariables
280
     0
  1
STANDARD
  0
DICTIONARYVAR
  5
333
102
{ACAD_REACTORS
330
2AF
102
}
330
2AF
100
DictionaryVariables
280
     0
  1
1
  0
DICTIONARYVAR
  5
332
102
{ACAD_REACTORS
330
2AF
102
}
330
2AF
100
DictionaryVariables
280
     0
  1
0
  0
DICTIONARYVAR
  5
7D3
102
{ACAD_REACTORS
330
2AF
102
}
330
2AF
100
DictionaryVariables
280
     0
  1
1
  0
DICTIONARYVAR
  5
7D4
102
{ACAD_REACTORS
330
2AF
102
}
330
2AF
100
DictionaryVariables
280
     0
  1
15
  0
DICTIONARYVAR
  5
7D2
102
{ACAD_REACTORS
330
2AF
102
}
330
2AF
100
DictionaryVariables
280
     0
  1
0
  0
DICTIONARYVAR
  5
7D1
102
{ACAD_REACTORS
330
2AF
102
}
330
2AF
100
DictionaryVariables
280
     0
  1
0
  0
DICTIONARYVAR
  5
331
102
{ACAD_REACTORS
330
2AF
102
}
330
2AF
100
DictionaryVariables
280
     0
  1
127
  0
DICTIONARYVAR
  5
7DF
102
{ACAD_REACTORS
330
2AF
102
}
330
2AF
100
DictionaryVariables
280
     0
  1
2
  0
DICTIONARY
  5
7E7
330
11
100
AcDbDictionary
280
     1
281
     1
  3
ACAD_XREC_ROUNDTRIP
360
7E8
  0
DICTIONARY
  5
7E5
330
A
100
AcDbDictionary
280
     1
281
     1
  3
ACAD_XREC_ROUNDTRIP
360
7E6
  0
DICTIONARY
  5
2BB
330
2BA
100
AcDbDictionary
280
     1
281
     1
  3
ACAD_XREC_ROUNDTRIP
360
7EB
  3
BUMPTILE
360
2BD
  3
DIFFUSETILE
360
2BC
  3
OPACITYTILE
360
2C0
  3
REFLECTIONTILE
360
2BF
  3
REFRACTIONTILE
360
2C1
  3
SPECULARTILE
360
2BE
  0
DICTIONARY
  5
2B3
330
2B2
100
AcDbDictionary
280
     1
281
     1
  3
ACAD_XREC_ROUNDTRIP
360
7EA
  3
BUMPTILE
360
2B5
  3
DIFFUSETILE
360
2B4
  3
OPACITYTILE
360
2B8
  3
REFLECTIONTILE
360
2B7
  3
REFRACTIONTILE
360
2B9
  3
SPECULARTILE
360
2B6
  0
DICTIONARY
  5
2C3
330
2C2
100
AcDbDictionary
280
     1
281
     1
  3
ACAD_XREC_ROUNDTRIP
360
7EC
  3
BUMPTILE
360
2C5
  3
DIFFUSETILE
360
2C4
  3
OPACITYTILE
360
2C8
  3
REFLECTIONTILE
360
2C7
  3
REFRACTIONTILE
360
2C9
  3
SPECULARTILE
360
2C6
  0
DICTIONARY
  5
317
330
288
100
AcDbDictionary
280
     1
281
     1
  3
ACAD_ROUNDTRIP_2008_TABLESTYLE_CELLSTYLEMAP
360
7E0
  3
ACAD_XREC_ROUNDTRIP
360
7E9
  0
DICTIONARY
  5
7F7
330
2D0
100
AcDbDictionary
280
     1
281
     1
  3
ACAD_XREC_ROUNDTRIP
360
7F8
  0
DICTIONARY
  5
7FB
330
2D2
100
AcDbDictionary
280
     1
281
     1
  3
ACAD_XREC_ROUNDTRIP
360
7FC
  0
DICTIONARY
  5
7F9
330
2D1
100
AcDbDictionary
280
     1
281
     1
  3
ACAD_XREC_ROUNDTRIP
360
7FA
  0
DICTIONARY
  5
7F5
330
2CF
100
AcDbDictionary
280
     1
281
     1
  3
ACAD_XREC_ROUNDTRIP
360
7F6
  0
DICTIONARY
  5
803
330
2D6
100
AcDbDictionary
280
     1
281
     1
  3
ACAD_XREC_ROUNDTRIP
360
804
  0
DICTIONARY
  5
80B
330
2DA
100
AcDbDictionary
280
     1
281
     1
  3
ACAD_XREC_ROUNDTRIP
360
80C
  0
DICTIONARY
  5
7FD
330
2D3
100
AcDbDictionary
280
     1
281
     1
  3
ACAD_XREC_ROUNDTRIP
360
7FE
  0
DICTIONARY
  5
801
330
2D5
100
AcDbDictionary
280
     1
281
     1
  3
ACAD_XREC_ROUNDTRIP
360
802
  0
DICTIONARY
  5
81F
330
3CF
100
AcDbDictionary
280
     1
281
     1
  3
ACAD_XREC_ROUNDTRIP
360
820
  0
DICTIONARY
  5
809
330
2D9
100
AcDbDictionary
280
     1
281
     1
  3
ACAD_XREC_ROUNDTRIP
360
80A
  0
DICTIONARY
  5
7ED
330
2CB
100
AcDbDictionary
280
     1
281
     1
  3
ACAD_XREC_ROUNDTRIP
360
7EE
  0
DICTIONARY
  5
7EF
330
2CC
100
AcDbDictionary
280
     1
281
     1
  3
ACAD_XREC_ROUNDTRIP
360
7F0
  0
DICTIONARY
  5
7F1
330
2CD
100
AcDbDictionary
280
     1
281
     1
  3
ACAD_XREC_ROUNDTRIP
360
7F2
  0
DICTIONARY
  5
7F3
330
2CE
100
AcDbDictionary
280
     1
281
     1
  3
ACAD_XREC_ROUNDTRIP
360
7F4
  0
DICTIONARY
  5
80F
330
3C7
100
AcDbDictionary
280
     1
281
     1
  3
ACAD_XREC_ROUNDTRIP
360
810
  0
DICTIONARY
  5
81B
330
3CD
100
AcDbDictionary
280
     1
281
     1
  3
ACAD_XREC_ROUNDTRIP
360
81C
  0
DICTIONARY
  5
807
330
2D8
100
AcDbDictionary
280
     1
281
     1
  3
ACAD_XREC_ROUNDTRIP
360
808
  0
DICTIONARY
  5
81D
330
3CE
100
AcDbDictionary
280
     1
281
     1
  3
ACAD_XREC_ROUNDTRIP
360
81E
  0
DICTIONARY
  5
7FF
330
2D4
100
AcDbDictionary
280
     1
281
     1
  3
ACAD_XREC_ROUNDTRIP
360
800
  0
DICTIONARY
  5
819
330
3CC
100
AcDbDictionary
280
     1
281
     1
  3
ACAD_XREC_ROUNDTRIP
360
81A
  0
DICTIONARY
  5
817
330
3CB
100
AcDbDictionary
280
     1
281
     1
  3
ACAD_XREC_ROUNDTRIP
360
818
  0
DICTIONARY
  5
811
330
3C8
100
AcDbDictionary
280
     1
281
     1
  3
ACAD_XREC_ROUNDTRIP
360
812
  0
DICTIONARY
  5
813
330
3C9
100
AcDbDictionary
280
     1
281
     1
  3
ACAD_XREC_ROUNDTRIP
360
814
  0
DICTIONARY
  5
805
330
2D7
100
AcDbDictionary
280
     1
281
     1
  3
ACAD_XREC_ROUNDTRIP
360
806
  0
DICTIONARY
  5
80D
330
3C6
100
AcDbDictionary
280
     1
281
     1
  3
ACAD_XREC_ROUNDTRIP
360
80E
  0
DICTIONARY
  5
815
330
3CA
100
AcDbDictionary
280
     1
281
     1
  3
ACAD_XREC_ROUNDTRIP
360
816
  0
XRECORD
  5
7E8
102
{ACAD_REACTORS
330
7E7
102
}
330
7E7
100
AcDbXrecord
280
     1
102
SHADEPLOT
 70
     0
102
SHADEPLOTRESLEVEL
 70
     2
102
SHADEPLOTCUSTOMDPI
 70
   300
  0
XRECORD
  5
7E6
102
{ACAD_REACTORS
330
7E5
102
}
330
7E5
100
AcDbXrecord
280
     1
102
SHADEPLOT
 70
     0
102
SHADEPLOTRESLEVEL
 70
     2
102
SHADEPLOTCUSTOMDPI
 70
   300
  0
XRECORD
  5
7EB
102
{ACAD_REACTORS
330
2BB
102
}
330
2BB
100
AcDbXrecord
280
     1
102
MATERIAL
148
0.0
149
0.0
149
0.0
 93
        0
 94
      127
282
     0
 72
     0
 77
     0
171
     0
175
     0
179
     0
273
     0
  0
XRECORD
  5
2BD
102
{ACAD_REACTORS
330
2BB
102
}
330
2BB
100
AcDbXrecord
280
     1
270
     1
271
     1
  0
XRECORD
  5
2BC
102
{ACAD_REACTORS
330
2BB
102
}
330
2BB
100
AcDbXrecord
280
     1
270
     1
271
     1
  0
XRECORD
  5
2C0
102
{ACAD_REACTORS
330
2BB
102
}
330
2BB
100
AcDbXrecord
280
     1
270
     1
271
     1
  0
XRECORD
  5
2BF
102
{ACAD_REACTORS
330
2BB
102
}
330
2BB
100
AcDbXrecord
280
     1
270
     1
271
     1
  0
XRECORD
  5
2C1
102
{ACAD_REACTORS
330
2BB
102
}
330
2BB
100
AcDbXrecord
280
     1
270
     1
271
     1
  0
XRECORD
  5
2BE
102
{ACAD_REACTORS
330
2BB
102
}
330
2BB
100
AcDbXrecord
280
     1
270
     1
271
     1
  0
XRECORD
  5
7EA
102
{ACAD_REACTORS
330
2B3
102
}
330
2B3
100
AcDbXrecord
280
     1
102
MATERIAL
148
0.0
149
0.0
149
0.0
 93
        0
 94
      127
282
     0
 72
     0
 77
     0
171
     0
175
     0
179
     0
273
     0
  0
XRECORD
  5
2B5
102
{ACAD_REACTORS
330
2B3
102
}
330
2B3
100
AcDbXrecord
280
     1
270
     1
271
     1
  0
XRECORD
  5
2B4
102
{ACAD_REACTORS
330
2B3
102
}
330
2B3
100
AcDbXrecord
280
     1
270
     1
271
     1
  0
XRECORD
  5
2B8
102
{ACAD_REACTORS
330
2B3
102
}
330
2B3
100
AcDbXrecord
280
     1
270
     1
271
     1
  0
XRECORD
  5
2B7
102
{ACAD_REACTORS
330
2B3
102
}
330
2B3
100
AcDbXrecord
280
     1
270
     1
271
     1
  0
XRECORD
  5
2B9
102
{ACAD_REACTORS
330
2B3
102
}
330
2B3
100
AcDbXrecord
280
     1
270
     1
271
     1
  0
XRECORD
  5
2B6
102
{ACAD_REACTORS
330
2B3
102
}
330
2B3
100
AcDbXrecord
280
     1
270
     1
271
     1
  0
XRECORD
  5
7EC
102
{ACAD_REACTORS
330
2C3
102
}
330
2C3
100
AcDbXrecord
280
     1
102
MATERIAL
148
0.0
149
0.0
149
0.0
 93
        0
 94
      127
282
     0
 72
     0
 77
     0
171
     0
175
     0
179
     0
273
     0
  0
XRECORD
  5
2C5
102
{ACAD_REACTORS
330
2C3
102
}
330
2C3
100
AcDbXrecord
280
     1
270
     1
271
     1
  0
XRECORD
  5
2C4
102
{ACAD_REACTORS
330
2C3
102
}
330
2C3
100
AcDbXrecord
280
     1
270
     1
271
     1
  0
XRECORD
  5
2C8
102
{ACAD_REACTORS
330
2C3
102
}
330
2C3
100
AcDbXrecord
280
     1
270
     1
271
     1
  0
XRECORD
  5
2C7
102
{ACAD_REACTORS
330
2C3
102
}
330
2C3
100
AcDbXrecord
280
     1
270
     1
271
     1
  0
XRECORD
  5
2C9
102
{ACAD_REACTORS
330
2C3
102
}
330
2C3
100
AcDbXrecord
280
     1
270
     1
271
     1
  0
XRECORD
  5
2C6
102
{ACAD_REACTORS
330
2C3
102
}
330
2C3
100
AcDbXrecord
280
     1
270
     1
271
     1
  0
CELLSTYLEMAP
  5
7E0
102
{ACAD_REACTORS
330
317
102
}
330
317
100
AcDbCellStyleMap
 90
        3
300
CELLSTYLE
  1
TABLEFORMAT_BEGIN
 90
        5
170
     1
 91
        0
 92
    32768
 62
   257
 93
        1
300
CONTENTFORMAT
  1
CONTENTFORMAT_BEGIN
 90
        0
 91
        0
 92
        4
 93
        0
300

 40
0.0
140
1.0
 94
        5
 62
     0
340
35
144
0.25
309
CONTENTFORMAT_END
171
     0
 94
        6
 95
        1
302
GRIDFORMAT
  1
GRIDFORMAT_BEGIN
 90
        0
 91
        1
 62
     0
 92
       -2
340
0
 93
        0
 40
0.045
309
GRIDFORMAT_END
 95
        2
302
GRIDFORMAT
  1
GRIDFORMAT_BEGIN
 90
        0
 91
        1
 62
     0
 92
       -2
340
0
 93
        0
 40
0.045
309
GRIDFORMAT_END
 95
        4
302
GRIDFORMAT
  1
GRIDFORMAT_BEGIN
 90
        0
 91
        1
 62
     0
 92
       -2
340
0
 93
        0
 40
0.045
309
GRIDFORMAT_END
 95
        8
302
GRIDFORMAT
  1
GRIDFORMAT_BEGIN
 90
        0
 91
        1
 62
     0
 92
       -2
340
0
 93
        0
 40
0.045
309
GRIDFORMAT_END
 95
       16
302
GRIDFORMAT
  1
GRIDFORMAT_BEGIN
 90
        0
 91
        1
 62
     0
 92
       -2
340
0
 93
        0
 40
0.045
309
GRIDFORMAT_END
 95
       32
302
GRIDFORMAT
  1
GRIDFORMAT_BEGIN
 90
        0
 91
        1
 62
     0
 92
       -2
340
0
 93
        0
 40
0.045
309
GRIDFORMAT_END
309
TABLEFORMAT_END
  1
CELLSTYLE_BEGIN
 90
        1
 91
        1
300
_TITLE
309
CELLSTYLE_END
300
CELLSTYLE
  1
TABLEFORMAT_BEGIN
 90
        5
170
     1
 91
        0
 92
        0
 62
   257
 93
        1
300
CONTENTFORMAT
  1
CONTENTFORMAT_BEGIN
 90
        0
 91
        0
 92
        4
 93
        0
300

 40
0.0
140
1.0
 94
        5
 62
     0
340
35
144
0.18
309
CONTENTFORMAT_END
171
     0
 94
        6
 95
        1
302
GRIDFORMAT
  1
GRIDFORMAT_BEGIN
 90
        0
 91
        1
 62
     0
 92
       -2
340
0
 93
        0
 40
0.045
309
GRIDFORMAT_END
 95
        2
302
GRIDFORMAT
  1
GRIDFORMAT_BEGIN
 90
        0
 91
        1
 62
     0
 92
       -2
340
0
 93
        0
 40
0.045
309
GRIDFORMAT_END
 95
        4
302
GRIDFORMAT
  1
GRIDFORMAT_BEGIN
 90
        0
 91
        1
 62
     0
 92
       -2
340
0
 93
        0
 40
0.045
309
GRIDFORMAT_END
 95
        8
302
GRIDFORMAT
  1
GRIDFORMAT_BEGIN
 90
        0
 91
        1
 62
     0
 92
       -2
340
0
 93
        0
 40
0.045
309
GRIDFORMAT_END
 95
       16
302
GRIDFORMAT
  1
GRIDFORMAT_BEGIN
 90
        0
 91
        1
 62
     0
 92
       -2
340
0
 93
        0
 40
0.045
309
GRIDFORMAT_END
 95
       32
302
GRIDFORMAT
  1
GRIDFORMAT_BEGIN
 90
        0
 91
        1
 62
     0
 92
       -2
340
0
 93
        0
 40
0.045
309
GRIDFORMAT_END
309
TABLEFORMAT_END
  1
CELLSTYLE_BEGIN
 90
        2
 91
        1
300
_HEADER
309
CELLSTYLE_END
300
CELLSTYLE
  1
TABLEFORMAT_BEGIN
 90
        5
170
     1
 91
        0
 92
        0
 62
   257
 93
        1
300
CONTENTFORMAT
  1
CONTENTFORMAT_BEGIN
 90
        0
 91
        0
 92
        4
 93
        0
300

 40
0.0
140
1.0
 94
        2
 62
     0
340
35
144
0.18
309
CONTENTFORMAT_END
171
     0
 94
        6
 95
        1
302
GRIDFORMAT
  1
GRIDFORMAT_BEGIN
 90
        0
 91
        1
 62
     0
 92
       -2
340
0
 93
        0
 40
0.045
309
GRIDFORMAT_END
 95
        2
302
GRIDFORMAT
  1
GRIDFORMAT_BEGIN
 90
        0
 91
        1
 62
     0
 92
       -2
340
0
 93
        0
 40
0.045
309
GRIDFORMAT_END
 95
        4
302
GRIDFORMAT
  1
GRIDFORMAT_BEGIN
 90
        0
 91
        1
 62
     0
 92
       -2
340
0
 93
        0
 40
0.045
309
GRIDFORMAT_END
 95
        8
302
GRIDFORMAT
  1
GRIDFORMAT_BEGIN
 90
        0
 91
        1
 62
     0
 92
       -2
340
0
 93
        0
 40
0.045
309
GRIDFORMAT_END
 95
       16
302
GRIDFORMAT
  1
GRIDFORMAT_BEGIN
 90
        0
 91
        1
 62
     0
 92
       -2
340
0
 93
        0
 40
0.045
309
GRIDFORMAT_END
 95
       32
302
GRIDFORMAT
  1
GRIDFORMAT_BEGIN
 90
        0
 91
        1
 62
     0
 92
       -2
340
0
 93
        0
 40
0.045
309
GRIDFORMAT_END
309
TABLEFORMAT_END
  1
CELLSTYLE_BEGIN
 90
        3
 91
        2
300
_DATA
309
CELLSTYLE_END
  0
XRECORD
  5
7E9
102
{ACAD_REACTORS
330
317
102
}
330
317
100
AcDbXrecord
280
     1
102
ACAD_ROUNDTRIP_PRE2007_TABLESTYLE
 90
        4
 91
        0
  1

 92
        4
 93
        0
  2

 94
        4
 95
        0
  3

  0
XRECORD
  5
7F8
102
{ACAD_REACTORS
330
7F7
102
}
330
7F7
100
AcDbXrecord
280
     1
102
RTVSPropertyOp0
 70
     1
102
RTVSPropertyOp1
 70
     1
102
RTVSPropertyOp2
 70
     1
102
RTVSPropertyOp3
 70
     1
102
RTVSPropertyOp4
 70
     1
102
RTVSPropertyOp5
 70
     1
102
RTVSPropertyOp6
 70
     1
102
RTVSPropertyOp7
 70
     1
102
RTVSPropertyOp8
 70
     1
102
RTVSPropertyOp9
 70
     1
102
RTVSPropertyOp10
 70
     1
102
RTVSPropertyOp11
 70
     1
102
RTVSPropertyOp12
 70
     1
102
RTVSPropertyOp13
 70
     1
102
RTVSPropertyOp14
 70
     1
102
RTVSPropertyOp15
 70
     1
102
RTVSPropertyOp16
 70
     1
102
RTVSPropertyOp17
 70
     1
102
RTVSPropertyOp18
 70
     1
102
RTVSPropertyOp19
 70
     1
102
RTVSPropertyOp20
 70
     1
102
RTVSPropertyOp21
 70
     1
102
RTVSPropertyOp22
 70
     1
102
RTVSPropertyOp23
 70
     1
102
RTVSPropertyOp24
 70
     1
102
RTVSPropertyOp25
 70
     1
102
RTVSPropertyOp26
 70
     1
102
RTVSPropertyOp27
 70
     1
102
RTVSPropertyOp28
 70
     1
102
RTVSPropertyOp29
 70
     1
102
RTVSPropertyOp30
 70
     1
102
RTVSPropertyOp31
 70
     1
102
RTVSPropertyOp32
 70
     1
  0
XRECORD
  5
7FC
102
{ACAD_REACTORS
330
7FB
102
}
330
7FB
100
AcDbXrecord
280
     1
102
RTVSPropertyOp0
 70
     1
102
RTVSPropertyOp1
 70
     1
102
RTVSPropertyOp2
 70
     1
102
RTVSPropertyOp3
 70
     1
102
RTVSPropertyOp4
 70
     1
102
RTVSPropertyOp5
 70
     1
102
RTVSPropertyOp6
 70
     1
102
RTVSPropertyOp7
 70
     1
102
RTVSPropertyOp8
 70
     1
102
RTVSPropertyOp9
 70
     1
102
RTVSPropertyOp10
 70
     1
102
RTVSPropertyOp11
 70
     1
102
RTVSPropertyOp12
 70
     1
102
RTVSPropertyOp13
 70
     1
102
RTVSPropertyOp14
 70
     1
102
RTVSPropertyOp15
 70
     1
102
RTVSPropertyOp16
 70
     1
102
RTVSPropertyOp17
 70
     1
102
RTVSPropertyOp18
 70
     1
102
RTVSPropertyOp19
 70
     1
102
RTVSPropertyOp20
 70
     1
102
RTVSPropertyOp21
 70
     1
102
RTVSPropertyOp22
 70
     1
102
RTVSPropertyOp23
 70
     1
102
RTVSPropertyOp24
 70
     1
102
RTVSPropertyOp25
 70
     1
102
RTVSPropertyOp26
 70
     1
102
RTVSPropertyOp27
 70
     1
102
RTVSPropertyOp28
 70
     1
102
RTVSPropertyOp29
 70
     1
102
RTVSPropertyOp30
 70
     1
102
RTVSPropertyOp31
 70
     1
102
RTVSPropertyOp32
 70
     1
  0
XRECORD
  5
7FA
102
{ACAD_REACTORS
330
7F9
102
}
330
7F9
100
AcDbXrecord
280
     1
102
RTVSPropertyOp0
 70
     1
102
RTVSPropertyOp1
 70
     1
102
RTVSPropertyOp2
 70
     1
102
RTVSPropertyOp3
 70
     1
102
RTVSPropertyOp4
 70
     1
102
RTVSPropertyOp5
 70
     1
102
RTVSPropertyOp6
 70
     1
102
RTVSPropertyOp7
 70
     1
102
RTVSPropertyOp8
 70
     1
102
RTVSPropertyOp9
 70
     1
102
RTVSPropertyOp10
 70
     1
102
RTVSPropertyOp11
 70
     1
102
RTVSPropertyOp12
 70
     1
102
RTVSPropertyOp13
 70
     1
102
RTVSPropertyOp14
 70
     1
102
RTVSPropertyOp15
 70
     1
102
RTVSPropertyOp16
 70
     1
102
RTVSPropertyOp17
 70
     1
102
RTVSPropertyOp18
 70
     1
102
RTVSPropertyOp19
 70
     1
102
RTVSPropertyOp20
 70
     1
102
RTVSPropertyOp21
 70
     1
102
RTVSPropertyOp22
 70
     1
102
RTVSPropertyOp23
 70
     1
102
RTVSPropertyOp24
 70
     1
102
RTVSPropertyOp25
 70
     1
102
RTVSPropertyOp26
 70
     1
102
RTVSPropertyOp27
 70
     1
102
RTVSPropertyOp28
 70
     1
102
RTVSPropertyOp29
 70
     1
102
RTVSPropertyOp30
 70
     1
102
RTVSPropertyOp31
 70
     1
102
RTVSPropertyOp32
 70
     1
  0
XRECORD
  5
7F6
102
{ACAD_REACTORS
330
7F5
102
}
330
7F5
100
AcDbXrecord
280
     1
102
RTVSPropertyOp0
 70
     1
102
RTVSPropertyOp1
 70
     1
102
RTVSPropertyOp2
 70
     1
102
RTVSPropertyOp3
 70
     1
102
RTVSPropertyOp4
 70
     1
102
RTVSPropertyOp5
 70
     1
102
RTVSPropertyOp6
 70
     1
102
RTVSPropertyOp7
 70
     1
102
RTVSPropertyOp8
 70
     1
102
RTVSPropertyOp9
 70
     1
102
RTVSPropertyOp10
 70
     1
102
RTVSPropertyOp11
 70
     1
102
RTVSPropertyOp12
 70
     1
102
RTVSPropertyOp13
 70
     1
102
RTVSPropertyOp14
 70
     1
102
RTVSPropertyOp15
 70
     1
102
RTVSPropertyOp16
 70
     1
102
RTVSPropertyOp17
 70
     1
102
RTVSPropertyOp18
 70
     1
102
RTVSPropertyOp19
 70
     1
102
RTVSPropertyOp20
 70
     1
102
RTVSPropertyOp21
 70
     1
102
RTVSPropertyOp22
 70
     1
102
RTVSPropertyOp23
 70
     1
102
RTVSPropertyOp24
 70
     1
102
RTVSPropertyOp25
 70
     1
102
RTVSPropertyOp26
 70
     1
102
RTVSPropertyOp27
 70
     1
102
RTVSPropertyOp28
 70
     1
102
RTVSPropertyOp29
 70
     1
102
RTVSPropertyOp30
 70
     1
102
RTVSPropertyOp31
 70
     1
102
RTVSPropertyOp32
 70
     1
  0
XRECORD
  5
804
102
{ACAD_REACTORS
330
803
102
}
330
803
100
AcDbXrecord
280
     1
102
RTVSPropertyOp0
 70
     1
102
RTVSPropertyOp1
 70
     1
102
RTVSPropertyOp2
 70
     1
102
RTVSPropertyOp3
 70
     1
102
RTVSPropertyOp4
 70
     1
102
RTVSPropertyOp5
 70
     1
102
RTVSPropertyOp6
 70
     1
102
RTVSPropertyOp7
 70
     1
102
RTVSPropertyOp8
 70
     1
102
RTVSPropertyOp9
 70
     1
102
RTVSPropertyOp10
 70
     1
102
RTVSPropertyOp11
 70
     1
102
RTVSPropertyOp12
 70
     1
102
RTVSPropertyOp13
 70
     1
102
RTVSPropertyOp14
 70
     1
102
RTVSPropertyOp15
 70
     1
102
RTVSPropertyOp16
 70
     1
102
RTVSPropertyOp17
 70
     1
102
RTVSPropertyOp18
 70
     1
102
RTVSPropertyOp19
 70
     1
102
RTVSPropertyOp20
 70
     1
102
RTVSPropertyOp21
 70
     1
102
RTVSPropertyOp22
 70
     1
102
RTVSPropertyOp23
 70
     1
102
RTVSPropertyOp24
 70
     1
102
RTVSPropertyOp25
 70
     1
102
RTVSPropertyOp26
 70
     1
102
RTVSPropertyOp27
 70
     1
102
RTVSPropertyOp28
 70
     1
102
RTVSPropertyOp29
 70
     1
102
RTVSPropertyOp30
 70
     1
102
RTVSPropertyOp31
 70
     1
102
RTVSPropertyOp32
 70
     1
  0
XRECORD
  5
80C
102
{ACAD_REACTORS
330
80B
102
}
330
80B
100
AcDbXrecord
280
     1
102
RTVSPropertyOp0
 70
     1
102
RTVSPropertyOp1
 70
     1
102
RTVSPropertyOp2
 70
     1
102
RTVSPropertyOp3
 70
     1
102
RTVSPropertyOp4
 70
     1
102
RTVSPropertyOp5
 70
     1
102
RTVSPropertyOp6
 70
     1
102
RTVSPropertyOp7
 70
     1
102
RTVSPropertyOp8
 70
     1
102
RTVSPropertyOp9
 70
     1
102
RTVSPropertyOp10
 70
     1
102
RTVSPropertyOp11
 70
     1
102
RTVSPropertyOp12
 70
     1
102
RTVSPropertyOp13
 70
     1
102
RTVSPropertyOp14
 70
     1
102
RTVSPropertyOp15
 70
     1
102
RTVSPropertyOp16
 70
     1
102
RTVSPropertyOp17
 70
     1
102
RTVSPropertyOp18
 70
     1
102
RTVSPropertyOp19
 70
     1
102
RTVSPropertyOp20
 70
     1
102
RTVSPropertyOp21
 70
     1
102
RTVSPropertyOp22
 70
     1
102
RTVSPropertyOp23
 70
     1
102
RTVSPropertyOp24
 70
     1
102
RTVSPropertyOp25
 70
     1
102
RTVSPropertyOp26
 70
     1
102
RTVSPropertyOp27
 70
     1
102
RTVSPropertyOp28
 70
     1
102
RTVSPropertyOp29
 70
     1
102
RTVSPropertyOp30
 70
     1
102
RTVSPropertyOp31
 70
     1
102
RTVSPropertyOp32
 70
     1
  0
XRECORD
  5
7FE
102
{ACAD_REACTORS
330
7FD
102
}
330
7FD
100
AcDbXrecord
280
     1
102
RTVSPropertyOp0
 70
     1
102
RTVSPropertyOp1
 70
     1
102
RTVSPropertyOp2
 70
     1
102
RTVSPropertyOp3
 70
     1
102
RTVSPropertyOp4
 70
     1
102
RTVSPropertyOp5
 70
     1
102
RTVSPropertyOp6
 70
     1
102
RTVSPropertyOp7
 70
     1
102
RTVSPropertyOp8
 70
     1
102
RTVSPropertyOp9
 70
     1
102
RTVSPropertyOp10
 70
     1
102
RTVSPropertyOp11
 70
     1
102
RTVSPropertyOp12
 70
     1
102
RTVSPropertyOp13
 70
     1
102
RTVSPropertyOp14
 70
     1
102
RTVSPropertyOp15
 70
     1
102
RTVSPropertyOp16
 70
     1
102
RTVSPropertyOp17
 70
     1
102
RTVSPropertyOp18
 70
     1
102
RTVSPropertyOp19
 70
     1
102
RTVSPropertyOp20
 70
     1
102
RTVSPropertyOp21
 70
     1
102
RTVSPropertyOp22
 70
     1
102
RTVSPropertyOp23
 70
     1
102
RTVSPropertyOp24
 70
     1
102
RTVSPropertyOp25
 70
     1
102
RTVSPropertyOp26
 70
     1
102
RTVSPropertyOp27
 70
     1
102
RTVSPropertyOp28
 70
     1
102
RTVSPropertyOp29
 70
     1
102
RTVSPropertyOp30
 70
     1
102
RTVSPropertyOp31
 70
     1
102
RTVSPropertyOp32
 70
     1
  0
XRECORD
  5
802
102
{ACAD_REACTORS
330
801
102
}
330
801
100
AcDbXrecord
280
     1
102
RTVSPropertyOp0
 70
     1
102
RTVSPropertyOp1
 70
     1
102
RTVSPropertyOp2
 70
     1
102
RTVSPropertyOp3
 70
     1
102
RTVSPropertyOp4
 70
     1
102
RTVSPropertyOp5
 70
     1
102
RTVSPropertyOp6
 70
     1
102
RTVSPropertyOp7
 70
     1
102
RTVSPropertyOp8
 70
     1
102
RTVSPropertyOp9
 70
     1
102
RTVSPropertyOp10
 70
     1
102
RTVSPropertyOp11
 70
     1
102
RTVSPropertyOp12
 70
     1
102
RTVSPropertyOp13
 70
     1
102
RTVSPropertyOp14
 70
     1
102
RTVSPropertyOp15
 70
     1
102
RTVSPropertyOp16
 70
     1
102
RTVSPropertyOp17
 70
     1
102
RTVSPropertyOp18
 70
     1
102
RTVSPropertyOp19
 70
     1
102
RTVSPropertyOp20
 70
     1
102
RTVSPropertyOp21
 70
     1
102
RTVSPropertyOp22
 70
     1
102
RTVSPropertyOp23
 70
     1
102
RTVSPropertyOp24
 70
     1
102
RTVSPropertyOp25
 70
     1
102
RTVSPropertyOp26
 70
     1
102
RTVSPropertyOp27
 70
     1
102
RTVSPropertyOp28
 70
     1
102
RTVSPropertyOp29
 70
     1
102
RTVSPropertyOp30
 70
     1
102
RTVSPropertyOp31
 70
     1
102
RTVSPropertyOp32
 70
     1
  0
XRECORD
  5
820
102
{ACAD_REACTORS
330
81F
102
}
330
81F
100
AcDbXrecord
280
     1
102
RTVSPropertyOp0
 70
     0
102
RTVSPropertyOp1
 70
     0
102
RTVSPropertyOp2
 70
     0
102
RTVSPropertyOp3
 70
     0
102
RTVSPropertyOp4
 70
     0
102
RTVSPropertyOp5
 70
     0
102
RTVSPropertyOp6
 70
     0
102
RTVSPropertyOp7
 70
     0
102
RTVSPropertyOp8
 70
     0
102
RTVSPropertyOp9
 70
     0
102
RTVSPropertyOp10
 70
     0
102
RTVSPropertyOp11
 70
     0
102
RTVSPropertyOp12
 70
     0
102
RTVSPropertyOp13
 70
     0
102
RTVSPropertyOp14
 70
     2
102
RTVSPropertyOp15
 70
     0
102
RTVSPropertyOp16
 70
     0
102
RTVSPropertyOp17
 70
     0
102
RTVSPropertyOp18
 70
     0
102
RTVSPropertyOp19
 70
     0
102
RTVSPropertyOp20
 70
     0
102
RTVSPropertyOp21
 70
     0
102
RTVSPropertyOp22
 70
     0
102
RTVSPropertyOp23
 70
     0
102
RTVSPropertyOp24
 70
     0
102
RTVSPropertyOp25
 70
     0
102
RTVSPropertyOp26
 70
     0
102
RTVSPropertyOp27
 70
     0
102
RTVSPropertyOp28
 70
     1
102
RTVSPropertyOp29
 70
     1
102
RTVSPropertyOp30
 70
     1
102
RTVSPropertyOp31
 70
     1
102
RTVSPropertyOp32
 70
     1
  0
XRECORD
  5
80A
102
{ACAD_REACTORS
330
809
102
}
330
809
100
AcDbXrecord
280
     1
102
RTVSPropertyOp0
 70
     1
102
RTVSPropertyOp1
 70
     1
102
RTVSPropertyOp2
 70
     1
102
RTVSPropertyOp3
 70
     1
102
RTVSPropertyOp4
 70
     1
102
RTVSPropertyOp5
 70
     1
102
RTVSPropertyOp6
 70
     1
102
RTVSPropertyOp7
 70
     1
102
RTVSPropertyOp8
 70
     1
102
RTVSPropertyOp9
 70
     1
102
RTVSPropertyOp10
 70
     1
102
RTVSPropertyOp11
 70
     1
102
RTVSPropertyOp12
 70
     1
102
RTVSPropertyOp13
 70
     1
102
RTVSPropertyOp14
 70
     1
102
RTVSPropertyOp15
 70
     1
102
RTVSPropertyOp16
 70
     1
102
RTVSPropertyOp17
 70
     1
102
RTVSPropertyOp18
 70
     1
102
RTVSPropertyOp19
 70
     1
102
RTVSPropertyOp20
 70
     1
102
RTVSPropertyOp21
 70
     1
102
RTVSPropertyOp22
 70
     1
102
RTVSPropertyOp23
 70
     1
102
RTVSPropertyOp24
 70
     1
102
RTVSPropertyOp25
 70
     1
102
RTVSPropertyOp26
 70
     1
102
RTVSPropertyOp27
 70
     1
102
RTVSPropertyOp28
 70
     1
102
RTVSPropertyOp29
 70
     1
102
RTVSPropertyOp30
 70
     1
102
RTVSPropertyOp31
 70
     1
102
RTVSPropertyOp32
 70
     1
  0
XRECORD
  5
7EE
102
{ACAD_REACTORS
330
7ED
102
}
330
7ED
100
AcDbXrecord
280
     1
102
RTVSPropertyOp0
 70
     1
102
RTVSPropertyOp1
 70
     1
102
RTVSPropertyOp2
 70
     1
102
RTVSPropertyOp3
 70
     1
102
RTVSPropertyOp4
 70
     1
102
RTVSPropertyOp5
 70
     1
102
RTVSPropertyOp6
 70
     1
102
RTVSPropertyOp7
 70
     1
102
RTVSPropertyOp8
 70
     1
102
RTVSPropertyOp9
 70
     1
102
RTVSPropertyOp10
 70
     1
102
RTVSPropertyOp11
 70
     1
102
RTVSPropertyOp12
 70
     1
102
RTVSPropertyOp13
 70
     1
102
RTVSPropertyOp14
 70
     1
102
RTVSPropertyOp15
 70
     1
102
RTVSPropertyOp16
 70
     1
102
RTVSPropertyOp17
 70
     1
102
RTVSPropertyOp18
 70
     1
102
RTVSPropertyOp19
 70
     1
102
RTVSPropertyOp20
 70
     1
102
RTVSPropertyOp21
 70
     1
102
RTVSPropertyOp22
 70
     1
102
RTVSPropertyOp23
 70
     1
102
RTVSPropertyOp24
 70
     1
102
RTVSPropertyOp25
 70
     1
102
RTVSPropertyOp26
 70
     1
102
RTVSPropertyOp27
 70
     1
102
RTVSPropertyOp28
 70
     1
102
RTVSPropertyOp29
 70
     1
102
RTVSPropertyOp30
 70
     1
102
RTVSPropertyOp31
 70
     1
102
RTVSPropertyOp32
 70
     1
  0
XRECORD
  5
7F0
102
{ACAD_REACTORS
330
7EF
102
}
330
7EF
100
AcDbXrecord
280
     1
102
RTVSPropertyOp0
 70
     1
102
RTVSPropertyOp1
 70
     1
102
RTVSPropertyOp2
 70
     1
102
RTVSPropertyOp3
 70
     1
102
RTVSPropertyOp4
 70
     1
102
RTVSPropertyOp5
 70
     1
102
RTVSPropertyOp6
 70
     1
102
RTVSPropertyOp7
 70
     1
102
RTVSPropertyOp8
 70
     1
102
RTVSPropertyOp9
 70
     1
102
RTVSPropertyOp10
 70
     1
102
RTVSPropertyOp11
 70
     1
102
RTVSPropertyOp12
 70
     1
102
RTVSPropertyOp13
 70
     1
102
RTVSPropertyOp14
 70
     1
102
RTVSPropertyOp15
 70
     1
102
RTVSPropertyOp16
 70
     1
102
RTVSPropertyOp17
 70
     1
102
RTVSPropertyOp18
 70
     1
102
RTVSPropertyOp19
 70
     1
102
RTVSPropertyOp20
 70
     1
102
RTVSPropertyOp21
 70
     1
102
RTVSPropertyOp22
 70
     1
102
RTVSPropertyOp23
 70
     1
102
RTVSPropertyOp24
 70
     1
102
RTVSPropertyOp25
 70
     1
102
RTVSPropertyOp26
 70
     1
102
RTVSPropertyOp27
 70
     1
102
RTVSPropertyOp28
 70
     1
102
RTVSPropertyOp29
 70
     1
102
RTVSPropertyOp30
 70
     1
102
RTVSPropertyOp31
 70
     1
102
RTVSPropertyOp32
 70
     1
  0
XRECORD
  5
7F2
102
{ACAD_REACTORS
330
7F1
102
}
330
7F1
100
AcDbXrecord
280
     1
102
RTVSPropertyOp0
 70
     1
102
RTVSPropertyOp1
 70
     1
102
RTVSPropertyOp2
 70
     1
102
RTVSPropertyOp3
 70
     1
102
RTVSPropertyOp4
 70
     1
102
RTVSPropertyOp5
 70
     1
102
RTVSPropertyOp6
 70
     1
102
RTVSPropertyOp7
 70
     1
102
RTVSPropertyOp8
 70
     1
102
RTVSPropertyOp9
 70
     1
102
RTVSPropertyOp10
 70
     1
102
RTVSPropertyOp11
 70
     1
102
RTVSPropertyOp12
 70
     1
102
RTVSPropertyOp13
 70
     1
102
RTVSPropertyOp14
 70
     1
102
RTVSPropertyOp15
 70
     1
102
RTVSPropertyOp16
 70
     1
102
RTVSPropertyOp17
 70
     1
102
RTVSPropertyOp18
 70
     1
102
RTVSPropertyOp19
 70
     1
102
RTVSPropertyOp20
 70
     1
102
RTVSPropertyOp21
 70
     1
102
RTVSPropertyOp22
 70
     1
102
RTVSPropertyOp23
 70
     1
102
RTVSPropertyOp24
 70
     1
102
RTVSPropertyOp25
 70
     1
102
RTVSPropertyOp26
 70
     1
102
RTVSPropertyOp27
 70
     1
102
RTVSPropertyOp28
 70
     1
102
RTVSPropertyOp29
 70
     1
102
RTVSPropertyOp30
 70
     1
102
RTVSPropertyOp31
 70
     1
102
RTVSPropertyOp32
 70
     1
  0
XRECORD
  5
7F4
102
{ACAD_REACTORS
330
7F3
102
}
330
7F3
100
AcDbXrecord
280
     1
102
RTVSPropertyOp0
 70
     1
102
RTVSPropertyOp1
 70
     1
102
RTVSPropertyOp2
 70
     1
102
RTVSPropertyOp3
 70
     1
102
RTVSPropertyOp4
 70
     1
102
RTVSPropertyOp5
 70
     1
102
RTVSPropertyOp6
 70
     1
102
RTVSPropertyOp7
 70
     1
102
RTVSPropertyOp8
 70
     1
102
RTVSPropertyOp9
 70
     1
102
RTVSPropertyOp10
 70
     1
102
RTVSPropertyOp11
 70
     1
102
RTVSPropertyOp12
 70
     1
102
RTVSPropertyOp13
 70
     1
102
RTVSPropertyOp14
 70
     1
102
RTVSPropertyOp15
 70
     1
102
RTVSPropertyOp16
 70
     1
102
RTVSPropertyOp17
 70
     1
102
RTVSPropertyOp18
 70
     1
102
RTVSPropertyOp19
 70
     1
102
RTVSPropertyOp20
 70
     1
102
RTVSPropertyOp21
 70
     1
102
RTVSPropertyOp22
 70
     1
102
RTVSPropertyOp23
 70
     1
102
RTVSPropertyOp24
 70
     1
102
RTVSPropertyOp25
 70
     1
102
RTVSPropertyOp26
 70
     1
102
RTVSPropertyOp27
 70
     1
102
RTVSPropertyOp28
 70
     1
102
RTVSPropertyOp29
 70
     1
102
RTVSPropertyOp30
 70
     1
102
RTVSPropertyOp31
 70
     1
102
RTVSPropertyOp32
 70
     1
  0
XRECORD
  5
810
102
{ACAD_REACTORS
330
80F
102
}
330
80F
100
AcDbXrecord
280
     1
102
RTVSPropertyOp0
 70
     1
102
RTVSPropertyOp1
 70
     1
102
RTVSPropertyOp2
 70
     1
102
RTVSPropertyOp3
 70
     1
102
RTVSPropertyOp4
 70
     1
102
RTVSPropertyOp5
 70
     1
102
RTVSPropertyOp6
 70
     1
102
RTVSPropertyOp7
 70
     1
102
RTVSPropertyOp8
 70
     1
102
RTVSPropertyOp9
 70
     1
102
RTVSPropertyOp10
 70
     1
102
RTVSPropertyOp11
 70
     1
102
RTVSPropertyOp12
 70
     1
102
RTVSPropertyOp13
 70
     1
102
RTVSPropertyOp14
 70
     1
102
RTVSPropertyOp15
 70
     1
102
RTVSPropertyOp16
 70
     1
102
RTVSPropertyOp17
 70
     1
102
RTVSPropertyOp18
 70
     1
102
RTVSPropertyOp19
 70
     1
102
RTVSPropertyOp20
 70
     1
102
RTVSPropertyOp21
 70
     1
102
RTVSPropertyOp22
 70
     1
102
RTVSPropertyOp23
 70
     1
102
RTVSPropertyOp24
 70
     1
102
RTVSPropertyOp25
 70
     1
102
RTVSPropertyOp26
 70
     1
102
RTVSPropertyOp27
 70
     1
102
RTVSPropertyOp28
 70
     1
102
RTVSPropertyOp29
 70
     1
102
RTVSPropertyOp30
 70
     1
102
RTVSPropertyOp31
 70
     1
102
RTVSPropertyOp32
 70
     1
  0
XRECORD
  5
81C
102
{ACAD_REACTORS
330
81B
102
}
330
81B
100
AcDbXrecord
280
     1
102
RTVSPropertyOp0
 70
     0
102
RTVSPropertyOp1
 70
     0
102
RTVSPropertyOp2
 70
     0
102
RTVSPropertyOp3
 70
     0
102
RTVSPropertyOp4
 70
     0
102
RTVSPropertyOp5
 70
     0
102
RTVSPropertyOp6
 70
     0
102
RTVSPropertyOp7
 70
     0
102
RTVSPropertyOp8
 70
     0
102
RTVSPropertyOp9
 70
     0
102
RTVSPropertyOp10
 70
     0
102
RTVSPropertyOp11
 70
     0
102
RTVSPropertyOp12
 70
     0
102
RTVSPropertyOp13
 70
     0
102
RTVSPropertyOp14
 70
     2
102
RTVSPropertyOp15
 70
     0
102
RTVSPropertyOp16
 70
     0
102
RTVSPropertyOp17
 70
     0
102
RTVSPropertyOp18
 70
     0
102
RTVSPropertyOp19
 70
     0
102
RTVSPropertyOp20
 70
     0
102
RTVSPropertyOp21
 70
     0
102
RTVSPropertyOp22
 70
     0
102
RTVSPropertyOp23
 70
     0
102
RTVSPropertyOp24
 70
     0
102
RTVSPropertyOp25
 70
     0
102
RTVSPropertyOp26
 70
     0
102
RTVSPropertyOp27
 70
     0
102
RTVSPropertyOp28
 70
     1
102
RTVSPropertyOp29
 70
     1
102
RTVSPropertyOp30
 70
     1
102
RTVSPropertyOp31
 70
     1
102
RTVSPropertyOp32
 70
     1
  0
XRECORD
  5
808
102
{ACAD_REACTORS
330
807
102
}
330
807
100
AcDbXrecord
280
     1
102
RTVSPropertyOp0
 70
     1
102
RTVSPropertyOp1
 70
     1
102
RTVSPropertyOp2
 70
     1
102
RTVSPropertyOp3
 70
     1
102
RTVSPropertyOp4
 70
     1
102
RTVSPropertyOp5
 70
     1
102
RTVSPropertyOp6
 70
     1
102
RTVSPropertyOp7
 70
     1
102
RTVSPropertyOp8
 70
     1
102
RTVSPropertyOp9
 70
     1
102
RTVSPropertyOp10
 70
     1
102
RTVSPropertyOp11
 70
     1
102
RTVSPropertyOp12
 70
     1
102
RTVSPropertyOp13
 70
     1
102
RTVSPropertyOp14
 70
     1
102
RTVSPropertyOp15
 70
     1
102
RTVSPropertyOp16
 70
     1
102
RTVSPropertyOp17
 70
     1
102
RTVSPropertyOp18
 70
     1
102
RTVSPropertyOp19
 70
     1
102
RTVSPropertyOp20
 70
     1
102
RTVSPropertyOp21
 70
     1
102
RTVSPropertyOp22
 70
     1
102
RTVSPropertyOp23
 70
     1
102
RTVSPropertyOp24
 70
     1
102
RTVSPropertyOp25
 70
     1
102
RTVSPropertyOp26
 70
     1
102
RTVSPropertyOp27
 70
     1
102
RTVSPropertyOp28
 70
     1
102
RTVSPropertyOp29
 70
     1
102
RTVSPropertyOp30
 70
     1
102
RTVSPropertyOp31
 70
     1
102
RTVSPropertyOp32
 70
     1
  0
XRECORD
  5
81E
102
{ACAD_REACTORS
330
81D
102
}
330
81D
100
AcDbXrecord
280
     1
102
RTVSPropertyOp0
 70
     0
102
RTVSPropertyOp1
 70
     0
102
RTVSPropertyOp2
 70
     0
102
RTVSPropertyOp3
 70
     0
102
RTVSPropertyOp4
 70
     0
102
RTVSPropertyOp5
 70
     0
102
RTVSPropertyOp6
 70
     0
102
RTVSPropertyOp7
 70
     0
102
RTVSPropertyOp8
 70
     0
102
RTVSPropertyOp9
 70
     0
102
RTVSPropertyOp10
 70
     0
102
RTVSPropertyOp11
 70
     0
102
RTVSPropertyOp12
 70
     0
102
RTVSPropertyOp13
 70
     0
102
RTVSPropertyOp14
 70
     2
102
RTVSPropertyOp15
 70
     0
102
RTVSPropertyOp16
 70
     0
102
RTVSPropertyOp17
 70
     0
102
RTVSPropertyOp18
 70
     0
102
RTVSPropertyOp19
 70
     0
102
RTVSPropertyOp20
 70
     0
102
RTVSPropertyOp21
 70
     0
102
RTVSPropertyOp22
 70
     0
102
RTVSPropertyOp23
 70
     0
102
RTVSPropertyOp24
 70
     0
102
RTVSPropertyOp25
 70
     0
102
RTVSPropertyOp26
 70
     0
102
RTVSPropertyOp27
 70
     0
102
RTVSPropertyOp28
 70
     1
102
RTVSPropertyOp29
 70
     1
102
RTVSPropertyOp30
 70
     1
102
RTVSPropertyOp31
 70
     1
102
RTVSPropertyOp32
 70
     1
  0
XRECORD
  5
800
102
{ACAD_REACTORS
330
7FF
102
}
330
7FF
100
AcDbXrecord
280
     1
102
RTVSPropertyOp0
 70
     1
102
RTVSPropertyOp1
 70
     1
102
RTVSPropertyOp2
 70
     1
102
RTVSPropertyOp3
 70
     1
102
RTVSPropertyOp4
 70
     1
102
RTVSPropertyOp5
 70
     1
102
RTVSPropertyOp6
 70
     1
102
RTVSPropertyOp7
 70
     1
102
RTVSPropertyOp8
 70
     1
102
RTVSPropertyOp9
 70
     1
102
RTVSPropertyOp10
 70
     1
102
RTVSPropertyOp11
 70
     1
102
RTVSPropertyOp12
 70
     1
102
RTVSPropertyOp13
 70
     1
102
RTVSPropertyOp14
 70
     1
102
RTVSPropertyOp15
 70
     1
102
RTVSPropertyOp16
 70
     1
102
RTVSPropertyOp17
 70
     1
102
RTVSPropertyOp18
 70
     1
102
RTVSPropertyOp19
 70
     1
102
RTVSPropertyOp20
 70
     1
102
RTVSPropertyOp21
 70
     1
102
RTVSPropertyOp22
 70
     1
102
RTVSPropertyOp23
 70
     1
102
RTVSPropertyOp24
 70
     1
102
RTVSPropertyOp25
 70
     1
102
RTVSPropertyOp26
 70
     1
102
RTVSPropertyOp27
 70
     1
102
RTVSPropertyOp28
 70
     1
102
RTVSPropertyOp29
 70
     1
102
RTVSPropertyOp30
 70
     1
102
RTVSPropertyOp31
 70
     1
102
RTVSPropertyOp32
 70
     1
  0
XRECORD
  5
81A
102
{ACAD_REACTORS
330
819
102
}
330
819
100
AcDbXrecord
280
     1
102
RTVSPropertyOp0
 70
     1
102
RTVSPropertyOp1
 70
     1
102
RTVSPropertyOp2
 70
     1
102
RTVSPropertyOp3
 70
     1
102
RTVSPropertyOp4
 70
     1
102
RTVSPropertyOp5
 70
     1
102
RTVSPropertyOp6
 70
     1
102
RTVSPropertyOp7
 70
     1
102
RTVSPropertyOp8
 70
     1
102
RTVSPropertyOp9
 70
     1
102
RTVSPropertyOp10
 70
     1
102
RTVSPropertyOp11
 70
     1
102
RTVSPropertyOp12
 70
     1
102
RTVSPropertyOp13
 70
     1
102
RTVSPropertyOp14
 70
     1
102
RTVSPropertyOp15
 70
     1
102
RTVSPropertyOp16
 70
     1
102
RTVSPropertyOp17
 70
     1
102
RTVSPropertyOp18
 70
     1
102
RTVSPropertyOp19
 70
     1
102
RTVSPropertyOp20
 70
     1
102
RTVSPropertyOp21
 70
     1
102
RTVSPropertyOp22
 70
     1
102
RTVSPropertyOp23
 70
     1
102
RTVSPropertyOp24
 70
     1
102
RTVSPropertyOp25
 70
     1
102
RTVSPropertyOp26
 70
     1
102
RTVSPropertyOp27
 70
     1
102
RTVSPropertyOp28
 70
     1
102
RTVSPropertyOp29
 70
     1
102
RTVSPropertyOp30
 70
     1
102
RTVSPropertyOp31
 70
     1
102
RTVSPropertyOp32
 70
     1
  0
XRECORD
  5
818
102
{ACAD_REACTORS
330
817
102
}
330
817
100
AcDbXrecord
280
     1
102
RTVSPropertyOp0
 70
     1
102
RTVSPropertyOp1
 70
     1
102
RTVSPropertyOp2
 70
     1
102
RTVSPropertyOp3
 70
     1
102
RTVSPropertyOp4
 70
     1
102
RTVSPropertyOp5
 70
     1
102
RTVSPropertyOp6
 70
     1
102
RTVSPropertyOp7
 70
     1
102
RTVSPropertyOp8
 70
     1
102
RTVSPropertyOp9
 70
     1
102
RTVSPropertyOp10
 70
     1
102
RTVSPropertyOp11
 70
     1
102
RTVSPropertyOp12
 70
     1
102
RTVSPropertyOp13
 70
     1
102
RTVSPropertyOp14
 70
     1
102
RTVSPropertyOp15
 70
     1
102
RTVSPropertyOp16
 70
     1
102
RTVSPropertyOp17
 70
     1
102
RTVSPropertyOp18
 70
     1
102
RTVSPropertyOp19
 70
     1
102
RTVSPropertyOp20
 70
     1
102
RTVSPropertyOp21
 70
     1
102
RTVSPropertyOp22
 70
     1
102
RTVSPropertyOp23
 70
     1
102
RTVSPropertyOp24
 70
     1
102
RTVSPropertyOp25
 70
     1
102
RTVSPropertyOp26
 70
     1
102
RTVSPropertyOp27
 70
     1
102
RTVSPropertyOp28
 70
     1
102
RTVSPropertyOp29
 70
     1
102
RTVSPropertyOp30
 70
     1
102
RTVSPropertyOp31
 70
     1
102
RTVSPropertyOp32
 70
     1
  0
XRECORD
  5
812
102
{ACAD_REACTORS
330
811
102
}
330
811
100
AcDbXrecord
280
     1
102
RTVSPropertyOp0
 70
     1
102
RTVSPropertyOp1
 70
     1
102
RTVSPropertyOp2
 70
     1
102
RTVSPropertyOp3
 70
     1
102
RTVSPropertyOp4
 70
     1
102
RTVSPropertyOp5
 70
     1
102
RTVSPropertyOp6
 70
     1
102
RTVSPropertyOp7
 70
     1
102
RTVSPropertyOp8
 70
     1
102
RTVSPropertyOp9
 70
     1
102
RTVSPropertyOp10
 70
     1
102
RTVSPropertyOp11
 70
     1
102
RTVSPropertyOp12
 70
     1
102
RTVSPropertyOp13
 70
     1
102
RTVSPropertyOp14
 70
     1
102
RTVSPropertyOp15
 70
     1
102
RTVSPropertyOp16
 70
     1
102
RTVSPropertyOp17
 70
     1
102
RTVSPropertyOp18
 70
     1
102
RTVSPropertyOp19
 70
     1
102
RTVSPropertyOp20
 70
     1
102
RTVSPropertyOp21
 70
     1
102
RTVSPropertyOp22
 70
     1
102
RTVSPropertyOp23
 70
     1
102
RTVSPropertyOp24
 70
     1
102
RTVSPropertyOp25
 70
     1
102
RTVSPropertyOp26
 70
     1
102
RTVSPropertyOp27
 70
     1
102
RTVSPropertyOp28
 70
     1
102
RTVSPropertyOp29
 70
     1
102
RTVSPropertyOp30
 70
     1
102
RTVSPropertyOp31
 70
     1
102
RTVSPropertyOp32
 70
     1
  0
XRECORD
  5
814
102
{ACAD_REACTORS
330
813
102
}
330
813
100
AcDbXrecord
280
     1
102
RTVSPropertyOp0
 70
     1
102
RTVSPropertyOp1
 70
     1
102
RTVSPropertyOp2
 70
     1
102
RTVSPropertyOp3
 70
     1
102
RTVSPropertyOp4
 70
     1
102
RTVSPropertyOp5
 70
     1
102
RTVSPropertyOp6
 70
     1
102
RTVSPropertyOp7
 70
     1
102
RTVSPropertyOp8
 70
     1
102
RTVSPropertyOp9
 70
     1
102
RTVSPropertyOp10
 70
     1
102
RTVSPropertyOp11
 70
     1
102
RTVSPropertyOp12
 70
     1
102
RTVSPropertyOp13
 70
     1
102
RTVSPropertyOp14
 70
     1
102
RTVSPropertyOp15
 70
     1
102
RTVSPropertyOp16
 70
     1
102
RTVSPropertyOp17
 70
     1
102
RTVSPropertyOp18
 70
     1
102
RTVSPropertyOp19
 70
     1
102
RTVSPropertyOp20
 70
     1
102
RTVSPropertyOp21
 70
     1
102
RTVSPropertyOp22
 70
     1
102
RTVSPropertyOp23
 70
     1
102
RTVSPropertyOp24
 70
     1
102
RTVSPropertyOp25
 70
     1
102
RTVSPropertyOp26
 70
     1
102
RTVSPropertyOp27
 70
     1
102
RTVSPropertyOp28
 70
     1
102
RTVSPropertyOp29
 70
     1
102
RTVSPropertyOp30
 70
     1
102
RTVSPropertyOp31
 70
     1
102
RTVSPropertyOp32
 70
     1
  0
XRECORD
  5
806
102
{ACAD_REACTORS
330
805
102
}
330
805
100
AcDbXrecord
280
     1
102
RTVSPropertyOp0
 70
     1
102
RTVSPropertyOp1
 70
     1
102
RTVSPropertyOp2
 70
     1
102
RTVSPropertyOp3
 70
     1
102
RTVSPropertyOp4
 70
     1
102
RTVSPropertyOp5
 70
     1
102
RTVSPropertyOp6
 70
     1
102
RTVSPropertyOp7
 70
     1
102
RTVSPropertyOp8
 70
     1
102
RTVSPropertyOp9
 70
     1
102
RTVSPropertyOp10
 70
     1
102
RTVSPropertyOp11
 70
     1
102
RTVSPropertyOp12
 70
     1
102
RTVSPropertyOp13
 70
     1
102
RTVSPropertyOp14
 70
     1
102
RTVSPropertyOp15
 70
     1
102
RTVSPropertyOp16
 70
     1
102
RTVSPropertyOp17
 70
     1
102
RTVSPropertyOp18
 70
     1
102
RTVSPropertyOp19
 70
     1
102
RTVSPropertyOp20
 70
     1
102
RTVSPropertyOp21
 70
     1
102
RTVSPropertyOp22
 70
     1
102
RTVSPropertyOp23
 70
     1
102
RTVSPropertyOp24
 70
     1
102
RTVSPropertyOp25
 70
     1
102
RTVSPropertyOp26
 70
     1
102
RTVSPropertyOp27
 70
     1
102
RTVSPropertyOp28
 70
     1
102
RTVSPropertyOp29
 70
     1
102
RTVSPropertyOp30
 70
     1
102
RTVSPropertyOp31
 70
     1
102
RTVSPropertyOp32
 70
     1
  0
XRECORD
  5
80E
102
{ACAD_REACTORS
330
80D
102
}
330
80D
100
AcDbXrecord
280
     1
102
RTVSPropertyOp0
 70
     1
102
RTVSPropertyOp1
 70
     1
102
RTVSPropertyOp2
 70
     1
102
RTVSPropertyOp3
 70
     1
102
RTVSPropertyOp4
 70
     1
102
RTVSPropertyOp5
 70
     1
102
RTVSPropertyOp6
 70
     1
102
RTVSPropertyOp7
 70
     1
102
RTVSPropertyOp8
 70
     1
102
RTVSPropertyOp9
 70
     1
102
RTVSPropertyOp10
 70
     1
102
RTVSPropertyOp11
 70
     1
102
RTVSPropertyOp12
 70
     1
102
RTVSPropertyOp13
 70
     1
102
RTVSPropertyOp14
 70
     1
102
RTVSPropertyOp15
 70
     1
102
RTVSPropertyOp16
 70
     1
102
RTVSPropertyOp17
 70
     1
102
RTVSPropertyOp18
 70
     1
102
RTVSPropertyOp19
 70
     1
102
RTVSPropertyOp20
 70
     1
102
RTVSPropertyOp21
 70
     1
102
RTVSPropertyOp22
 70
     1
102
RTVSPropertyOp23
 70
     1
102
RTVSPropertyOp24
 70
     1
102
RTVSPropertyOp25
 70
     1
102
RTVSPropertyOp26
 70
     1
102
RTVSPropertyOp27
 70
     1
102
RTVSPropertyOp28
 70
     1
102
RTVSPropertyOp29
 70
     1
102
RTVSPropertyOp30
 70
     1
102
RTVSPropertyOp31
 70
     1
102
RTVSPropertyOp32
 70
     1
  0
XRECORD
  5
816
102
{ACAD_REACTORS
330
815
102
}
330
815
100
AcDbXrecord
280
     1
102
RTVSPropertyOp0
 70
     1
102
RTVSPropertyOp1
 70
     1
102
RTVSPropertyOp2
 70
     1
102
RTVSPropertyOp3
 70
     1
102
RTVSPropertyOp4
 70
     1
102
RTVSPropertyOp5
 70
     1
102
RTVSPropertyOp6
 70
     1
102
RTVSPropertyOp7
 70
     1
102
RTVSPropertyOp8
 70
     1
102
RTVSPropertyOp9
 70
     1
102
RTVSPropertyOp10
 70
     1
102
RTVSPropertyOp11
 70
     1
102
RTVSPropertyOp12
 70
     1
102
RTVSPropertyOp13
 70
     1
102
RTVSPropertyOp14
 70
     1
102
RTVSPropertyOp15
 70
     1
102
RTVSPropertyOp16
 70
     1
102
RTVSPropertyOp17
 70
     1
102
RTVSPropertyOp18
 70
     1
102
RTVSPropertyOp19
 70
     1
102
RTVSPropertyOp20
 70
     1
102
RTVSPropertyOp21
 70
     1
102
RTVSPropertyOp22
 70
     1
102
RTVSPropertyOp23
 70
     1
102
RTVSPropertyOp24
 70
     1
102
RTVSPropertyOp25
 70
     1
102
RTVSPropertyOp26
 70
     1
102
RTVSPropertyOp27
 70
     1
102
RTVSPropertyOp28
 70
     1
102
RTVSPropertyOp29
 70
     1
102
RTVSPropertyOp30
 70
     1
102
RTVSPropertyOp31
 70
     1
102
RTVSPropertyOp32
 70
     1
  0
ENDSEC
  0
EOF
